  0
SECTION
  2
HEADER
  9
$ACADVER
  1
AC1018
  9
$ACADMAINTVER
 70
     0
  9
$DWGCODEPAGE
  3
ANSI_936
  9
$INSBASE
 10
0.0
 20
0.0
 30
0.0
  9
$EXTMIN
 10
193.0006879227025
 20
1124.902195855173
 30
0.0
  9
$EXTMAX
 10
525.2141625630093
 20
1482.126157847753
 30
0.0
  9
$LIMMIN
 10
0.0
 20
0.0
  9
$LIMMAX
 10
12.0
 20
9.0
  9
$ORTHOMODE
 70
     0
  9
$REGENMODE
 70
     1
  9
$FILLMODE
 70
     1
  9
$QTEXTMODE
 70
     0
  9
$MIRRTEXT
 70
     1
  9
$LTSCALE
 40
1.0
  9
$ATTMODE
 70
     1
  9
$TEXTSIZE
 40
0.2
  9
$TRACEWID
 40
0.05
  9
$TEXTSTYLE
  7
Standard
  9
$CLAYER
  8
E13963
  9
$CELTYPE
  6
ByLayer
  9
$CECOLOR
 62
   256
  9
$CELTSCALE
 40
1.0
  9
$DISPSILH
 70
     0
  9
$DIMSCALE
 40
1.0
  9
$DIMASZ
 40
0.18
  9
$DIMEXO
 40
0.0625
  9
$DIMDLI
 40
0.38
  9
$DIMRND
 40
0.0
  9
$DIMDLE
 40
0.0
  9
$DIMEXE
 40
0.18
  9
$DIMTP
 40
0.0
  9
$DIMTM
 40
0.0
  9
$DIMTXT
 40
0.18
  9
$DIMCEN
 40
0.09
  9
$DIMTSZ
 40
0.0
  9
$DIMTOL
 70
     0
  9
$DIMLIM
 70
     0
  9
$DIMTIH
 70
     1
  9
$DIMTOH
 70
     1
  9
$DIMSE1
 70
     0
  9
$DIMSE2
 70
     0
  9
$DIMTAD
 70
     0
  9
$DIMZIN
 70
     0
  9
$DIMBLK
  1

  9
$DIMASO
 70
     1
  9
$DIMSHO
 70
     1
  9
$DIMPOST
  1

  9
$DIMAPOST
  1

  9
$DIMALT
 70
     0
  9
$DIMALTD
 70
     2
  9
$DIMALTF
 40
25.4
  9
$DIMLFAC
 40
1.0
  9
$DIMTOFL
 70
     0
  9
$DIMTVP
 40
0.0
  9
$DIMTIX
 70
     0
  9
$DIMSOXD
 70
     0
  9
$DIMSAH
 70
     0
  9
$DIMBLK1
  1

  9
$DIMBLK2
  1

  9
$DIMSTYLE
  2
Standard
  9
$DIMCLRD
 70
     0
  9
$DIMCLRE
 70
     0
  9
$DIMCLRT
 70
     0
  9
$DIMTFAC
 40
1.0
  9
$DIMGAP
 40
0.09
  9
$DIMJUST
 70
     0
  9
$DIMSD1
 70
     0
  9
$DIMSD2
 70
     0
  9
$DIMTOLJ
 70
     1
  9
$DIMTZIN
 70
     0
  9
$DIMALTZ
 70
     0
  9
$DIMALTTZ
 70
     0
  9
$DIMUPT
 70
     0
  9
$DIMDEC
 70
     4
  9
$DIMTDEC
 70
     4
  9
$DIMALTU
 70
     2
  9
$DIMALTTD
 70
     2
  9
$DIMTXSTY
  7
Standard
  9
$DIMAUNIT
 70
     0
  9
$DIMADEC
 70
     0
  9
$DIMALTRND
 40
0.0
  9
$DIMAZIN
 70
     0
  9
$DIMDSEP
 70
    46
  9
$DIMATFIT
 70
     3
  9
$DIMFRAC
 70
     0
  9
$DIMLDRBLK
  1

  9
$DIMLUNIT
 70
     2
  9
$DIMLWD
 70
    -2
  9
$DIMLWE
 70
    -2
  9
$DIMTMOVE
 70
     2
  9
$LUNITS
 70
     2
  9
$LUPREC
 70
     2
  9
$SKETCHINC
 40
0.1
  9
$FILLETRAD
 40
0.5
  9
$AUNITS
 70
     0
  9
$AUPREC
 70
     0
  9
$MENU
  1
.
  9
$ELEVATION
 40
0.0
  9
$PELEVATION
 40
0.0
  9
$THICKNESS
 40
0.0
  9
$LIMCHECK
 70
     0
  9
$CHAMFERA
 40
0.5
  9
$CHAMFERB
 40
0.5
  9
$CHAMFERC
 40
1.0
  9
$CHAMFERD
 40
0.0
  9
$SKPOLY
 70
     0
  9
$TDCREATE
 40
2456450.292095266
  9
$TDUCREATE
 40
2456450.208761933
  9
$TDUPDATE
 40
2456450.292095278
  9
$TDUUPDATE
 40
2456450.208761944
  9
$TDINDWG
 40
0.0000000116
  9
$TDUSRTIMER
 40
0.0000000116
  9
$USRTIMER
 70
     1
  9
$ANGBASE
 50
0.0
  9
$ANGDIR
 70
     0
  9
$PDMODE
 70
     0
  9
$PDSIZE
 40
0.0
  9
$PLINEWID
 40
0.0
  9
$SPLFRAME
 70
     0
  9
$SPLINETYPE
 70
     6
  9
$SPLINESEGS
 70
     8
  9
$HANDSEED
  5
129
  9
$SURFTAB1
 70
     6
  9
$SURFTAB2
 70
     6
  9
$SURFTYPE
 70
     6
  9
$SURFU
 70
     6
  9
$SURFV
 70
     6
  9
$UCSBASE
  2

  9
$UCSNAME
  2

  9
$UCSORG
 10
0.0
 20
0.0
 30
0.0
  9
$UCSXDIR
 10
1.0
 20
0.0
 30
0.0
  9
$UCSYDIR
 10
0.0
 20
1.0
 30
0.0
  9
$UCSORTHOREF
  2

  9
$UCSORTHOVIEW
 70
     0
  9
$UCSORGTOP
 10
0.0
 20
0.0
 30
0.0
  9
$UCSORGBOTTOM
 10
0.0
 20
0.0
 30
0.0
  9
$UCSORGLEFT
 10
0.0
 20
0.0
 30
0.0
  9
$UCSORGRIGHT
 10
0.0
 20
0.0
 30
0.0
  9
$UCSORGFRONT
 10
0.0
 20
0.0
 30
0.0
  9
$UCSORGBACK
 10
0.0
 20
0.0
 30
0.0
  9
$PUCSBASE
  2

  9
$PUCSNAME
  2

  9
$PUCSORG
 10
0.0
 20
0.0
 30
0.0
  9
$PUCSXDIR
 10
1.0
 20
0.0
 30
0.0
  9
$PUCSYDIR
 10
0.0
 20
1.0
 30
0.0
  9
$PUCSORTHOREF
  2

  9
$PUCSORTHOVIEW
 70
     0
  9
$PUCSORGTOP
 10
0.0
 20
0.0
 30
0.0
  9
$PUCSORGBOTTOM
 10
0.0
 20
0.0
 30
0.0
  9
$PUCSORGLEFT
 10
0.0
 20
0.0
 30
0.0
  9
$PUCSORGRIGHT
 10
0.0
 20
0.0
 30
0.0
  9
$PUCSORGFRONT
 10
0.0
 20
0.0
 30
0.0
  9
$PUCSORGBACK
 10
0.0
 20
0.0
 30
0.0
  9
$USERI1
 70
     0
  9
$USERI2
 70
     0
  9
$USERI3
 70
     0
  9
$USERI4
 70
     0
  9
$USERI5
 70
     0
  9
$USERR1
 40
0.0
  9
$USERR2
 40
0.0
  9
$USERR3
 40
0.0
  9
$USERR4
 40
0.0
  9
$USERR5
 40
0.0
  9
$WORLDVIEW
 70
     1
  9
$SHADEDGE
 70
     3
  9
$SHADEDIF
 70
    70
  9
$TILEMODE
 70
     1
  9
$MAXACTVP
 70
    64
  9
$PINSBASE
 10
0.0
 20
0.0
 30
0.0
  9
$PLIMCHECK
 70
     0
  9
$PEXTMIN
 10
1.000000000000000E+20
 20
1.000000000000000E+20
 30
1.000000000000000E+20
  9
$PEXTMAX
 10
-1.000000000000000E+20
 20
-1.000000000000000E+20
 30
-1.000000000000000E+20
  9
$PLIMMIN
 10
0.0
 20
0.0
  9
$PLIMMAX
 10
12.0
 20
9.0
  9
$UNITMODE
 70
     0
  9
$VISRETAIN
 70
     1
  9
$PLINEGEN
 70
     0
  9
$PSLTSCALE
 70
     1
  9
$TREEDEPTH
 70
  3020
  9
$CMLSTYLE
  2
Standard
  9
$CMLJUST
 70
     0
  9
$CMLSCALE
 40
1.0
  9
$PROXYGRAPHICS
 70
     1
  9
$MEASUREMENT
 70
     0
  9
$CELWEIGHT
370
    -1
  9
$ENDCAPS
280
     0
  9
$JOINSTYLE
280
     0
  9
$LWDISPLAY
290
     0
  9
$INSUNITS
 70
     4
  9
$HYPERLINKBASE
  1

  9
$STYLESHEET
  1

  9
$XEDIT
290
     1
  9
$CEPSNTYPE
380
     0
  9
$PSTYLEMODE
290
     1
  9
$FINGERPRINTGUID
  2
{327E6E53-07AE-4A35-930C-437A2956300D}
  9
$VERSIONGUID
  2
{FAEB1C32-E019-11D5-929B-00C0DF256EC4}
  9
$EXTNAMES
290
     1
  9
$PSVPSCALE
 40
0.0
  9
$OLESTARTUP
290
     0
  9
$SORTENTS
280
   127
  9
$INDEXCTL
280
     0
  9
$HIDETEXT
280
     1
  9
$XCLIPFRAME
290
     0
  9
$HALOGAP
280
     0
  9
$OBSCOLOR
 70
   257
  9
$OBSLTYPE
280
     0
  9
$INTERSECTIONDISPLAY
280
     0
  9
$INTERSECTIONCOLOR
 70
   257
  9
$DIMASSOC
280
     2
  9
$PROJECTNAME
  1

  0
ENDSEC
  0
SECTION
  2
CLASSES
  0
CLASS
  1
ACDBDICTIONARYWDFLT
  2
AcDbDictionaryWithDefault
  3
ObjectDBX Classes
 90
        0
 91
        4
280
     0
281
     0
  0
CLASS
  1
VISUALSTYLE
  2
AcDbVisualStyle
  3
ObjectDBX Classes
 90
     4095
 91
        4
280
     0
281
     0
  0
CLASS
  1
SCALE
  2
AcDbScale
  3
ObjectDBX Classes
 90
     1153
 91
        4
280
     0
281
     0
  0
CLASS
  1
DICTIONARYVAR
  2
AcDbDictionaryVar
  3
ObjectDBX Classes
 90
        0
 91
        4
280
     0
281
     0
  0
ENDSEC
  0
SECTION
  2
TABLES
  0
TABLE
  2
VPORT
  5
8
330
0
100
AcDbSymbolTable
 70
     1
  0
VPORT
  5
29
330
8
100
AcDbSymbolTableRecord
100
AcDbViewportTableRecord
  2
*Active
 70
     0
 10
0.0
 20
0.0
 11
1.0
 21
1.0
 12
359.1074252428559
 22
1303.514176851463
 13
0.0
 23
0.0
 14
0.5
 24
0.5
 15
0.5
 25
0.5
 16
0.0
 26
0.0
 36
1.0
 17
0.0
 27
0.0
 37
0.0
 40
364.368441232432
 41
0.9299865350219897
 42
50.0
 43
0.0
 44
0.0
 50
0.0
 51
0.0
 71
     0
 72
   100
 73
     1
 74
     3
 75
     0
 76
     0
 77
     0
 78
     0
281
     0
 65
     1
110
0.0
120
0.0
130
0.0
111
1.0
121
0.0
131
0.0
112
0.0
122
1.0
132
0.0
 79
     0
146
0.0
  0
ENDTAB
  0
TABLE
  2
LTYPE
  5
5
330
0
100
AcDbSymbolTable
 70
     1
  0
LTYPE
  5
14
330
5
100
AcDbSymbolTableRecord
100
AcDbLinetypeTableRecord
  2
ByBlock
 70
     0
  3

 72
    65
 73
     0
 40
0.0
  0
LTYPE
  5
15
330
5
100
AcDbSymbolTableRecord
100
AcDbLinetypeTableRecord
  2
ByLayer
 70
     0
  3

 72
    65
 73
     0
 40
0.0
  0
LTYPE
  5
16
330
5
100
AcDbSymbolTableRecord
100
AcDbLinetypeTableRecord
  2
Continuous
 70
     0
  3
Solid line
 72
    65
 73
     0
 40
0.0
  0
ENDTAB
  0
TABLE
  2
LAYER
  5
2
330
0
100
AcDbSymbolTable
 70
     4
  0
LAYER
  5
10
330
2
100
AcDbSymbolTableRecord
100
AcDbLayerTableRecord
  2
0
 70
     0
 62
     7
  6
Continuous
370
    -3
390
F
  0
LAYER
  5
3B
330
2
100
AcDbSymbolTableRecord
100
AcDbLayerTableRecord
  2
E13963
 70
     0
 62
     7
  6
Continuous
370
    -3
390
F
  0
LAYER
  5
61
330
2
100
AcDbSymbolTableRecord
100
AcDbLayerTableRecord
  2
Defpoints
 70
     0
 62
     7
  6
Continuous
290
     0
370
    -3
390
F
  0
LAYER
  5
7B
330
2
100
AcDbSymbolTableRecord
100
AcDbLayerTableRecord
  2
MAKE2D VISIBLE LINES
 70
     0
 62
     7
  6
Continuous
370
    -3
390
F
  0
ENDTAB
  0
TABLE
  2
STYLE
  5
3
330
0
100
AcDbSymbolTable
 70
     2
  0
STYLE
  5
11
330
3
100
AcDbSymbolTableRecord
100
AcDbTextStyleTableRecord
  2
Standard
 70
     0
 40
0.0
 41
1.0
 50
0.0
 71
     0
 42
0.2
  3
txt
  4

  0
STYLE
  5
5F
330
3
100
AcDbSymbolTableRecord
100
AcDbTextStyleTableRecord
  2
ARIAL
 70
     0
 40
0.0
 41
1.0
 50
0.0
 71
     0
 42
0.0
  3
ARIAL.TTF
  4

1001
ACAD
1000
Arial
1071
      256
  0
ENDTAB
  0
TABLE
  2
VIEW
  5
6
330
0
100
AcDbSymbolTable
 70
     0
  0
ENDTAB
  0
TABLE
  2
UCS
  5
7
330
0
100
AcDbSymbolTable
 70
     0
  0
ENDTAB
  0
TABLE
  2
APPID
  5
9
330
0
100
AcDbSymbolTable
 70
     1
  0
APPID
  5
12
330
9
100
AcDbSymbolTableRecord
100
AcDbRegAppTableRecord
  2
ACAD
 70
     0
  0
ENDTAB
  0
TABLE
  2
DIMSTYLE
  5
A
330
0
100
AcDbSymbolTable
 70
     2
100
AcDbDimStyleTable
  0
DIMSTYLE
105
27
330
A
100
AcDbSymbolTableRecord
100
AcDbDimStyleTableRecord
  2
Standard
 70
     0
340
11
  0
DIMSTYLE
105
60
102
{ACAD_REACTORS
330
3C
330
6E
102
}
330
A
100
AcDbSymbolTableRecord
100
AcDbDimStyleTableRecord
  2
DEFAULT
 70
     0
 41
1.0
 42
0.5
 44
0.5
 73
     0
 77
     1
 78
     1
140
10.0
141
0.5
172
     1
174
     1
179
     2
271
     2
284
     1
340
5F
  0
ENDTAB
  0
TABLE
  2
BLOCK_RECORD
  5
1
330
0
100
AcDbSymbolTable
 70
     3
  0
BLOCK_RECORD
  5
1F
330
1
100
AcDbSymbolTableRecord
100
AcDbBlockTableRecord
  2
*Model_Space
340
22
  0
BLOCK_RECORD
  5
1B
330
1
100
AcDbSymbolTableRecord
100
AcDbBlockTableRecord
  2
*Paper_Space
340
1E
  0
BLOCK_RECORD
  5
23
330
1
100
AcDbSymbolTableRecord
100
AcDbBlockTableRecord
  2
*Paper_Space0
340
26
  0
BLOCK_RECORD
  5
62
330
1
100
AcDbSymbolTableRecord
100
AcDbBlockTableRecord
  2
*D1
340
0
  0
BLOCK_RECORD
  5
6F
330
1
100
AcDbSymbolTableRecord
100
AcDbBlockTableRecord
  2
*D2
340
0
  0
ENDTAB
  0
ENDSEC
  0
SECTION
  2
BLOCKS
  0
BLOCK
  5
20
330
1F
100
AcDbEntity
  8
0
100
AcDbBlockBegin
  2
*Model_Space
 70
     0
 10
0.0
 20
0.0
 30
0.0
  3
*Model_Space
  1

  0
ENDBLK
  5
21
330
1F
100
AcDbEntity
  8
0
100
AcDbBlockEnd
  0
BLOCK
  5
1C
330
1B
100
AcDbEntity
 67
     1
  8
0
100
AcDbBlockBegin
  2
*Paper_Space
 70
     0
 10
0.0
 20
0.0
 30
0.0
  3
*Paper_Space
  1

  0
ENDBLK
  5
1D
330
1B
100
AcDbEntity
 67
     1
  8
0
100
AcDbBlockEnd
  0
BLOCK
  5
24
330
23
100
AcDbEntity
  8
0
100
AcDbBlockBegin
  2
*Paper_Space0
 70
     0
 10
0.0
 20
0.0
 30
0.0
  3
*Paper_Space0
  1

  0
ENDBLK
  5
25
330
23
100
AcDbEntity
  8
0
100
AcDbBlockEnd
  0
BLOCK
  5
6C
330
62
100
AcDbEntity
  8
0
100
AcDbBlockBegin
  2
*D1
 70
     1
 10
0.0
 20
0.0
 30
0.0
  3
*D1
  1

  0
LINE
  5
63
330
62
100
AcDbEntity
  8
E13963
 62
     0
370
    -2
100
AcDbLine
 10
209.2141625630091
 20
1424.902195855173
 30
0.0
 11
525.2141625630093
 21
1424.902195855173
 31
0.0
  0
LINE
  5
64
330
62
100
AcDbEntity
  8
E13963
 62
     0
370
    -2
100
AcDbLine
 10
450.1213267386367
 20
1124.902195855173
 30
0.0
 11
525.2141625630092
 21
1124.902195855173
 31
0.0
  0
LINE
  5
65
330
62
100
AcDbEntity
  8
E13963
 62
     0
370
    -2
100
AcDbLine
 10
524.7141625630093
 20
1423.902195855173
 30
0.0
 11
524.7141625630092
 21
1125.902195855173
 31
0.0
  0
SOLID
  5
66
330
62
100
AcDbEntity
  8
E13963
 62
     0
100
AcDbTrace
 10
524.8808292296759
 20
1423.902195855173
 30
0.0
 11
524.5474958963426
 21
1423.902195855173
 31
0.0
 12
524.7141625630093
 22
1424.902195855173
 32
0.0
 13
524.7141625630093
 23
1424.902195855173
 33
0.0
  0
SOLID
  5
67
330
62
100
AcDbEntity
  8
E13963
 62
     0
100
AcDbTrace
 10
524.5474958963425
 20
1125.902195855173
 30
0.0
 11
524.8808292296758
 21
1125.902195855173
 31
0.0
 12
524.7141625630092
 22
1124.902195855173
 32
0.0
 13
524.7141625630092
 23
1124.902195855173
 33
0.0
  0
MTEXT
  5
68
330
62
100
AcDbEntity
  8
E13963
 62
     0
100
AcDbMText
 10
519.5191625630092
 20
1274.902195855173
 30
0.0
 40
10.0
 41
0.0
 71
     5
 72
     1
  1
\A1;300^M^J
  7
ARIAL
 11
3.789561257387198E-16
 21
1.0
 31
0.0
 73
     1
 44
1.0
  0
POINT
  5
69
330
62
100
AcDbEntity
  8
Defpoints
 62
     0
100
AcDbPoint
 10
208.7141625630091
 20
1424.902195855173
 30
0.0
  0
POINT
  5
6A
330
62
100
AcDbEntity
  8
Defpoints
 62
     0
100
AcDbPoint
 10
449.6213267386367
 20
1124.902195855173
 30
0.0
  0
POINT
  5
6B
330
62
100
AcDbEntity
  8
Defpoints
 62
     0
100
AcDbPoint
 10
524.7141625630092
 20
1124.902195855173
 30
0.0
  0
ENDBLK
  5
6D
330
62
100
AcDbEntity
  8
0
100
AcDbBlockEnd
  0
BLOCK
  5
79
330
6F
100
AcDbEntity
  8
0
100
AcDbBlockBegin
  2
*D2
 70
     1
 10
0.0
 20
0.0
 30
0.0
  3
*D2
  1

  0
LINE
  5
70
330
6F
100
AcDbEntity
  8
E13963
 62
     0
370
    -2
100
AcDbLine
 10
193.0006879227072
 20
1378.306157847753
 30
0.0
 11
193.0006879227072
 21
1472.306157847753
 31
0.0
  0
LINE
  5
71
330
6F
100
AcDbEntity
  8
E13963
 62
     0
370
    -2
100
AcDbLine
 10
477.6157314351273
 20
1125.90259299794
 30
0.0
 11
477.6157314351273
 21
1472.306157847753
 31
0.0
  0
LINE
  5
72
330
6F
100
AcDbEntity
  8
E13963
 62
     0
370
    -2
100
AcDbLine
 10
194.0006879227072
 20
1471.806157847753
 30
0.0
 11
476.6157314351273
 21
1471.806157847753
 31
0.0
  0
SOLID
  5
73
330
6F
100
AcDbEntity
  8
E13963
 62
     0
100
AcDbTrace
 10
194.0006879227072
 20
1471.972824514419
 30
0.0
 11
194.0006879227072
 21
1471.639491181086
 31
0.0
 12
193.0006879227072
 22
1471.806157847753
 32
0.0
 13
193.0006879227072
 23
1471.806157847753
 33
0.0
  0
SOLID
  5
74
330
6F
100
AcDbEntity
  8
E13963
 62
     0
100
AcDbTrace
 10
476.6157314351273
 20
1471.639491181086
 30
0.0
 11
476.6157314351273
 21
1471.972824514419
 31
0.0
 12
477.6157314351273
 22
1471.806157847753
 32
0.0
 13
477.6157314351273
 23
1471.806157847753
 33
0.0
  0
MTEXT
  5
75
330
6F
100
AcDbEntity
  8
E13963
 62
     0
100
AcDbMText
 10
335.3082096789173
 20
1477.001157847753
 30
0.0
 40
10.0
 41
0.0
 71
     5
 72
     1
  1
\A1;290
  7
ARIAL
 73
     1
 44
1.0
  0
POINT
  5
76
330
6F
100
AcDbEntity
  8
Defpoints
 62
     0
100
AcDbPoint
 10
193.0006879227072
 20
1377.806157847753
 30
0.0
  0
POINT
  5
77
330
6F
100
AcDbEntity
  8
Defpoints
 62
     0
100
AcDbPoint
 10
477.6157314351273
 20
1125.40259299794
 30
0.0
  0
POINT
  5
78
330
6F
100
AcDbEntity
  8
Defpoints
 62
     0
100
AcDbPoint
 10
477.6157314351273
 20
1471.806157847753
 30
0.0
  0
ENDBLK
  5
7A
330
6F
100
AcDbEntity
  8
0
100
AcDbBlockEnd
  0
ENDSEC
  0
SECTION
  2
ENTITIES
  0
DIMENSION
  5
3C
330
1F
100
AcDbEntity
  8
E13963
100
AcDbDimension
  2
*D1
 10
524.7141625630092
 20
1124.902195855173
 30
0.0
 11
519.5191625630092
 21
1274.902195855173
 31
0.0
 70
    32
  1
300^M^J
 71
     5
 42
300.0000000000002
  3
DEFAULT
100
AcDbAlignedDimension
 13
208.7141625630091
 23
1424.902195855173
 33
0.0
 14
449.6213267386367
 24
1124.902195855173
 34
0.0
 50
90.0
100
AcDbRotatedDimension
1001
ACAD
1000
DSTYLE
1002
{
1070
   279
1070
     1
1002
}
  0
DIMENSION
  5
6E
330
1F
100
AcDbEntity
  8
E13963
100
AcDbDimension
  2
*D2
 10
477.6157314351273
 20
1471.806157847753
 30
0.0
 11
335.3082096789173
 21
1477.001157847753
 31
0.0
 70
    32
  1
290
 71
     5
 42
284.61504351242
  3
DEFAULT
100
AcDbAlignedDimension
 13
193.0006879227072
 23
1377.806157847753
 33
0.0
 14
477.6157314351273
 24
1125.40259299794
 34
0.0
100
AcDbRotatedDimension
1001
ACAD
1000
DSTYLE
1002
{
1070
   279
1070
     1
1002
}
  0
SPLINE
  5
7C
330
1F
100
AcDbEntity
  8
MAKE2D VISIBLE LINES
100
AcDbSpline
210
0.0
220
0.0
230
1.0
 70
    24
 71
     2
 72
     6
 73
     3
 74
     0
 42
0.0000000001
 43
0.0000000001
 40
0.0
 40
0.0
 40
0.0
 40
0.3975512002745631
 40
0.3975512002745631
 40
0.3975512002745631
 10
447.6172285554424
 20
1304.902195855173
 30
0.0
 10
447.8160041555797
 20
1304.902195855173
 30
0.0
 10
448.0147797557169
 20
1304.902195855173
 30
0.0
  0
SPLINE
  5
7D
330
1F
100
AcDbEntity
  8
MAKE2D VISIBLE LINES
100
AcDbSpline
210
0.0
220
0.0
230
1.0
 70
    12
 71
     2
 72
     6
 73
     3
 74
     0
 42
0.0000000001
 43
0.0000000001
 40
0.0
 40
0.0
 40
0.0
 40
1.570809161936494
 40
1.570809161936494
 40
1.570809161936494
 10
254.0924819052736
 20
1385.063837562277
 30
0.0
 41
1.0
 10
253.0926269800176
 20
1385.081282986713
 30
0.0
 41
0.7071078163416927
 10
253.1100694770151
 20
1386.081137963042
 30
0.0
 41
1.0
  0
SPLINE
  5
7E
330
1F
100
AcDbEntity
  8
MAKE2D VISIBLE LINES
100
AcDbSpline
210
0.0
220
0.0
230
1.0
 70
    12
 71
     2
 72
     6
 73
     3
 74
     0
 42
0.0000000001
 43
0.0000000001
 40
0.0
 40
0.0
 40
0.0
 40
1.570815353684726
 40
1.570815353684726
 40
1.570815353684726
 10
273.1072003002251
 20
1385.732086746145
 30
0.0
 41
1.0
 10
273.0897319221994
 20
1384.732229319743
 30
0.0
 41
0.7071088285253916
 10
272.0898743946589
 20
1384.749691907837
 30
0.0
 41
1.0
  0
SPLINE
  5
7F
330
1F
100
AcDbEntity
  8
MAKE2D VISIBLE LINES
100
AcDbSpline
210
0.0
220
0.0
230
1.0
 70
    24
 71
     2
 72
     6
 73
     3
 74
     0
 42
0.0000000001
 43
0.0000000001
 40
0.0
 40
0.0
 40
0.0
 40
2.987468122744696
 40
2.987468122744696
 40
2.987468122744696
 10
303.2186032216419
 20
1387.091134615164
 30
0.0
 10
303.0833668940064
 20
1385.603535011174
 30
0.0
 10
302.948130566371
 20
1384.115935407184
 30
0.0
  0
SPLINE
  5
80
330
1F
100
AcDbEntity
  8
MAKE2D VISIBLE LINES
100
AcDbSpline
210
0.0
220
0.0
230
1.0
 70
    12
 71
     2
 72
     6
 73
     3
 74
     0
 42
0.0000000001
 43
0.0000000001
 40
0.0
 40
0.0
 40
0.0
 40
1.570827904507619
 40
1.570827904507619
 40
1.570827904507619
 10
283.9352443369617
 20
1384.840255881023
 30
0.0
 41
1.0
 10
282.9393308088104
 20
1384.930774692402
 30
0.0
 41
0.7071081411488361
 10
283.0298457893496
 20
1385.926688568732
 30
0.0
 41
1.0
  0
SPLINE
  5
81
330
1F
100
AcDbEntity
  8
MAKE2D VISIBLE LINES
100
AcDbSpline
210
0.0
220
0.0
230
1.0
 70
    12
 71
     2
 72
     6
 73
     3
 74
     0
 42
0.0000000001
 43
0.0000000001
 40
0.0
 40
0.0
 40
0.0
 40
1.570823840986561
 40
1.570823840986561
 40
1.570823840986561
 10
302.9485070362715
 20
1384.115901182648
 30
0.0
 41
1.0
 10
302.8579487786872
 20
1383.119994548092
 30
0.0
 41
0.7071088290493684
 10
301.8620416196134
 20
1383.210547037146
 30
0.0
 41
1.0
  0
SPLINE
  5
82
330
1F
100
AcDbEntity
  8
MAKE2D VISIBLE LINES
100
AcDbSpline
210
0.0
220
0.0
230
1.0
 70
    24
 71
     2
 72
     6
 73
     3
 74
     0
 42
0.0000000001
 43
0.0000000001
 40
0.0
 40
0.0
 40
0.0
 40
0.3980868146111902
 40
0.3980868146111902
 40
0.3980868146111902
 10
451.214690517614
 20
1304.902195855173
 30
0.0
 10
451.4137339249196
 20
1304.902195855173
 30
0.0
 10
451.6127773322252
 20
1304.902195855173
 30
0.0
  0
SPLINE
  5
83
330
1F
100
AcDbEntity
  8
MAKE2D VISIBLE LINES
100
AcDbSpline
210
0.0
220
0.0
230
1.0
 70
    24
 71
     2
 72
     6
 73
     3
 74
     0
 42
0.0000000001
 43
0.0000000001
 40
0.0
 40
0.0
 40
0.0
 40
3.199910761897115
 40
3.199910761897115
 40
3.199910761897115
 10
448.0147797557169
 20
1304.902195855173
 30
0.0
 10
449.6147351366654
 20
1304.902195855173
 30
0.0
 10
451.214690517614
 20
1304.902195855173
 30
0.0
  0
SPLINE
  5
84
330
1F
100
AcDbEntity
  8
MAKE2D VISIBLE LINES
100
AcDbSpline
210
0.0
220
0.0
230
1.0
 70
     8
 71
     3
 72
    11
 73
     7
 74
     0
 42
0.0000000001
 43
0.0000000001
 40
0.0
 40
0.0
 40
0.0
 40
0.0
 40
3.810087574807671
 40
7.470679538242525
 40
14.46482525981368
 40
27.69589003751819
 40
27.69589003751819
 40
27.69589003751819
 40
27.69589003751819
 10
429.7576281370665
 20
1221.786270150076
 30
0.0
 10
429.9082079927324
 20
1223.047336618401
 30
0.0
 10
430.1921664975754
 20
1225.521366391951
 30
0.0
 10
430.6864385116027
 20
1230.317645566423
 30
0.0
 10
431.3506781953612
 20
1238.252597127213
 30
0.0
 10
431.6039020926888
 20
1244.993001974193
 30
0.0
 10
431.6140929435078
 20
1249.403483147642
 30
0.0
  0
SPLINE
  5
85
330
1F
100
AcDbEntity
  8
MAKE2D VISIBLE LINES
100
AcDbSpline
210
0.0
220
0.0
230
1.0
 70
    24
 71
     2
 72
     6
 73
     3
 74
     0
 42
0.0000000001
 43
0.0000000001
 40
0.0
 40
0.0
 40
0.0
 40
1.500226397055428
 40
1.500226397055428
 40
1.500226397055428
 10
447.6172285554424
 20
1304.902195855173
 30
0.0
 10
446.8671153569146
 20
1304.902195855173
 30
0.0
 10
446.1170021583869
 20
1304.902195855173
 30
0.0
  0
SPLINE
  5
86
330
1F
100
AcDbEntity
  8
MAKE2D VISIBLE LINES
100
AcDbSpline
210
0.0
220
0.0
230
1.0
 70
    24
 71
     2
 72
     6
 73
     3
 74
     0
 42
0.0000000001
 43
0.0000000001
 40
0.0
 40
0.0
 40
0.0
 40
2.899010905566549
 40
2.899010905566549
 40
2.899010905566549
 10
283.0302664370168
 20
1385.926650328035
 30
0.0
 10
283.1614984945773
 20
1387.370202961199
 30
0.0
 10
283.2927305521378
 20
1388.813755594364
 30
0.0
  0
SPLINE
  5
87
330
1F
100
AcDbEntity
  8
MAKE2D VISIBLE LINES
100
AcDbSpline
210
0.0
220
0.0
230
1.0
 70
    24
 71
     2
 72
     6
 73
     3
 74
     0
 42
0.0000000001
 43
0.0000000001
 40
0.0
 40
0.0
 40
0.0
 40
7.257141716185629
 40
7.257141716185629
 40
7.257141716185629
 10
471.114735136927
 20
1205.768131062071
 30
0.0
 10
471.114735136927
 20
1209.396701920163
 30
0.0
 10
471.114735136927
 20
1213.025272778256
 30
0.0
  0
SPLINE
  5
88
330
1F
100
AcDbEntity
  8
MAKE2D VISIBLE LINES
100
AcDbSpline
210
0.0
220
0.0
230
1.0
 70
    28
 71
     3
 72
    12
 73
     8
 74
     0
 42
0.0000000001
 43
0.0000000001
 40
21.21626084689532
 40
21.21626084689532
 40
21.21626084689532
 40
21.21626084689532
 40
22.0215153336902
 40
23.63202430727997
 40
24.90985619507528
 40
26.18768808287059
 40
27.23689302104498
 40
27.23689302104498
 40
27.23689302104498
 40
27.23689302104498
 10
453.1072627348993
 20
1304.902195855173
 30
0.0
 41
1.0
 10
453.1168449887256
 20
1304.902195855173
 30
0.0
 41
1.0
 10
453.1178360800944
 20
1304.902195855173
 30
0.0
 41
1.0
 10
452.9932958156409
 20
1304.902195855173
 30
0.0
 41
1.0
 10
452.6697715251301
 20
1304.902195855173
 30
0.0
 41
1.0
 10
452.22807458281
 20
1304.902195855173
 30
0.0
 41
1.0
 10
451.8250527789345
 20
1304.902195855173
 30
0.0
 41
1.0
 10
451.6127773322252
 20
1304.902195855173
 30
0.0
 41
1.0
  0
SPLINE
  5
89
330
1F
100
AcDbEntity
  8
MAKE2D VISIBLE LINES
100
AcDbSpline
210
0.0
220
0.0
230
1.0
 70
     8
 71
     3
 72
    24
 73
    20
 74
     0
 42
0.0000000001
 43
0.0000000001
 40
0.0
 40
0.0
 40
0.0
 40
0.0
 40
21.46288936559729
 40
41.62092781257101
 40
60.41932482435626
 40
78.08230075382019
 40
94.72895644967373
 40
110.4684472367461
 40
126.0951420806847
 40
140.1640586481224
 40
151.0462751950392
 40
161.5073559398358
 40
172.3953699342413
 40
184.177188445432
 40
196.7197253759713
 40
211.9006326227785
 40
230.5575703503896
 40
242.7201252185085
 40
260.8737151977917
 40
260.8737151977917
 40
260.8737151977917
 40
260.8737151977917
 10
320.0614144642941
 20
1421.299910838782
 30
0.0
 10
327.1494347742303
 20
1420.328975543036
 30
0.0
 10
340.8489869141678
 20
1418.104641677437
 30
0.0
 10
360.511858124253
 20
1413.701342127828
 30
0.0
 10
378.617333249562
 20
1408.329241421689
 30
0.0
 10
395.1589079682526
 20
1401.980898638035
 30
0.0
 10
410.1597483088884
 20
1394.637874740416
 30
0.0
 10
423.7821358496095
 20
1386.196470855027
 30
0.0
 10
435.7264708186851
 20
1376.846728869112
 30
0.0
 10
445.3870490702237
 20
1367.341219387435
 30
0.0
 10
452.5520600948366
 20
1357.918065747667
 30
0.0
 10
457.7591547142146
 20
1348.492022469206
 30
0.0
 10
461.7051824031923
 20
1338.147475007723
 30
0.0
 10
464.4220989245253
 20
1326.708862823725
 30
0.0
 10
466.1905243617827
 20
1313.648709038394
 30
0.0
 10
467.1771824186186
 20
1298.214095841724
 30
0.0
 10
467.5127627258842
 20
1282.882933829249
 30
0.0
 10
467.6137615933632
 20
1266.558855199516
 30
0.0
 10
467.6153505760961
 20
1256.453398309908
 30
0.0
 10
467.614707038965
 20
1250.402223119179
 30
0.0
  0
SPLINE
  5
8A
330
1F
100
AcDbEntity
  8
MAKE2D VISIBLE LINES
100
AcDbSpline
210
0.0
220
0.0
230
1.0
 70
    24
 71
     3
 72
    10
 73
     6
 74
     0
 42
0.0000000001
 43
0.0000000001
 40
0.0
 40
0.0
 40
0.0
 40
0.0
 40
0.0067010335039441
 40
0.0091064984226108
 40
21.62366267913023
 40
21.62366267913023
 40
21.62366267913023
 40
21.62366267913023
 10
283.0490791695739
 20
1424.902195855172
 30
0.0
 10
283.0453050657588
 20
1424.902195855173
 30
0.0
 10
283.0616641005718
 20
1424.902195855174
 30
0.0
 10
275.8548609148994
 20
1424.902195855174
 30
0.0
 10
268.6480582975734
 20
1424.902195855171
 30
0.0
 10
261.4436294872889
 20
1424.902195855173
 30
0.0
  0
SPLINE
  5
8B
330
1F
100
AcDbEntity
  8
MAKE2D VISIBLE LINES
100
AcDbSpline
210
0.0
220
0.0
230
1.0
 70
    24
 71
     2
 72
     6
 73
     3
 74
     0
 42
0.0000000001
 43
0.0000000001
 40
0.0
 40
0.0
 40
0.0
 40
5.978795680348437
 40
5.978795680348437
 40
5.978795680348437
 10
315.5616674455034
 20
1391.878210632608
 30
0.0
 10
315.9637642226778
 20
1394.840442498722
 30
0.0
 10
316.3658609998523
 20
1397.802674364837
 30
0.0
  0
SPLINE
  5
8C
330
1F
100
AcDbEntity
  8
MAKE2D VISIBLE LINES
100
AcDbSpline
210
0.0
220
0.0
230
1.0
 70
    28
 71
     3
 72
     9
 73
     5
 74
     0
 42
0.0000000001
 43
0.0000000001
 40
0.0
 40
0.0
 40
0.0
 40
0.0
 40
6.38014913386961
 40
8.9718708209439
 40
8.9718708209439
 40
8.9718708209439
 40
8.9718708209439
 10
314.7895218981024
 20
1386.189843364748
 30
0.0
 41
1.0
 10
314.789432652825
 20
1386.189185898138
 30
0.0
 41
1.0
 10
314.8635676847321
 20
1386.735335895793
 30
0.0
 41
1.0
 10
315.0351909569237
 20
1387.999678100736
 30
0.0
 41
1.0
 10
315.0922247949402
 20
1388.419844244834
 30
0.0
 41
1.0
  0
SPLINE
  5
8D
330
1F
100
AcDbEntity
  8
MAKE2D VISIBLE LINES
100
AcDbSpline
210
0.0
220
0.0
230
1.0
 70
    24
 71
     2
 72
     6
 73
     3
 74
     0
 42
0.0000000001
 43
0.0000000001
 40
0.0
 40
0.0
 40
0.0
 40
1.359325400542041
 40
1.359325400542041
 40
1.359325400542041
 10
317.0215911397891
 20
1402.633413695159
 30
0.0
 10
317.1130109493815
 20
1403.306900001296
 30
0.0
 10
317.2044307589739
 20
1403.980386307433
 30
0.0
  0
SPLINE
  5
8E
330
1F
100
AcDbEntity
  8
MAKE2D VISIBLE LINES
100
AcDbSpline
210
0.0
220
0.0
230
1.0
 70
    24
 71
     2
 72
     6
 73
     3
 74
     0
 42
0.0000000001
 43
0.0000000001
 40
0.0
 40
0.0
 40
0.0
 40
0.4485561024378645
 40
0.4485561024378645
 40
0.4485561024378645
 10
317.4473859984296
 20
1405.770228438008
 30
0.0
 10
317.4775531044514
 20
1405.992468375851
 30
0.0
 10
317.5077202104733
 20
1406.214708313695
 30
0.0
  0
SPLINE
  5
8F
330
1F
100
AcDbEntity
  8
MAKE2D VISIBLE LINES
100
AcDbSpline
210
0.0
220
0.0
230
1.0
 70
    24
 71
     2
 72
     6
 73
     3
 74
     0
 42
0.0000000001
 43
0.0000000001
 40
0.0
 40
0.0
 40
0.0
 40
0.4446590839888644
 40
0.4446590839888644
 40
0.4446590839888644
 10
317.567812382575
 20
1406.657405090214
 30
0.0
 10
317.5977173992661
 20
1406.877714225794
 30
0.0
 10
317.6276224159571
 20
1407.098023361374
 30
0.0
  0
SPLINE
  5
90
330
1F
100
AcDbEntity
  8
MAKE2D VISIBLE LINES
100
AcDbSpline
210
0.0
220
0.0
230
1.0
 70
    24
 71
     2
 72
     6
 73
     3
 74
     0
 42
0.0000000001
 43
0.0000000001
 40
0.0
 40
0.0
 40
0.0
 40
0.0885673745267582
 40
0.0885673745267582
 40
0.0885673745267582
 10
317.6751972189385
 20
1407.448505149381
 30
0.0
 10
317.6811537121462
 20
1407.492386411285
 30
0.0
 10
317.6871102053539
 20
1407.536267673189
 30
0.0
  0
SPLINE
  5
91
330
1F
100
AcDbEntity
  8
MAKE2D VISIBLE LINES
100
AcDbSpline
210
0.0
220
0.0
230
1.0
 70
    24
 71
     2
 72
     6
 73
     3
 74
     0
 42
0.0000000001
 43
0.0000000001
 40
0.0
 40
0.0
 40
0.0
 40
0.4365775863935828
 40
0.4365775863935828
 40
0.4365775863935828
 10
317.7462356537438
 20
1407.971842632406
 30
0.0
 10
317.7755971589467
 20
1408.188147739251
 30
0.0
 10
317.8049586641495
 20
1408.404452846097
 30
0.0
  0
SPLINE
  5
92
330
1F
100
AcDbEntity
  8
MAKE2D VISIBLE LINES
100
AcDbSpline
210
0.0
220
0.0
230
1.0
 70
    24
 71
     2
 72
     6
 73
     3
 74
     0
 42
0.0000000001
 43
0.0000000001
 40
0.0
 40
0.0
 40
0.0
 40
0.4296992475016056
 40
0.4296992475016056
 40
0.4296992475016056
 10
317.8632391293175
 20
1408.833802845632
 30
0.0
 10
317.8921380400367
 20
1409.046700036278
 30
0.0
 10
317.9210369507559
 20
1409.259597226925
 30
0.0
  0
SPLINE
  5
93
330
1F
100
AcDbEntity
  8
MAKE2D VISIBLE LINES
100
AcDbSpline
210
0.0
220
0.0
230
1.0
 70
    24
 71
     2
 72
     6
 73
     3
 74
     0
 42
0.0000000001
 43
0.0000000001
 40
0.0
 40
0.0
 40
0.0
 40
21.91420955237371
 40
21.91420955237371
 40
21.91420955237371
 10
239.5283385842955
 20
1424.902195855173
 30
0.0
 10
250.4854433604823
 20
1424.902195855173
 30
0.0
 10
261.4425481366692
 20
1424.902195855173
 30
0.0
  0
SPLINE
  5
94
330
1F
100
AcDbEntity
  8
MAKE2D VISIBLE LINES
100
AcDbSpline
210
0.0
220
0.0
230
1.0
 70
    24
 71
     2
 72
     6
 73
     3
 74
     0
 42
0.0000000001
 43
0.0000000001
 40
0.0
 40
0.0
 40
0.0
 40
0.6152324918704097
 40
0.6152324918704097
 40
0.6152324918704097
 10
317.2433984003009
 20
1404.267459458571
 30
0.0
 10
317.2847751282274
 20
1404.572280260272
 30
0.0
 10
317.3261518561539
 20
1404.877101061972
 30
0.0
  0
SPLINE
  5
95
330
1F
100
AcDbEntity
  8
MAKE2D VISIBLE LINES
100
AcDbSpline
210
0.0
220
0.0
230
1.0
 70
    24
 71
     2
 72
     6
 73
     3
 74
     0
 42
0.0000000001
 43
0.0000000001
 40
0.0
 40
0.0
 40
0.0
 40
0.6108052884301896
 40
0.6108052884301896
 40
0.6108052884301896
 10
318.8045182945075
 20
1415.768171127889
 30
0.0
 10
318.8455972761436
 20
1416.070798443842
 30
0.0
 10
318.8866762577796
 20
1416.373425759796
 30
0.0
  0
SPLINE
  5
96
330
1F
100
AcDbEntity
  8
MAKE2D VISIBLE LINES
100
AcDbSpline
210
0.0
220
0.0
230
1.0
 70
    24
 71
     2
 72
     6
 73
     3
 74
     0
 42
0.0000000001
 43
0.0000000001
 40
0.0
 40
0.0
 40
0.0
 40
0.8792027105146736
 40
0.8792027105146736
 40
0.8792027105146736
 10
319.2740177365363
 20
1419.226955896256
 30
0.0
 10
319.3331474668836
 20
1419.662562400492
 30
0.0
 10
319.392277197231
 20
1420.098168904728
 30
0.0
  0
SPLINE
  5
97
330
1F
100
AcDbEntity
  8
MAKE2D VISIBLE LINES
100
AcDbSpline
210
0.0
220
0.0
230
1.0
 70
    24
 71
     2
 72
     6
 73
     3
 74
     0
 42
0.0000000001
 43
0.0000000001
 40
0.0
 40
0.0
 40
0.0
 40
0.1215102754568114
 40
0.1215102754568114
 40
0.1215102754568114
 10
319.4023531789751
 20
1420.17239828407
 30
0.0
 10
319.4105252077192
 20
1420.232601313119
 30
0.0
 10
319.4186972364633
 20
1420.292804342167
 30
0.0
  0
SPLINE
  5
98
330
1F
100
AcDbEntity
  8
MAKE2D VISIBLE LINES
100
AcDbSpline
210
0.0
220
0.0
230
1.0
 70
    24
 71
     2
 72
     6
 73
     3
 74
     0
 42
0.0000000001
 43
0.0000000001
 40
0.0
 40
0.0
 40
0.0
 40
0.2502471891527726
 40
0.2502471891527726
 40
0.2502471891527726
 10
319.4335254594324
 20
1420.402043304253
 30
0.0
 10
319.4503555358616
 20
1420.526029845648
 30
0.0
 10
319.4671856122909
 20
1420.650016387043
 30
0.0
  0
SPLINE
  5
99
330
1F
100
AcDbEntity
  8
MAKE2D VISIBLE LINES
100
AcDbSpline
210
0.0
220
0.0
230
1.0
 70
    24
 71
     2
 72
     6
 73
     3
 74
     0
 42
0.0000000001
 43
0.0000000001
 40
0.0
 40
0.0
 40
0.0
 40
0.0992303560149018
 40
0.0992303560149018
 40
0.0992303560149018
 10
319.4688314092356
 20
1420.662140911366
 30
0.0
 10
319.4755050285538
 20
1420.711305214411
 30
0.0
 10
319.4821786478719
 20
1420.760469517456
 30
0.0
  0
SPLINE
  5
9A
330
1F
100
AcDbEntity
  8
MAKE2D VISIBLE LINES
100
AcDbSpline
210
0.0
220
0.0
230
1.0
 70
    24
 71
     2
 72
     6
 73
     3
 74
     0
 42
0.0000000001
 43
0.0000000001
 40
0.0
 40
0.0
 40
0.0
 40
0.0553595788609684
 40
0.0553595788609684
 40
0.0553595788609684
 10
319.4846360645286
 20
1420.778573213736
 30
0.0
 10
319.4883592070202
 20
1420.806001464735
 30
0.0
 10
319.4920823495117
 20
1420.833429715735
 30
0.0
  0
SPLINE
  5
9B
330
1F
100
AcDbEntity
  8
MAKE2D VISIBLE LINES
100
AcDbSpline
210
0.0
220
0.0
230
1.0
 70
    24
 71
     2
 72
     6
 73
     3
 74
     0
 42
0.0000000001
 43
0.0000000001
 40
0.0
 40
0.0
 40
0.0
 40
0.0310727047220833
 40
0.0310727047220833
 40
0.0310727047220833
 10
319.4923971411866
 20
1420.835748774189
 30
0.0
 10
319.4944868989062
 20
1420.851143940878
 30
0.0
 10
319.4965766566257
 20
1420.866539107566
 30
0.0
  0
SPLINE
  5
9C
330
1F
100
AcDbEntity
  8
MAKE2D VISIBLE LINES
100
AcDbSpline
210
0.0
220
0.0
230
1.0
 70
    24
 71
     2
 72
     6
 73
     3
 74
     0
 42
0.0000000001
 43
0.0000000001
 40
0.0
 40
0.0
 40
0.0
 40
0.2270736741979249
 40
0.2270736741979249
 40
0.2270736741979249
 10
453.8691943119058
 20
1249.902195855173
 30
0.0
 10
453.9827311490047
 20
1249.902195855173
 30
0.0
 10
454.0962679861037
 20
1249.902195855173
 30
0.0
  0
SPLINE
  5
9D
330
1F
100
AcDbEntity
  8
MAKE2D VISIBLE LINES
100
AcDbSpline
210
0.0
220
0.0
230
1.0
 70
    24
 71
     2
 72
     6
 73
     3
 74
     0
 42
0.0000000001
 43
0.0000000001
 40
0.0
 40
0.0
 40
0.0
 40
0.2231829030432664
 40
0.2231829030432664
 40
0.2231829030432664
 10
454.7429927320597
 20
1249.902195855173
 30
0.0
 10
454.8545841835813
 20
1249.902195855173
 30
0.0
 10
454.966175635103
 20
1249.902195855173
 30
0.0
  0
SPLINE
  5
9E
330
1F
100
AcDbEntity
  8
MAKE2D VISIBLE LINES
100
AcDbSpline
210
0.0
220
0.0
230
1.0
 70
    24
 71
     2
 72
     6
 73
     3
 74
     0
 42
0.0000000001
 43
0.0000000001
 40
0.0
 40
0.0
 40
0.0
 40
0.3727341642820647
 40
0.3727341642820647
 40
0.3727341642820647
 10
455.4489966359477
 20
1249.902195855173
 30
0.0
 10
455.6353637180887
 20
1249.902195855173
 30
0.0
 10
455.8217308002298
 20
1249.902195855173
 30
0.0
  0
SPLINE
  5
9F
330
1F
100
AcDbEntity
  8
MAKE2D VISIBLE LINES
100
AcDbSpline
210
0.0
220
0.0
230
1.0
 70
    24
 71
     2
 72
     6
 73
     3
 74
     0
 42
0.0000000001
 43
0.0000000001
 40
0.0
 40
0.0
 40
0.0
 40
0.1829537331287838
 40
0.1829537331287838
 40
0.1829537331287838
 10
465.3627122792321
 20
1249.902195855173
 30
0.0
 10
465.4541891457965
 20
1249.902195855173
 30
0.0
 10
465.5456660123609
 20
1249.902195855173
 30
0.0
  0
SPLINE
  5
A0
330
1F
100
AcDbEntity
  8
MAKE2D VISIBLE LINES
100
AcDbSpline
210
0.0
220
0.0
230
1.0
 70
    24
 71
     2
 72
     6
 73
     3
 74
     0
 42
0.0000000001
 43
0.0000000001
 40
0.0
 40
0.0
 40
0.0
 40
0.0573934691031468
 40
0.0573934691031468
 40
0.0573934691031468
 10
466.0755452715793
 20
1249.902195855173
 30
0.0
 10
466.1042420061309
 20
1249.902195855173
 30
0.0
 10
466.1329387406824
 20
1249.902195855173
 30
0.0
  0
SPLINE
  5
A1
330
1F
100
AcDbEntity
  8
MAKE2D VISIBLE LINES
100
AcDbSpline
210
0.0
220
0.0
230
1.0
 70
    24
 71
     2
 72
     6
 73
     3
 74
     0
 42
0.0000000001
 43
0.0000000001
 40
0.0
 40
0.0
 40
0.0
 40
0.0554820226458332
 40
0.0554820226458332
 40
0.0554820226458332
 10
466.3338557329561
 20
1249.902195855173
 30
0.0
 10
466.361596744279
 20
1249.902195855173
 30
0.0
 10
466.389337755602
 20
1249.902195855173
 30
0.0
  0
SPLINE
  5
A2
330
1F
100
AcDbEntity
  8
MAKE2D VISIBLE LINES
100
AcDbSpline
210
0.0
220
0.0
230
1.0
 70
    24
 71
     2
 72
     6
 73
     3
 74
     0
 42
0.0000000001
 43
0.0000000001
 40
0.0
 40
0.0
 40
0.0
 40
0.0897076005604163
 40
0.0897076005604163
 40
0.0897076005604163
 10
466.5310635684407
 20
1249.902195855173
 30
0.0
 10
466.5759173687209
 20
1249.902195855173
 30
0.0
 10
466.6207711690011
 20
1249.902195855173
 30
0.0
  0
SPLINE
  5
A3
330
1F
100
AcDbEntity
  8
MAKE2D VISIBLE LINES
100
AcDbSpline
210
0.0
220
0.0
230
1.0
 70
    24
 71
     2
 72
     6
 73
     3
 74
     0
 42
0.0000000001
 43
0.0000000001
 40
0.0
 40
0.0
 40
0.0
 40
0.0882372301134069
 40
0.0882372301134069
 40
0.0882372301134069
 10
466.7200311314745
 20
1249.902195855173
 30
0.0
 10
466.7641497465312
 20
1249.902195855173
 30
0.0
 10
466.8082683615879
 20
1249.902195855173
 30
0.0
  0
SPLINE
  5
A4
330
1F
100
AcDbEntity
  8
MAKE2D VISIBLE LINES
100
AcDbSpline
210
0.0
220
0.0
230
1.0
 70
    24
 71
     2
 72
     6
 73
     3
 74
     0
 42
0.0000000001
 43
0.0000000001
 40
0.0
 40
0.0
 40
0.0
 40
0.0607388745901289
 40
0.0607388745901289
 40
0.0607388745901289
 10
466.8907810588748
 20
1249.902195855173
 30
0.0
 10
466.9211504961698
 20
1249.902195855173
 30
0.0
 10
466.9515199334649
 20
1249.902195855173
 30
0.0
  0
SPLINE
  5
A5
330
1F
100
AcDbEntity
  8
MAKE2D VISIBLE LINES
100
AcDbSpline
210
0.0
220
0.0
230
1.0
 70
    24
 71
     2
 72
     6
 73
     3
 74
     0
 42
0.0000000001
 43
0.0000000001
 40
0.0
 40
0.0
 40
0.0
 40
0.010161123690466
 40
0.010161123690466
 40
0.010161123690466
 10
467.0022505657818
 20
1249.902195855173
 30
0.0
 10
467.007331127627
 20
1249.902195855173
 30
0.0
 10
467.0124116894722
 20
1249.902195855173
 30
0.0
  0
SPLINE
  5
A6
330
1F
100
AcDbEntity
  8
MAKE2D VISIBLE LINES
100
AcDbSpline
210
0.0
220
0.0
230
1.0
 70
    24
 71
     2
 72
     6
 73
     3
 74
     0
 42
0.0000000001
 43
0.0000000001
 40
0.0
 40
0.0
 40
0.0
 40
0.0063538427112348
 40
0.0063538427112348
 40
0.0063538427112348
 10
467.1063531507205
 20
1249.902195855173
 30
0.0
 10
467.1095300720762
 20
1249.902195855173
 30
0.0
 10
467.1127069934317
 20
1249.902195855173
 30
0.0
  0
SPLINE
  5
A7
330
1F
100
AcDbEntity
  8
MAKE2D VISIBLE LINES
100
AcDbSpline
210
0.0
220
0.0
230
1.0
 70
    24
 71
     2
 72
     6
 73
     3
 74
     0
 42
0.0000000001
 43
0.0000000001
 40
0.0
 40
0.0
 40
0.0
 40
0.0120233161382259
 40
0.0120233161382259
 40
0.0120233161382259
 10
432.1748926554628
 20
1249.902195855173
 30
0.0
 10
432.180904313532
 20
1249.902195855173
 30
0.0
 10
432.1869159716011
 20
1249.902195855173
 30
0.0
  0
SPLINE
  5
A8
330
1F
100
AcDbEntity
  8
MAKE2D VISIBLE LINES
100
AcDbSpline
210
0.0
220
0.0
230
1.0
 70
    24
 71
     2
 72
     6
 73
     3
 74
     0
 42
0.0000000001
 43
0.0000000001
 40
0.0
 40
0.0
 40
0.0
 40
0.0161398407396405
 40
0.0161398407396405
 40
0.0161398407396405
 10
432.2617188883114
 20
1249.902195855173
 30
0.0
 10
432.2697888086813
 20
1249.902195855173
 30
0.0
 10
432.2778587290511
 20
1249.902195855173
 30
0.0
  0
SPLINE
  5
A9
330
1F
100
AcDbEntity
  8
MAKE2D VISIBLE LINES
100
AcDbSpline
210
0.0
220
0.0
230
1.0
 70
    24
 71
     2
 72
     6
 73
     3
 74
     0
 42
0.0000000001
 43
0.0000000001
 40
0.0
 40
0.0
 40
0.0
 40
0.0817915373985443
 40
0.0817915373985443
 40
0.0817915373985443
 10
432.3642957788351
 20
1249.902195855173
 30
0.0
 10
432.4051915475343
 20
1249.902195855173
 30
0.0
 10
432.4460873162336
 20
1249.902195855173
 30
0.0
  0
SPLINE
  5
AA
330
1F
100
AcDbEntity
  8
MAKE2D VISIBLE LINES
100
AcDbSpline
210
0.0
220
0.0
230
1.0
 70
    24
 71
     2
 72
     6
 73
     3
 74
     0
 42
0.0000000001
 43
0.0000000001
 40
0.0
 40
0.0
 40
0.0
 40
0.0772488366380628
 40
0.0772488366380628
 40
0.0772488366380628
 10
432.4898470814517
 20
1249.902195855173
 30
0.0
 10
432.5284714997707
 20
1249.902195855173
 30
0.0
 10
432.5670959180897
 20
1249.902195855173
 30
0.0
  0
SPLINE
  5
AB
330
1F
100
AcDbEntity
  8
MAKE2D VISIBLE LINES
100
AcDbSpline
210
0.0
220
0.0
230
1.0
 70
    24
 71
     2
 72
     6
 73
     3
 74
     0
 42
0.0000000001
 43
0.0000000001
 40
0.0
 40
0.0
 40
0.0
 40
0.065756951335004
 40
0.065756951335004
 40
0.065756951335004
 10
432.6990044504658
 20
1249.902195855173
 30
0.0
 10
432.7318829261333
 20
1249.902195855173
 30
0.0
 10
432.7647614018008
 20
1249.902195855173
 30
0.0
  0
SPLINE
  5
AC
330
1F
100
AcDbEntity
  8
MAKE2D VISIBLE LINES
100
AcDbSpline
210
0.0
220
0.0
230
1.0
 70
    24
 71
     2
 72
     6
 73
     3
 74
     0
 42
0.0000000001
 43
0.0000000001
 40
0.0
 40
0.0
 40
0.0
 40
0.0441354816641422
 40
0.0441354816641422
 40
0.0441354816641422
 10
432.9532366980574
 20
1249.902195855173
 30
0.0
 10
432.9753044388895
 20
1249.902195855173
 30
0.0
 10
432.9973721797215
 20
1249.902195855173
 30
0.0
  0
SPLINE
  5
AD
330
1F
100
AcDbEntity
  8
MAKE2D VISIBLE LINES
100
AcDbSpline
210
0.0
220
0.0
230
1.0
 70
    24
 71
     2
 72
     6
 73
     3
 74
     0
 42
0.0000000001
 43
0.0000000001
 40
0.0
 40
0.0
 40
0.0
 40
0.2544237042585564
 40
0.2544237042585564
 40
0.2544237042585564
 10
433.252044434895
 20
1249.902195855173
 30
0.0
 10
433.3792562870242
 20
1249.902195855173
 30
0.0
 10
433.5064681391535
 20
1249.902195855173
 30
0.0
  0
SPLINE
  5
AE
330
1F
100
AcDbEntity
  8
MAKE2D VISIBLE LINES
100
AcDbSpline
210
0.0
220
0.0
230
1.0
 70
    24
 71
     2
 72
     6
 73
     3
 74
     0
 42
0.0000000001
 43
0.0000000001
 40
0.0
 40
0.0
 40
0.0
 40
0.2382579381957157
 40
0.2382579381957157
 40
0.2382579381957157
 10
435.2993608646536
 20
1249.902195855173
 30
0.0
 10
435.4184898337515
 20
1249.902195855173
 30
0.0
 10
435.5376188028494
 20
1249.902195855173
 30
0.0
  0
SPLINE
  5
AF
330
1F
100
AcDbEntity
  8
MAKE2D VISIBLE LINES
100
AcDbSpline
210
0.0
220
0.0
230
1.0
 70
    24
 71
     2
 72
     6
 73
     3
 74
     0
 42
0.0000000001
 43
0.0000000001
 40
0.0
 40
0.0
 40
0.0
 40
0.32453246708287
 40
0.32453246708287
 40
0.32453246708287
 10
317.343197758022
 20
1405.002677581274
 30
0.0
 10
317.3650238022756
 20
1405.163469230125
 30
0.0
 10
317.3868498465292
 20
1405.324260878975
 30
0.0
  0
SPLINE
  5
B0
330
1F
100
AcDbEntity
  8
MAKE2D VISIBLE LINES
100
AcDbSpline
210
0.0
220
0.0
230
1.0
 70
    24
 71
     2
 72
     6
 73
     3
 74
     0
 42
0.0000000001
 43
0.0000000001
 40
0.0
 40
0.0
 40
0.0
 40
0.0276049537724746
 40
0.0276049537724746
 40
0.0276049537724746
 10
318.7642883794654
 20
1415.471798853665
 30
0.0
 10
318.7661449177281
 20
1415.485475901369
 30
0.0
 10
318.7680014559909
 20
1415.499152949072
 30
0.0
  0
SPLINE
  5
B1
330
1F
100
AcDbEntity
  8
MAKE2D VISIBLE LINES
100
AcDbSpline
210
0.0
220
0.0
230
1.0
 70
     8
 71
     3
 72
    15
 73
    11
 74
     0
 42
0.0000000001
 43
0.0000000001
 40
0.0
 40
0.0
 40
0.0
 40
0.0
 40
5.417442901330472
 40
11.02091592102237
 40
16.94228841552313
 40
22.92515202317096
 40
28.97206496518418
 40
34.8336110728476
 40
40.58277083256576
 40
45.92039587418898
 40
45.92039587418898
 40
45.92039587418898
 40
45.92039587418898
 10
469.0546533058608
 20
1197.486626209461
 30
0.0
 10
468.1587220060617
 20
1195.917705634081
 30
0.0
 10
465.8167020512244
 20
1193.034160464327
 30
0.0
 10
461.1319410275755
 20
1189.791374051739
 30
0.0
 10
455.6118676199127
 20
1187.766941164651
 30
0.0
 10
449.6287451113098
 20
1187.071984677353
 30
0.0
 10
443.663586801233
 20
1187.756015310507
 30
0.0
 10
438.094317500727
 20
1189.789188016901
 30
0.0
 10
433.4062791476953
 20
1193.035292158773
 30
0.0
 10
431.0574621664807
 20
1195.941203532984
 30
0.0
 10
430.174777353882
 20
1197.486700238607
 30
0.0
  0
SPLINE
  5
B2
330
1F
100
AcDbEntity
  8
MAKE2D VISIBLE LINES
100
AcDbSpline
210
0.0
220
0.0
230
1.0
 70
    12
 71
     2
 72
     6
 73
     3
 74
     0
 42
0.0000000001
 43
0.0000000001
 40
0.0
 40
0.0
 40
0.0
 40
2.680656947889133
 40
2.680656947889133
 40
2.680656947889133
 10
471.1147353510736
 20
1205.765293282865
 30
0.0
 41
1.0
 10
471.114534458968
 20
1204.4227347382
 30
0.0
 41
0.9975102541772294
 10
470.9254483287095
 20
1203.093558330963
 30
0.0
 41
1.0
  0
SPLINE
  5
B3
330
1F
100
AcDbEntity
  8
MAKE2D VISIBLE LINES
100
AcDbSpline
210
0.0
220
0.0
230
1.0
 70
    12
 71
     2
 72
     6
 73
     3
 74
     0
 42
0.0000000001
 43
0.0000000001
 40
0.0
 40
0.0
 40
0.0
 40
5.946160805980317
 40
5.946160805980317
 40
5.946160805980317
 10
430.1747456974255
 20
1197.486755642377
 30
0.0
 41
1.0
 10
428.7018952051956
 20
1200.110830548855
 30
0.0
 41
0.9821106553482293
 10
428.3040674412974
 20
1203.093579408135
 30
0.0
 41
1.0
  0
SPLINE
  5
B4
330
1F
100
AcDbEntity
  8
MAKE2D VISIBLE LINES
100
AcDbSpline
210
0.0
220
0.0
230
1.0
 70
    12
 71
     3
 72
    10
 73
     6
 74
     0
 42
0.0000000001
 43
0.0000000001
 40
0.0000160068687045
 40
0.0000160068687045
 40
0.0000160068687045
 40
0.0000160068687045
 40
3.348422309382729
 40
4.148423095661165
 40
6.708427257971968
 40
6.708427257971968
 40
6.708427257971968
 40
6.708427257971968
 10
470.9254483320258
 20
1203.093558340627
 30
0.0
 41
1.0
 10
470.7776993820263
 20
1202.052173090214
 30
0.0
 41
1.0
 10
470.4859186612563
 20
1200.814680201423
 30
0.0
 41
1.0
 10
469.8173930894662
 20
1198.964174160964
 30
0.0
 41
1.0
 10
469.406442046467
 20
1198.102445540856
 30
0.0
 41
1.0
 10
469.0546872708113
 20
1197.486685650668
 30
0.0
 41
1.0
  0
SPLINE
  5
B5
330
1F
100
AcDbEntity
  8
MAKE2D VISIBLE LINES
100
AcDbSpline
210
0.0
220
0.0
230
1.0
 70
    12
 71
     2
 72
     6
 73
     3
 74
     0
 42
0.0000000001
 43
0.0000000001
 40
0.0
 40
0.0
 40
0.0
 40
0.785408680772296
 40
0.785408680772296
 40
0.785408680772296
 10
244.9315019300551
 20
1375.084579209267
 30
0.0
 41
1.0
 10
244.9053158188435
 20
1374.585265234795
 30
0.0
 41
0.7071195037170261
 10
244.4060009023861
 20
1374.61143337814
 30
0.0
 41
1.0
  0
SPLINE
  5
B6
330
1F
100
AcDbEntity
  8
MAKE2D VISIBLE LINES
100
AcDbSpline
210
0.0
220
0.0
230
1.0
 70
    12
 71
     2
 72
     6
 73
     3
 74
     0
 42
0.0000000001
 43
0.0000000001
 40
0.0
 40
0.0
 40
0.0
 40
0.030936146276751
 40
0.030936146276751
 40
0.030936146276751
 10
283.0581923365698
 20
1424.902195855165
 30
0.0
 41
1.0
 10
283.0736653419771
 20
1424.902195780193
 30
0.0
 41
0.9995219194809749
 10
283.0891087604538
 20
1424.901239369145
 30
0.0
 41
1.0
  0
SPLINE
  5
B7
330
1F
100
AcDbEntity
  8
MAKE2D VISIBLE LINES
100
AcDbSpline
210
0.0
220
0.0
230
1.0
 70
    12
 71
     2
 72
     6
 73
     3
 74
     0
 42
0.0000000001
 43
0.0000000001
 40
0.0
 40
0.0
 40
0.0
 40
0.7592723429324234
 40
0.7592723429324234
 40
0.7592723429324234
 10
195.4448667091164
 20
1424.428364121862
 30
0.0
 41
1.0
 10
195.469578415761
 20
1424.90232404794
 30
0.0
 41
0.7251890599906606
 10
195.9441821067912
 20
1424.902195855149
 30
0.0
 41
1.0
  0
SPLINE
  5
B8
330
1F
100
AcDbEntity
  8
MAKE2D VISIBLE LINES
100
AcDbSpline
210
0.0
220
0.0
230
1.0
 70
    12
 71
     2
 72
     8
 73
     5
 74
     0
 42
0.0000000001
 43
0.0000000001
 40
0.0
 40
0.0
 40
0.0
 40
0.3927447424042179
 40
0.3927447424042179
 40
0.7854894848084358
 40
0.7854894848084358
 40
0.7854894848084358
 10
319.069102168865
 20
1421.435241884165
 30
0.0
 41
1.0
 10
319.2743549142875
 20
1421.407402872476
 30
0.0
 41
0.9238715295429477
 10
319.3997984748344
 20
1421.242576863628
 30
0.0
 41
1.0
 10
319.5252420353814
 20
1421.07775085478
 30
0.0
 41
0.9238715295429477
 10
319.4973858546134
 20
1420.87250043878
 30
0.0
 41
1.0
  0
SPLINE
  5
B9
330
1F
100
AcDbEntity
  8
MAKE2D VISIBLE LINES
100
AcDbSpline
210
0.0
220
0.0
230
1.0
 70
    12
 71
     2
 72
     6
 73
     3
 74
     0
 42
0.0000000001
 43
0.0000000001
 40
0.0
 40
0.0
 40
0.0
 40
0.785379453041127
 40
0.785379453041127
 40
0.785379453041127
 10
432.1139532481253
 20
1249.902195855174
 30
0.0
 41
1.0
 10
431.6139792408858
 20
1249.902188360284
 30
0.0
 41
0.707134183923446
 10
431.6139329939371
 20
1250.40216236544
 30
0.0
 41
1.0
  0
SPLINE
  5
BA
330
1F
100
AcDbEntity
  8
MAKE2D VISIBLE LINES
100
AcDbSpline
210
0.0
220
0.0
230
1.0
 70
    12
 71
     2
 72
     6
 73
     3
 74
     0
 42
0.0000000001
 43
0.0000000001
 40
0.0
 40
0.0
 40
0.0
 40
0.784657214037601
 40
0.784657214037601
 40
0.784657214037601
 10
314.7895211401317
 20
1386.189837780977
 30
0.0
 41
1.0
 10
314.7223597063793
 20
1385.695117723718
 30
0.0
 41
0.7076335531774309
 10
314.2275400951228
 20
1385.761541706994
 30
0.0
 41
1.0
  0
SPLINE
  5
BB
330
1F
100
AcDbEntity
  8
MAKE2D VISIBLE LINES
100
AcDbSpline
210
0.0
220
0.0
230
1.0
 70
    12
 71
     2
 72
     8
 73
     5
 74
     0
 42
0.0000000001
 43
0.0000000001
 40
0.0
 40
0.0
 40
0.0
 40
0.3927109995324728
 40
0.3927109995324728
 40
0.7854219990649457
 40
0.7854219990649457
 40
0.7854219990649457
 10
467.6148776520598
 20
1250.402220510783
 30
0.0
 41
1.0
 10
467.6148831555095
 20
1250.19510726978
 30
0.0
 41
0.9238783889112339
 10
467.4684349945309
 20
1250.048653076343
 30
0.0
 41
1.0
 10
467.3219868335523
 20
1249.902198882907
 30
0.0
 41
0.9238783889112339
 10
467.1148735924983
 20
1249.902195855173
 30
0.0
 41
1.0
  0
SPLINE
  5
BC
330
1F
100
AcDbEntity
  8
MAKE2D VISIBLE LINES
100
AcDbSpline
210
0.0
220
0.0
230
1.0
 70
    12
 71
     2
 72
     8
 73
     5
 74
     0
 42
0.0000000001
 43
0.0000000001
 40
0.0
 40
0.0
 40
0.0
 40
0.3928962648538293
 40
0.3928962648538293
 40
0.7857925297076587
 40
0.7857925297076587
 40
0.7857925297076587
 10
422.1149238895572
 20
1124.902195855176
 30
0.0
 41
1.0
 10
421.9077017238304
 20
1124.902197686194
 30
0.0
 41
0.9238049210161895
 10
421.7612319551366
 20
1125.048784291417
 30
0.0
 41
1.0
 10
421.6147621864429
 20
1125.195370896639
 30
0.0
 41
0.9238049210161895
 10
421.6149255872155
 20
1125.402592997951
 30
0.0
 41
1.0
  0
SPLINE
  5
BD
330
1F
100
AcDbEntity
  8
MAKE2D VISIBLE LINES
100
AcDbSpline
210
0.0
220
0.0
230
1.0
 70
    12
 71
     2
 72
     6
 73
     3
 74
     0
 42
0.0000000001
 43
0.0000000001
 40
0.0
 40
0.0
 40
0.0
 40
0.7854124564269083
 40
0.7854124564269083
 40
0.7854124564269083
 10
193.4738547024853
 20
1377.280674054596
 30
0.0
 41
1.0
 10
192.9745329155309
 20
1377.306835712388
 30
0.0
 41
0.7071114902520109
 10
193.0006879227072
 20
1377.806157847753
 30
0.0
 41
1.0
  0
SPLINE
  5
BE
330
1F
100
AcDbEntity
  8
MAKE2D VISIBLE LINES
100
AcDbSpline
210
0.0
220
0.0
230
1.0
 70
    12
 71
     3
 72
    13
 73
     9
 74
     0
 42
0.0000000001
 43
0.0000000001
 40
0.0
 40
0.0
 40
0.0
 40
0.0
 40
1.53161224034401
 40
3.771731509029562
 40
3.771731509029562
 40
6.01178783538806
 40
6.971794537162006
 40
7.291794714152965
 40
7.291794714152965
 40
7.291794714152965
 40
7.291794714152965
 10
454.5945041957785
 20
1238.580335736602
 30
0.0
 41
1.0
 10
454.8274764214378
 20
1238.126053850306
 30
0.0
 41
1.0
 10
455.4563239248869
 20
1237.035719503242
 30
0.0
 41
1.0
 10
456.2278176321819
 20
1236.036186458871
 30
0.0
 41
1.0
 10
457.246078743003
 20
1234.943776790293
 30
0.0
 41
1.0
 10
458.0470031985254
 20
1234.230703962103
 30
0.0
 41
1.0
 10
459.0292129569782
 20
1233.586157307498
 30
0.0
 41
1.0
 10
459.3998892839261
 20
1233.37456622667
 30
0.0
 41
1.0
 10
459.4933499074697
 20
1233.323157256048
 30
0.0
 41
1.0
  0
SPLINE
  5
BF
330
1F
100
AcDbEntity
  8
MAKE2D VISIBLE LINES
100
AcDbSpline
210
0.0
220
0.0
230
1.0
 70
    12
 71
     3
 72
    12
 73
     8
 74
     0
 42
0.0000000001
 43
0.0000000001
 40
0.0
 40
0.0
 40
0.0
 40
0.0
 40
2.426641868780965
 40
3.706588385644046
 40
4.826505606743575
 40
6.906267872024939
 40
7.226221599955975
 40
7.226221599955975
 40
7.226221599955975
 40
7.226221599955975
 10
439.734993576391
 20
1233.322499450667
 30
0.0
 41
1.0
 10
440.4443260634501
 20
1233.711258619259
 30
0.0
 41
1.0
 10
441.4540008306554
 20
1234.436225615967
 30
0.0
 41
1.0
 10
442.5951817045435
 20
1235.573034420731
 30
0.0
 41
1.0
 10
443.5458555862502
 20
1236.726601906624
 30
0.0
 41
1.0
 10
444.1781750122343
 20
1237.718539245249
 30
0.0
 41
1.0
 10
444.5537272516226
 20
1238.424479507573
 30
0.0
 41
1.0
 10
444.6028481558049
 20
1238.51914481286
 30
0.0
 41
1.0
  0
SPLINE
  5
C0
330
1F
100
AcDbEntity
  8
MAKE2D VISIBLE LINES
100
AcDbSpline
210
0.0
220
0.0
230
1.0
 70
     8
 71
     3
 72
    12
 73
     8
 74
     0
 42
0.0000000001
 43
0.0000000001
 40
0.0
 40
0.0
 40
0.0
 40
0.0
 40
3.168059920796721
 40
6.272052594252878
 40
12.41648832917801
 40
18.40089681295673
 40
24.42264316488893
 40
24.42264316488893
 40
24.42264316488893
 40
24.42264316488893
 10
428.1148794755798
 20
1213.131777059989
 30
0.0
 10
428.1196796469879
 20
1214.187761682125
 30
0.0
 10
428.2654722597621
 20
1216.27790315443
 30
0.0
 10
429.085004556684
 20
1220.343362548111
 30
0.0
 10
431.0395238553934
 20
1225.076087070288
 30
0.0
 10
434.748915449068
 20
1229.923020598806
 30
0.0
 10
437.9758878725471
 20
1232.355242868756
 30
0.0
 10
439.734992913885
 20
1233.32250003638
 30
0.0
  0
SPLINE
  5
C1
330
1F
100
AcDbEntity
  8
MAKE2D VISIBLE LINES
100
AcDbSpline
210
0.0
220
0.0
230
1.0
 70
    24
 71
     2
 72
     6
 73
     3
 74
     0
 42
0.0000000001
 43
0.0000000001
 40
0.0
 40
0.0
 40
0.0
 40
0.2448292800573881
 40
0.2448292800573881
 40
0.2448292800573881
 10
435.5534474478114
 20
1249.902195855173
 30
0.0
 10
435.6758620878401
 20
1249.902195855173
 30
0.0
 10
435.7982767278688
 20
1249.902195855173
 30
0.0
  0
SPLINE
  5
C2
330
1F
100
AcDbEntity
  8
MAKE2D VISIBLE LINES
100
AcDbSpline
210
0.0
220
0.0
230
1.0
 70
    24
 71
     2
 72
     6
 73
     3
 74
     0
 42
0.0000000001
 43
0.0000000001
 40
0.0
 40
0.0
 40
0.0
 40
0.2634199276281777
 40
0.2634199276281777
 40
0.2634199276281777
 10
436.3666905832629
 20
1249.902195855173
 30
0.0
 10
436.498400547077
 20
1249.902195855173
 30
0.0
 10
436.6301105108911
 20
1249.902195855173
 30
0.0
  0
SPLINE
  5
C3
330
1F
100
AcDbEntity
  8
MAKE2D VISIBLE LINES
100
AcDbSpline
210
0.0
220
0.0
230
1.0
 70
    24
 71
     2
 72
     6
 73
     3
 74
     0
 42
0.0000000001
 43
0.0000000001
 40
0.0
 40
0.0
 40
0.0
 40
0.3529460132347424
 40
0.3529460132347424
 40
0.3529460132347424
 10
440.2888558885365
 20
1249.902195855173
 30
0.0
 10
440.4653288951539
 20
1249.902195855173
 30
0.0
 10
440.6418019017713
 20
1249.902195855173
 30
0.0
  0
SPLINE
  5
C4
330
1F
100
AcDbEntity
  8
MAKE2D VISIBLE LINES
100
AcDbSpline
210
0.0
220
0.0
230
1.0
 70
    24
 71
     2
 72
     6
 73
     3
 74
     0
 42
0.0000000001
 43
0.0000000001
 40
0.0
 40
0.0
 40
0.0
 40
0.4589459410579479
 40
0.4589459410579479
 40
0.4589459410579479
 10
443.374773541326
 20
1249.902195855173
 30
0.0
 10
443.604246511855
 20
1249.902195855173
 30
0.0
 10
443.8337194823839
 20
1249.902195855173
 30
0.0
  0
SPLINE
  5
C5
330
1F
100
AcDbEntity
  8
MAKE2D VISIBLE LINES
100
AcDbSpline
210
0.0
220
0.0
230
1.0
 70
    24
 71
     2
 72
     6
 73
     3
 74
     0
 42
0.0000000001
 43
0.0000000001
 40
0.0
 40
0.0
 40
0.0
 40
0.2897058303427951
 40
0.2897058303427951
 40
0.2897058303427951
 10
317.2044307615845
 20
1403.980386326665
 30
0.0
 10
317.2239145818951
 20
1404.123922899634
 30
0.0
 10
317.2433984022057
 20
1404.267459472603
 30
0.0
  0
SPLINE
  5
C6
330
1F
100
AcDbEntity
  8
MAKE2D VISIBLE LINES
100
AcDbSpline
210
0.0
220
0.0
230
1.0
 70
    24
 71
     2
 72
     6
 73
     3
 74
     0
 42
0.0000000001
 43
0.0000000001
 40
0.0
 40
0.0
 40
0.0
 40
0.4467566479285323
 40
0.4467566479285323
 40
0.4467566479285323
 10
317.5077202107601
 20
1406.214708315807
 30
0.0
 10
317.5377662966138
 20
1406.436056702614
 30
0.0
 10
317.5678123824675
 20
1406.657405089421
 30
0.0
  0
SPLINE
  5
C7
330
1F
100
AcDbEntity
  8
MAKE2D VISIBLE LINES
100
AcDbSpline
210
0.0
220
0.0
230
1.0
 70
    24
 71
     2
 72
     6
 73
     3
 74
     0
 42
0.0000000001
 43
0.0000000001
 40
0.0
 40
0.0
 40
0.0
 40
0.4332874957523313
 40
0.4332874957523313
 40
0.4332874957523313
 10
317.8049586626219
 20
1408.404452834842
 30
0.0
 10
317.8340988967002
 20
1408.619127845618
 30
0.0
 10
317.8632391307785
 20
1408.833802856394
 30
0.0
  0
SPLINE
  5
C8
330
1F
100
AcDbEntity
  8
MAKE2D VISIBLE LINES
100
AcDbSpline
210
0.0
220
0.0
230
1.0
 70
    24
 71
     2
 72
     6
 73
     3
 74
     0
 42
0.0000000001
 43
0.0000000001
 40
0.0
 40
0.0
 40
0.0
 40
2.879699230868717
 40
2.879699230868717
 40
2.879699230868717
 10
318.8866762577939
 20
1416.373425759898
 30
0.0
 10
319.0803469971653
 20
1417.800190828077
 30
0.0
 10
319.2740177365367
 20
1419.226955896257
 30
0.0
  0
SPLINE
  5
C9
330
1F
100
AcDbEntity
  8
MAKE2D VISIBLE LINES
100
AcDbSpline
210
0.0
220
0.0
230
1.0
 70
    24
 71
     2
 72
     6
 73
     3
 74
     0
 42
0.0000000001
 43
0.0000000001
 40
0.0
 40
0.0
 40
0.0
 40
0.0122357141028937
 40
0.0122357141028937
 40
0.0122357141028937
 10
319.4671856124913
 20
1420.650016388518
 30
0.0
 10
319.4680085108591
 20
1420.656078649909
 30
0.0
 10
319.4688314092271
 20
1420.662140911301
 30
0.0
  0
SPLINE
  5
CA
330
1F
100
AcDbEntity
  8
MAKE2D VISIBLE LINES
100
AcDbSpline
210
0.0
220
0.0
230
1.0
 70
    24
 71
     2
 72
     6
 73
     3
 74
     0
 42
0.0000000001
 43
0.0000000001
 40
0.0
 40
0.0
 40
0.0
 40
0.0182697212810658
 40
0.0182697212810658
 40
0.0182697212810658
 10
319.482178647872
 20
1420.760469517455
 30
0.0
 10
319.4834073562005
 20
1420.769521365596
 30
0.0
 10
319.484636064529
 20
1420.778573213737
 30
0.0
  0
SPLINE
  5
CB
330
1F
100
AcDbEntity
  8
MAKE2D VISIBLE LINES
100
AcDbSpline
210
0.0
220
0.0
230
1.0
 70
    24
 71
     2
 72
     6
 73
     3
 74
     0
 42
0.0000000001
 43
0.0000000001
 40
0.0
 40
0.0
 40
0.0
 40
0.0023403260422315
 40
0.0023403260422315
 40
0.0023403260422315
 10
319.4920823495103
 20
1420.833429715723
 30
0.0
 10
319.4922397453487
 20
1420.834589244957
 30
0.0
 10
319.4923971411872
 20
1420.835748774192
 30
0.0
  0
SPLINE
  5
CC
330
1F
100
AcDbEntity
  8
MAKE2D VISIBLE LINES
100
AcDbSpline
210
0.0
220
0.0
230
1.0
 70
    24
 71
     2
 72
     6
 73
     3
 74
     0
 42
0.0000000001
 43
0.0000000001
 40
0.0
 40
0.0
 40
0.0
 40
3.490082319731811
 40
3.490082319731811
 40
3.490082319731811
 10
315.0922247948602
 20
1388.419844244244
 30
0.0
 10
315.3269461213391
 20
1390.14902744695
 30
0.0
 10
315.561667447818
 20
1391.878210649656
 30
0.0
  0
SPLINE
  5
CD
330
1F
100
AcDbEntity
  8
MAKE2D VISIBLE LINES
100
AcDbSpline
210
0.0
220
0.0
230
1.0
 70
    24
 71
     2
 72
     6
 73
     3
 74
     0
 42
0.0000000001
 43
0.0000000001
 40
0.0
 40
0.0
 40
0.0
 40
4.87504099798023
 40
4.87504099798023
 40
4.87504099798023
 10
316.3658609965327
 20
1397.802674340379
 30
0.0
 10
316.693726068143
 20
1400.218044017636
 30
0.0
 10
317.0215911397532
 20
1402.633413694894
 30
0.0
  0
SPLINE
  5
CE
330
1F
100
AcDbEntity
  8
MAKE2D VISIBLE LINES
100
AcDbSpline
210
0.0
220
0.0
230
1.0
 70
    24
 71
     2
 72
     6
 73
     3
 74
     0
 42
0.0000000001
 43
0.0000000001
 40
0.0
 40
0.0
 40
0.0
 40
0.0939414607049684
 40
0.0939414607049684
 40
0.0939414607049684
 10
467.1063531502207
 20
1249.902195855173
 30
0.0
 10
467.0593824198682
 20
1249.902195855173
 30
0.0
 10
467.0124116895157
 20
1249.902195855173
 30
0.0
  0
SPLINE
  5
CF
330
1F
100
AcDbEntity
  8
MAKE2D VISIBLE LINES
100
AcDbSpline
210
0.0
220
0.0
230
1.0
 70
    24
 71
     2
 72
     6
 73
     3
 74
     0
 42
0.0000000001
 43
0.0000000001
 40
0.0
 40
0.0
 40
0.0
 40
0.2573937021215613
 40
0.2573937021215613
 40
0.2573937021215613
 10
436.0872675829884
 20
1249.902195855173
 30
0.0
 10
436.2159644340492
 20
1249.902195855173
 30
0.0
 10
436.3446612851099
 20
1249.902195855173
 30
0.0
  0
SPLINE
  5
D0
330
1F
100
AcDbEntity
  8
MAKE2D VISIBLE LINES
100
AcDbSpline
210
0.0
220
0.0
230
1.0
 70
    24
 71
     2
 72
     6
 73
     3
 74
     0
 42
0.0000000001
 43
0.0000000001
 40
0.0
 40
0.0
 40
0.0
 40
0.276578602863367
 40
0.276578602863367
 40
0.276578602863367
 10
436.9497860698229
 20
1249.902195855173
 30
0.0
 10
437.0880753712546
 20
1249.902195855173
 30
0.0
 10
437.2263646726863
 20
1249.902195855173
 30
0.0
  0
SPLINE
  5
D1
330
1F
100
AcDbEntity
  8
MAKE2D VISIBLE LINES
100
AcDbSpline
210
0.0
220
0.0
230
1.0
 70
    24
 71
     2
 72
     6
 73
     3
 74
     0
 42
0.0000000001
 43
0.0000000001
 40
0.0
 40
0.0
 40
0.0
 40
0.762881206261369
 40
0.762881206261369
 40
0.762881206261369
 10
441.0309532882882
 20
1249.902195855173
 30
0.0
 10
441.4123938914188
 20
1249.902195855173
 30
0.0
 10
441.7938344945495
 20
1249.902195855173
 30
0.0
  0
SPLINE
  5
D2
330
1F
100
AcDbEntity
  8
MAKE2D VISIBLE LINES
100
AcDbSpline
210
0.0
220
0.0
230
1.0
 70
    24
 71
     2
 72
     6
 73
     3
 74
     0
 42
0.0000000001
 43
0.0000000001
 40
0.0
 40
0.0
 40
0.0
 40
0.6413232072648327
 40
0.6413232072648327
 40
0.6413232072648327
 10
444.8887488593163
 20
1249.902195855173
 30
0.0
 10
445.2094104629487
 20
1249.902195855173
 30
0.0
 10
445.5300720665811
 20
1249.902195855173
 30
0.0
  0
SPLINE
  5
D3
330
1F
100
AcDbEntity
  8
MAKE2D VISIBLE LINES
100
AcDbSpline
210
0.0
220
0.0
230
1.0
 70
    24
 71
     2
 72
     6
 73
     3
 74
     0
 42
0.0000000001
 43
0.0000000001
 40
0.0
 40
0.0
 40
0.0
 40
0.4500574451458622
 40
0.4500574451458622
 40
0.4500574451458622
 10
317.3868498465878
 20
1405.324260879406
 30
0.0
 10
317.417117923624
 20
1405.547244666923
 30
0.0
 10
317.4473860006602
 20
1405.77022845444
 30
0.0
  0
SPLINE
  5
D4
330
1F
100
AcDbEntity
  8
MAKE2D VISIBLE LINES
100
AcDbSpline
210
0.0
220
0.0
230
1.0
 70
    24
 71
     2
 72
     6
 73
     3
 74
     0
 42
0.0000000001
 43
0.0000000001
 40
0.0
 40
0.0
 40
0.0
 40
0.4395695204325786
 40
0.4395695204325786
 40
0.4395695204325786
 10
317.6871102068818
 20
1407.536267684444
 30
0.0
 10
317.7166729310422
 20
1407.754055163799
 30
0.0
 10
317.7462356552027
 20
1407.971842643153
 30
0.0
  0
SPLINE
  5
D5
330
1F
100
AcDbEntity
  8
MAKE2D VISIBLE LINES
100
AcDbSpline
210
0.0
220
0.0
230
1.0
 70
    24
 71
     2
 72
     6
 73
     3
 74
     0
 42
0.0000000001
 43
0.0000000001
 40
0.0
 40
0.0
 40
0.0
 40
0.2714852836536988
 40
0.2714852836536988
 40
0.2714852836536988
 10
318.7680014561867
 20
1415.499152950511
 30
0.0
 10
318.7862598753474
 20
1415.6336620392
 30
0.0
 10
318.8045182945079
 20
1415.768171127889
 30
0.0
  0
SPLINE
  5
D6
330
1F
100
AcDbEntity
  8
MAKE2D VISIBLE LINES
100
AcDbSpline
210
0.0
220
0.0
230
1.0
 70
    24
 71
     2
 72
     6
 73
     3
 74
     0
 42
0.0000000001
 43
0.0000000001
 40
0.0
 40
0.0
 40
0.0
 40
0.1102407757058817
 40
0.1102407757058817
 40
0.1102407757058817
 10
319.418697235801
 20
1420.292804337286
 30
0.0
 10
319.4261113477718
 20
1420.347423821911
 30
0.0
 10
319.4335254597426
 20
1420.402043306537
 30
0.0
  0
SPLINE
  5
D7
330
1F
100
AcDbEntity
  8
MAKE2D VISIBLE LINES
100
AcDbSpline
210
0.0
220
0.0
230
1.0
 70
    24
 71
     2
 72
     6
 73
     3
 74
     0
 42
0.0000000001
 43
0.0000000001
 40
0.0
 40
0.0
 40
0.0
 40
0.050730632348575
 40
0.050730632348575
 40
0.050730632348575
 10
467.0022505657846
 20
1249.902195855173
 30
0.0
 10
466.9768852496103
 20
1249.902195855173
 30
0.0
 10
466.951519933436
 20
1249.902195855173
 30
0.0
  0
SPLINE
  5
D8
330
1F
100
AcDbEntity
  8
MAKE2D VISIBLE LINES
100
AcDbSpline
210
0.0
220
0.0
230
1.0
 70
    24
 71
     2
 72
     6
 73
     3
 74
     0
 42
0.0000000001
 43
0.0000000001
 40
0.0
 40
0.0
 40
0.0
 40
0.2512023438153221
 40
0.2512023438153221
 40
0.2512023438153221
 10
435.8161347792137
 20
1249.902195855173
 30
0.0
 10
435.9417359511214
 20
1249.902195855173
 30
0.0
 10
436.0673371230291
 20
1249.902195855173
 30
0.0
  0
SPLINE
  5
D9
330
1F
100
AcDbEntity
  8
MAKE2D VISIBLE LINES
100
AcDbSpline
210
0.0
220
0.0
230
1.0
 70
    24
 71
     2
 72
     6
 73
     3
 74
     0
 42
0.0000000001
 43
0.0000000001
 40
0.0
 40
0.0
 40
0.0
 40
0.2692975929872148
 40
0.2692975929872148
 40
0.2692975929872148
 10
436.6542485041653
 20
1249.902195855173
 30
0.0
 10
436.7888973006588
 20
1249.902195855173
 30
0.0
 10
436.9235460971524
 20
1249.902195855173
 30
0.0
  0
SPLINE
  5
DA
330
1F
100
AcDbEntity
  8
MAKE2D VISIBLE LINES
100
AcDbSpline
210
0.0
220
0.0
230
1.0
 70
    24
 71
     2
 72
     6
 73
     3
 74
     0
 42
0.0000000001
 43
0.0000000001
 40
0.0
 40
0.0
 40
0.0
 40
0.3600000913161239
 40
0.3600000913161239
 40
0.3600000913161239
 10
440.6571945028439
 20
1249.902195855173
 30
0.0
 10
440.837194548502
 20
1249.902195855173
 30
0.0
 10
441.0171945941601
 20
1249.902195855173
 30
0.0
  0
SPLINE
  5
DB
330
1F
100
AcDbEntity
  8
MAKE2D VISIBLE LINES
100
AcDbSpline
210
0.0
220
0.0
230
1.0
 70
    24
 71
     2
 72
     6
 73
     3
 74
     0
 42
0.0000000001
 43
0.0000000001
 40
0.0
 40
0.0
 40
0.0
 40
0.5007066113046506
 40
0.5007066113046506
 40
0.5007066113046506
 10
444.1959303104876
 20
1249.902195855173
 30
0.0
 10
444.4462836161399
 20
1249.902195855173
 30
0.0
 10
444.6966369217922
 20
1249.902195855173
 30
0.0
  0
SPLINE
  5
DC
330
1F
100
AcDbEntity
  8
MAKE2D VISIBLE LINES
100
AcDbSpline
210
0.0
220
0.0
230
1.0
 70
    24
 71
     2
 72
     6
 73
     3
 74
     0
 42
0.0000000001
 43
0.0000000001
 40
0.0
 40
0.0
 40
0.0
 40
0.1267281532918074
 40
0.1267281532918074
 40
0.1267281532918074
 10
317.3261518561226
 20
1404.877101061742
 30
0.0
 10
317.3346748070212
 20
1404.939889321131
 30
0.0
 10
317.3431977579197
 20
1405.002677580521
 30
0.0
  0
SPLINE
  5
DD
330
1F
100
AcDbEntity
  8
MAKE2D VISIBLE LINES
100
AcDbSpline
210
0.0
220
0.0
230
1.0
 70
    24
 71
     2
 72
     6
 73
     3
 74
     0
 42
0.0000000001
 43
0.0000000001
 40
0.0
 40
0.0
 40
0.0
 40
0.3536959875999908
 40
0.3536959875999908
 40
0.3536959875999908
 10
317.6276224155911
 20
1407.098023358677
 30
0.0
 10
317.6514098176562
 20
1407.273264256912
 30
0.0
 10
317.6751972197213
 20
1407.448505155146
 30
0.0
  0
SPLINE
  5
DE
330
1F
100
AcDbEntity
  8
MAKE2D VISIBLE LINES
100
AcDbSpline
210
0.0
220
0.0
230
1.0
 70
    24
 71
     2
 72
     6
 73
     3
 74
     0
 42
0.0000000001
 43
0.0000000001
 40
0.0
 40
0.0
 40
0.0
 40
6.269172347270802
 40
6.269172347270802
 40
6.269172347270802
 10
317.9210369518766
 20
1409.25959723518
 30
0.0
 10
318.3426626656762
 20
1412.365698044459
 30
0.0
 10
318.7642883794758
 20
1415.471798853739
 30
0.0
  0
SPLINE
  5
DF
330
1F
100
AcDbEntity
  8
MAKE2D VISIBLE LINES
100
AcDbSpline
210
0.0
220
0.0
230
1.0
 70
    24
 71
     2
 72
     6
 73
     3
 74
     0
 42
0.0000000001
 43
0.0000000001
 40
0.0
 40
0.0
 40
0.0
 40
0.0749101198321172
 40
0.0749101198321172
 40
0.0749101198321172
 10
319.3922771972352
 20
1420.098168904758
 30
0.0
 10
319.3973151880568
 20
1420.135283594057
 30
0.0
 10
319.4023531788785
 20
1420.172398283356
 30
0.0
  0
SPLINE
  5
E0
330
1F
100
AcDbEntity
  8
MAKE2D VISIBLE LINES
100
AcDbSpline
210
0.0
220
0.0
230
1.0
 70
    24
 71
     2
 72
     6
 73
     3
 74
     0
 42
0.0000000001
 43
0.0000000001
 40
0.0
 40
0.0
 40
0.0
 40
0.0825126942263523
 40
0.0825126942263523
 40
0.0825126942263523
 10
466.8907810588778
 20
1249.902195855173
 30
0.0
 10
466.8495247117647
 20
1249.902195855173
 30
0.0
 10
466.8082683646515
 20
1249.902195855173
 30
0.0
  0
SPLINE
  5
E1
330
1F
100
AcDbEntity
  8
MAKE2D VISIBLE LINES
100
AcDbSpline
210
0.0
220
0.0
230
1.0
 70
    24
 71
     2
 72
     6
 73
     3
 74
     0
 42
0.0000000001
 43
0.0000000001
 40
0.0
 40
0.0
 40
0.0
 40
0.0992599585670746
 40
0.0992599585670746
 40
0.0992599585670746
 10
466.7200311295141
 20
1249.902195855173
 30
0.0
 10
466.6704011502305
 20
1249.902195855173
 30
0.0
 10
466.620771170947
 20
1249.902195855173
 30
0.0
  0
SPLINE
  5
E2
330
1F
100
AcDbEntity
  8
MAKE2D VISIBLE LINES
100
AcDbSpline
210
0.0
220
0.0
230
1.0
 70
    24
 71
     2
 72
     6
 73
     3
 74
     0
 42
0.0000000001
 43
0.0000000001
 40
0.0
 40
0.0
 40
0.0
 40
0.141725821453349
 40
0.141725821453349
 40
0.141725821453349
 10
466.5310635722213
 20
1249.902195855173
 30
0.0
 10
466.4602006614946
 20
1249.902195855173
 30
0.0
 10
466.3893377507679
 20
1249.902195855173
 30
0.0
  0
SPLINE
  5
E3
330
1F
100
AcDbEntity
  8
MAKE2D VISIBLE LINES
100
AcDbSpline
210
0.0
220
0.0
230
1.0
 70
    24
 71
     2
 72
     6
 73
     3
 74
     0
 42
0.0000000001
 43
0.0000000001
 40
0.0
 40
0.0
 40
0.0
 40
0.2009169929159498
 40
0.2009169929159498
 40
0.2009169929159498
 10
466.3338557316141
 20
1249.902195855173
 30
0.0
 10
466.2333972351561
 20
1249.902195855173
 30
0.0
 10
466.1329387386981
 20
1249.902195855173
 30
0.0
  0
SPLINE
  5
E4
330
1F
100
AcDbEntity
  8
MAKE2D VISIBLE LINES
100
AcDbSpline
210
0.0
220
0.0
230
1.0
 70
    24
 71
     2
 72
     6
 73
     3
 74
     0
 42
0.0000000001
 43
0.0000000001
 40
0.0
 40
0.0
 40
0.0
 40
0.5298792587183812
 40
0.5298792587183812
 40
0.5298792587183812
 10
466.0755452710742
 20
1249.902195855173
 30
0.0
 10
465.810605641715
 20
1249.902195855173
 30
0.0
 10
465.5456660123559
 20
1249.902195855173
 30
0.0
  0
SPLINE
  5
E5
330
1F
100
AcDbEntity
  8
MAKE2D VISIBLE LINES
100
AcDbSpline
210
0.0
220
0.0
230
1.0
 70
    24
 71
     2
 72
     6
 73
     3
 74
     0
 42
0.0000000001
 43
0.0000000001
 40
0.0
 40
0.0
 40
0.0
 40
9.540981484423241
 40
9.540981484423241
 40
9.540981484423241
 10
465.3627122792346
 20
1249.902195855173
 30
0.0
 10
460.592221537023
 20
1249.902195855173
 30
0.0
 10
455.8217307948113
 20
1249.902195855173
 30
0.0
  0
SPLINE
  5
E6
330
1F
100
AcDbEntity
  8
MAKE2D VISIBLE LINES
100
AcDbSpline
210
0.0
220
0.0
230
1.0
 70
    24
 71
     2
 72
     6
 73
     3
 74
     0
 42
0.0000000001
 43
0.0000000001
 40
0.0
 40
0.0
 40
0.0
 40
0.4828210118843117
 40
0.4828210118843117
 40
0.4828210118843117
 10
455.4489966361051
 20
1249.902195855173
 30
0.0
 10
455.207586130163
 20
1249.902195855173
 30
0.0
 10
454.9661756242208
 20
1249.902195855173
 30
0.0
  0
SPLINE
  5
E7
330
1F
100
AcDbEntity
  8
MAKE2D VISIBLE LINES
100
AcDbSpline
210
0.0
220
0.0
230
1.0
 70
    24
 71
     2
 72
     6
 73
     3
 74
     0
 42
0.0000000001
 43
0.0000000001
 40
0.0
 40
0.0
 40
0.0
 40
0.6467247496468644
 40
0.6467247496468644
 40
0.6467247496468644
 10
454.7429927355159
 20
1249.902195855173
 30
0.0
 10
454.4196303606925
 20
1249.902195855173
 30
0.0
 10
454.0962679858691
 20
1249.902195855173
 30
0.0
  0
SPLINE
  5
E8
330
1F
100
AcDbEntity
  8
MAKE2D VISIBLE LINES
100
AcDbSpline
210
0.0
220
0.0
230
1.0
 70
     8
 71
     3
 72
    11
 73
     7
 74
     0
 42
0.0000000001
 43
0.0000000001
 40
0.0
 40
0.0
 40
0.0
 40
0.0
 40
4.817304656371482
 40
9.498649963096806
 40
18.5710195627501
 40
36.15407304408848
 40
36.15407304408848
 40
36.15407304408848
 40
36.15407304408848
 10
283.089289502726
 20
1424.901208606062
 30
0.0
 10
284.6919867478999
 20
1424.801913941826
 30
0.0
 10
287.8513332395777
 20
1424.593129747361
 30
0.0
 10
294.0245915051486
 20
1424.132656874702
 30
0.0
 10
304.4308516626254
 20
1423.22294393456
 30
0.0
 10
313.2600597636111
 20
1422.21437939526
 30
0.0
 10
319.0689988737911
 20
1421.434480303883
 30
0.0
  0
SPLINE
  5
E9
330
1F
100
AcDbEntity
  8
MAKE2D VISIBLE LINES
100
AcDbSpline
210
0.0
220
0.0
230
1.0
 70
    24
 71
     2
 72
     6
 73
     3
 74
     0
 42
0.0000000001
 43
0.0000000001
 40
0.0
 40
0.0
 40
0.0
 40
3.000000000013541
 40
3.000000000013541
 40
3.000000000013541
 10
269.0902491147469
 20
1384.802050561857
 30
0.0
 10
270.5900206574883
 20
1384.775871952201
 30
0.0
 10
272.0897922002296
 20
1384.749693342545
 30
0.0
  0
SPLINE
  5
EA
330
1F
100
AcDbEntity
  8
MAKE2D VISIBLE LINES
100
AcDbSpline
210
0.0
220
0.0
230
1.0
 70
    24
 71
     2
 72
     6
 73
     3
 74
     0
 42
0.0000000001
 43
0.0000000001
 40
0.0
 40
0.0
 40
0.0
 40
2.180291084303262
 40
2.180291084303262
 40
2.180291084303262
 10
253.1481897248368
 20
1388.261095775421
 30
0.0
 10
253.1291640617593
 20
1387.171116267716
 30
0.0
 10
253.1101383986819
 20
1386.08113676001
 30
0.0
  0
SPLINE
  5
EB
330
1F
100
AcDbEntity
  8
MAKE2D VISIBLE LINES
100
AcDbSpline
210
0.0
220
0.0
230
1.0
 70
    12
 71
     2
 72
     6
 73
     3
 74
     0
 42
0.0000000001
 43
0.0000000001
 40
0.0
 40
0.0
 40
0.0
 40
11.08925085087606
 40
11.08925085087606
 40
11.08925085087606
 10
314.2275402114353
 20
1385.761542564146
 30
0.0
 41
1.0
 10
308.7317448065309
 20
1386.498151210383
 30
0.0
 41
0.9999149086633642
 10
303.2186032236579
 20
1387.091134614429
 30
0.0
 41
1.0
  0
SPLINE
  5
EC
330
1F
100
AcDbEntity
  8
MAKE2D VISIBLE LINES
100
AcDbSpline
210
0.0
220
0.0
230
1.0
 70
    28
 71
     3
 72
    11
 73
     7
 74
     0
 42
0.0000000001
 43
0.0000000001
 40
42.41012602545375
 40
42.41012602545375
 40
42.41012602545375
 40
42.41012602545375
 40
45.69126731000217
 40
49.24555529913266
 40
52.81788360898534
 40
56.54683470063873
 40
56.54683470063873
 40
56.54683470063873
 40
56.54683470063873
 10
283.935245452741
 20
1384.840255779588
 30
0.0
 41
1.0
 10
283.9350528954279
 20
1384.840273284799
 30
0.0
 41
1.0
 10
284.3538334806537
 20
1384.802202322505
 30
0.0
 41
1.0
 10
286.2303424000692
 20
1384.631610602558
 30
0.0
 41
1.0
 10
289.2377897790324
 20
1384.35820629538
 30
0.0
 41
1.0
 10
291.6604962971382
 20
1384.137960248279
 30
0.0
 41
1.0
 10
292.8986627556249
 20
1384.025399661144
 30
0.0
 41
1.0
  0
SPLINE
  5
ED
330
1F
100
AcDbEntity
  8
MAKE2D VISIBLE LINES
100
AcDbSpline
210
0.0
220
0.0
230
1.0
 70
    12
 71
     2
 72
     6
 73
     3
 74
     0
 42
0.0000000001
 43
0.0000000001
 40
0.0
 40
0.0
 40
0.0
 40
10.13847499693913
 40
10.13847499693913
 40
10.13847499693913
 10
283.2927305512611
 20
1388.81375559352
 30
0.0
 41
1.0
 10
278.234473305159
 20
1389.149285474209
 30
0.0
 41
0.9999597879632909
 10
273.1710119281223
 20
1389.394041581052
 30
0.0
 41
1.0
  0
SPLINE
  5
EE
330
1F
100
AcDbEntity
  8
MAKE2D VISIBLE LINES
100
AcDbSpline
210
0.0
220
0.0
230
1.0
 70
    12
 71
     2
 72
     6
 73
     3
 74
     0
 42
0.0000000001
 43
0.0000000001
 40
0.0
 40
0.0
 40
0.0
 40
15.72736005174137
 40
15.72736005174137
 40
15.72736005174137
 10
253.1481897248368
 20
1388.26109577542
 30
0.0
 41
1.0
 10
245.4152355452964
 20
1384.333546229597
 30
0.0
 41
0.8657019430608383
 10
244.9613158499475
 20
1375.672242477393
 30
0.0
 41
1.0
  0
SPLINE
  5
EF
330
1F
100
AcDbEntity
  8
MAKE2D VISIBLE LINES
100
AcDbSpline
210
0.0
220
0.0
230
1.0
 70
    24
 71
     2
 72
     6
 73
     3
 74
     0
 42
0.0000000001
 43
0.0000000001
 40
0.0
 40
0.0
 40
0.0
 40
25.49220824976101
 40
25.49220824976101
 40
25.49220824976101
 10
218.9399845370775
 20
1375.94605074303
 30
0.0
 10
231.6686205692403
 20
1375.278971195283
 30
0.0
 10
244.397256601403
 20
1374.611891647535
 30
0.0
  0
SPLINE
  5
F0
330
1F
100
AcDbEntity
  8
MAKE2D VISIBLE LINES
100
AcDbSpline
210
0.0
220
0.0
230
1.0
 70
    28
 71
     3
 72
    12
 73
     8
 74
     0
 42
0.0000000001
 43
0.0000000001
 40
119.5016886496307
 40
119.5016886496307
 40
119.5016886496307
 40
119.5016886496307
 40
120.1620237387777
 40
129.4585907116645
 40
139.5290733475346
 40
149.650670225442
 40
160.2160316517933
 40
160.2160316517933
 40
160.2160316517933
 40
160.2160316517933
 10
193.4826104213366
 20
1377.280215186814
 30
0.0
 41
1.0
 10
193.4768181722128
 20
1377.280518745727
 30
0.0
 41
1.0
 10
193.4327417555738
 20
1377.282828692842
 30
0.0
 41
1.0
 10
194.66311427349
 20
1377.218347601488
 30
0.0
 41
1.0
 10
199.9944979819845
 20
1376.938941620819
 30
0.0
 41
1.0
 10
208.539011569067
 20
1376.491142638667
 30
0.0
 41
1.0
 10
215.4222072346447
 20
1376.130409639463
 30
0.0
 41
1.0
 10
218.9399845370775
 20
1375.94605074303
 30
0.0
 41
1.0
  0
SPLINE
  5
F1
330
1F
100
AcDbEntity
  8
MAKE2D VISIBLE LINES
100
AcDbSpline
210
0.0
220
0.0
230
1.0
 70
    24
 71
     2
 72
     6
 73
     3
 74
     0
 42
0.0000000001
 43
0.0000000001
 40
0.0
 40
0.0
 40
0.0
 40
11.99999999998566
 40
11.99999999998566
 40
11.99999999998566
 10
269.0902491147469
 20
1384.802050561857
 30
0.0
 10
263.0911629438157
 20
1384.906765000481
 30
0.0
 10
257.0920767728845
 20
1385.011479439105
 30
0.0
  0
SPLINE
  5
F2
330
1F
100
AcDbEntity
  8
MAKE2D VISIBLE LINES
100
AcDbSpline
210
0.0
220
0.0
230
1.0
 70
    28
 71
     3
 72
     9
 73
     5
 74
     0
 42
0.0000000001
 43
0.0000000001
 40
-0.0000000000000003
 40
-0.0000000000000003
 40
-0.0000000000000003
 40
-0.0000000000000003
 40
2.278476424539052
 40
4.712236225090067
 40
4.712236225090067
 40
4.712236225090067
 40
4.712236225090067
 10
254.092533687401
 20
1385.063836658417
 30
0.0
 41
1.0
 10
254.0879086780011
 20
1385.063917388256
 30
0.0
 41
1.0
 10
254.7207043271495
 20
1385.052871899114
 30
0.0
 41
1.0
 10
256.279396884815
 20
1385.025664819316
 30
0.0
 41
1.0
 10
257.0920767728845
 20
1385.011479439105
 30
0.0
 41
1.0
  0
SPLINE
  5
F3
330
1F
100
AcDbEntity
  8
MAKE2D VISIBLE LINES
100
AcDbSpline
210
0.0
220
0.0
230
1.0
 70
    24
 71
     2
 72
     6
 73
     3
 74
     0
 42
0.0000000001
 43
0.0000000001
 40
0.0
 40
0.0
 40
0.0
 40
3.662510767929977
 40
3.662510767929977
 40
3.662510767929977
 10
273.1710119283125
 20
1389.394041581065
 30
0.0
 10
273.1390521150611
 20
1387.563065106165
 30
0.0
 10
273.1070923018097
 20
1385.732088631265
 30
0.0
  0
SPLINE
  5
F4
330
1F
100
AcDbEntity
  8
MAKE2D VISIBLE LINES
100
AcDbSpline
210
0.0
220
0.0
230
1.0
 70
    24
 71
     2
 72
     6
 73
     3
 74
     0
 42
0.0000000001
 43
0.0000000001
 40
0.0
 40
0.0
 40
0.0
 40
9.000340098601582
 40
9.000340098601582
 40
9.000340098601582
 10
292.8986627556249
 20
1384.025399661144
 30
0.0
 10
297.380351535673
 20
1383.617973408413
 30
0.0
 10
301.8620403157211
 20
1383.210547155681
 30
0.0
  0
SPLINE
  5
F5
330
1F
100
AcDbEntity
  8
MAKE2D VISIBLE LINES
100
AcDbSpline
210
0.0
220
0.0
230
1.0
 70
    24
 71
     2
 72
     6
 73
     3
 74
     0
 42
0.0000000001
 43
0.0000000001
 40
0.0
 40
0.0
 40
0.0
 40
18.04887508921013
 40
18.04887508921013
 40
18.04887508921013
 10
239.5283385842955
 20
1424.902195855173
 30
0.0
 10
230.5039010396904
 20
1424.902195855173
 30
0.0
 10
221.4794634950854
 20
1424.902195855173
 30
0.0
  0
SPLINE
  5
F6
330
1F
100
AcDbEntity
  8
MAKE2D VISIBLE LINES
100
AcDbSpline
210
0.0
220
0.0
230
1.0
 70
    24
 71
     2
 72
     6
 73
     3
 74
     0
 42
0.0000000001
 43
0.0000000001
 40
0.0
 40
0.0
 40
0.0
 40
0.1698048365400382
 40
0.1698048365400382
 40
0.1698048365400382
 10
453.8691943245843
 20
1249.902195855173
 30
0.0
 10
453.7842919063143
 20
1249.902195855173
 30
0.0
 10
453.6993894880442
 20
1249.902195855173
 30
0.0
  0
SPLINE
  5
F7
330
1F
100
AcDbEntity
  8
MAKE2D VISIBLE LINES
100
AcDbSpline
210
0.0
220
0.0
230
1.0
 70
    24
 71
     2
 72
     6
 73
     3
 74
     0
 42
0.0000000001
 43
0.0000000001
 40
0.0
 40
0.0
 40
0.0
 40
25.5306018641525
 40
25.5306018641525
 40
25.5306018641525
 10
221.4794634950854
 20
1424.902195855173
 30
0.0
 10
208.7141625630091
 20
1424.902195855173
 30
0.0
 10
195.9488616309329
 20
1424.902195855173
 30
0.0
  0
SPLINE
  5
F8
330
1F
100
AcDbEntity
  8
MAKE2D VISIBLE LINES
100
AcDbSpline
210
0.0
220
0.0
230
1.0
 70
    24
 71
     2
 72
     6
 73
     3
 74
     0
 42
0.0000000001
 43
0.0000000001
 40
0.0
 40
0.0
 40
0.0
 40
0.1921119470848396
 40
0.1921119470848396
 40
0.1921119470848396
 10
444.8887488627935
 20
1249.902195855173
 30
0.0
 10
444.792692889251
 20
1249.902195855173
 30
0.0
 10
444.6966369157086
 20
1249.902195855173
 30
0.0
  0
SPLINE
  5
F9
330
1F
100
AcDbEntity
  8
MAKE2D VISIBLE LINES
100
AcDbSpline
210
0.0
220
0.0
230
1.0
 70
    24
 71
     2
 72
     6
 73
     3
 74
     0
 42
0.0000000001
 43
0.0000000001
 40
0.0
 40
0.0
 40
0.0
 40
0.3622108176308529
 40
0.3622108176308529
 40
0.3622108176308529
 10
444.1959303124
 20
1249.902195855173
 30
0.0
 10
444.0148249035846
 20
1249.902195855173
 30
0.0
 10
443.8337194947691
 20
1249.902195855173
 30
0.0
  0
SPLINE
  5
FA
330
1F
100
AcDbEntity
  8
MAKE2D VISIBLE LINES
100
AcDbSpline
210
0.0
220
0.0
230
1.0
 70
    24
 71
     2
 72
     6
 73
     3
 74
     0
 42
0.0000000001
 43
0.0000000001
 40
0.0
 40
0.0
 40
0.0
 40
1.58093900257029
 40
1.58093900257029
 40
1.58093900257029
 10
443.3747735411318
 20
1249.902195855173
 30
0.0
 10
442.5843040398467
 20
1249.902195855173
 30
0.0
 10
441.7938345385616
 20
1249.902195855173
 30
0.0
  0
SPLINE
  5
FB
330
1F
100
AcDbEntity
  8
MAKE2D VISIBLE LINES
100
AcDbSpline
210
0.0
220
0.0
230
1.0
 70
    24
 71
     2
 72
     6
 73
     3
 74
     0
 42
0.0000000001
 43
0.0000000001
 40
0.0
 40
0.0
 40
0.0
 40
0.0137587161599697
 40
0.0137587161599697
 40
0.0137587161599697
 10
441.0309533102682
 20
1249.902195855173
 30
0.0
 10
441.0240739521882
 20
1249.902195855173
 30
0.0
 10
441.0171945941082
 20
1249.902195855173
 30
0.0
  0
SPLINE
  5
FC
330
1F
100
AcDbEntity
  8
MAKE2D VISIBLE LINES
100
AcDbSpline
210
0.0
220
0.0
230
1.0
 70
    24
 71
     2
 72
     6
 73
     3
 74
     0
 42
0.0000000001
 43
0.0000000001
 40
0.0
 40
0.0
 40
0.0
 40
0.0153926208524524
 40
0.0153926208524524
 40
0.0153926208524524
 10
440.6571945225444
 20
1249.902195855173
 30
0.0
 10
440.6494982121181
 20
1249.902195855173
 30
0.0
 10
440.6418019016919
 20
1249.902195855173
 30
0.0
  0
SPLINE
  5
FD
330
1F
100
AcDbEntity
  8
MAKE2D VISIBLE LINES
100
AcDbSpline
210
0.0
220
0.0
230
1.0
 70
    24
 71
     2
 72
     6
 73
     3
 74
     0
 42
0.0000000001
 43
0.0000000001
 40
0.0
 40
0.0
 40
0.0
 40
3.062491234921083
 40
3.062491234921083
 40
3.062491234921083
 10
440.2888559062145
 20
1249.902195855173
 30
0.0
 10
438.7576102887539
 20
1249.902195855173
 30
0.0
 10
437.2263646712934
 20
1249.902195855173
 30
0.0
  0
SPLINE
  5
FE
330
1F
100
AcDbEntity
  8
MAKE2D VISIBLE LINES
100
AcDbSpline
210
0.0
220
0.0
230
1.0
 70
    24
 71
     2
 72
     6
 73
     3
 74
     0
 42
0.0000000001
 43
0.0000000001
 40
0.0
 40
0.0
 40
0.0
 40
0.0262399741832553
 40
0.0262399741832553
 40
0.0262399741832553
 10
436.9497860698229
 20
1249.902195855173
 30
0.0
 10
436.9366660827313
 20
1249.902195855173
 30
0.0
 10
436.9235460956397
 20
1249.902195855173
 30
0.0
  0
SPLINE
  5
FF
330
1F
100
AcDbEntity
  8
MAKE2D VISIBLE LINES
100
AcDbSpline
210
0.0
220
0.0
230
1.0
 70
    24
 71
     2
 72
     6
 73
     3
 74
     0
 42
0.0000000001
 43
0.0000000001
 40
0.0
 40
0.0
 40
0.0
 40
0.0241379946755558
 40
0.0241379946755558
 40
0.0241379946755558
 10
436.6542485041653
 20
1249.902195855173
 30
0.0
 10
436.6421795068275
 20
1249.902195855173
 30
0.0
 10
436.6301105094897
 20
1249.902195855173
 30
0.0
  0
SPLINE
  5
100
330
1F
100
AcDbEntity
  8
MAKE2D VISIBLE LINES
100
AcDbSpline
210
0.0
220
0.0
230
1.0
 70
    24
 71
     2
 72
     6
 73
     3
 74
     0
 42
0.0000000001
 43
0.0000000001
 40
0.0
 40
0.0
 40
0.0
 40
0.0220292994304145
 40
0.0220292994304145
 40
0.0220292994304145
 10
436.3666905832629
 20
1249.902195855173
 30
0.0
 10
436.3556759335477
 20
1249.902195855173
 30
0.0
 10
436.3446612838325
 20
1249.902195855173
 30
0.0
  0
SPLINE
  5
101
330
1F
100
AcDbEntity
  8
MAKE2D VISIBLE LINES
100
AcDbSpline
210
0.0
220
0.0
230
1.0
 70
    24
 71
     2
 72
     6
 73
     3
 74
     0
 42
0.0000000001
 43
0.0000000001
 40
0.0
 40
0.0
 40
0.0
 40
12.85048558301594
 40
12.85048558301594
 40
12.85048558301594
 10
470.614735136927
 20
1188.612939024536
 30
0.0
 10
470.614735136927
 20
1195.038181816044
 30
0.0
 10
470.614735136927
 20
1201.463424607552
 30
0.0
  0
SPLINE
  5
102
330
1F
100
AcDbEntity
  8
MAKE2D VISIBLE LINES
100
AcDbSpline
210
0.0
220
0.0
230
1.0
 70
    24
 71
     2
 72
     6
 73
     3
 74
     0
 42
0.0000000001
 43
0.0000000001
 40
0.0
 40
0.0
 40
0.0
 40
0.0199304611052469
 40
0.0199304611052469
 40
0.0199304611052469
 10
436.0872675829883
 20
1249.902195855173
 30
0.0
 10
436.0773023524357
 20
1249.902195855173
 30
0.0
 10
436.067337121883
 20
1249.902195855173
 30
0.0
  0
SPLINE
  5
103
330
1F
100
AcDbEntity
  8
MAKE2D VISIBLE LINES
100
AcDbSpline
210
0.0
220
0.0
230
1.0
 70
    24
 71
     2
 72
     6
 73
     3
 74
     0
 42
0.0000000001
 43
0.0000000001
 40
0.0
 40
0.0
 40
0.0
 40
0.0178580523572691
 40
0.0178580523572691
 40
0.0178580523572691
 10
435.8161347792137
 20
1249.902195855173
 30
0.0
 10
435.8072057530351
 20
1249.902195855173
 30
0.0
 10
435.7982767268564
 20
1249.902195855173
 30
0.0
  0
SPLINE
  5
104
330
1F
100
AcDbEntity
  8
MAKE2D VISIBLE LINES
100
AcDbSpline
210
0.0
220
0.0
230
1.0
 70
    24
 71
     2
 72
     6
 73
     3
 74
     0
 42
0.0000000001
 43
0.0000000001
 40
0.0
 40
0.0
 40
0.0
 40
0.015828645843186
 40
0.015828645843186
 40
0.015828645843186
 10
435.5534474478113
 20
1249.902195855173
 30
0.0
 10
435.5455331248897
 20
1249.902195855173
 30
0.0
 10
435.5376188019682
 20
1249.902195855173
 30
0.0
  0
SPLINE
  5
105
330
1F
100
AcDbEntity
  8
MAKE2D VISIBLE LINES
100
AcDbSpline
210
0.0
220
0.0
230
1.0
 70
    24
 71
     2
 72
     6
 73
     3
 74
     0
 42
0.0000000001
 43
0.0000000001
 40
0.0
 40
0.0
 40
0.0
 40
1.792892725492237
 40
1.792892725492237
 40
1.792892725492237
 10
435.2993608646535
 20
1249.902195855173
 30
0.0
 10
434.4029145019074
 20
1249.902195855173
 30
0.0
 10
433.5064681391613
 20
1249.902195855173
 30
0.0
  0
SPLINE
  5
106
330
1F
100
AcDbEntity
  8
MAKE2D VISIBLE LINES
100
AcDbSpline
210
0.0
220
0.0
230
1.0
 70
    24
 71
     2
 72
     6
 73
     3
 74
     0
 42
0.0000000001
 43
0.0000000001
 40
0.0
 40
0.0
 40
0.0
 40
0.254672249140441
 40
0.254672249140441
 40
0.254672249140441
 10
433.2520444290498
 20
1249.902195855173
 30
0.0
 10
433.1247083044796
 20
1249.902195855173
 30
0.0
 10
432.9973721799093
 20
1249.902195855173
 30
0.0
  0
SPLINE
  5
107
330
1F
100
AcDbEntity
  8
MAKE2D VISIBLE LINES
100
AcDbSpline
210
0.0
220
0.0
230
1.0
 70
    24
 71
     2
 72
     6
 73
     3
 74
     0
 42
0.0000000001
 43
0.0000000001
 40
0.0
 40
0.0
 40
0.0
 40
0.1884752961978222
 40
0.1884752961978222
 40
0.1884752961978222
 10
432.9532366981506
 20
1249.902195855173
 30
0.0
 10
432.8589990500517
 20
1249.902195855173
 30
0.0
 10
432.7647614019528
 20
1249.902195855173
 30
0.0
  0
SPLINE
  5
108
330
1F
100
AcDbEntity
  8
MAKE2D VISIBLE LINES
100
AcDbSpline
210
0.0
220
0.0
230
1.0
 70
    24
 71
     2
 72
     6
 73
     3
 74
     0
 42
0.0000000001
 43
0.0000000001
 40
0.0
 40
0.0
 40
0.0
 40
0.13190853185273
 40
0.13190853185273
 40
0.13190853185273
 10
432.6990044499657
 20
1249.902195855173
 30
0.0
 10
432.6330501840393
 20
1249.902195855173
 30
0.0
 10
432.567095918113
 20
1249.902195855173
 30
0.0
  0
SPLINE
  5
109
330
1F
100
AcDbEntity
  8
MAKE2D VISIBLE LINES
100
AcDbSpline
210
0.0
220
0.0
230
1.0
 70
    24
 71
     2
 72
     6
 73
     3
 74
     0
 42
0.0000000001
 43
0.0000000001
 40
0.0
 40
0.0
 40
0.0
 40
0.0437597695333238
 40
0.0437597695333238
 40
0.0437597695333238
 10
432.4898470867316
 20
1249.902195855173
 30
0.0
 10
432.467967201965
 20
1249.902195855173
 30
0.0
 10
432.4460873171984
 20
1249.902195855173
 30
0.0
  0
SPLINE
  5
10A
330
1F
100
AcDbEntity
  8
MAKE2D VISIBLE LINES
100
AcDbSpline
210
0.0
220
0.0
230
1.0
 70
    24
 71
     2
 72
     6
 73
     3
 74
     0
 42
0.0000000001
 43
0.0000000001
 40
0.0
 40
0.0
 40
0.0
 40
0.0864370499973575
 40
0.0864370499973575
 40
0.0864370499973575
 10
432.3642957790472
 20
1249.902195855173
 30
0.0
 10
432.3210772540485
 20
1249.902195855173
 30
0.0
 10
432.2778587290499
 20
1249.902195855173
 30
0.0
  0
SPLINE
  5
10B
330
1F
100
AcDbEntity
  8
MAKE2D VISIBLE LINES
100
AcDbSpline
210
0.0
220
0.0
230
1.0
 70
    24
 71
     2
 72
     6
 73
     3
 74
     0
 42
0.0000000001
 43
0.0000000001
 40
0.0
 40
0.0
 40
0.0
 40
0.0748029155292897
 40
0.0748029155292897
 40
0.0748029155292897
 10
432.2617188871249
 20
1249.902195855173
 30
0.0
 10
432.2243174293602
 20
1249.902195855173
 30
0.0
 10
432.1869159715956
 20
1249.902195855173
 30
0.0
  0
SPLINE
  5
10C
330
1F
100
AcDbEntity
  8
MAKE2D VISIBLE LINES
100
AcDbSpline
210
0.0
220
0.0
230
1.0
 70
    24
 71
     2
 72
     6
 73
     3
 74
     0
 42
0.0000000001
 43
0.0000000001
 40
0.0
 40
0.0
 40
0.0
 40
0.0549215218342454
 40
0.0549215218342454
 40
0.0549215218342454
 10
432.1748926544119
 20
1249.902195855173
 30
0.0
 10
432.1474318934948
 20
1249.902195855173
 30
0.0
 10
432.1199711325777
 20
1249.902195855173
 30
0.0
  0
SPLINE
  5
10D
330
1F
100
AcDbEntity
  8
MAKE2D VISIBLE LINES
100
AcDbSpline
210
0.0
220
0.0
230
1.0
 70
     8
 71
     3
 72
    13
 73
     9
 74
     0
 42
0.0000000001
 43
0.0000000001
 40
0.0
 40
0.0
 40
0.0
 40
0.0
 40
10.67274602349312
 40
21.07922871373174
 40
41.07837776089904
 40
60.30553426267898
 40
70.12592653078555
 40
84.14653874026669
 40
84.14653874026669
 40
84.14653874026669
 40
84.14653874026669
 10
421.6149337370464
 20
1125.402592997952
 30
0.0
 10
421.6178868681785
 20
1128.960112154676
 30
0.0
 10
421.682540062146
 20
1135.986667022952
 30
0.0
 10
422.0610279900148
 20
1149.674570882129
 30
0.0
 10
422.9941479998291
 20
1166.196141345918
 30
0.0
 10
424.5938908849068
 20
1182.469773552676
 30
0.0
 10
426.378164427387
 20
1196.714801597731
 30
0.0
 10
427.4763658212494
 20
1204.58576102926
 30
0.0
 10
428.1147351330703
 20
1209.215448798823
 30
0.0
  0
SPLINE
  5
10E
330
1F
100
AcDbEntity
  8
MAKE2D VISIBLE LINES
100
AcDbSpline
210
0.0
220
0.0
230
1.0
 70
     8
 71
     3
 72
    11
 73
     7
 74
     0
 42
0.0000000001
 43
0.0000000001
 40
0.0
 40
0.0
 40
0.0
 40
0.0
 40
0.48426434696294
 40
0.9540087068999361
 40
1.397388685471901
 40
1.775310606223429
 40
1.775310606223429
 40
1.775310606223429
 40
1.775310606223429
 10
454.1573137323899
 20
1240.40564450725
 30
0.0
 10
454.1666261276944
 20
1240.24447828158
 30
0.0
 10
454.1969276572612
 20
1239.927723096131
 30
0.0
 10
454.2779353967288
 20
1239.468569079765
 30
0.0
 10
454.3897692173018
 20
1239.052588937558
 30
0.0
 10
454.4871633206897
 20
1238.796190119188
 30
0.0
 10
454.5424977842267
 20
1238.68294359094
 30
0.0
  0
SPLINE
  5
10F
330
1F
100
AcDbEntity
  8
MAKE2D VISIBLE LINES
100
AcDbSpline
210
0.0
220
0.0
230
1.0
 70
    24
 71
     2
 72
     6
 73
     3
 74
     0
 42
0.0000000001
 43
0.0000000001
 40
0.0
 40
0.0
 40
0.0
 40
49.5
 40
49.5
 40
49.5
 10
445.614735136927
 20
1254.902195855173
 30
0.0
 10
445.614735136927
 20
1279.652195855173
 30
0.0
 10
445.614735136927
 20
1304.402195855173
 30
0.0
  0
SPLINE
  5
110
330
1F
100
AcDbEntity
  8
MAKE2D VISIBLE LINES
100
AcDbSpline
210
0.0
220
0.0
230
1.0
 70
    24
 71
     2
 72
     6
 73
     3
 74
     0
 42
0.0000000001
 43
0.0000000001
 40
0.0
 40
0.0
 40
0.0
 40
49.5
 40
49.5
 40
49.5
 10
453.614735136927
 20
1304.402195855173
 30
0.0
 10
453.614735136927
 20
1279.652195855173
 30
0.0
 10
453.614735136927
 20
1254.902195855173
 30
0.0
  0
SPLINE
  5
111
330
1F
100
AcDbEntity
  8
MAKE2D VISIBLE LINES
100
AcDbSpline
210
0.0
220
0.0
230
1.0
 70
    12
 71
     2
 72
     6
 73
     3
 74
     0
 42
0.0000000001
 43
0.0000000001
 40
0.0
 40
0.0
 40
0.0
 40
0.7853506926137801
 40
0.7853506926137801
 40
0.7853506926137801
 10
453.1147255819317
 20
1304.902195855126
 30
0.0
 41
1.0
 10
453.6146525238295
 20
1304.902122800399
 30
0.0
 41
0.7071901430968739
 10
453.6146973503704
 20
1304.402195855173
 30
0.0
 41
1.0
  0
SPLINE
  5
112
330
1F
100
AcDbEntity
  8
MAKE2D VISIBLE LINES
100
AcDbSpline
210
0.0
220
0.0
230
1.0
 70
    12
 71
     2
 72
     6
 73
     3
 74
     0
 42
0.0000000001
 43
0.0000000001
 40
0.0
 40
0.0
 40
0.0
 40
0.785476134921877
 40
0.785476134921877
 40
0.785476134921877
 10
445.6143601333138
 20
1304.402195855173
 30
0.0
 41
1.0
 10
445.6144226541871
 20
1304.902238134052
 30
0.0
 41
0.7071210930778471
 10
446.1144649351879
 20
1304.902195855166
 30
0.0
 41
1.0
  0
SPLINE
  5
113
330
1F
100
AcDbEntity
  8
MAKE2D VISIBLE LINES
100
AcDbSpline
210
0.0
220
0.0
230
1.0
 70
    12
 71
     2
 72
     6
 73
     3
 74
     0
 42
0.0000000001
 43
0.0000000001
 40
0.0
 40
0.0
 40
0.0
 40
2.683489483228617
 40
2.683489483228617
 40
2.683489483228617
 10
428.3040674415043
 20
1203.093579407759
 30
0.0
 41
1.0
 10
428.114956634887
 20
1204.424169488104
 30
0.0
 41
0.9975275607735142
 10
428.1142694162157
 20
1205.768130940982
 30
0.0
 41
1.0
  0
SPLINE
  5
114
330
1F
100
AcDbEntity
  8
MAKE2D VISIBLE LINES
100
AcDbSpline
210
0.0
220
0.0
230
1.0
 70
    12
 71
     2
 72
     6
 73
     3
 74
     0
 42
0.0000000001
 43
0.0000000001
 40
0.0
 40
0.0
 40
0.0
 40
0.7835387847215802
 40
0.7835387847215802
 40
0.7835387847215802
 10
315.2157964173246
 20
1385.626727072326
 30
0.0
 41
1.0
 10
314.7224564613755
 20
1385.695595576994
 30
0.0
 41
0.7084602901766557
 10
314.789433998712
 20
1386.189195812573
 30
0.0
 41
1.0
  0
SPLINE
  5
115
330
1F
100
AcDbEntity
  8
MAKE2D VISIBLE LINES
100
AcDbSpline
210
0.0
220
0.0
230
1.0
 70
    12
 71
     2
 72
     8
 73
     5
 74
     0
 42
0.0000000001
 43
0.0000000001
 40
0.0
 40
0.0
 40
0.0
 40
0.3929939912926229
 40
0.3929939912926229
 40
0.7859879825852457
 40
0.7859879825852457
 40
0.7859879825852457
 10
319.4973275535679
 20
1420.872070936883
 30
0.0
 41
1.0
 10
319.5252145839468
 20
1421.077465324503
 30
0.0
 41
0.9237709554272271
 10
319.6902406301947
 20
1421.202888388525
 30
0.0
 41
1.0
 10
319.8552666764427
 20
1421.328311452548
 30
0.0
 41
0.9237709554272271
 10
320.0606292936602
 20
1421.300191417365
 30
0.0
 41
1.0
  0
SPLINE
  5
116
330
1F
100
AcDbEntity
  8
MAKE2D VISIBLE LINES
100
AcDbSpline
210
0.0
220
0.0
230
1.0
 70
    24
 71
     2
 72
     6
 73
     3
 74
     0
 42
0.0000000001
 43
0.0000000001
 40
0.0
 40
0.0
 40
0.0
 40
12.85052447019018
 40
12.85052447019018
 40
12.85052447019018
 10
428.614735136927
 20
1188.612893736292
 30
0.0
 10
428.614735136927
 20
1195.038155971387
 30
0.0
 10
428.614735136927
 20
1201.463418206482
 30
0.0
  0
SPLINE
  5
117
330
1F
100
AcDbEntity
  8
MAKE2D VISIBLE LINES
100
AcDbSpline
210
0.0
220
0.0
230
1.0
 70
    12
 71
     3
 72
    13
 73
     9
 74
     0
 42
0.0000000001
 43
0.0000000001
 40
0.0
 40
0.0
 40
0.0
 40
0.0
 40
6.031857894892403
 40
8.042477193189871
 40
10.05309649148734
 40
14.07433508808227
 40
22.11681228127214
 40
27.69700521519034
 40
27.69700521519034
 40
27.69700521519034
 40
27.69700521519034
 10
467.6153773303462
 20
1249.403483147642
 30
0.0
 41
1.0
 10
467.6205538405088
 20
1247.392870513038
 30
0.0
 41
1.0
 10
467.6691007927607
 20
1244.713352454232
 30
0.0
 41
1.0
 10
467.7976158125147
 20
1241.363260982845
 30
0.0
 41
1.0
 10
467.9267981821015
 20
1238.68610709834
 30
0.0
 41
1.0
 10
468.2195585241022
 20
1234.003500706803
 30
0.0
 41
1.0
 10
468.7435929951337
 20
1228.144667102129
 30
0.0
 41
1.0
 10
469.2513831520736
 20
1223.631974408805
 30
0.0
 41
1.0
 10
469.4719997277555
 20
1221.784992632383
 30
0.0
 41
1.0
  0
SPLINE
  5
118
330
1F
100
AcDbEntity
  8
MAKE2D VISIBLE LINES
100
AcDbSpline
210
0.0
220
0.0
230
1.0
 70
     8
 71
     3
 72
    24
 73
    20
 74
     0
 42
0.0000000001
 43
0.0000000001
 40
0.0
 40
0.0
 40
0.0
 40
0.0
 40
26.12038460804125
 40
42.05121831478454
 40
55.02478539075179
 40
65.44227070195312
 40
74.15143890114418
 40
81.50524820648171
 40
88.12978112166994
 40
94.97716936129393
 40
100.0937415891365
 40
105.8956831233202
 40
118.0960783405344
 40
130.6347347424345
 40
144.1796446694571
 40
158.6340569534224
 40
174.2234670594239
 40
191.1578856218594
 40
209.1854423022432
 40
209.1854423022432
 40
209.1854423022432
 40
209.1854423022432
 10
431.6146975350231
 20
1250.402162416407
 30
0.0
 10
431.6102118431817
 20
1259.108925404199
 30
0.0
 10
431.6290141716063
 20
1273.126223050241
 30
0.0
 10
431.3472468024014
 20
1291.466490608844
 30
0.0
 10
430.761393380766
 20
1304.563094660431
 30
0.0
 10
429.7361056253183
 20
1315.219080436377
 30
0.0
 10
428.1896887872713
 20
1323.919762665881
 30
0.0
 10
425.9774729689768
 20
1331.171930192308
 30
0.0
 10
422.8689230321412
 20
1337.41025525041
 30
0.0
 10
419.1346646484458
 20
1342.383286500521
 30
0.0
 10
415.0497859966125
 20
1346.673630608197
 30
0.0
 10
409.329784135527
 20
1351.847356062949
 30
0.0
 10
401.1801818381373
 20
1357.974839223911
 30
0.0
 10
390.1638036131176
 20
1364.454341286898
 30
0.0
 10
377.8908616731013
 20
1370.138687893498
 30
0.0
 10
364.2274771349282
 20
1375.11456408411
 30
0.0
 10
349.154802976164
 20
1379.392438215924
 30
0.0
 10
332.6799968742773
 20
1382.965470835355
 30
0.0
 10
321.1693882431749
 20
1384.811505846882
 30
0.0
 10
315.2159020259991
 20
1385.627483880278
 30
0.0
  0
SPLINE
  5
119
330
1F
100
AcDbEntity
  8
MAKE2D VISIBLE LINES
100
AcDbSpline
210
0.0
220
0.0
230
1.0
 70
    24
 71
     2
 72
     6
 73
     3
 74
     0
 42
0.0000000001
 43
0.0000000001
 40
0.0
 40
0.0
 40
0.0
 40
7.257398139119005
 40
7.257398139119005
 40
7.257398139119005
 10
428.114735136927
 20
1205.768131062039
 30
0.0
 10
428.114735136927
 20
1209.396830131598
 30
0.0
 10
428.114735136927
 20
1213.025529201158
 30
0.0
  0
SPLINE
  5
11A
330
1F
100
AcDbEntity
  8
MAKE2D VISIBLE LINES
100
AcDbSpline
210
0.0
220
0.0
230
1.0
 70
    12
 71
     2
 72
     6
 73
     3
 74
     0
 42
0.0000000001
 43
0.0000000001
 40
0.0
 40
0.0
 40
0.0
 40
0.7850018562913832
 40
0.7850018562913832
 40
0.7850018562913832
 10
477.6157314351273
 20
1125.40259299794
 30
0.0
 41
1.0
 10
477.6161089461497
 20
1124.903000285727
 30
0.0
 41
0.7074083805143914
 10
477.1165167378959
 20
1124.902196505532
 30
0.0
 41
1.0
  0
SPLINE
  5
11B
330
1F
100
AcDbEntity
  8
MAKE2D VISIBLE LINES
100
AcDbSpline
210
0.0
220
0.0
230
1.0
 70
    12
 71
     2
 72
     6
 73
     3
 74
     0
 42
0.0000000001
 43
0.0000000001
 40
0.0
 40
0.0
 40
0.0
 40
0.7841051766996748
 40
0.7841051766996748
 40
0.7841051766996748
 10
431.6140877041067
 20
1249.403483147641
 30
0.0
 41
1.0
 10
431.6153782500731
 20
1249.902186407093
 30
0.0
 41
0.7080278030684629
 10
432.1140831792719
 20
1249.902195855163
 30
0.0
 41
1.0
  0
SPLINE
  5
11C
330
1F
100
AcDbEntity
  8
MAKE2D VISIBLE LINES
100
AcDbSpline
210
0.0
220
0.0
230
1.0
 70
    12
 71
     2
 72
     6
 73
     3
 74
     0
 42
0.0000000001
 43
0.0000000001
 40
0.0
 40
0.0
 40
0.0
 40
0.7841197324583467
 40
0.7841197324583467
 40
0.7841197324583467
 10
467.1161306046638
 20
1249.90219585515
 30
0.0
 41
1.0
 10
467.6148462054103
 20
1249.902199036782
 30
0.0
 41
0.7080250405368681
 10
467.6161455070127
 20
1249.40348512856
 30
0.0
 41
1.0
  0
SPLINE
  5
11D
330
1F
100
AcDbEntity
  8
MAKE2D VISIBLE LINES
100
AcDbSpline
210
0.0
220
0.0
230
1.0
 70
    12
 71
     3
 72
    11
 73
     7
 74
     0
 42
0.0000000001
 43
0.0000000001
 40
0.0
 40
0.0
 40
0.0
 40
0.0
 40
5.765932084420225
 40
8.648898126630337
 40
8.648898126630337
 40
14.50488106907249
 40
14.50488106907249
 40
14.50488106907249
 40
14.50488106907249
 10
453.614735136927
 20
1254.902195855173
 30
0.0
 41
1.0
 10
453.614735136927
 20
1252.980218493699
 30
0.0
 41
1.0
 10
453.6780354126346
 20
1250.098195432295
 30
0.0
 41
1.0
 10
453.7998035267605
 20
1247.21569181227
 30
0.0
 41
1.0
 10
453.9362455081826
 20
1244.305905992972
 30
0.0
 41
1.0
 10
454.0461067309996
 20
1242.35556415046
 30
0.0
 41
1.0
 10
454.1574044733582
 20
1240.4056497677
 30
0.0
 41
1.0
  0
SPLINE
  5
11E
330
1F
100
AcDbEntity
  8
MAKE2D VISIBLE LINES
100
AcDbSpline
210
0.0
220
0.0
230
1.0
 70
    12
 71
     3
 72
    10
 73
     6
 74
     0
 42
0.0000000001
 43
0.0000000001
 40
3.526408220730706
 40
3.526408220730706
 40
3.526408220730706
 40
3.526408220730706
 40
9.38239753414254
 40
9.38239753414254
 40
18.03129566077288
 40
18.03129566077288
 40
18.03129566077288
 40
18.03129566077288
 10
445.0720654372394
 20
1240.405643403519
 30
0.0
 41
1.0
 10
445.1833633038091
 20
1242.355559906742
 30
0.0
 41
1.0
 10
445.2932246662009
 20
1244.305903871646
 30
0.0
 41
1.0
 10
445.5196907533813
 20
1249.135559686971
 30
0.0
 41
1.0
 10
445.614735136927
 20
1252.019229812963
 30
0.0
 41
1.0
 10
445.614735136927
 20
1254.902195855173
 30
0.0
 41
1.0
  0
SPLINE
  5
11F
330
1F
100
AcDbEntity
  8
MAKE2D VISIBLE LINES
100
AcDbSpline
210
0.0
220
0.0
230
1.0
 70
    24
 71
     2
 72
     6
 73
     3
 74
     0
 42
0.0000000001
 43
0.0000000001
 40
0.0
 40
0.0
 40
0.0
 40
0.5884182360476665
 40
0.5884182360476665
 40
0.5884182360476665
 10
244.9613158499475
 20
1375.672242477393
 30
0.0
 10
244.9459181344204
 20
1375.37843656274
 30
0.0
 10
244.9305204188932
 20
1375.084630648087
 30
0.0
  0
SPLINE
  5
120
330
1F
100
AcDbEntity
  8
MAKE2D VISIBLE LINES
100
AcDbSpline
210
0.0
220
0.0
230
1.0
 70
    24
 71
     2
 72
     6
 73
     3
 74
     0
 42
0.0000000001
 43
0.0000000001
 40
0.0
 40
0.0
 40
0.0
 40
46.68621963165935
 40
46.68621963165935
 40
46.68621963165935
 10
193.0017846116554
 20
1377.80610037272
 30
0.0
 10
194.2234685855509
 20
1401.117219267827
 30
0.0
 10
195.4451525594464
 20
1424.428338162934
 30
0.0
  0
SPLINE
  5
121
330
1F
100
AcDbEntity
  8
MAKE2D VISIBLE LINES
100
AcDbSpline
210
0.0
220
0.0
230
1.0
 70
     8
 71
     3
 72
    11
 73
     7
 74
     0
 42
0.0000000001
 43
0.0000000001
 40
0.0
 40
0.0
 40
0.0
 40
0.0
 40
13.9073141440505
 40
23.96021483460564
 40
43.26156014188777
 40
84.14037238812502
 40
84.14037238812502
 40
84.14037238812502
 40
84.14037238812502
 10
471.114735136927
 20
1209.209242426029
 30
0.0
 10
471.74843535063
 20
1204.617116421035
 30
0.0
 10
472.8527837923373
 20
1196.706650566294
 30
0.0
 10
474.6443703857574
 20
1182.397940038943
 30
0.0
 10
476.9293515425965
 20
1159.09320125521
 30
0.0
 10
477.6057814636772
 20
1139.027641604993
 30
0.0
 10
477.6145365368076
 20
1125.402592997951
 30
0.0
  0
SPLINE
  5
122
330
1F
100
AcDbEntity
  8
MAKE2D VISIBLE LINES
100
AcDbSpline
210
0.0
220
0.0
230
1.0
 70
    24
 71
     3
 72
    10
 73
     6
 74
     0
 42
0.0000000001
 43
0.0000000001
 40
0.0
 40
0.0
 40
0.0
 40
0.0
 40
0.0070558537710781
 40
0.0094519230352716
 40
55.01022818720475
 40
55.01022818720475
 40
55.01022818720475
 40
55.01022818720475
 10
477.1062579195499
 20
1124.902195855173
 30
0.0
 10
477.1027033133283
 20
1124.902195855173
 30
0.0
 10
477.1190134823629
 20
1124.902195855173
 30
0.0
 10
458.7839327384032
 20
1124.902195855173
 30
0.0
 10
440.4480162319711
 20
1124.902195855173
 30
0.0
 10
422.1149335784157
 20
1124.902195855173
 30
0.0
  0
SPLINE
  5
123
330
1F
100
AcDbEntity
  8
MAKE2D VISIBLE LINES
100
AcDbSpline
210
0.0
220
0.0
230
1.0
 70
     8
 71
     3
 72
    12
 73
     8
 74
     0
 42
0.0000000001
 43
0.0000000001
 40
0.0
 40
0.0
 40
0.0
 40
0.0
 40
2.991379095546673
 40
6.079048824670947
 40
12.15873607013137
 40
18.43011097695894
 40
24.53040500475575
 40
24.53040500475575
 40
24.53040500475575
 40
24.53040500475575
 10
459.4933497007204
 20
1233.323156906785
 30
0.0
 10
460.3677434474234
 20
1232.842833748282
 30
0.0
 10
462.0717008969157
 20
1231.739368066862
 30
0.0
 10
465.1439637073045
 20
1229.077643290092
 30
0.0
 10
468.2781236598362
 20
1224.938444355704
 30
0.0
 10
470.5961499001274
 20
1219.182731092462
 30
0.0
 10
471.1145174921618
 20
1215.058870956728
 30
0.0
 10
471.1147351096927
 20
1213.025329493802
 30
0.0
  0
SPLINE
  5
124
330
1F
100
AcDbEntity
  8
MAKE2D VISIBLE LINES
100
AcDbSpline
210
0.0
220
0.0
230
1.0
 70
     8
 71
     3
 72
    11
 73
     7
 74
     0
 42
0.0000000001
 43
0.0000000001
 40
0.0
 40
0.0
 40
0.0
 40
0.0
 40
0.1747934502614711
 40
0.3783363398311014
 40
0.8230932662664975
 40
1.782252747531054
 40
1.782252747531054
 40
1.782252747531054
 40
1.782252747531054
 10
444.6841655222697
 20
1238.676748659201
 30
0.0
 10
444.7102638224309
 20
1238.728854091676
 30
0.0
 10
444.760702675757
 20
1238.844529937627
 30
0.0
 10
444.8537488371526
 20
1239.102779185892
 30
0.0
 10
444.9931323975217
 20
1239.620846052708
 30
0.0
 10
445.0538055653229
 20
1240.086525755042
 30
0.0
 10
445.0723687460097
 20
1240.405625901395
 30
0.0
  0
ENDSEC
  0
SECTION
  2
OBJECTS
  0
DICTIONARY
  5
C
330
0
100
AcDbDictionary
281
     1
  3
ACAD_GROUP
350
D
  3
ACAD_LAYOUT
350
1A
  3
ACAD_MLEADERSTYLE
350
128
  3
ACAD_MLINESTYLE
350
17
  3
ACAD_PLOTSETTINGS
350
19
  3
ACAD_PLOTSTYLENAME
350
E
  3
ACAD_SCALELIST
350
3D
  3
ACAD_TABLESTYLE
350
127
  3
ACAD_VISUALSTYLE
350
2A
  3
AcDbVariableDictionary
350
125
  0
DICTIONARY
  5
D
102
{ACAD_REACTORS
330
C
102
}
330
C
100
AcDbDictionary
281
     1
  0
DICTIONARY
  5
1A
102
{ACAD_REACTORS
330
C
102
}
330
C
100
AcDbDictionary
281
     1
  3
Layout1
350
1E
  3
Layout2
350
26
  3
Model
350
22
  0
DICTIONARY
  5
128
102
{ACAD_REACTORS
330
C
102
}
330
C
100
AcDbDictionary
281
     1
  0
DICTIONARY
  5
17
102
{ACAD_REACTORS
330
C
102
}
330
C
100
AcDbDictionary
281
     1
  3
Standard
350
18
  0
DICTIONARY
  5
19
102
{ACAD_REACTORS
330
C
102
}
330
C
100
AcDbDictionary
281
     1
  0
ACDBDICTIONARYWDFLT
  5
E
102
{ACAD_REACTORS
330
C
102
}
330
C
100
AcDbDictionary
281
     1
  3
Normal
350
F
100
AcDbDictionaryWithDefault
340
F
  0
DICTIONARY
  5
3D
102
{ACAD_REACTORS
330
C
102
}
330
C
100
AcDbDictionary
281
     1
  3
A0
350
3E
  3
A1
350
3F
  3
A2
350
40
  3
A3
350
41
  3
A4
350
42
  3
A5
350
43
  3
A6
350
44
  3
A7
350
45
  3
A8
350
46
  3
A9
350
47
  3
B0
350
48
  3
B1
350
49
  3
B2
350
4A
  3
B3
350
4B
  3
B4
350
4C
  3
B5
350
4D
  3
B6
350
4E
  3
B7
350
4F
  3
B8
350
50
  3
B9
350
51
  3
C0
350
52
  3
C1
350
53
  3
C2
350
54
  3
C3
350
55
  3
C4
350
56
  3
C5
350
57
  3
C6
350
58
  3
C7
350
59
  3
C8
350
5A
  3
C9
350
5B
  3
D0
350
5C
  3
D1
350
5D
  3
D2
350
5E
  0
DICTIONARY
  5
127
102
{ACAD_REACTORS
330
C
102
}
330
C
100
AcDbDictionary
281
     1
  0
DICTIONARY
  5
2A
102
{ACAD_REACTORS
330
C
102
}
330
C
100
AcDbDictionary
281
     1
  3
2dWireframe
350
2F
  3
3D Hidden
350
31
  3
3dWireframe
350
30
  3
Basic
350
32
  3
Brighten
350
36
  3
ColorChange
350
3A
  3
Conceptual
350
34
  3
Dim
350
35
  3
Facepattern
350
39
  3
Flat
350
2B
  3
FlatWithEdges
350
2C
  3
Gouraud
350
2D
  3
GouraudWithEdges
350
2E
  3
Linepattern
350
38
  3
Realistic
350
33
  3
Thicken
350
37
  0
DICTIONARY
  5
125
102
{ACAD_REACTORS
330
C
102
}
330
C
100
AcDbDictionary
281
     1
  3
CANNOSCALE
350
126
  0
LAYOUT
  5
1E
102
{ACAD_REACTORS
330
1A
102
}
330
1A
100
AcDbPlotSettings
  1

  2
none_device
  4

  6

 40
0.0
 41
0.0
 42
0.0
 43
0.0
 44
0.0
 45
0.0
 46
0.0
 47
0.0
 48
0.0
 49
0.0
140
0.0
141
0.0
142
1.0
143
1.0
 70
   688
 72
     0
 73
     0
 74
     5
  7

 75
    16
 76
     0
 77
     2
 78
   300
147
1.0
148
0.0
149
0.0
100
AcDbLayout
  1
Layout1
 70
     1
 71
     1
 10
0.0
 20
0.0
 11
12.0
 21
9.0
 12
0.0
 22
0.0
 32
0.0
 14
1.000000000000000E+20
 24
1.000000000000000E+20
 34
1.000000000000000E+20
 15
-1.000000000000000E+20
 25
-1.000000000000000E+20
 35
-1.000000000000000E+20
146
0.0
 13
0.0
 23
0.0
 33
0.0
 16
1.0
 26
0.0
 36
0.0
 17
0.0
 27
1.0
 37
0.0
 76
     0
330
1B
  0
LAYOUT
  5
26
102
{ACAD_REACTORS
330
1A
102
}
330
1A
100
AcDbPlotSettings
  1

  2
none_device
  4

  6

 40
0.0
 41
0.0
 42
0.0
 43
0.0
 44
0.0
 45
0.0
 46
0.0
 47
0.0
 48
0.0
 49
0.0
140
0.0
141
0.0
142
1.0
143
1.0
 70
   688
 72
     0
 73
     0
 74
     5
  7

 75
    16
 76
     0
 77
     2
 78
   300
147
1.0
148
0.0
149
0.0
100
AcDbLayout
  1
Layout2
 70
     1
 71
     2
 10
0.0
 20
0.0
 11
0.0
 21
0.0
 12
0.0
 22
0.0
 32
0.0
 14
0.0
 24
0.0
 34
0.0
 15
0.0
 25
0.0
 35
0.0
146
0.0
 13
0.0
 23
0.0
 33
0.0
 16
1.0
 26
0.0
 36
0.0
 17
0.0
 27
1.0
 37
0.0
 76
     0
330
23
  0
LAYOUT
  5
22
102
{ACAD_REACTORS
330
1A
102
}
330
1A
100
AcDbPlotSettings
  1

  2
none_device
  4

  6

 40
0.0
 41
0.0
 42
0.0
 43
0.0
 44
0.0
 45
0.0
 46
0.0
 47
0.0
 48
0.0
 49
0.0
140
0.0
141
0.0
142
1.0
143
1.0
 70
  1712
 72
     0
 73
     0
 74
     0
  7

 75
     0
 76
     0
 77
     2
 78
   300
147
1.0
148
0.0
149
0.0
100
AcDbLayout
  1
Model
 70
     1
 71
     0
 10
0.0
 20
0.0
 11
12.0
 21
9.0
 12
0.0
 22
0.0
 32
0.0
 14
193.0006879227025
 24
1124.902195855173
 34
0.0
 15
525.2141625630093
 25
1482.126157847753
 35
0.0
146
0.0
 13
0.0
 23
0.0
 33
0.0
 16
1.0
 26
0.0
 36
0.0
 17
0.0
 27
1.0
 37
0.0
 76
     0
330
1F
331
29
  0
MLINESTYLE
  5
18
102
{ACAD_REACTORS
330
17
102
}
330
17
100
AcDbMlineStyle
  2
Standard
 70
     0
  3

 62
   256
 51
90.0
 52
90.0
 71
     2
 49
0.5
 62
   256
  6
BYLAYER
 49
-0.5
 62
   256
  6
BYLAYER
  0
ACDBPLACEHOLDER
  5
F
102
{ACAD_REACTORS
330
E
102
}
330
E
  0
SCALE
  5
3E
102
{ACAD_REACTORS
330
3D
102
}
330
3D
100
AcDbScale
 70
     0
300
1:1
140
1.0
141
1.0
290
     1
  0
SCALE
  5
3F
102
{ACAD_REACTORS
330
3D
102
}
330
3D
100
AcDbScale
 70
     0
300
1:2
140
1.0
141
2.0
290
     0
  0
SCALE
  5
40
102
{ACAD_REACTORS
330
3D
102
}
330
3D
100
AcDbScale
 70
     0
300
1:4
140
1.0
141
4.0
290
     0
  0
SCALE
  5
41
102
{ACAD_REACTORS
330
3D
102
}
330
3D
100
AcDbScale
 70
     0
300
1:5
140
1.0
141
5.0
290
     0
  0
SCALE
  5
42
102
{ACAD_REACTORS
330
3D
102
}
330
3D
100
AcDbScale
 70
     0
300
1:8
140
1.0
141
8.0
290
     0
  0
SCALE
  5
43
102
{ACAD_REACTORS
330
3D
102
}
330
3D
100
AcDbScale
 70
     0
300
1:10
140
1.0
141
10.0
290
     0
  0
SCALE
  5
44
102
{ACAD_REACTORS
330
3D
102
}
330
3D
100
AcDbScale
 70
     0
300
1:16
140
1.0
141
16.0
290
     0
  0
SCALE
  5
45
102
{ACAD_REACTORS
330
3D
102
}
330
3D
100
AcDbScale
 70
     0
300
1:20
140
1.0
141
20.0
290
     0
  0
SCALE
  5
46
102
{ACAD_REACTORS
330
3D
102
}
330
3D
100
AcDbScale
 70
     0
300
1:30
140
1.0
141
30.0
290
     0
  0
SCALE
  5
47
102
{ACAD_REACTORS
330
3D
102
}
330
3D
100
AcDbScale
 70
     0
300
1:40
140
1.0
141
40.0
290
     0
  0
SCALE
  5
48
102
{ACAD_REACTORS
330
3D
102
}
330
3D
100
AcDbScale
 70
     0
300
1:50
140
1.0
141
50.0
290
     0
  0
SCALE
  5
49
102
{ACAD_REACTORS
330
3D
102
}
330
3D
100
AcDbScale
 70
     0
300
1:100
140
1.0
141
100.0
290
     0
  0
SCALE
  5
4A
102
{ACAD_REACTORS
330
3D
102
}
330
3D
100
AcDbScale
 70
     0
300
2:1
140
2.0
141
1.0
290
     0
  0
SCALE
  5
4B
102
{ACAD_REACTORS
330
3D
102
}
330
3D
100
AcDbScale
 70
     0
300
4:1
140
4.0
141
1.0
290
     0
  0
SCALE
  5
4C
102
{ACAD_REACTORS
330
3D
102
}
330
3D
100
AcDbScale
 70
     0
300
8:1
140
8.0
141
1.0
290
     0
  0
SCALE
  5
4D
102
{ACAD_REACTORS
330
3D
102
}
330
3D
100
AcDbScale
 70
     0
300
10:1
140
10.0
141
1.0
290
     0
  0
SCALE
  5
4E
102
{ACAD_REACTORS
330
3D
102
}
330
3D
100
AcDbScale
 70
     0
300
100:1
140
100.0
141
1.0
290
     0
  0
SCALE
  5
4F
102
{ACAD_REACTORS
330
3D
102
}
330
3D
100
AcDbScale
 70
     0
300
1/128" = 1'-0"
140
0.0078125
141
12.0
290
     0
  0
SCALE
  5
50
102
{ACAD_REACTORS
330
3D
102
}
330
3D
100
AcDbScale
 70
     0
300
1/64" = 1'-0"
140
0.015625
141
12.0
290
     0
  0
SCALE
  5
51
102
{ACAD_REACTORS
330
3D
102
}
330
3D
100
AcDbScale
 70
     0
300
1/32" = 1'-0"
140
0.03125
141
12.0
290
     0
  0
SCALE
  5
52
102
{ACAD_REACTORS
330
3D
102
}
330
3D
100
AcDbScale
 70
     0
300
1/16" = 1'-0"
140
0.0625
141
12.0
290
     0
  0
SCALE
  5
53
102
{ACAD_REACTORS
330
3D
102
}
330
3D
100
AcDbScale
 70
     0
300
3/32" = 1'-0"
140
0.09375
141
12.0
290
     0
  0
SCALE
  5
54
102
{ACAD_REACTORS
330
3D
102
}
330
3D
100
AcDbScale
 70
     0
300
1/8" = 1'-0"
140
0.125
141
12.0
290
     0
  0
SCALE
  5
55
102
{ACAD_REACTORS
330
3D
102
}
330
3D
100
AcDbScale
 70
     0
300
3/16" = 1'-0"
140
0.1875
141
12.0
290
     0
  0
SCALE
  5
56
102
{ACAD_REACTORS
330
3D
102
}
330
3D
100
AcDbScale
 70
     0
300
1/4" = 1'-0"
140
0.25
141
12.0
290
     0
  0
SCALE
  5
57
102
{ACAD_REACTORS
330
3D
102
}
330
3D
100
AcDbScale
 70
     0
300
3/8" = 1'-0"
140
0.375
141
12.0
290
     0
  0
SCALE
  5
58
102
{ACAD_REACTORS
330
3D
102
}
330
3D
100
AcDbScale
 70
     0
300
1/2" = 1'-0"
140
0.5
141
12.0
290
     0
  0
SCALE
  5
59
102
{ACAD_REACTORS
330
3D
102
}
330
3D
100
AcDbScale
 70
     0
300
3/4" = 1'-0"
140
0.75
141
12.0
290
     0
  0
SCALE
  5
5A
102
{ACAD_REACTORS
330
3D
102
}
330
3D
100
AcDbScale
 70
     0
300
1" = 1'-0"
140
1.0
141
12.0
290
     0
  0
SCALE
  5
5B
102
{ACAD_REACTORS
330
3D
102
}
330
3D
100
AcDbScale
 70
     0
300
1-1/2" = 1'-0"
140
1.5
141
12.0
290
     0
  0
SCALE
  5
5C
102
{ACAD_REACTORS
330
3D
102
}
330
3D
100
AcDbScale
 70
     0
300
3" = 1'-0"
140
3.0
141
12.0
290
     0
  0
SCALE
  5
5D
102
{ACAD_REACTORS
330
3D
102
}
330
3D
100
AcDbScale
 70
     0
300
6" = 1'-0"
140
6.0
141
12.0
290
     0
  0
SCALE
  5
5E
102
{ACAD_REACTORS
330
3D
102
}
330
3D
100
AcDbScale
 70
     0
300
1'-0" = 1'-0"
140
12.0
141
12.0
290
     0
  0
VISUALSTYLE
  5
2F
102
{ACAD_REACTORS
330
2A
102
}
330
2A
100
AcDbVisualStyle
  2
2dWireframe
 70
     4
 71
     0
 72
     2
 73
     0
 90
        0
 40
-0.6
 41
-30.0
 62
     5
 63
     7
421
 16777215
 74
     1
 91
        4
 64
     7
 65
   257
 75
     1
175
     1
 42
1.0
 92
        0
 66
   257
 43
1.0
 76
     1
 77
     6
 78
     2
 67
     7
 79
     5
170
     0
171
     0
290
     0
174
     0
 93
        1
 44
0.0
173
     0
291
     0
 45
0.0
1001
ACAD
1000
AcDbSavedByObjectVersion
1070
     0
  0
VISUALSTYLE
  5
31
102
{ACAD_REACTORS
330
2A
102
}
330
2A
100
AcDbVisualStyle
  2
3D Hidden
 70
     6
 71
     1
 72
     2
 73
     2
 90
        0
 40
-0.6
 41
-30.0
 62
     5
 63
     7
421
 16777215
 74
     2
 91
        2
 64
     7
 65
   257
 75
     2
175
     1
 42
40.0
 92
        0
 66
   257
 43
1.0
 76
     1
 77
     6
 78
     2
 67
     7
 79
     3
170
     0
171
     0
290
     0
174
     0
 93
        1
 44
0.0
173
     0
291
     0
 45
0.0
1001
ACAD
1000
AcDbSavedByObjectVersion
1070
     0
  0
VISUALSTYLE
  5
30
102
{ACAD_REACTORS
330
2A
102
}
330
2A
100
AcDbVisualStyle
  2
3dWireframe
 70
     5
 71
     0
 72
     2
 73
     0
 90
        0
 40
-0.6
 41
-30.0
 62
     5
 63
     7
421
 16777215
 74
     1
 91
        4
 64
     7
 65
   257
 75
     1
175
     1
 42
1.0
 92
        0
 66
   257
 43
1.0
 76
     1
 77
     6
 78
     2
 67
     7
 79
     5
170
     0
171
     0
290
     0
174
     0
 93
        1
 44
0.0
173
     0
291
     0
 45
0.0
1001
ACAD
1000
AcDbSavedByObjectVersion
1070
     0
  0
VISUALSTYLE
  5
32
102
{ACAD_REACTORS
330
2A
102
}
330
2A
100
AcDbVisualStyle
  2
Basic
 70
     7
 71
     1
 72
     0
 73
     1
 90
        0
 40
-0.6
 41
-30.0
 62
     5
 63
     7
421
 16777215
 74
     0
 91
        4
 64
     7
 65
   257
 75
     1
175
     1
 42
1.0
 92
        8
 66
     7
 43
1.0
 76
     1
 77
     6
 78
     2
 67
     7
 79
     5
170
     0
171
     0
290
     0
174
     0
 93
        1
 44
0.0
173
     0
291
     1
 45
0.0
1001
ACAD
1000
AcDbSavedByObjectVersion
1070
     0
  0
VISUALSTYLE
  5
36
102
{ACAD_REACTORS
330
2A
102
}
330
2A
100
AcDbVisualStyle
  2
Brighten
 70
    12
 71
     2
 72
     2
 73
     0
 90
        0
 40
-0.6
 41
-30.0
 62
     5
 63
     7
421
 16777215
 74
     1
 91
        4
 64
     7
 65
   257
 75
     1
175
     1
 42
1.0
 92
        8
 66
     7
 43
1.0
 76
     1
 77
     6
 78
     2
 67
     7
 79
     5
170
     0
171
     0
290
     0
174
     0
 93
        1
 44
50.0
173
     0
291
     1
 45
0.0
1001
ACAD
1000
AcDbSavedByObjectVersion
1070
     0
  0
VISUALSTYLE
  5
3A
102
{ACAD_REACTORS
330
2A
102
}
330
2A
100
AcDbVisualStyle
  2
ColorChange
 70
    16
 71
     2
 72
     2
 73
     3
 90
        0
 40
-0.6
 41
-30.0
 62
     5
 63
     8
421
  8421504
 74
     1
 91
        4
 64
     7
 65
   257
 75
     1
175
     1
 42
1.0
 92
        8
 66
     8
424
  8421504
 43
1.0
 76
     1
 77
     6
 78
     2
 67
     7
 79
     5
170
     0
171
     0
290
     0
174
     0
 93
        1
 44
0.0
173
     0
291
     1
 45
0.0
1001
ACAD
1000
AcDbSavedByObjectVersion
1070
     0
  0
VISUALSTYLE
  5
34
102
{ACAD_REACTORS
330
2A
102
}
330
2A
100
AcDbVisualStyle
  2
Conceptual
 70
     9
 71
     3
 72
     2
 73
     0
 90
        0
 40
-0.6
 41
-30.0
 62
     5
 63
     7
421
 16777215
 74
     2
 91
        2
 64
     7
 65
   257
 75
     1
175
     1
 42
40.0
 92
        8
 66
     7
 43
1.0
 76
     1
 77
     6
 78
     2
 67
     7
 79
     3
170
     0
171
     0
290
     0
174
     0
 93
        1
 44
0.0
173
     0
291
     0
 45
0.0
1001
ACAD
1000
AcDbSavedByObjectVersion
1070
     0
  0
VISUALSTYLE
  5
35
102
{ACAD_REACTORS
330
2A
102
}
330
2A
100
AcDbVisualStyle
  2
Dim
 70
    11
 71
     2
 72
     2
 73
     0
 90
        0
 40
-0.6
 41
-30.0
 62
     5
 63
     7
421
 16777215
 74
     1
 91
        4
 64
     7
 65
   257
 75
     1
175
     1
 42
1.0
 92
        8
 66
     7
 43
1.0
 76
     1
 77
     6
 78
     2
 67
     7
 79
     5
170
     0
171
     0
290
     0
174
     0
 93
        1
 44
-50.0
173
     0
291
     1
 45
0.0
1001
ACAD
1000
AcDbSavedByObjectVersion
1070
     0
  0
VISUALSTYLE
  5
39
102
{ACAD_REACTORS
330
2A
102
}
330
2A
100
AcDbVisualStyle
  2
Facepattern
 70
    15
 71
     2
 72
     2
 73
     0
 90
        0
 40
-0.6
 41
-30.0
 62
     5
 63
     7
421
 16777215
 74
     1
 91
        4
 64
     7
 65
   257
 75
     1
175
     1
 42
1.0
 92
        8
 66
     7
 43
1.0
 76
     1
 77
     6
 78
     2
 67
     7
 79
     5
170
     0
171
     0
290
     0
174
     0
 93
        1
 44
0.0
173
     0
291
     1
 45
0.0
1001
ACAD
1000
AcDbSavedByObjectVersion
1070
     0
  0
VISUALSTYLE
  5
2B
102
{ACAD_REACTORS
330
2A
102
}
330
2A
100
AcDbVisualStyle
  2
Flat
 70
     0
 71
     2
 72
     1
 73
     1
 90
        2
 40
-0.6
 41
30.0
 62
     5
 63
     7
421
 16777215
 74
     0
 91
        4
 64
     7
 65
   257
 75
     1
175
     1
 42
1.0
 92
        8
 66
     7
 43
1.0
 76
     1
 77
     6
 78
     2
 67
     7
 79
     5
170
     0
171
     0
290
     0
174
     0
 93
       13
 44
0.0
173
     0
291
     1
 45
0.0
1001
ACAD
1000
AcDbSavedByObjectVersion
1070
     0
  0
VISUALSTYLE
  5
2C
102
{ACAD_REACTORS
330
2A
102
}
330
2A
100
AcDbVisualStyle
  2
FlatWithEdges
 70
     1
 71
     2
 72
     1
 73
     1
 90
        2
 40
-0.6
 41
30.0
 62
     5
 63
     7
421
 16777215
 74
     1
 91
        4
 64
     7
 65
   257
 75
     1
175
     1
 42
1.0
 92
        0
 66
   257
 43
1.0
 76
     1
 77
     6
 78
     2
 67
     7
 79
     5
170
     0
171
     0
290
     0
174
     0
 93
       13
 44
0.0
173
     0
291
     1
 45
0.0
1001
ACAD
1000
AcDbSavedByObjectVersion
1070
     0
  0
VISUALSTYLE
  5
2D
102
{ACAD_REACTORS
330
2A
102
}
330
2A
100
AcDbVisualStyle
  2
Gouraud
 70
     2
 71
     2
 72
     2
 73
     1
 90
        2
 40
-0.6
 41
30.0
 62
     5
 63
     7
421
 16777215
 74
     0
 91
        4
 64
     7
 65
   257
 75
     1
175
     1
 42
1.0
 92
        0
 66
     7
 43
1.0
 76
     1
 77
     6
 78
     2
 67
     7
 79
     5
170
     0
171
     0
290
     0
174
     0
 93
       13
 44
0.0
173
     0
291
     1
 45
0.0
1001
ACAD
1000
AcDbSavedByObjectVersion
1070
     0
  0
VISUALSTYLE
  5
2E
102
{ACAD_REACTORS
330
2A
102
}
330
2A
100
AcDbVisualStyle
  2
GouraudWithEdges
 70
     3
 71
     2
 72
     2
 73
     1
 90
        2
 40
-0.6
 41
30.0
 62
     5
 63
     7
421
 16777215
 74
     1
 91
        4
 64
     7
 65
   257
 75
     1
175
     1
 42
1.0
 92
        0
 66
   257
 43
1.0
 76
     1
 77
     6
 78
     2
 67
     7
 79
     5
170
     0
171
     0
290
     0
174
     0
 93
       13
 44
0.0
173
     0
291
     1
 45
0.0
1001
ACAD
1000
AcDbSavedByObjectVersion
1070
     0
  0
VISUALSTYLE
  5
38
102
{ACAD_REACTORS
330
2A
102
}
330
2A
100
AcDbVisualStyle
  2
Linepattern
 70
    14
 71
     2
 72
     2
 73
     0
 90
        0
 40
-0.6
 41
-30.0
 62
     5
 63
     7
421
 16777215
 74
     1
 91
        4
 64
     7
 65
   257
 75
     7
175
     7
 42
1.0
 92
        8
 66
     7
 43
1.0
 76
     1
 77
     6
 78
     2
 67
     7
 79
     5
170
     0
171
     0
290
     0
174
     0
 93
        1
 44
0.0
173
     0
291
     1
 45
0.0
1001
ACAD
1000
AcDbSavedByObjectVersion
1070
     0
  0
VISUALSTYLE
  5
33
102
{ACAD_REACTORS
330
2A
102
}
330
2A
100
AcDbVisualStyle
  2
Realistic
 70
     8
 71
     2
 72
     2
 73
     0
 90
        0
 40
-0.6
 41
-30.0
 62
     5
 63
     7
421
 16777215
 74
     1
 91
        0
 64
     7
 65
   257
 75
     1
175
     1
 42
1.0
 92
        8
 66
     8
424
  7895160
 43
1.0
 76
     1
 77
     6
 78
     2
 67
     7
 79
     5
170
     0
171
     0
290
     0
174
     0
 93
       13
 44
0.0
173
     0
291
     0
 45
0.0
1001
ACAD
1000
AcDbSavedByObjectVersion
1070
     0
  0
VISUALSTYLE
  5
37
102
{ACAD_REACTORS
330
2A
102
}
330
2A
100
AcDbVisualStyle
  2
Thicken
 70
    13
 71
     2
 72
     2
 73
     0
 90
        0
 40
-0.6
 41
-30.0
 62
     5
 63
     7
421
 16777215
 74
     1
 91
        4
 64
     7
 65
   257
 75
     1
175
     1
 42
1.0
 92
       12
 66
     7
 43
1.0
 76
     1
 77
     6
 78
     2
 67
     7
 79
     5
170
     0
171
     0
290
     0
174
     0
 93
        1
 44
0.0
173
     0
291
     1
 45
0.0
1001
ACAD
1000
AcDbSavedByObjectVersion
1070
     0
  0
DICTIONARYVAR
  5
126
102
{ACAD_REACTORS
330
125
102
}
330
125
100
DictionaryVariables
280
     0
  1
1:1
  0
ENDSEC
  0
EOF
