  0
SECTION
  2
HEADER
  9
$ACADVER
  1
AC1009
  9
$INSBASE
 10
-0.0000000000000568
 20
0.0
 30
0.0
  9
$EXTMIN
 10
-119.76083379282601
 20
-0.8999999999999963
 30
0.0
  9
$EXTMAX
 10
101.5823168850508
 20
75.914624402199465
 30
0.0
  9
$LIMMIN
 10
0.0
 20
0.0
  9
$LIMMAX
 10
12.0
 20
9.0
  9
$ORTHOMODE
 70
     1
  9
$REGENMODE
 70
     1
  9
$FILLMODE
 70
     1
  9
$QTEXTMODE
 70
     0
  9
$MIRRTEXT
 70
     1
  9
$DRAGMODE
 70
     2
  9
$LTSCALE
 40
1.0
  9
$OSMODE
 70
     1
  9
$ATTMODE
 70
     1
  9
$TEXTSIZE
 40
0.2
  9
$TRACEWID
 40
0.05
  9
$TEXTSTYLE
  7
STANDARD
  9
$CLAYER
  8
0
  9
$CELTYPE
  6
CONTINUOUS
  9
$CECOLOR
 62
   256
  9
$DIMSCALE
 40
96.0
  9
$DIMASZ
 40
0.18
  9
$DIMEXO
 40
0.0625
  9
$DIMDLI
 40
0.38
  9
$DIMRND
 40
0.0
  9
$DIMDLE
 40
0.0
  9
$DIMEXE
 40
0.18
  9
$DIMTP
 40
0.0
  9
$DIMTM
 40
0.0
  9
$DIMTXT
 40
0.18
  9
$DIMCEN
 40
0.09
  9
$DIMTSZ
 40
0.0
  9
$DIMTOL
 70
     0
  9
$DIMLIM
 70
     0
  9
$DIMTIH
 70
     1
  9
$DIMTOH
 70
     1
  9
$DIMSE1
 70
     0
  9
$DIMSE2
 70
     0
  9
$DIMTAD
 70
     0
  9
$DIMZIN
 70
     0
  9
$DIMBLK
  1

  9
$DIMASO
 70
     1
  9
$DIMSHO
 70
     1
  9
$DIMPOST
  1

  9
$DIMAPOST
  1

  9
$DIMALT
 70
     0
  9
$DIMALTD
 70
     2
  9
$DIMALTF
 40
25.399999999999999
  9
$DIMLFAC
 40
1.0
  9
$DIMTOFL
 70
     0
  9
$DIMTVP
 40
0.0
  9
$DIMTIX
 70
     0
  9
$DIMSOXD
 70
     0
  9
$DIMSAH
 70
     0
  9
$DIMBLK1
  1

  9
$DIMBLK2
  1

  9
$DIMSTYLE
  2
STANDARD
  9
$DIMCLRD
 70
     0
  9
$DIMCLRE
 70
     0
  9
$DIMCLRT
 70
     0
  9
$DIMTFAC
 40
1.0
  9
$DIMGAP
 40
0.09
  9
$LUNITS
 70
     2
  9
$LUPREC
 70
     4
  9
$SKETCHINC
 40
0.1
  9
$FILLETRAD
 40
0.0
  9
$AUNITS
 70
     0
  9
$AUPREC
 70
     2
  9
$MENU
  1
.
  9
$ELEVATION
 40
0.0
  9
$PELEVATION
 40
0.0
  9
$THICKNESS
 40
0.0
  9
$LIMCHECK
 70
     0
  9
$BLIPMODE
 70
     0
  9
$CHAMFERA
 40
0.0
  9
$CHAMFERB
 40
0.0
  9
$SKPOLY
 70
     0
  9
$TDCREATE
 40
2453039.6816144562
  9
$TDUPDATE
 40
2453076.6357896412
  9
$TDINDWG
 40
0.0928762731
  9
$TDUSRTIMER
 40
0.0928762731
  9
$USRTIMER
 70
     1
  9
$ANGBASE
 50
0.0
  9
$ANGDIR
 70
     0
  9
$PDMODE
 70
     0
  9
$PDSIZE
 40
0.0
  9
$PLINEWID
 40
0.0
  9
$COORDS
 70
     1
  9
$SPLFRAME
 70
     0
  9
$SPLINETYPE
 70
     6
  9
$SPLINESEGS
 70
     8
  9
$ATTDIA
 70
     1
  9
$ATTREQ
 70
     1
  9
$HANDLING
 70
 22529
  9
$HANDSEED
  5
52D
  9
$SURFTAB1
 70
     6
  9
$SURFTAB2
 70
     6
  9
$SURFTYPE
 70
     6
  9
$SURFU
 70
     6
  9
$SURFV
 70
     6
  9
$UCSNAME
  2

  9
$UCSORG
 10
0.0
 20
0.0
 30
0.0
  9
$UCSXDIR
 10
1.0
 20
0.0
 30
0.0
  9
$UCSYDIR
 10
0.0
 20
1.0
 30
0.0
  9
$PUCSNAME
  2

  9
$PUCSORG
 10
0.0
 20
0.0
 30
0.0
  9
$PUCSXDIR
 10
1.0
 20
0.0
 30
0.0
  9
$PUCSYDIR
 10
0.0
 20
1.0
 30
0.0
  9
$USERI1
 70
     0
  9
$USERI2
 70
     0
  9
$USERI3
 70
     0
  9
$USERI4
 70
     0
  9
$USERI5
 70
     0
  9
$USERR1
 40
0.0
  9
$USERR2
 40
0.0
  9
$USERR3
 40
0.0
  9
$USERR4
 40
0.0
  9
$USERR5
 40
0.0
  9
$WORLDVIEW
 70
     1
  9
$SHADEDGE
 70
     3
  9
$SHADEDIF
 70
    70
  9
$TILEMODE
 70
     1
  9
$MAXACTVP
 70
    64
  9
$PLIMCHECK
 70
     0
  9
$PEXTMIN
 10
-0.8931824149261728
 20
-0.6972739900902809
 30
0.0
  9
$PEXTMAX
 10
989.45022067638558
 20
397.70185423348221
 30
0.0
  9
$PLIMMIN
 10
-0.1979161059762549
 20
-0.2679166643638311
  9
$PLIMMAX
 10
11.493750144177531
 20
7.9987497780266699
  9
$UNITMODE
 70
     0
  9
$VISRETAIN
 70
     1
  9
$PLINEGEN
 70
     0
  9
$PSLTSCALE
 70
     1
  0
ENDSEC
  0
SECTION
  2
TABLES
  0
TABLE
  2
VPORT
 70
     3
  0
VPORT
  2
*ACTIVE
 70
     0
 10
0.0
 20
0.0
 11
1.0
 21
1.0
 12
-2.9747562099960732
 22
37.507040748364084
 13
0.0
 23
0.0
 14
1.0
 24
1.0
 15
0.0
 25
0.0
 16
0.0
 26
0.0
 36
1.0
 17
0.0
 27
0.0
 37
0.0
 40
121.91329834630029
 41
1.928853754940711
 42
50.0
 43
0.0
 44
0.0
 50
0.0
 51
0.0
 71
     0
 72
   100
 73
     1
 74
     1
 75
     0
 76
     0
 77
     0
 78
     0
  0
ENDTAB
  0
TABLE
  2
LTYPE
 70
     1
  0
LTYPE
  2
CONTINUOUS
 70
     0
  3
Solid line
 72
    65
 73
     0
 40
0.0
  0
ENDTAB
  0
TABLE
  2
LAYER
 70
     3
  0
LAYER
  2
0
 70
     0
 62
     7
  6
CONTINUOUS
  0
LAYER
  2
DEFPOINTS
 70
     0
 62
     7
  6
CONTINUOUS
  0
LAYER
  2
COTATION-JACOBDELAFON
 70
     0
 62
     8
  6
CONTINUOUS
  0
ENDTAB
  0
TABLE
  2
STYLE
 70
     2
  0
STYLE
  2
STANDARD
 70
     0
 40
0.0
 41
1.0
 50
0.0
 71
     0
 42
0.2
  3
txt
  4

  0
STYLE
  2
JACOB-DELAFON
 70
     0
 40
0.0
 41
1.0
 50
0.0
 71
     0
 42
2.5
  3
txt
  4

  0
ENDTAB
  0
TABLE
  2
VIEW
 70
     0
  0
ENDTAB
  0
TABLE
  2
UCS
 70
     0
  0
ENDTAB
  0
TABLE
  2
APPID
 70
     6
  0
APPID
  2
ACAD
 70
     0
  0
APPID
  2
ACAECLAYERSTANDARD
 70
     0
  0
APPID
  2
ADCADD_ZZ
 70
     0
  0
APPID
  2
SDSK_PMN
 70
     0
  0
APPID
  2
AEC_DWGVARSSETUP_DATA
 70
     0
  0
APPID
  2
AEC_DISPREPSET_DATA
 70
     0
  0
ENDTAB
  0
TABLE
  2
DIMSTYLE
 70
     2
  0
DIMSTYLE
  2
STANDARD
 70
     0
  3

  4

  5

  6

  7

 40
1.0
 41
0.18
 42
0.0625
 43
0.38
 44
0.18
 45
0.0
 46
0.0
 47
0.0
 48
0.0
140
0.18
141
0.09
142
0.0
143
25.399999999999999
144
1.0
145
0.0
146
1.0
147
0.09
 71
     0
 72
     0
 73
     1
 74
     1
 75
     0
 76
     0
 77
     0
 78
     0
170
     0
171
     2
172
     0
173
     0
174
     0
175
     0
176
     0
177
     0
178
     0
  0
DIMSTYLE
  2
COTATION-JACOB-DELAFON
 70
     0
  3

  4

  5
OBLIQUE
  6

  7

 40
1.0
 41
1.8
 42
0.625
 43
3.7999999999999989
 44
1.8
 45
0.0
 46
0.0
 47
0.0
 48
0.0
140
3.0
141
0.9
142
0.0
143
25.399999999999999
144
1.0
145
0.0
146
1.0
147
0.9
 71
     0
 72
     0
 73
     0
 74
     0
 75
     0
 76
     0
 77
     1
 78
    12
170
     0
171
     2
172
     0
173
     0
174
     0
175
     0
176
     0
177
     0
178
     0
  0
ENDTAB
  0
ENDSEC
  0
SECTION
  2
BLOCKS
  0
BLOCK
  8
0
  2
$MODEL_SPACE
 70
     0
 10
0.0
 20
0.0
 30
0.0
  3
$MODEL_SPACE
  1

  0
ENDBLK
  5
9
  8
0
  0
BLOCK
 67
     1
  8
0
  2
$PAPER_SPACE
 70
     0
 10
0.0
 20
0.0
 30
0.0
  3
$PAPER_SPACE
  1

  0
ENDBLK
  5
E
 67
     1
  8
0
  0
BLOCK
  8
0
  2
_OBLIQUE
 70
     0
 10
0.0
 20
0.0
 30
0.0
  3
_OBLIQUE
  1

  0
LINE
  5
36
  8
0
  6
BYBLOCK
 62
     0
 10
-0.5
 20
-0.5
 30
0.0
 11
0.5
 21
0.5
 31
0.0
  0
ENDBLK
  5
38
  8
0
  0
BLOCK
  8
0
  2
*D1
 70
     1
 10
0.0
 20
0.0
 30
0.0
  3
*D1
  1

  0
LINE
  5
122
  8
COTATION-JACOBDELAFON
 62
     0
 10
-99.355746140896727
 20
56.734160445022667
 30
0.0
 11
-99.355746140896727
 21
69.112032314887045
 31
0.0
  0
LINE
  5
123
  8
COTATION-JACOBDELAFON
 62
     0
 10
99.646739981248587
 20
54.509566306666038
 30
0.0
 11
99.646739981248587
 21
69.112032314887045
 31
0.0
  0
LINE
  5
124
  8
COTATION-JACOBDELAFON
 62
     0
 10
-99.355746140896727
 20
67.312032314887063
 30
0.0
 11
99.646739981248587
 21
67.312032314887063
 31
0.0
  0
INSERT
  5
125
  8
COTATION-JACOBDELAFON
 62
     0
  2
_OBLIQUE
 10
-99.355746140896727
 20
67.312032314887063
 30
0.0
 41
1.8
 42
1.8
 43
1.8
 50
180.0
  0
INSERT
  5
126
  8
COTATION-JACOBDELAFON
 62
     0
  2
_OBLIQUE
 10
99.646739981248587
 20
67.312032314887063
 30
0.0
 41
1.8
 42
1.8
 43
1.8
  0
TEXT
  5
127
  8
0
  6
CONTINUOUS
 62
     0
 10
-7.1191688369864172
 20
68.326629859225392
 30
0.0
 40
6.0
  1
199
  7
JACOB-DELAFON
  0
POINT
  5
128
  8
DEFPOINTS
 62
     0
 10
-99.355746140896727
 20
56.109160445022667
 30
0.0
  0
POINT
  5
129
  8
DEFPOINTS
 62
     0
 10
99.646739981248587
 20
53.884566306666038
 30
0.0
  0
POINT
  5
12A
  8
DEFPOINTS
 62
     0
 10
99.646739981248587
 20
67.312032314887063
 30
0.0
  0
ENDBLK
  5
5D
  8
0
  0
BLOCK
  8
0
  2
*D2
 70
     1
 10
0.0
 20
0.0
 30
0.0
  3
*D2
  1

  0
LINE
  5
12B
  8
COTATION-JACOBDELAFON
 62
     0
 10
-97.643922966224295
 20
0.0000000000000002
 30
0.0
 11
-112.9705200138356
 21
0.0000000000000045
 31
0.0
  0
LINE
  5
12C
  8
COTATION-JACOBDELAFON
 62
     0
 10
-99.356171474105508
 20
57.004559585711263
 30
0.0
 11
-112.9705200138355
 21
57.00455958571127
 31
0.0
  0
LINE
  5
12D
  8
COTATION-JACOBDELAFON
 62
     0
 10
-111.1705200138356
 20
0.000000000000004
 30
0.0
 11
-111.1705200138355
 21
57.004559585711263
 31
0.0
  0
INSERT
  5
12E
  8
COTATION-JACOBDELAFON
 62
     0
  2
_OBLIQUE
 10
-111.1705200138356
 20
0.000000000000004
 30
0.0
 41
1.8
 42
1.8
 43
1.8
 50
270.0
  0
INSERT
  5
12F
  8
COTATION-JACOBDELAFON
 62
     0
  2
_OBLIQUE
 10
-111.1705200138355
 20
57.004559585711263
 30
0.0
 41
1.8
 42
1.8
 43
1.8
 50
90.0
  0
TEXT
  5
130
  8
0
  6
CONTINUOUS
 62
     0
 10
-112.1728392498519
 20
23.856986477712361
 30
0.0
 40
6.0
  1
57
 50
90.0
  7
JACOB-DELAFON
  0
POINT
  5
131
  8
DEFPOINTS
 62
     0
 10
-97.018922966224295
 20
0.0
 30
0.0
  0
POINT
  5
132
  8
DEFPOINTS
 62
     0
 10
-98.731171474105508
 20
57.004559585711263
 30
0.0
  0
POINT
  5
133
  8
DEFPOINTS
 62
     0
 10
-111.1705200138355
 20
57.004559585711263
 30
0.0
  0
ENDBLK
  5
90
  8
0
  0
BLOCK
  8
0
  2
A$C5D574966
 70
     0
 10
0.0
 20
0.0
 30
0.0
  3
A$C5D574966
  1

  0
POLYLINE
  5
10C
  8
0
  6
CONTINUOUS
 66
     1
 10
0.0
 20
0.0
 30
0.0
 70
     1
  0
VERTEX
  5
417
  8
0
  6
CONTINUOUS
 10
-0.0000002773184633
 20
143.5000005643121
 30
0.0
  0
VERTEX
  5
418
  8
0
  6
CONTINUOUS
 10
142.87538941785439
 20
143.4998964278825
 30
0.0
  0
VERTEX
  5
419
  8
0
  6
CONTINUOUS
 10
143.31713615225189
 20
143.31692872106109
 30
0.0
  0
VERTEX
  5
41A
  8
0
  6
CONTINUOUS
 10
143.49999972264371
 20
142.8752861230931
 30
0.0
  0
VERTEX
  5
41B
  8
0
  6
CONTINUOUS
 10
143.49999972264371
 20
3.152835107164861
 30
0.0
  0
VERTEX
  5
41C
  8
0
  6
CONTINUOUS
 10
143.32317606516909
 20
2.737330753028544
 30
0.0
  0
VERTEX
  5
41D
  8
0
  6
CONTINUOUS
 10
143.32317606516909
 20
0.0000005643500245
 30
0.0
  0
VERTEX
  5
41E
  8
0
  6
CONTINUOUS
 10
111.5700000854968
 20
0.0166623930873229
 30
0.0
  0
VERTEX
  5
41F
  8
0
  6
CONTINUOUS
 10
98.225853859085305
 20
3.0072523785727441
 30
0.0
  0
VERTEX
  5
420
  8
0
  6
CONTINUOUS
 10
85.290755528174259
 20
7.5719686340142109
 30
0.0
  0
VERTEX
  5
421
  8
0
  6
CONTINUOUS
 10
72.775847690731993
 20
13.588346718192589
 30
0.0
  0
VERTEX
  5
422
  8
0
  6
CONTINUOUS
 10
60.807031290154669
 20
20.921529954765401
 30
0.0
  0
VERTEX
  5
423
  8
0
  6
CONTINUOUS
 10
49.510207269838361
 20
29.439473350989569
 30
0.0
  0
VERTEX
  5
424
  8
0
  6
CONTINUOUS
 10
39.011901391756957
 20
39.01190223342536
 30
0.0
  0
VERTEX
  5
425
  8
0
  6
CONTINUOUS
 10
29.439576645750769
 20
49.510103975077151
 30
0.0
  0
VERTEX
  5
426
  8
0
  6
CONTINUOUS
 10
20.921633249526501
 20
60.80692799539348
 30
0.0
  0
VERTEX
  5
427
  8
0
  6
CONTINUOUS
 10
13.58834587652415
 20
72.775744395970875
 30
0.0
  0
VERTEX
  5
428
  8
0
  6
CONTINUOUS
 10
7.5720719287753582
 20
85.290652233413155
 30
0.0
  0
VERTEX
  5
429
  8
0
  6
CONTINUOUS
 10
3.0073556733339042
 20
98.225750564324159
 30
0.0
  0
VERTEX
  5
42A
  8
0
  6
CONTINUOUS
 10
0.0167656878484195
 20
111.5698967907357
 30
0.0
  0
SEQEND
  5
42B
  8
0
  6
CONTINUOUS
  0
POLYLINE
  5
10D
  8
0
  6
CONTINUOUS
 66
     1
 10
0.0
 20
0.0
 30
0.0
  0
VERTEX
  5
42C
  8
0
  6
CONTINUOUS
 10
2.1488549476447361
 20
143.5000005643121
 30
0.0
  0
VERTEX
  5
42D
  8
0
  6
CONTINUOUS
 10
2.1523955862513731
 20
111.8072237138125
 30
0.0
  0
VERTEX
  5
42E
  8
0
  6
CONTINUOUS
 10
5.0722769360329494
 20
98.820265440956774
 30
0.0
  0
VERTEX
  5
42F
  8
0
  6
CONTINUOUS
 10
9.5564957313873702
 20
86.114996210190867
 30
0.0
  0
VERTEX
  5
430
  8
0
  6
CONTINUOUS
 10
15.47519384459326
 20
73.803883365491657
 30
0.0
  0
VERTEX
  5
431
  8
0
  6
CONTINUOUS
 10
22.697575920063169
 20
62.016472625291563
 30
0.0
  0
VERTEX
  5
432
  8
0
  6
CONTINUOUS
 10
31.093054875068098
 20
50.882413844452721
 30
0.0
  0
VERTEX
  5
433
  8
0
  6
CONTINUOUS
 10
40.531356036168738
 20
40.531252741407542
 30
0.0
  0
VERTEX
  5
434
  8
0
  6
CONTINUOUS
 10
50.882413002784233
 20
31.092951580306998
 30
0.0
  0
VERTEX
  5
435
  8
0
  6
CONTINUOUS
 10
62.016575920052787
 20
22.697472625301948
 30
0.0
  0
VERTEX
  5
436
  8
0
  6
CONTINUOUS
 10
73.803986660252804
 20
15.47509054983214
 30
0.0
  0
VERTEX
  5
437
  8
0
  6
CONTINUOUS
 10
86.115099504952013
 20
9.5563924366261688
 30
0.0
  0
VERTEX
  5
438
  8
0
  6
CONTINUOUS
 10
98.820368735717921
 20
5.0721736412717604
 30
0.0
  0
VERTEX
  5
439
  8
0
  6
CONTINUOUS
 10
111.80732700857369
 20
2.15229229149024
 30
0.0
  0
VERTEX
  5
43A
  8
0
  6
CONTINUOUS
 10
143.32317606516909
 20
2.1487516528835608
 30
0.0
  0
SEQEND
  5
43B
  8
0
  6
CONTINUOUS
  0
POLYLINE
  5
10E
  8
0
  6
CONTINUOUS
 66
     1
 10
0.0
 20
0.0
 30
0.0
 70
     1
  0
VERTEX
  5
43C
  8
0
  6
CONTINUOUS
 10
17.804205092778481
 20
118.80769105778749
 30
0.0
  0
VERTEX
  5
43D
  8
0
  6
CONTINUOUS
 10
22.92032374299481
 20
125.0869094902967
 30
0.0
  0
VERTEX
  5
43E
  8
0
  6
CONTINUOUS
 10
29.800825920061239
 20
130.07067073848111
 30
0.0
  0
VERTEX
  5
43F
  8
0
  6
CONTINUOUS
 10
38.129136877969131
 20
133.6403634090172
 30
0.0
  0
VERTEX
  5
440
  8
0
  6
CONTINUOUS
 10
47.39113506374315
 20
135.8293111593795
 30
0.0
  0
VERTEX
  5
441
  8
0
  6
CONTINUOUS
 10
56.933051972303701
 20
136.54962284297869
 30
0.0
  0
VERTEX
  5
442
  8
0
  6
CONTINUOUS
 10
102.1143081406516
 20
136.5461863408016
 30
0.0
  0
VERTEX
  5
443
  8
0
  6
CONTINUOUS
 10
103.59377439609401
 20
136.173794468523
 30
0.0
  0
VERTEX
  5
444
  8
0
  6
CONTINUOUS
 10
104.45404544108651
 20
135.77193198666541
 30
0.0
  0
VERTEX
  5
445
  8
0
  6
CONTINUOUS
 10
104.62170509275551
 20
135.76734998376261
 30
0.0
  0
VERTEX
  5
446
  8
0
  6
CONTINUOUS
 10
106.7220327415212
 20
136.03664679072921
 30
0.0
  0
VERTEX
  5
447
  8
0
  6
CONTINUOUS
 10
109.0145962393437
 20
136.0362302450107
 30
0.0
  0
VERTEX
  5
448
  8
0
  6
CONTINUOUS
 10
113.31293150784749
 20
135.3860023785378
 30
0.0
  0
VERTEX
  5
449
  8
0
  6
CONTINUOUS
 10
121.09129798099509
 20
132.10289316228321
 30
0.0
  0
VERTEX
  5
44A
  8
0
  6
CONTINUOUS
 10
127.2868948605289
 20
127.3201152232424
 30
0.0
  0
VERTEX
  5
44B
  8
0
  6
CONTINUOUS
 10
132.0695686631401
 20
121.1246224801381
 30
0.0
  0
VERTEX
  5
44C
  8
0
  6
CONTINUOUS
 10
135.35267787939469
 20
113.346151870561
 30
0.0
  0
VERTEX
  5
44D
  8
0
  6
CONTINUOUS
 10
136.00300988229719
 20
109.0479207384867
 30
0.0
  0
VERTEX
  5
44E
  8
0
  6
CONTINUOUS
 10
136.00342642801581
 20
106.7552531042347
 30
0.0
  0
VERTEX
  5
44F
  8
0
  6
CONTINUOUS
 10
135.73412962104919
 20
104.654925455469
 30
0.0
  0
VERTEX
  5
450
  8
0
  6
CONTINUOUS
 10
135.7387116239521
 20
104.4872658038
 30
0.0
  0
VERTEX
  5
451
  8
0
  6
CONTINUOUS
 10
136.14057410580969
 20
103.6269947588074
 30
0.0
  0
VERTEX
  5
452
  8
0
  6
CONTINUOUS
 10
136.51296597808829
 20
102.14752850336509
 30
0.0
  0
VERTEX
  5
453
  8
0
  6
CONTINUOUS
 10
136.5164024802653
 20
56.966272335017152
 30
0.0
  0
VERTEX
  5
454
  8
0
  6
CONTINUOUS
 10
135.8294144541407
 20
47.391031768981932
 30
0.0
  0
VERTEX
  5
455
  8
0
  6
CONTINUOUS
 10
133.6404667037784
 20
38.129033583207899
 30
0.0
  0
VERTEX
  5
456
  8
0
  6
CONTINUOUS
 10
130.0707740332424
 20
29.800722625300061
 30
0.0
  0
VERTEX
  5
457
  8
0
  6
CONTINUOUS
 10
125.08701278505789
 20
22.920220448233671
 30
0.0
  0
VERTEX
  5
458
  8
0
  6
CONTINUOUS
 10
118.8077943525486
 20
17.804205934446909
 30
0.0
  0
VERTEX
  5
459
  8
0
  6
CONTINUOUS
 10
111.5216807821586
 20
14.534842726900621
 30
0.0
  0
VERTEX
  5
45A
  8
0
  6
CONTINUOUS
 10
103.6264732349909
 20
13.01163917102293
 30
0.0
  0
VERTEX
  5
45B
  8
0
  6
CONTINUOUS
 10
97.619155020188487
 20
13.403921101356641
 30
0.0
  0
VERTEX
  5
45C
  8
0
  6
CONTINUOUS
 10
91.447613655893974
 20
14.446951580311371
 30
0.0
  0
VERTEX
  5
45D
  8
0
  6
CONTINUOUS
 10
85.825183684923104
 20
16.591224802371769
 30
0.0
  0
VERTEX
  5
45E
  8
0
  6
CONTINUOUS
 10
80.879536369975199
 20
19.722190694968901
 30
0.0
  0
VERTEX
  5
45F
  8
0
  6
CONTINUOUS
 10
77.057416994069172
 20
23.136720085388902
 30
0.0
  0
VERTEX
  5
460
  8
0
  6
CONTINUOUS
 10
74.439739563010221
 20
26.46981478785537
 30
0.0
  0
VERTEX
  5
461
  8
0
  6
CONTINUOUS
 10
73.591235934563542
 20
27.449009635460349
 30
0.0
  0
VERTEX
  5
462
  8
0
  6
CONTINUOUS
 10
72.558931507858347
 20
28.23201144968365
 30
0.0
  0
VERTEX
  5
463
  8
0
  6
CONTINUOUS
 10
64.905424613811078
 20
32.87253902587981
 30
0.0
  0
VERTEX
  5
464
  8
0
  6
CONTINUOUS
 10
55.923969969401242
 20
39.633076036037679
 30
0.0
  0
VERTEX
  5
465
  8
0
  6
CONTINUOUS
 10
47.402902480288837
 20
47.402799185527648
 30
0.0
  0
VERTEX
  5
466
  8
0
  6
CONTINUOUS
 10
39.633075194369319
 20
55.923866674640053
 30
0.0
  0
VERTEX
  5
467
  8
0
  6
CONTINUOUS
 10
32.872642320641027
 20
64.905321319049875
 30
0.0
  0
VERTEX
  5
468
  8
0
  6
CONTINUOUS
 10
28.232114744444861
 20
72.5588282130972
 30
0.0
  0
VERTEX
  5
469
  8
0
  6
CONTINUOUS
 10
27.449112930221531
 20
73.591132639802325
 30
0.0
  0
VERTEX
  5
46A
  8
0
  6
CONTINUOUS
 10
26.469918082616569
 20
74.439636268249103
 30
0.0
  0
VERTEX
  5
46B
  8
0
  6
CONTINUOUS
 10
23.136823380150069
 20
77.057417835737525
 30
0.0
  0
VERTEX
  5
46C
  8
0
  6
CONTINUOUS
 10
19.722189853300389
 20
80.879433075214038
 30
0.0
  0
VERTEX
  5
46D
  8
0
  6
CONTINUOUS
 10
16.59132809713287
 20
85.825080390161929
 30
0.0
  0
VERTEX
  5
46E
  8
0
  6
CONTINUOUS
 10
14.446950738642951
 20
91.447510361132871
 30
0.0
  0
VERTEX
  5
46F
  8
0
  6
CONTINUOUS
 10
13.40402439611784
 20
97.619051725427283
 30
0.0
  0
VERTEX
  5
470
  8
0
  6
CONTINUOUS
 10
13.01174246578409
 20
103.62636994022979
 30
0.0
  0
VERTEX
  5
471
  8
0
  6
CONTINUOUS
 10
14.53494602166176
 20
111.52157748739749
 30
0.0
  0
SEQEND
  5
472
  8
0
  6
CONTINUOUS
  0
POLYLINE
  5
10F
  8
0
  6
CONTINUOUS
 66
     1
 10
0.0
 20
0.0
 30
0.0
 70
     1
  0
VERTEX
  5
473
  8
0
  6
CONTINUOUS
 10
40.384523670421338
 20
71.375109417741939
 30
0.0
  0
VERTEX
  5
474
  8
0
  6
CONTINUOUS
 10
36.373604947635719
 20
78.474298096985336
 30
0.0
  0
VERTEX
  5
475
  8
0
  6
CONTINUOUS
 10
34.648168445459071
 20
82.143336921367535
 30
0.0
  0
VERTEX
  5
476
  8
0
  6
CONTINUOUS
 10
33.301996819915189
 20
85.432590186968994
 30
0.0
  0
VERTEX
  5
477
  8
0
  6
CONTINUOUS
 10
32.03580197231031
 20
89.299071681888165
 30
0.0
  0
VERTEX
  5
478
  8
0
  6
CONTINUOUS
 10
30.999436224850449
 20
93.452865586096067
 30
0.0
  0
VERTEX
  5
479
  8
0
  6
CONTINUOUS
 10
30.347125629785289
 20
97.681533583192191
 30
0.0
  0
VERTEX
  5
47A
  8
0
  6
CONTINUOUS
 10
30.15988832934999
 20
101.4655390258617
 30
0.0
  0
VERTEX
  5
47B
  8
0
  6
CONTINUOUS
 10
30.423665905547288
 20
105.24173423631061
 30
0.0
  0
VERTEX
  5
47C
  8
0
  6
CONTINUOUS
 10
31.102843699451231
 20
108.5359860505332
 30
0.0
  0
VERTEX
  5
47D
  8
0
  6
CONTINUOUS
 10
32.262715252426339
 20
111.68913300263689
 30
0.0
  0
VERTEX
  5
47E
  8
0
  6
CONTINUOUS
 10
33.818513510771361
 20
114.3780397515477
 30
0.0
  0
VERTEX
  5
47F
  8
0
  6
CONTINUOUS
 10
35.79346089828902
 20
116.7759893161334
 30
0.0
  0
VERTEX
  5
480
  8
0
  6
CONTINUOUS
 10
40.880317211785488
 20
120.306734961996
 30
0.0
  0
VERTEX
  5
481
  8
0
  6
CONTINUOUS
 10
47.327715978111769
 20
122.14578430887509
 30
0.0
  0
VERTEX
  5
482
  8
0
  6
CONTINUOUS
 10
54.887916631230162
 20
122.22232458463699
 30
0.0
  0
VERTEX
  5
483
  8
0
  6
CONTINUOUS
 10
63.27037853253433
 20
120.53354410568249
 30
0.0
  0
VERTEX
  5
484
  8
0
  6
CONTINUOUS
 10
72.153007705246054
 20
117.1444240040869
 30
0.0
  0
VERTEX
  5
485
  8
0
  6
CONTINUOUS
 10
81.194340796680422
 20
112.1849265440011
 30
0.0
  0
VERTEX
  5
486
  8
0
  6
CONTINUOUS
 10
90.047082814094765
 20
105.8459338008968
 30
0.0
  0
VERTEX
  5
487
  8
0
  6
CONTINUOUS
 10
98.370915905529387
 20
98.370812610768212
 30
0.0
  0
VERTEX
  5
488
  8
0
  6
CONTINUOUS
 10
105.84603709565791
 20
90.046979519333505
 30
0.0
  0
VERTEX
  5
489
  8
0
  6
CONTINUOUS
 10
112.1850298387622
 20
81.194237501919289
 30
0.0
  0
VERTEX
  5
48A
  8
0
  6
CONTINUOUS
 10
117.144527298848
 20
72.152904410484837
 30
0.0
  0
VERTEX
  5
48B
  8
0
  6
CONTINUOUS
 10
120.5336474004436
 20
63.270275237773099
 30
0.0
  0
VERTEX
  5
48C
  8
0
  6
CONTINUOUS
 10
122.2224278793983
 20
54.88781333646908
 30
0.0
  0
VERTEX
  5
48D
  8
0
  6
CONTINUOUS
 10
122.1457834672065
 20
47.327612683350587
 30
0.0
  0
VERTEX
  5
48E
  8
0
  6
CONTINUOUS
 10
120.3068382567572
 20
40.880213917024292
 30
0.0
  0
VERTEX
  5
48F
  8
0
  6
CONTINUOUS
 10
116.77609261089449
 20
35.793357603527816
 30
0.0
  0
VERTEX
  5
490
  8
0
  6
CONTINUOUS
 10
114.37814304630879
 20
33.818410216010172
 30
0.0
  0
VERTEX
  5
491
  8
0
  6
CONTINUOUS
 10
111.6892362973981
 20
32.262611957665172
 30
0.0
  0
VERTEX
  5
492
  8
0
  6
CONTINUOUS
 10
108.5360893452945
 20
31.102740404690149
 30
0.0
  0
VERTEX
  5
493
  8
0
  6
CONTINUOUS
 10
105.2418375310717
 20
30.423666747215741
 30
0.0
  0
VERTEX
  5
494
  8
0
  6
CONTINUOUS
 10
101.46564232062291
 20
30.159785034588801
 30
0.0
  0
VERTEX
  5
495
  8
0
  6
CONTINUOUS
 10
97.681636877953338
 20
30.347022335024182
 30
0.0
  0
VERTEX
  5
496
  8
0
  6
CONTINUOUS
 10
93.452968880857156
 20
30.999332930089299
 30
0.0
  0
VERTEX
  5
497
  8
0
  6
CONTINUOUS
 10
89.299174976649283
 20
32.035802813978719
 30
0.0
  0
VERTEX
  5
498
  8
0
  6
CONTINUOUS
 10
85.432693481730212
 20
33.301893525154007
 30
0.0
  0
VERTEX
  5
499
  8
0
  6
CONTINUOUS
 10
82.143440216128624
 20
34.64806515069791
 30
0.0
  0
VERTEX
  5
49A
  8
0
  6
CONTINUOUS
 10
78.474401391746483
 20
36.373501652874538
 30
0.0
  0
VERTEX
  5
49B
  8
0
  6
CONTINUOUS
 10
71.375212712503185
 20
40.384420375660127
 30
0.0
  0
VERTEX
  5
49C
  8
0
  6
CONTINUOUS
 10
62.52247069508882
 20
46.723413118764391
 30
0.0
  0
VERTEX
  5
49D
  8
0
  6
CONTINUOUS
 10
54.19863760365422
 20
54.198534308893059
 30
0.0
  0
VERTEX
  5
49E
  8
0
  6
CONTINUOUS
 10
46.723516413525537
 20
62.522367400327703
 30
0.0
  0
SEQEND
  5
49F
  8
0
  6
CONTINUOUS
  0
POLYLINE
  5
110
  8
0
  6
CONTINUOUS
 66
     1
 10
0.0
 20
0.0
 30
0.0
 70
     1
  0
VERTEX
  5
4A0
  8
0
  6
CONTINUOUS
 10
56.042685499154452
 20
130.10316130451889
 30
0.0
  0
VERTEX
  5
4A1
  8
0
  6
CONTINUOUS
 10
101.1958248315082
 20
130.0331816238222
 30
0.0
  0
VERTEX
  5
4A2
  8
0
  6
CONTINUOUS
 10
102.9161586486341
 20
130.02682930161609
 30
0.0
  0
VERTEX
  5
4A3
  8
0
  6
CONTINUOUS
 10
103.8793164860793
 20
130.00964679073081
 30
0.0
  0
VERTEX
  5
4A4
  8
0
  6
CONTINUOUS
 10
104.6016067618412
 20
129.97528176896009
 30
0.0
  0
VERTEX
  5
4A5
  8
0
  6
CONTINUOUS
 10
106.5537482712746
 20
129.88072589087599
 30
0.0
  0
VERTEX
  5
4A6
  8
0
  6
CONTINUOUS
 10
108.50464014355281
 20
129.7479519431256
 30
0.0
  0
VERTEX
  5
4A7
  8
0
  6
CONTINUOUS
 10
111.3582907241035
 20
129.09053866300971
 30
0.0
  0
VERTEX
  5
4A8
  8
0
  6
CONTINUOUS
 10
117.3971622770773
 20
126.5420078212107
 30
0.0
  0
VERTEX
  5
4A9
  8
0
  6
CONTINUOUS
 10
122.501513510748
 20
122.53473387346131
 30
0.0
  0
VERTEX
  5
4AA
  8
0
  6
CONTINUOUS
 10
126.5087874584972
 20
117.43038263979069
 30
0.0
  0
VERTEX
  5
4AB
  8
0
  6
CONTINUOUS
 10
129.0573183002962
 20
111.391511086817
 30
0.0
  0
VERTEX
  5
4AC
  8
0
  6
CONTINUOUS
 10
129.71473158041221
 20
108.5378605062662
 30
0.0
  0
VERTEX
  5
4AD
  8
0
  6
CONTINUOUS
 10
129.8475055281626
 20
106.58696863398811
 30
0.0
  0
VERTEX
  5
4AE
  8
0
  6
CONTINUOUS
 10
129.94206140624661
 20
104.6349312609842
 30
0.0
  0
VERTEX
  5
4AF
  8
0
  6
CONTINUOUS
 10
129.97642642801731
 20
103.9125368487928
 30
0.0
  0
VERTEX
  5
4B0
  8
0
  6
CONTINUOUS
 10
129.9936089389027
 20
102.9493790113475
 30
0.0
  0
VERTEX
  5
4B1
  8
0
  6
CONTINUOUS
 10
129.99985712467921
 20
101.2290451942216
 30
0.0
  0
VERTEX
  5
4B2
  8
0
  6
CONTINUOUS
 10
130.06858716822049
 20
56.085069867673397
 30
0.0
  0
VERTEX
  5
4B3
  8
0
  6
CONTINUOUS
 10
127.94014268346049
 20
65.410799548367592
 30
0.0
  0
VERTEX
  5
4B4
  8
0
  6
CONTINUOUS
 10
124.1395795484834
 20
75.386028140527515
 30
0.0
  0
VERTEX
  5
4B5
  8
0
  6
CONTINUOUS
 10
118.7064696065399
 20
85.296483873471189
 30
0.0
  0
VERTEX
  5
4B6
  8
0
  6
CONTINUOUS
 10
111.8527304918828
 20
94.870162393062273
 30
0.0
  0
VERTEX
  5
4B7
  8
0
  6
CONTINUOUS
 10
103.81798012904019
 20
103.81787683427901
 30
0.0
  0
VERTEX
  5
4B8
  8
0
  6
CONTINUOUS
 10
94.870265687823448
 20
111.85262719712161
 30
0.0
  0
VERTEX
  5
4B9
  8
0
  6
CONTINUOUS
 10
85.296587168232463
 20
118.70636631177879
 30
0.0
  0
VERTEX
  5
4BA
  8
0
  6
CONTINUOUS
 10
75.386131435288689
 20
124.13947625372219
 30
0.0
  0
VERTEX
  5
4BB
  8
0
  6
CONTINUOUS
 10
65.410902843128724
 20
127.9400393886994
 30
0.0
  0
SEQEND
  5
4BC
  8
0
  6
CONTINUOUS
  0
POLYLINE
  5
111
  8
0
  6
CONTINUOUS
 66
     1
 10
0.0
 20
0.0
 30
0.0
  0
VERTEX
  5
4BD
  8
0
  6
CONTINUOUS
 10
5.5743186631735853
 20
143.5000005643121
 30
0.0
  0
VERTEX
  5
4BE
  8
0
  6
CONTINUOUS
 10
5.557032015858681
 20
112.18555136257871
 30
0.0
  0
VERTEX
  5
4BF
  8
0
  6
CONTINUOUS
 10
8.3641336123746441
 20
99.768011086820096
 30
0.0
  0
VERTEX
  5
4C0
  8
0
  6
CONTINUOUS
 10
12.71995219002212
 20
87.429197951845083
 30
0.0
  0
VERTEX
  5
4C1
  8
0
  6
CONTINUOUS
 10
18.48317461382328
 20
75.442990767523156
 30
0.0
  0
VERTEX
  5
4C2
  8
0
  6
CONTINUOUS
 10
25.52883716824817
 20
63.944766892344759
 30
0.0
  0
VERTEX
  5
4C3
  8
0
  6
CONTINUOUS
 10
33.729164454167631
 20
53.070007821230078
 30
0.0
  0
VERTEX
  5
4C4
  8
0
  6
CONTINUOUS
 10
42.953569388853111
 20
42.953466094091951
 30
0.0
  0
VERTEX
  5
4C5
  8
0
  6
CONTINUOUS
 10
53.07000697956164
 20
33.729061159406442
 30
0.0
  0
VERTEX
  5
4C6
  8
0
  6
CONTINUOUS
 10
63.944870187105948
 20
25.528733873486971
 30
0.0
  0
VERTEX
  5
4C7
  8
0
  6
CONTINUOUS
 10
75.443094062284331
 20
18.48307131906212
 30
0.0
  0
VERTEX
  5
4C8
  8
0
  6
CONTINUOUS
 10
87.429301246606315
 20
12.71984889526103
 30
0.0
  0
VERTEX
  5
4C9
  8
0
  6
CONTINUOUS
 10
99.768010245151686
 20
8.3640303176134196
 30
0.0
  0
VERTEX
  5
4CA
  8
0
  6
CONTINUOUS
 10
112.1856546573399
 20
5.5569287210974698
 30
0.0
  0
VERTEX
  5
4CB
  8
0
  6
CONTINUOUS
 10
143.32317606516909
 20
5.5743195048420233
 30
0.0
  0
SEQEND
  5
4CC
  8
0
  6
CONTINUOUS
  0
POLYLINE
  5
112
  8
0
  6
CONTINUOUS
 66
     1
 10
0.0
 20
0.0
 30
0.0
 70
     1
  0
VERTEX
  5
4CD
  8
0
  6
CONTINUOUS
 10
23.369255891035319
 20
99.865899330651686
 30
0.0
  0
VERTEX
  5
4CE
  8
0
  6
CONTINUOUS
 10
23.449024396115188
 20
104.4232218995909
 30
0.0
  0
VERTEX
  5
4CF
  8
0
  6
CONTINUOUS
 10
24.866633612370261
 20
110.89925818405951
 30
0.0
  0
VERTEX
  5
4D0
  8
0
  6
CONTINUOUS
 10
26.531150303226241
 20
114.90090876460989
 30
0.0
  0
VERTEX
  5
4D1
  8
0
  6
CONTINUOUS
 10
29.71418441062735
 20
119.74689751642291
 30
0.0
  0
VERTEX
  5
4D2
  8
0
  6
CONTINUOUS
 10
33.018745731381159
 20
122.8514127558996
 30
0.0
  0
VERTEX
  5
4D3
  8
0
  6
CONTINUOUS
 10
38.840180419333251
 20
125.9763387355794
 30
0.0
  0
VERTEX
  5
4D4
  8
0
  6
CONTINUOUS
 10
47.071956906994266
 20
128.6303597805715
 30
0.0
  0
VERTEX
  5
4D5
  8
0
  6
CONTINUOUS
 10
55.823582451258972
 20
129.01097843078909
 30
0.0
  0
VERTEX
  5
4D6
  8
0
  6
CONTINUOUS
 10
65.101825920051851
 20
126.8697251651874
 30
0.0
  0
VERTEX
  5
4D7
  8
0
  6
CONTINUOUS
 10
74.91887127563723
 20
123.12820738579789
 30
0.0
  0
VERTEX
  5
4D8
  8
0
  6
CONTINUOUS
 10
84.703426065184658
 20
117.76341094167741
 30
0.0
  0
VERTEX
  5
4D9
  8
0
  6
CONTINUOUS
 10
94.172759882308455
 20
110.98392110133091
 30
0.0
  0
VERTEX
  5
4DA
  8
0
  6
CONTINUOUS
 10
103.03018803905501
 20
103.0300847442938
 30
0.0
  0
VERTEX
  5
4DB
  8
0
  6
CONTINUOUS
 10
110.984024396092
 20
94.172656587547237
 30
0.0
  0
VERTEX
  5
4DC
  8
0
  6
CONTINUOUS
 10
117.7635142364387
 20
84.703322770423455
 30
0.0
  0
VERTEX
  5
4DD
  8
0
  6
CONTINUOUS
 10
123.1283106805591
 20
74.91876798087597
 30
0.0
  0
VERTEX
  5
4DE
  8
0
  6
CONTINUOUS
 10
126.86982845994859
 20
65.101826761720361
 30
0.0
  0
VERTEX
  5
4DF
  8
0
  6
CONTINUOUS
 10
128.97630015806121
 20
55.865862683348332
 30
0.0
  0
VERTEX
  5
4E0
  8
0
  6
CONTINUOUS
 10
128.6303589389031
 20
47.077789388720767
 30
0.0
  0
VERTEX
  5
4E1
  8
0
  6
CONTINUOUS
 10
125.9430142364363
 20
38.875587647068372
 30
0.0
  0
VERTEX
  5
4E2
  8
0
  6
CONTINUOUS
 10
122.85151605066081
 20
33.018746573049583
 30
0.0
  0
VERTEX
  5
4E3
  8
0
  6
CONTINUOUS
 10
119.74700081118399
 20
29.714185252295749
 30
0.0
  0
VERTEX
  5
4E4
  8
0
  6
CONTINUOUS
 10
114.9010120593711
 20
26.531151144894551
 30
0.0
  0
VERTEX
  5
4E5
  8
0
  6
CONTINUOUS
 10
110.89936147882059
 20
24.866530317609062
 30
0.0
  0
VERTEX
  5
4E6
  8
0
  6
CONTINUOUS
 10
104.4233251943521
 20
23.448921101353989
 30
0.0
  0
VERTEX
  5
4E7
  8
0
  6
CONTINUOUS
 10
99.866002625412875
 20
23.36915259627418
 30
0.0
  0
VERTEX
  5
4E8
  8
0
  6
CONTINUOUS
 10
95.697525484630205
 20
23.731443234880771
 30
0.0
  0
VERTEX
  5
4E9
  8
0
  6
CONTINUOUS
 10
91.141452552846303
 20
24.759165658683109
 30
0.0
  0
VERTEX
  5
4EA
  8
0
  6
CONTINUOUS
 10
86.713363293050634
 20
26.28809671818923
 30
0.0
  0
VERTEX
  5
4EB
  8
0
  6
CONTINUOUS
 10
82.607263873603188
 20
28.079139171018952
 30
0.0
  0
VERTEX
  5
4EC
  8
0
  6
CONTINUOUS
 10
78.644247908437251
 20
30.274126834298499
 30
0.0
  0
VERTEX
  5
4ED
  8
0
  6
CONTINUOUS
 10
77.535715615259051
 20
31.098366674646609
 30
0.0
  0
VERTEX
  5
4EE
  8
0
  6
CONTINUOUS
 10
75.502035281442545
 20
32.318949766083158
 30
0.0
  0
VERTEX
  5
4EF
  8
0
  6
CONTINUOUS
 10
68.223315397554757
 20
36.500756369855623
 30
0.0
  0
VERTEX
  5
4F0
  8
0
  6
CONTINUOUS
 10
59.133454729922839
 20
43.163925818329922
 30
0.0
  0
VERTEX
  5
4F1
  8
0
  6
CONTINUOUS
 10
50.756095513669607
 20
50.755992218908467
 30
0.0
  0
VERTEX
  5
4F2
  8
0
  6
CONTINUOUS
 10
43.164029113091139
 20
59.133351435161707
 30
0.0
  0
VERTEX
  5
4F3
  8
0
  6
CONTINUOUS
 10
36.500859664616769
 20
68.223316239223166
 30
0.0
  0
VERTEX
  5
4F4
  8
0
  6
CONTINUOUS
 10
32.318948924414713
 20
75.501931986681313
 30
0.0
  0
VERTEX
  5
4F5
  8
0
  6
CONTINUOUS
 10
31.098469969407802
 20
77.535612320497933
 30
0.0
  0
VERTEX
  5
4F6
  8
0
  6
CONTINUOUS
 10
30.274230129059671
 20
78.644144613676161
 30
0.0
  0
VERTEX
  5
4F7
  8
0
  6
CONTINUOUS
 10
28.079242465780109
 20
82.607160578842013
 30
0.0
  0
VERTEX
  5
4F8
  8
0
  6
CONTINUOUS
 10
26.288095876520739
 20
86.713259998289402
 30
0.0
  0
VERTEX
  5
4F9
  8
0
  6
CONTINUOUS
 10
24.759268953444231
 20
91.141349258085043
 30
0.0
  0
VERTEX
  5
4FA
  8
0
  6
CONTINUOUS
 10
23.731546529641939
 20
95.697422189869059
 30
0.0
  0
VERTEX
  5
4FB
  8
0
  6
CONTINUOUS
 10
23.369255891035319
 20
99.865899330651686
 30
0.0
  0
VERTEX
  5
4FC
  8
0
  6
CONTINUOUS
 10
23.449024396115188
 20
104.4232218995909
 30
0.0
  0
SEQEND
  5
4FD
  8
0
  6
CONTINUOUS
  0
POLYLINE
  5
113
  8
0
  6
CONTINUOUS
 66
     1
 10
0.0
 20
0.0
 30
0.0
 70
     1
  0
VERTEX
  5
4FE
  8
0
  6
CONTINUOUS
 10
33.537761696547932
 20
76.385529591906078
 30
0.0
  0
VERTEX
  5
4FF
  8
0
  6
CONTINUOUS
 10
32.362373815561341
 20
78.440453757362732
 30
0.0
  0
VERTEX
  5
500
  8
0
  6
CONTINUOUS
 10
31.77629398972703
 20
79.518161667376916
 30
0.0
  0
VERTEX
  5
501
  8
0
  6
CONTINUOUS
 10
29.95807192876952
 20
83.479303176809864
 30
0.0
  0
VERTEX
  5
502
  8
0
  6
CONTINUOUS
 10
28.600341159538971
 20
87.549475528042464
 30
0.0
  0
VERTEX
  5
503
  8
0
  6
CONTINUOUS
 10
27.47931249480791
 20
91.930078575936818
 30
0.0
  0
VERTEX
  5
504
  8
0
  6
CONTINUOUS
 10
26.751815397565789
 20
96.450640985224453
 30
0.0
  0
VERTEX
  5
505
  8
0
  6
CONTINUOUS
 10
26.51854979524353
 20
100.5947502014787
 30
0.0
  0
VERTEX
  5
506
  8
0
  6
CONTINUOUS
 10
26.39681430903158
 20
104.86007422179691
 30
0.0
  0
VERTEX
  5
507
  8
0
  6
CONTINUOUS
 10
27.288951101484258
 20
110.5761228429855
 30
0.0
  0
VERTEX
  5
508
  8
0
  6
CONTINUOUS
 10
28.29178491861034
 20
113.6064929445813
 30
0.0
  0
VERTEX
  5
509
  8
0
  6
CONTINUOUS
 10
30.93872468638892
 20
117.72727560060341
 30
0.0
  0
VERTEX
  5
50A
  8
0
  6
CONTINUOUS
 10
34.005854947636287
 20
120.5959218270177
 30
0.0
  0
VERTEX
  5
50B
  8
0
  6
CONTINUOUS
 10
39.39876822775102
 20
123.4348891709938
 30
0.0
  0
VERTEX
  5
50C
  8
0
  6
CONTINUOUS
 10
46.830985208881081
 20
125.5711438879743
 30
0.0
  0
VERTEX
  5
50D
  8
0
  6
CONTINUOUS
 10
55.213967792333172
 20
125.6681990403691
 30
0.0
  0
VERTEX
  5
50E
  8
0
  6
CONTINUOUS
 10
64.232390869253891
 20
123.8585161666395
 30
0.0
  0
VERTEX
  5
50F
  8
0
  6
CONTINUOUS
 10
73.605606761849344
 20
120.286011812504
 30
0.0
  0
VERTEX
  5
510
  8
0
  6
CONTINUOUS
 10
83.037555600743872
 20
115.1145967181658
 30
0.0
  0
VERTEX
  5
511
  8
0
  6
CONTINUOUS
 10
92.214266050668925
 20
108.5447335106203
 30
0.0
  0
VERTEX
  5
512
  8
0
  6
CONTINUOUS
 10
100.8184344106085
 20
100.8183311158473
 30
0.0
  0
VERTEX
  5
513
  8
0
  6
CONTINUOUS
 10
108.54483680538149
 20
92.214162755907722
 30
0.0
  0
VERTEX
  5
514
  8
0
  6
CONTINUOUS
 10
115.1147000129269
 20
83.037452305982654
 30
0.0
  0
VERTEX
  5
515
  8
0
  6
CONTINUOUS
 10
120.2861151072652
 20
73.605607603517825
 30
0.0
  0
VERTEX
  5
516
  8
0
  6
CONTINUOUS
 10
123.85851532497109
 20
64.232287574492716
 30
0.0
  0
VERTEX
  5
517
  8
0
  6
CONTINUOUS
 10
125.66830233513031
 20
55.213864497572033
 30
0.0
  0
VERTEX
  5
518
  8
0
  6
CONTINUOUS
 10
125.57124718273541
 20
46.830986050549548
 30
0.0
  0
VERTEX
  5
519
  8
0
  6
CONTINUOUS
 10
123.4349924657549
 20
39.398769069419437
 30
0.0
  0
VERTEX
  5
51A
  8
0
  6
CONTINUOUS
 10
120.59602512177879
 20
34.005751652875162
 30
0.0
  0
VERTEX
  5
51B
  8
0
  6
CONTINUOUS
 10
117.72737889536459
 20
30.938621391627791
 30
0.0
  0
VERTEX
  5
51C
  8
0
  6
CONTINUOUS
 10
113.6065962393423
 20
28.291681623849101
 30
0.0
  0
VERTEX
  5
51D
  8
0
  6
CONTINUOUS
 10
110.5762261377468
 20
27.28884780672308
 30
0.0
  0
VERTEX
  5
51E
  8
0
  6
CONTINUOUS
 10
104.8601775165581
 20
26.39671101427048
 30
0.0
  0
VERTEX
  5
51F
  8
0
  6
CONTINUOUS
 10
100.59474935981039
 20
26.518446500482352
 30
0.0
  0
VERTEX
  5
520
  8
0
  6
CONTINUOUS
 10
96.450640143556043
 20
26.7517121028045
 30
0.0
  0
VERTEX
  5
521
  8
0
  6
CONTINUOUS
 10
91.930181870697993
 20
27.479209200046689
 30
0.0
  0
VERTEX
  5
522
  8
0
  6
CONTINUOUS
 10
87.549578822803596
 20
28.600237864777888
 30
0.0
  0
VERTEX
  5
523
  8
0
  6
CONTINUOUS
 10
83.47940647157111
 20
29.95796863400831
 30
0.0
  0
VERTEX
  5
524
  8
0
  6
CONTINUOUS
 10
79.518264962138105
 20
31.776294831395351
 30
0.0
  0
VERTEX
  5
525
  8
0
  6
CONTINUOUS
 10
78.44055705212395
 20
32.362374657229722
 30
0.0
  0
VERTEX
  5
526
  8
0
  6
CONTINUOUS
 10
76.385528750237654
 20
33.537658401786743
 30
0.0
  0
VERTEX
  5
527
  8
0
  6
CONTINUOUS
 10
69.142423525275831
 20
37.69686740033427
 30
0.0
  0
VERTEX
  5
528
  8
0
  6
CONTINUOUS
 10
60.100986297411737
 20
44.230803539664919
 30
0.0
  0
VERTEX
  5
529
  8
0
  6
CONTINUOUS
 10
51.751119098575032
 20
51.751015803813871
 30
0.0
  0
VERTEX
  5
52A
  8
0
  6
CONTINUOUS
 10
44.23090683442615
 20
60.100883002650562
 30
0.0
  0
VERTEX
  5
52B
  8
0
  6
CONTINUOUS
 10
37.696970695095501
 20
69.142320230514656
 30
0.0
  0
SEQEND
  5
52C
  8
0
  6
CONTINUOUS
  0
CIRCLE
  5
114
  8
0
  6
CONTINUOUS
 10
61.734403462210253
 20
61.772944523199669
 30
0.0
 40
4.1673985104826281
  0
CIRCLE
  5
115
  8
0
  6
CONTINUOUS
 10
61.734427069308133
 20
61.772910277491121
 30
0.0
 40
2.0789872250910451
  0
ENDBLK
  5
117
  8
0
  0
BLOCK
  8
0
  2
ADCADD_ZZ
 70
     0
 10
0.0
 20
0.0
 30
0.0
  3
ADCADD_ZZ
  1

  0
ENDBLK
  5
14A
  8
0
  0
ENDSEC
  0
SECTION
  2
ENTITIES
  0
LINE
  5
24
  8
0
  6
CONTINUOUS
 10
97.640663802269216
 20
12.273403660476159
 30
0.0
 11
-97.460657595254361
 21
12.273403660476159
 31
0.0
  0
LINE
  5
25
  8
0
  6
CONTINUOUS
 10
-97.018922966224295
 20
11.649722803829709
 30
0.0
 11
97.198922966224174
 21
11.649722803829709
 31
0.0
  0
LINE
  5
26
  8
0
  6
CONTINUOUS
 10
101.5823168850508
 20
12.922508450132369
 30
0.0
 11
-101.40229826400611
 21
12.922508450132369
 31
0.0
  0
LINE
  5
27
  8
0
  6
CONTINUOUS
 10
-101.2381661691384
 20
21.010497138871809
 30
0.0
 11
101.4181785831683
 21
21.010497138871809
 31
0.0
  0
LINE
  5
28
  8
0
  6
CONTINUOUS
 10
101.1027132581463
 20
21.78036561032453
 30
0.0
 11
-100.92263877396771
 21
21.78036561032453
 31
0.0
  0
LINE
  5
29
  8
0
  6
CONTINUOUS
 10
-100.8607082828531
 20
22.029043455076529
 30
0.0
 11
101.0407175933754
 21
22.029043455076529
 31
0.0
  0
LINE
  5
2A
  8
0
  6
CONTINUOUS
 10
-99.355746140896727
 20
56.109160445022667
 30
0.0
 11
99.647391717812454
 21
56.109160445022667
 31
0.0
  0
LINE
  5
2B
  8
0
  6
CONTINUOUS
 10
100.06291412294119
 20
53.473016391070082
 30
0.0
 11
-99.882830328240274
 21
53.473016391070082
 31
0.0
  0
LINE
  5
2C
  8
0
  6
CONTINUOUS
 10
-99.466640669010303
 20
53.821006474141541
 30
0.0
 11
99.646739981248587
 21
53.884566306666038
 31
0.0
  0
POLYLINE
  5
2D
  8
0
  6
CONTINUOUS
 66
     1
 10
0.0
 20
0.0
 30
0.0
 70
     1
  0
VERTEX
  5
3E9
  8
0
  6
CONTINUOUS
 10
-99.466640669010303
 20
53.821006474141541
 30
0.0
  0
VERTEX
  5
3EA
  8
0
  6
CONTINUOUS
 10
-99.467376200275325
 20
56.109160445022667
 30
0.0
  0
VERTEX
  5
3EB
  8
0
  6
CONTINUOUS
 10
-99.355746140896727
 20
56.109160445022667
 30
0.0
  0
VERTEX
  5
3EC
  8
0
  6
CONTINUOUS
 10
-99.355746140896727
 20
56.380878729064811
 30
0.0
  0
VERTEX
  5
3ED
  8
0
  6
CONTINUOUS
 10
-99.241170852950646
 20
56.740786280734653
 30
0.0
  0
VERTEX
  5
3EE
  8
0
  6
CONTINUOUS
 10
-99.043458807501125
 20
56.821825067203349
 30
0.0
  0
VERTEX
  5
3EF
  8
0
  6
CONTINUOUS
 10
-98.731171474105508
 20
57.004559585711263
 30
0.0
  0
VERTEX
  5
3F0
  8
0
  6
CONTINUOUS
 10
99.036298687373176
 20
57.004559585711263
 30
0.0
  0
VERTEX
  5
3F1
  8
0
  6
CONTINUOUS
 10
99.54636634338209
 20
56.740786280734653
 30
0.0
  0
VERTEX
  5
3F2
  8
0
  6
CONTINUOUS
 10
99.661022322521902
 20
56.380878729064811
 30
0.0
  0
VERTEX
  5
3F3
  8
0
  6
CONTINUOUS
 10
99.660947838343134
 20
53.884566306666038
 30
0.0
  0
VERTEX
  5
3F4
  8
0
  6
CONTINUOUS
 10
99.646739981248587
 20
53.884566306666038
 30
0.0
  0
VERTEX
  5
3F5
  8
0
  6
CONTINUOUS
 10
99.646721360203912
 20
53.821006474141541
 30
0.0
  0
VERTEX
  5
3F6
  8
0
  6
CONTINUOUS
 10
99.805571285395956
 20
53.821006474141541
 30
0.0
  0
VERTEX
  5
3F7
  8
0
  6
CONTINUOUS
 10
99.983538816464446
 20
53.720105240008991
 30
0.0
  0
VERTEX
  5
3F8
  8
0
  6
CONTINUOUS
 10
100.06291412294119
 20
53.473016391070082
 30
0.0
  0
VERTEX
  5
3F9
  8
0
  6
CONTINUOUS
 10
101.0407175933754
 20
22.029043455076561
 30
0.0
  0
VERTEX
  5
3FA
  8
0
  6
CONTINUOUS
 10
101.0585441401537
 20
21.891595317242398
 30
0.0
  0
VERTEX
  5
3FB
  8
0
  6
CONTINUOUS
 10
101.10271325814639
 20
21.78036561032453
 30
0.0
  0
VERTEX
  5
3FC
  8
0
  6
CONTINUOUS
 10
101.3580201948062
 20
21.254407996184529
 30
0.0
  0
VERTEX
  5
3FD
  8
0
  6
CONTINUOUS
 10
101.4010968781772
 20
21.145561782986359
 30
0.0
  0
VERTEX
  5
3FE
  8
0
  6
CONTINUOUS
 10
101.4181785831683
 20
21.010497138871841
 30
0.0
  0
VERTEX
  5
3FF
  8
0
  6
CONTINUOUS
 10
101.5823168850508
 20
12.922508450132369
 30
0.0
  0
VERTEX
  5
400
  8
0
  6
CONTINUOUS
 10
101.45934350595169
 20
12.464877655956141
 30
0.0
  0
VERTEX
  5
401
  8
0
  6
CONTINUOUS
 10
101.1409484698993
 20
12.273403660476159
 30
0.0
  0
VERTEX
  5
402
  8
0
  6
CONTINUOUS
 10
97.640663802269216
 20
12.273403660476159
 30
0.0
  0
VERTEX
  5
403
  8
0
  6
CONTINUOUS
 10
97.328376468873614
 20
12.0906691419683
 30
0.0
  0
VERTEX
  5
404
  8
0
  6
CONTINUOUS
 10
97.198922966224174
 20
11.649722803829739
 30
0.0
  0
VERTEX
  5
405
  8
0
  6
CONTINUOUS
 10
97.198922966224174
 20
0.0
 30
0.0
  0
VERTEX
  5
406
  8
0
  6
CONTINUOUS
 10
-97.018922966224295
 20
0.0
 30
0.0
  0
VERTEX
  5
407
  8
0
  6
CONTINUOUS
 10
-97.018922966224295
 20
11.649722803829739
 30
0.0
  0
VERTEX
  5
408
  8
0
  6
CONTINUOUS
 10
-97.148295777680119
 20
12.0906691419683
 30
0.0
  0
VERTEX
  5
409
  8
0
  6
CONTINUOUS
 10
-97.460657595254361
 20
12.273403660476159
 30
0.0
  0
VERTEX
  5
40A
  8
0
  6
CONTINUOUS
 10
-100.96085536467589
 20
12.273403660476159
 30
0.0
  0
VERTEX
  5
40B
  8
0
  6
CONTINUOUS
 10
-101.27932798841439
 20
12.464877655956141
 30
0.0
  0
VERTEX
  5
40C
  8
0
  6
CONTINUOUS
 10
-101.40229826400611
 20
12.922508450132369
 30
0.0
  0
VERTEX
  5
40D
  8
0
  6
CONTINUOUS
 10
-101.2381661691384
 20
21.010497138871841
 30
0.0
  0
VERTEX
  5
40E
  8
0
  6
CONTINUOUS
 10
-101.2210099799688
 20
21.145561782986359
 30
0.0
  0
VERTEX
  5
40F
  8
0
  6
CONTINUOUS
 10
-101.1779332965977
 20
21.254407996184529
 30
0.0
  0
VERTEX
  5
410
  8
0
  6
CONTINUOUS
 10
-100.92263877396771
 20
21.78036561032453
 30
0.0
  0
VERTEX
  5
411
  8
0
  6
CONTINUOUS
 10
-100.8785286226165
 20
21.891595317242398
 30
0.0
  0
VERTEX
  5
412
  8
0
  6
CONTINUOUS
 10
-100.8607082828531
 20
22.029043455076561
 30
0.0
  0
VERTEX
  5
413
  8
0
  6
CONTINUOUS
 10
-99.882830328240274
 20
53.473016391070082
 30
0.0
  0
VERTEX
  5
414
  8
0
  6
CONTINUOUS
 10
-99.803448814748563
 20
53.720105240008991
 30
0.0
  0
VERTEX
  5
415
  8
0
  6
CONTINUOUS
 10
-99.625471973157687
 20
53.821006474141541
 30
0.0
  0
SEQEND
  5
416
  8
0
  6
CONTINUOUS
  0
DIMENSION
  5
51
  8
COTATION-JACOBDELAFON
  2
*D1
 10
99.646739981248587
 20
67.312032314887063
 30
0.0
 11
0.14549692017593
 21
71.275470241217207
 31
0.0
 70
     0
 13
-99.355746140896727
 23
56.109160445022667
 33
0.0
 14
99.646739981248587
 24
53.884566306666038
 34
0.0
1001
ACAD
1000
DSTYLE
1002
{
1070
   140
1040
6.0
1002
}
  0
DIMENSION
  5
82
  8
COTATION-JACOBDELAFON
  2
*D2
 10
-111.1705200138355
 20
57.004559585711263
 30
0.0
 11
-115.1216796318437
 21
28.50227979285561
 31
0.0
 70
     0
 13
-97.018922966224295
 23
0.0
 33
0.0
 14
-98.731171474105508
 24
57.004559585711263
 34
0.0
 50
90.0
1001
ACAD
1000
DSTYLE
1002
{
1070
   140
1040
6.0
1002
}
  0
INSERT
  5
14B
 67
     1
  8
0
  6
CONTINUOUS
  2
ADCADD_ZZ
 10
0.0
 20
0.0
 30
0.0
1001
ADCADD_ZZ
1070
   205
1070
    14
1070
   209
1070
     1
1070
   231
1070
     0
1070
   235
1070
     0
1070
   236
1070
     4
1070
   237
1070
     2
1070
   238
1070
     4
1070
   239
1070
     2
1070
   240
1070
     0
1070
   241
1070
  4096
1070
   242
1070
     2
1070
   244
1070
     0
1070
   245
1070
     1
1070
   303
1040
0.1
1070
   304
1040
4.0
1070
   305
1040
96.0
1070
   306
1040
0.125
1070
   337
1040
0.0
1070
   338
1040
0.3048
1070
   339
1040
0.0625
1070
   340
1040
96.0
1070
   341
1040
4.0
1070
   342
1040
96.0
1070
   530
1010
0.0
1020
0.0
1030
0.0
1070
   531
1010
0.0
1020
0.0
1030
0.0
1070
   107
1000

1070
   108
1000
AIA (256 Color)
1070
   135
1000
L120
1070
   136
1000
'
1070
   137
1000
m
1001
SDSK_PMN
1070
   100
1000
ACADARCH
1070
   300
1040
2453076.6358176852
  0
ENDSEC
  0
EOF
