  0
SECTION
  2
HEADER
  9
$ACADVER
  1
AC1009
  9
$INSBASE
 10
621.39216093516904
 20
224.7972297812334
 30
0.0
  9
$EXTMIN
 10
605.53042724530746
 20
224.21498564766969
 30
0.0
  9
$EXTMAX
 10
759.76919379952017
 20
298.26769115960809
 30
0.0
  9
$LIMMIN
 10
0.0
 20
0.0
  9
$LIMMAX
 10
12.0
 20
9.0
  9
$ORTHOMODE
 70
     1
  9
$REGENMODE
 70
     1
  9
$FILLMODE
 70
     1
  9
$QTEXTMODE
 70
     0
  9
$MIRRTEXT
 70
     1
  9
$DRAGMODE
 70
     2
  9
$LTSCALE
 40
1.0
  9
$OSMODE
 70
     1
  9
$ATTMODE
 70
     1
  9
$TEXTSIZE
 40
0.2
  9
$TRACEWID
 40
0.05
  9
$TEXTSTYLE
  7
STANDARD
  9
$CLAYER
  8
0
  9
$CELTYPE
  6
CONTINUOUS
  9
$CECOLOR
 62
   256
  9
$DIMSCALE
 40
96.0
  9
$DIMASZ
 40
0.18
  9
$DIMEXO
 40
0.0625
  9
$DIMDLI
 40
0.38
  9
$DIMRND
 40
0.0
  9
$DIMDLE
 40
0.0
  9
$DIMEXE
 40
0.18
  9
$DIMTP
 40
0.0
  9
$DIMTM
 40
0.0
  9
$DIMTXT
 40
0.18
  9
$DIMCEN
 40
0.09
  9
$DIMTSZ
 40
0.0
  9
$DIMTOL
 70
     0
  9
$DIMLIM
 70
     0
  9
$DIMTIH
 70
     1
  9
$DIMTOH
 70
     1
  9
$DIMSE1
 70
     0
  9
$DIMSE2
 70
     0
  9
$DIMTAD
 70
     0
  9
$DIMZIN
 70
     0
  9
$DIMBLK
  1

  9
$DIMASO
 70
     1
  9
$DIMSHO
 70
     1
  9
$DIMPOST
  1

  9
$DIMAPOST
  1

  9
$DIMALT
 70
     0
  9
$DIMALTD
 70
     2
  9
$DIMALTF
 40
25.399999999999999
  9
$DIMLFAC
 40
1.0
  9
$DIMTOFL
 70
     0
  9
$DIMTVP
 40
0.0
  9
$DIMTIX
 70
     0
  9
$DIMSOXD
 70
     0
  9
$DIMSAH
 70
     0
  9
$DIMBLK1
  1

  9
$DIMBLK2
  1

  9
$DIMSTYLE
  2
STANDARD
  9
$DIMCLRD
 70
     0
  9
$DIMCLRE
 70
     0
  9
$DIMCLRT
 70
     0
  9
$DIMTFAC
 40
1.0
  9
$DIMGAP
 40
0.09
  9
$LUNITS
 70
     2
  9
$LUPREC
 70
     4
  9
$SKETCHINC
 40
0.1
  9
$FILLETRAD
 40
0.0
  9
$AUNITS
 70
     0
  9
$AUPREC
 70
     2
  9
$MENU
  1
.
  9
$ELEVATION
 40
0.0
  9
$PELEVATION
 40
0.0
  9
$THICKNESS
 40
0.0
  9
$LIMCHECK
 70
     0
  9
$BLIPMODE
 70
     0
  9
$CHAMFERA
 40
0.0
  9
$CHAMFERB
 40
0.0
  9
$SKPOLY
 70
     0
  9
$TDCREATE
 40
2453039.6816144562
  9
$TDUPDATE
 40
2453076.635946678
  9
$TDINDWG
 40
0.0899310764
  9
$TDUSRTIMER
 40
0.0899310764
  9
$USRTIMER
 70
     1
  9
$ANGBASE
 50
0.0
  9
$ANGDIR
 70
     0
  9
$PDMODE
 70
     0
  9
$PDSIZE
 40
0.0
  9
$PLINEWID
 40
0.0
  9
$COORDS
 70
     1
  9
$SPLFRAME
 70
     0
  9
$SPLINETYPE
 70
     6
  9
$SPLINESEGS
 70
     8
  9
$ATTDIA
 70
     1
  9
$ATTREQ
 70
     1
  9
$HANDLING
 70
 22529
  9
$HANDSEED
  5
28C
  9
$SURFTAB1
 70
     6
  9
$SURFTAB2
 70
     6
  9
$SURFTYPE
 70
     6
  9
$SURFU
 70
     6
  9
$SURFV
 70
     6
  9
$UCSNAME
  2

  9
$UCSORG
 10
0.0
 20
0.0
 30
0.0
  9
$UCSXDIR
 10
1.0
 20
0.0
 30
0.0
  9
$UCSYDIR
 10
0.0
 20
1.0
 30
0.0
  9
$PUCSNAME
  2

  9
$PUCSORG
 10
0.0
 20
0.0
 30
0.0
  9
$PUCSXDIR
 10
1.0
 20
0.0
 30
0.0
  9
$PUCSYDIR
 10
0.0
 20
1.0
 30
0.0
  9
$USERI1
 70
     0
  9
$USERI2
 70
     0
  9
$USERI3
 70
     0
  9
$USERI4
 70
     0
  9
$USERI5
 70
     0
  9
$USERR1
 40
0.0
  9
$USERR2
 40
0.0
  9
$USERR3
 40
0.0
  9
$USERR4
 40
0.0
  9
$USERR5
 40
0.0
  9
$WORLDVIEW
 70
     1
  9
$SHADEDGE
 70
     3
  9
$SHADEDIF
 70
    70
  9
$TILEMODE
 70
     1
  9
$MAXACTVP
 70
    64
  9
$PLIMCHECK
 70
     0
  9
$PEXTMIN
 10
-0.8931824149261728
 20
-0.6972739900902809
 30
0.0
  9
$PEXTMAX
 10
989.45022067638558
 20
397.70185423348221
 30
0.0
  9
$PLIMMIN
 10
-0.1979161059762549
 20
-0.2679166643638311
  9
$PLIMMAX
 10
11.493750144177531
 20
7.9987497780266699
  9
$UNITMODE
 70
     0
  9
$VISRETAIN
 70
     1
  9
$PLINEGEN
 70
     0
  9
$PSLTSCALE
 70
     1
  0
ENDSEC
  0
SECTION
  2
TABLES
  0
TABLE
  2
VPORT
 70
     2
  0
VPORT
  2
*ACTIVE
 70
     0
 10
0.0
 20
0.0
 11
1.0
 21
1.0
 12
686.90026989255716
 22
261.24137360339728
 13
0.0
 23
0.0
 14
1.0
 24
1.0
 15
0.0
 25
0.0
 16
0.0
 26
0.0
 36
1.0
 17
0.0
 27
0.0
 37
0.0
 40
84.973887284981274
 41
1.928853754940711
 42
50.0
 43
0.0
 44
0.0
 50
0.0
 51
0.0
 71
     0
 72
   100
 73
     1
 74
     1
 75
     0
 76
     0
 77
     0
 78
     0
  0
ENDTAB
  0
TABLE
  2
LTYPE
 70
     1
  0
LTYPE
  2
CONTINUOUS
 70
     0
  3
Solid line
 72
    65
 73
     0
 40
0.0
  0
ENDTAB
  0
TABLE
  2
LAYER
 70
     3
  0
LAYER
  2
0
 70
     0
 62
     7
  6
CONTINUOUS
  0
LAYER
  2
DEFPOINTS
 70
     0
 62
     7
  6
CONTINUOUS
  0
LAYER
  2
COTATION-JACOBDELAFON
 70
     0
 62
     8
  6
CONTINUOUS
  0
ENDTAB
  0
TABLE
  2
STYLE
 70
     3
  0
STYLE
  2
STANDARD
 70
     0
 40
0.0
 41
1.0
 50
0.0
 71
     0
 42
0.2
  3
txt
  4

  0
STYLE
  2
ROMANS
 70
     0
 40
0.0
 41
1.0
 50
0.0
 71
     0
 42
0.25
  3
Romans.shx
  4

  0
STYLE
  2
JACOB-DELAFON
 70
     0
 40
0.0
 41
1.0
 50
0.0
 71
     0
 42
2.5
  3
txt
  4

  0
ENDTAB
  0
TABLE
  2
VIEW
 70
     0
  0
ENDTAB
  0
TABLE
  2
UCS
 70
     0
  0
ENDTAB
  0
TABLE
  2
APPID
 70
     7
  0
APPID
  2
ACAD
 70
     0
  0
APPID
  2
ACAECLAYERSTANDARD
 70
     0
  0
APPID
  2
ADCADD_ZZ
 70
     0
  0
APPID
  2
SDSK_PMN
 70
     0
  0
APPID
  2
AEC_DWGVARSSETUP_DATA
 70
     0
  0
APPID
  2
AEC_DISPREPSET_DATA
 70
     0
  0
APPID
  2
CONTENTBLOCKICON
 70
     0
  0
ENDTAB
  0
TABLE
  2
DIMSTYLE
 70
     3
  0
DIMSTYLE
  2
STANDARD
 70
     0
  3

  4

  5

  6

  7

 40
1.0
 41
0.18
 42
0.0625
 43
0.38
 44
0.18
 45
0.0
 46
0.0
 47
0.0
 48
0.0
140
0.18
141
0.09
142
0.0
143
25.399999999999999
144
1.0
145
0.0
146
1.0
147
0.09
 71
     0
 72
     0
 73
     1
 74
     1
 75
     0
 76
     0
 77
     0
 78
     0
170
     0
171
     2
172
     0
173
     0
174
     0
175
     0
176
     0
177
     0
178
     0
  0
DIMSTYLE
  2
ESCALIER_AEC
 70
     0
  3

  4

  5

  6
ORIGIN
  7

 40
1.0
 41
0.1
 42
0.0
 43
0.5
 44
0.125
 45
0.0
 46
125.0
 47
0.0
 48
0.0
140
0.2
141
0.25
142
0.0
143
25.399999999999999
144
1.0
145
0.0
146
1.0
147
0.05
 71
     0
 72
     0
 73
     0
 74
     0
 75
     0
 76
     0
 77
     1
 78
    12
170
     0
171
     2
172
     0
173
     1
174
     0
175
     0
176
     0
177
     0
178
     0
  0
DIMSTYLE
  2
COTATION-JACOB-DELAFON
 70
     0
  3

  4

  5
OBLIQUE
  6

  7

 40
1.0
 41
1.8
 42
0.625
 43
3.7999999999999989
 44
1.8
 45
0.0
 46
0.0
 47
0.0
 48
0.0
140
3.0
141
0.9
142
0.0
143
25.399999999999999
144
1.0
145
0.0
146
1.0
147
0.9
 71
     0
 72
     0
 73
     0
 74
     0
 75
     0
 76
     0
 77
     1
 78
    12
170
     0
171
     2
172
     0
173
     0
174
     0
175
     0
176
     0
177
     0
178
     0
  0
ENDTAB
  0
ENDSEC
  0
SECTION
  2
BLOCKS
  0
BLOCK
  8
0
  2
$MODEL_SPACE
 70
     0
 10
0.0
 20
0.0
 30
0.0
  3
$MODEL_SPACE
  1

  0
ENDBLK
  5
9
  8
0
  0
BLOCK
 67
     1
  8
0
  2
$PAPER_SPACE
 70
     0
 10
0.0
 20
0.0
 30
0.0
  3
$PAPER_SPACE
  1

  0
ENDBLK
  5
E
 67
     1
  8
0
  0
BLOCK
  8
0
  2
_ORIGIN
 70
     0
 10
0.0
 20
0.0
 30
0.0
  3
_ORIGIN
  1

  0
CIRCLE
  5
32
  8
0
  6
BYBLOCK
 62
     0
 10
0.0
 20
0.0
 30
0.0
 40
0.5
  0
LINE
  5
33
  8
0
  6
BYBLOCK
 62
     0
 10
0.0
 20
0.0
 30
0.0
 11
-1.0
 21
0.0
 31
0.0
  0
ENDBLK
  5
35
  8
0
  0
BLOCK
  8
0
  2
_OBLIQUE
 70
     0
 10
0.0
 20
0.0
 30
0.0
  3
_OBLIQUE
  1

  0
LINE
  5
37
  8
0
  6
BYBLOCK
 62
     0
 10
-0.5
 20
-0.5
 30
0.0
 11
0.5
 21
0.5
 31
0.0
  0
ENDBLK
  5
39
  8
0
  0
BLOCK
  8
0
  2
*D2
 70
     1
 10
0.0
 20
0.0
 30
0.0
  3
*D2
  1

  0
LINE
  5
EF
  8
COTATION-JACOBDELAFON
 62
     0
 10
623.87206064346799
 20
279.5609921218113
 30
0.0
 11
623.87206064346799
 21
295.31434873123152
 31
0.0
  0
LINE
  5
F0
  8
COTATION-JACOBDELAFON
 62
     0
 10
758.8691937995203
 20
282.12086437673452
 30
0.0
 11
758.8691937995203
 21
295.31434873123152
 31
0.0
  0
LINE
  5
F1
  8
COTATION-JACOBDELAFON
 62
     0
 10
623.87206064346799
 20
293.51434873123151
 30
0.0
 11
758.8691937995203
 21
293.51434873123151
 31
0.0
  0
INSERT
  5
F2
  8
COTATION-JACOBDELAFON
 62
     0
  2
_OBLIQUE
 10
623.87206064346799
 20
293.51434873123151
 30
0.0
 41
1.8
 42
1.8
 43
1.8
 50
180.0
  0
INSERT
  5
F3
  8
COTATION-JACOBDELAFON
 62
     0
  2
_OBLIQUE
 10
758.8691937995203
 20
293.51434873123151
 30
0.0
 41
1.8
 42
1.8
 43
1.8
  0
TEXT
  5
F4
  8
0
  6
CONTINUOUS
 62
     0
 10
687.73010880403172
 20
294.47369388812098
 30
0.0
 40
3.0
  1
135
  7
JACOB-DELAFON
  0
POINT
  5
F5
  8
DEFPOINTS
 62
     0
 10
623.87206064346799
 20
278.9359921218113
 30
0.0
  0
POINT
  5
F6
  8
DEFPOINTS
 62
     0
 10
758.8691937995203
 20
281.49586437673452
 30
0.0
  0
POINT
  5
F7
  8
DEFPOINTS
 62
     0
 10
758.8691937995203
 20
293.51434873123151
 30
0.0
  0
ENDBLK
  5
61
  8
0
  0
BLOCK
  8
0
  2
*D3
 70
     1
 10
0.0
 20
0.0
 30
0.0
  3
*D3
  1

  0
LINE
  5
9E
  8
COTATION-JACOBDELAFON
 62
     0
 10
623.88562437007874
 20
282.1195452333809
 30
0.0
 11
608.47558413480294
 21
282.1195452333809
 31
0.0
  0
LINE
  5
9F
  8
COTATION-JACOBDELAFON
 62
     0
 10
626.91068290805913
 20
225.1149856476697
 30
0.0
 11
608.47558413480283
 21
225.1149856476697
 31
0.0
  0
LINE
  5
A0
  8
COTATION-JACOBDELAFON
 62
     0
 10
610.27558413480278
 20
282.1195452333809
 30
0.0
 11
610.27558413480267
 21
225.1149856476697
 31
0.0
  0
INSERT
  5
A1
  8
COTATION-JACOBDELAFON
 62
     0
  2
_OBLIQUE
 10
610.27558413480278
 20
282.1195452333809
 30
0.0
 41
1.8
 42
1.8
 43
1.8
 50
90.0
  0
INSERT
  5
A2
  8
COTATION-JACOBDELAFON
 62
     0
  2
_OBLIQUE
 10
610.27558413480267
 20
225.1149856476697
 30
0.0
 41
1.8
 42
1.8
 43
1.8
 50
270.0
  0
TEXT
  5
A3
  8
0
  6
CONTINUOUS
 62
     0
 10
609.32442451679447
 20
251.29461878295379
 30
0.0
 40
3.0
  1
57
 50
90.0
  7
JACOB-DELAFON
  0
POINT
  5
A4
  8
DEFPOINTS
 62
     0
 10
624.51062437007874
 20
282.1195452333809
 30
0.0
  0
POINT
  5
A5
  8
DEFPOINTS
 62
     0
 10
627.53568290805913
 20
225.1149856476697
 30
0.0
  0
POINT
  5
A6
  8
DEFPOINTS
 62
     0
 10
610.27558413480267
 20
225.1149856476697
 30
0.0
  0
ENDBLK
  5
94
  8
0
  0
BLOCK
  8
0
  2
ADCADD_ZZ
 70
     0
 10
0.0
 20
0.0
 30
0.0
  3
ADCADD_ZZ
  1

  0
ENDBLK
  5
11A
  8
0
  0
ENDSEC
  0
SECTION
  2
ENTITIES
  0
LINE
  5
24
  8
0
  6
CONTINUOUS
 10
627.53568290805913
 20
236.49470845149949
 30
0.0
 11
758.69236835919253
 21
236.49470845149949
 31
0.0
  0
LINE
  5
25
  8
0
  6
CONTINUOUS
 10
621.37455647420916
 20
237.76749409780211
 30
0.0
 11
758.69090019079886
 21
237.78375497846631
 31
0.0
  0
LINE
  5
26
  8
0
  6
CONTINUOUS
 10
621.60521845822871
 20
245.85627728444811
 30
0.0
 11
758.69236835919253
 21
245.85627728444811
 31
0.0
  0
LINE
  5
27
  8
0
  6
CONTINUOUS
 10
622.13579409145063
 20
246.87402910274631
 30
0.0
 11
758.68986687769643
 21
246.89020348816049
 31
0.0
  0
LINE
  5
28
  8
0
  6
CONTINUOUS
 10
623.51018546807632
 20
278.58879653664633
 30
0.0
 11
758.69236835919253
 21
278.58879653664633
 31
0.0
  0
LINE
  5
29
  8
0
  6
CONTINUOUS
 10
623.87060199496761
 20
278.9359921218113
 30
0.0
 11
758.69236835919253
 21
278.9359921218113
 31
0.0
  0
POLYLINE
  5
2A
  8
0
  6
CONTINUOUS
 66
     1
 10
0.0
 20
0.0
 30
0.0
 70
     1
  0
VERTEX
  5
271
  8
0
  6
CONTINUOUS
 10
623.87206064346799
 20
278.9359921218113
 30
0.0
  0
VERTEX
  5
272
  8
0
  6
CONTINUOUS
 10
623.88601401295182
 20
281.49586437673452
 30
0.0
  0
VERTEX
  5
273
  8
0
  6
CONTINUOUS
 10
624.06887732701875
 20
281.9368107148731
 30
0.0
  0
VERTEX
  5
274
  8
0
  6
CONTINUOUS
 10
624.51062437007874
 20
282.1195452333809
 30
0.0
  0
VERTEX
  5
275
  8
0
  6
CONTINUOUS
 10
758.24458189063967
 20
282.1195452333809
 30
0.0
  0
VERTEX
  5
276
  8
0
  6
CONTINUOUS
 10
758.68622341444654
 20
281.9368107148731
 30
0.0
  0
VERTEX
  5
277
  8
0
  6
CONTINUOUS
 10
758.8691937995203
 20
281.49586437673452
 30
0.0
  0
VERTEX
  5
278
  8
0
  6
CONTINUOUS
 10
758.8691937995203
 20
278.99955195433569
 30
0.0
  0
VERTEX
  5
279
  8
0
  6
CONTINUOUS
 10
758.68622341444654
 20
278.99955195433569
 30
0.0
  0
VERTEX
  5
27A
  8
0
  6
CONTINUOUS
 10
758.69236835919253
 20
225.1149856476697
 30
0.0
  0
VERTEX
  5
27B
  8
0
  6
CONTINUOUS
 10
627.53568290805913
 20
225.1149856476697
 30
0.0
  0
VERTEX
  5
27C
  8
0
  6
CONTINUOUS
 10
627.53568290805913
 20
236.49470845149949
 30
0.0
  0
VERTEX
  5
27D
  8
0
  6
CONTINUOUS
 10
627.37385671922493
 20
236.9364492875446
 30
0.0
  0
VERTEX
  5
27E
  8
0
  6
CONTINUOUS
 10
626.91482313968243
 20
237.11918380605249
 30
0.0
  0
VERTEX
  5
27F
  8
0
  6
CONTINUOUS
 10
621.98208822985271
 20
237.11918380605249
 30
0.0
  0
VERTEX
  5
280
  8
0
  6
CONTINUOUS
 10
621.53169791855157
 20
237.31065780153239
 30
0.0
  0
VERTEX
  5
281
  8
0
  6
CONTINUOUS
 10
621.37455647420916
 20
237.76749409780211
 30
0.0
  0
VERTEX
  5
282
  8
0
  6
CONTINUOUS
 10
621.5899104077439
 20
245.85627728444811
 30
0.0
  0
VERTEX
  5
283
  8
0
  6
CONTINUOUS
 10
621.61417362896827
 20
245.99054743065611
 30
0.0
  0
VERTEX
  5
284
  8
0
  6
CONTINUOUS
 10
621.67509392840884
 20
246.09939364385431
 30
0.0
  0
VERTEX
  5
285
  8
0
  6
CONTINUOUS
 10
622.03613426029676
 20
246.6253512579942
 30
0.0
  0
VERTEX
  5
286
  8
0
  6
CONTINUOUS
 10
622.09851320823759
 20
246.73658096491209
 30
0.0
  0
VERTEX
  5
287
  8
0
  6
CONTINUOUS
 10
622.12371368871118
 20
246.87402910274631
 30
0.0
  0
VERTEX
  5
288
  8
0
  6
CONTINUOUS
 10
623.51018546807632
 20
278.58879653664633
 30
0.0
  0
VERTEX
  5
289
  8
0
  6
CONTINUOUS
 10
623.61890443746915
 20
278.83509088767869
 30
0.0
  0
SEQEND
  5
28A
  8
0
  6
CONTINUOUS
  0
DIMENSION
  5
55
  8
COTATION-JACOBDELAFON
  2
*D2
 10
758.8691937995203
 20
293.51434873123151
 30
0.0
 11
691.37062722149415
 21
295.94709088675683
 31
0.0
 70
     0
 13
623.87206064346799
 23
278.9359921218113
 33
0.0
 14
758.8691937995203
 24
281.49586437673452
 34
0.0
  0
DIMENSION
  5
86
  8
COTATION-JACOBDELAFON
  2
*D3
 10
610.27558413480267
 20
225.1149856476697
 30
0.0
 11
607.85000432579864
 21
253.61726544052539
 31
0.0
 70
     0
 13
624.51062437007874
 23
282.1195452333809
 33
0.0
 14
627.53568290805913
 24
225.1149856476697
 34
0.0
 50
90.0
  0
INSERT
  5
11B
 67
     1
  8
0
  6
CONTINUOUS
  2
ADCADD_ZZ
 10
0.0
 20
0.0
 30
0.0
1001
ADCADD_ZZ
1070
   205
1070
    14
1070
   209
1070
     1
1070
   231
1070
     0
1070
   235
1070
     0
1070
   236
1070
     4
1070
   237
1070
     2
1070
   238
1070
     4
1070
   239
1070
     2
1070
   240
1070
     0
1070
   241
1070
  4096
1070
   242
1070
     2
1070
   244
1070
     0
1070
   245
1070
     1
1070
   303
1040
0.1
1070
   304
1040
4.0
1070
   305
1040
96.0
1070
   306
1040
0.125
1070
   337
1040
0.0
1070
   338
1040
0.3048
1070
   339
1040
0.0625
1070
   340
1040
96.0
1070
   341
1040
4.0
1070
   342
1040
96.0
1070
   530
1010
0.0
1020
0.0
1030
0.0
1070
   531
1010
0.0
1020
0.0
1030
0.0
1070
   107
1000

1070
   108
1000
AIA (256 Color)
1070
   135
1000
L120
1070
   136
1000
'
1070
   137
1000
m
1001
SDSK_PMN
1070
   100
1000
ACADARCH
1070
   300
1040
2453076.6359902541
  0
ENDSEC
  0
EOF
