  0
SECTION
  2
HEADER
  9
$ACADVER
  1
AC1009
  9
$INSBASE
 10
0.0
 20
0.0
 30
0.0
  9
$EXTMIN
 10
-86.329690228407131
 20
-14.00006172391994
 30
0.0
  9
$EXTMAX
 10
66.197802129537024
 20
63.604695441245489
 30
0.0
  9
$LIMMIN
 10
0.0
 20
0.0
  9
$LIMMAX
 10
12.0
 20
9.0
  9
$ORTHOMODE
 70
     1
  9
$REGENMODE
 70
     1
  9
$FILLMODE
 70
     1
  9
$QTEXTMODE
 70
     0
  9
$MIRRTEXT
 70
     1
  9
$DRAGMODE
 70
     2
  9
$LTSCALE
 40
1.0
  9
$OSMODE
 70
     1
  9
$ATTMODE
 70
     1
  9
$TEXTSIZE
 40
0.2
  9
$TRACEWID
 40
0.05
  9
$TEXTSTYLE
  7
STANDARD
  9
$CLAYER
  8
0
  9
$CELTYPE
  6
CONTINUOUS
  9
$CECOLOR
 62
   256
  9
$DIMSCALE
 40
96.0
  9
$DIMASZ
 40
0.18
  9
$DIMEXO
 40
0.0625
  9
$DIMDLI
 40
0.38
  9
$DIMRND
 40
0.0
  9
$DIMDLE
 40
0.0
  9
$DIMEXE
 40
0.18
  9
$DIMTP
 40
0.0
  9
$DIMTM
 40
0.0
  9
$DIMTXT
 40
0.18
  9
$DIMCEN
 40
0.09
  9
$DIMTSZ
 40
0.0
  9
$DIMTOL
 70
     0
  9
$DIMLIM
 70
     0
  9
$DIMTIH
 70
     1
  9
$DIMTOH
 70
     1
  9
$DIMSE1
 70
     0
  9
$DIMSE2
 70
     0
  9
$DIMTAD
 70
     0
  9
$DIMZIN
 70
     0
  9
$DIMBLK
  1

  9
$DIMASO
 70
     1
  9
$DIMSHO
 70
     1
  9
$DIMPOST
  1

  9
$DIMAPOST
  1

  9
$DIMALT
 70
     0
  9
$DIMALTD
 70
     2
  9
$DIMALTF
 40
25.399999999999999
  9
$DIMLFAC
 40
1.0
  9
$DIMTOFL
 70
     0
  9
$DIMTVP
 40
0.0
  9
$DIMTIX
 70
     0
  9
$DIMSOXD
 70
     0
  9
$DIMSAH
 70
     0
  9
$DIMBLK1
  1

  9
$DIMBLK2
  1

  9
$DIMSTYLE
  2
STANDARD
  9
$DIMCLRD
 70
     0
  9
$DIMCLRE
 70
     0
  9
$DIMCLRT
 70
     0
  9
$DIMTFAC
 40
1.0
  9
$DIMGAP
 40
0.09
  9
$LUNITS
 70
     2
  9
$LUPREC
 70
     4
  9
$SKETCHINC
 40
0.1
  9
$FILLETRAD
 40
0.0
  9
$AUNITS
 70
     0
  9
$AUPREC
 70
     2
  9
$MENU
  1
.
  9
$ELEVATION
 40
0.0
  9
$PELEVATION
 40
0.0
  9
$THICKNESS
 40
0.0
  9
$LIMCHECK
 70
     0
  9
$BLIPMODE
 70
     0
  9
$CHAMFERA
 40
0.0
  9
$CHAMFERB
 40
0.0
  9
$SKPOLY
 70
     0
  9
$TDCREATE
 40
2453033.4676452312
  9
$TDUPDATE
 40
2453076.636305497
  9
$TDINDWG
 40
0.1110097685
  9
$TDUSRTIMER
 40
0.1110097685
  9
$USRTIMER
 70
     1
  9
$ANGBASE
 50
0.0
  9
$ANGDIR
 70
     0
  9
$PDMODE
 70
     0
  9
$PDSIZE
 40
0.0
  9
$PLINEWID
 40
0.0
  9
$COORDS
 70
     1
  9
$SPLFRAME
 70
     0
  9
$SPLINETYPE
 70
     6
  9
$SPLINESEGS
 70
     8
  9
$ATTDIA
 70
     1
  9
$ATTREQ
 70
     1
  9
$HANDLING
 70
 22529
  9
$HANDSEED
  5
2B5
  9
$SURFTAB1
 70
     6
  9
$SURFTAB2
 70
     6
  9
$SURFTYPE
 70
     6
  9
$SURFU
 70
     6
  9
$SURFV
 70
     6
  9
$UCSNAME
  2

  9
$UCSORG
 10
0.0
 20
0.0
 30
0.0
  9
$UCSXDIR
 10
1.0
 20
0.0
 30
0.0
  9
$UCSYDIR
 10
0.0
 20
1.0
 30
0.0
  9
$PUCSNAME
  2

  9
$PUCSORG
 10
0.0
 20
0.0
 30
0.0
  9
$PUCSXDIR
 10
1.0
 20
0.0
 30
0.0
  9
$PUCSYDIR
 10
0.0
 20
1.0
 30
0.0
  9
$USERI1
 70
     0
  9
$USERI2
 70
     0
  9
$USERI3
 70
     0
  9
$USERI4
 70
     0
  9
$USERI5
 70
     0
  9
$USERR1
 40
0.0
  9
$USERR2
 40
0.0
  9
$USERR3
 40
0.0
  9
$USERR4
 40
0.0
  9
$USERR5
 40
0.0
  9
$WORLDVIEW
 70
     1
  9
$SHADEDGE
 70
     3
  9
$SHADEDIF
 70
    70
  9
$TILEMODE
 70
     1
  9
$MAXACTVP
 70
    64
  9
$PLIMCHECK
 70
     0
  9
$PEXTMIN
 10
-310.52267055925398
 20
-4.9207347157664572
 30
-0.0015258207003583
  9
$PEXTMAX
 10
3050.1403445678388
 20
173.56616530863451
 30
0.0000000349246037
  9
$PLIMMIN
 10
-0.1979161059762549
 20
-0.2679166643638311
  9
$PLIMMAX
 10
11.493750144177531
 20
7.9987497780266699
  9
$UNITMODE
 70
     0
  9
$VISRETAIN
 70
     1
  9
$PLINEGEN
 70
     0
  9
$PSLTSCALE
 70
     1
  0
ENDSEC
  0
SECTION
  2
TABLES
  0
TABLE
  2
VPORT
 70
     2
  0
VPORT
  2
*ACTIVE
 70
     0
 10
0.0
 20
0.0
 11
1.0
 21
1.0
 12
-5.85239219253772
 22
24.803337394300598
 13
0.0
 23
0.0
 14
1.0
 24
1.0
 15
0.0
 25
0.0
 16
0.0
 26
0.0
 36
1.0
 17
0.0
 27
0.0
 37
0.0
 40
83.978782380415083
 41
1.928853754940711
 42
50.0
 43
0.0
 44
0.0
 50
0.0
 51
0.0
 71
     0
 72
   100
 73
     1
 74
     1
 75
     0
 76
     0
 77
     0
 78
     0
  0
ENDTAB
  0
TABLE
  2
LTYPE
 70
     1
  0
LTYPE
  2
CONTINUOUS
 70
     0
  3
Solid line
 72
    65
 73
     0
 40
0.0
  0
ENDTAB
  0
TABLE
  2
LAYER
 70
     3
  0
LAYER
  2
0
 70
     0
 62
     7
  6
CONTINUOUS
  0
LAYER
  2
DEFPOINTS
 70
     0
 62
     7
  6
CONTINUOUS
  0
LAYER
  2
COTATION-JACOBDELAFON
 70
     0
 62
     8
  6
CONTINUOUS
  0
ENDTAB
  0
TABLE
  2
STYLE
 70
     2
  0
STYLE
  2
STANDARD
 70
     0
 40
0.0
 41
1.0
 50
0.0
 71
     0
 42
0.2
  3
txt
  4

  0
STYLE
  2
JACOB-DELAFON
 70
     0
 40
0.0
 41
1.0
 50
0.0
 71
     0
 42
2.5
  3
txt
  4

  0
ENDTAB
  0
TABLE
  2
VIEW
 70
     0
  0
ENDTAB
  0
TABLE
  2
UCS
 70
     0
  0
ENDTAB
  0
TABLE
  2
APPID
 70
     5
  0
APPID
  2
ACAD
 70
     0
  0
APPID
  2
ADCADD_ZZ
 70
     0
  0
APPID
  2
SDSK_PMN
 70
     0
  0
APPID
  2
AEC_DWGVARSSETUP_DATA
 70
     0
  0
APPID
  2
AEC_DISPREPSET_DATA
 70
     0
  0
ENDTAB
  0
TABLE
  2
DIMSTYLE
 70
     2
  0
DIMSTYLE
  2
STANDARD
 70
     0
  3

  4

  5

  6

  7

 40
1.0
 41
0.18
 42
0.0625
 43
0.38
 44
0.18
 45
0.0
 46
0.0
 47
0.0
 48
0.0
140
0.18
141
0.09
142
0.0
143
25.399999999999999
144
1.0
145
0.0
146
1.0
147
0.09
 71
     0
 72
     0
 73
     1
 74
     1
 75
     0
 76
     0
 77
     0
 78
     0
170
     0
171
     2
172
     0
173
     0
174
     0
175
     0
176
     0
177
     0
178
     0
  0
DIMSTYLE
  2
COTATION-JACOB-DELAFON
 70
     0
  3

  4

  5
OBLIQUE
  6

  7

 40
1.0
 41
1.8
 42
0.625
 43
3.7999999999999989
 44
1.8
 45
0.0
 46
0.0
 47
0.0
 48
0.0
140
3.0
141
0.9
142
0.0
143
25.399999999999999
144
1.0
145
0.0
146
1.0
147
0.9
 71
     0
 72
     0
 73
     0
 74
     0
 75
     0
 76
     0
 77
     1
 78
    12
170
     0
171
     2
172
     0
173
     0
174
     0
175
     0
176
     0
177
     0
178
     0
  0
ENDTAB
  0
ENDSEC
  0
SECTION
  2
BLOCKS
  0
BLOCK
  8
0
  2
$MODEL_SPACE
 70
     0
 10
0.0
 20
0.0
 30
0.0
  3
$MODEL_SPACE
  1

  0
ENDBLK
  5
9
  8
0
  0
BLOCK
 67
     1
  8
0
  2
$PAPER_SPACE
 70
     0
 10
0.0
 20
0.0
 30
0.0
  3
$PAPER_SPACE
  1

  0
ENDBLK
  5
E
 67
     1
  8
0
  0
BLOCK
  8
0
  2
*D0
 70
     1
 10
0.0
 20
0.0
 30
0.0
  3
*D0
  1

  0
LINE
  5
CE
  8
COTATION-JACOBDELAFON
 62
     0
 10
-42.432159418649519
 20
0.0000000000000002
 30
0.0
 11
-79.629417377111096
 21
0.0000000000000107
 31
0.0
  0
LINE
  5
CF
  8
COTATION-JACOBDELAFON
 62
     0
 10
-70.895608990162742
 20
41.999816152787801
 30
0.0
 11
-79.629417377111082
 21
41.999816152787801
 31
0.0
  0
LINE
  5
D0
  8
COTATION-JACOBDELAFON
 62
     0
 10
-77.829417377111099
 20
0.0000000000000102
 30
0.0
 11
-77.829417377111085
 21
41.999816152787801
 31
0.0
  0
INSERT
  5
D1
  8
COTATION-JACOBDELAFON
 62
     0
  2
_OBLIQUE
 10
-77.829417377111099
 20
0.0000000000000102
 30
0.0
 41
1.8
 42
1.8
 43
1.8
 50
270.0
  0
INSERT
  5
D2
  8
COTATION-JACOBDELAFON
 62
     0
  2
_OBLIQUE
 10
-77.829417377111085
 20
41.999816152787801
 30
0.0
 41
1.8
 42
1.8
 43
1.8
 50
90.0
  0
TEXT
  5
D3
  8
0
  6
CONTINUOUS
 62
     0
 10
-78.741695685433044
 20
16.50604723055487
 30
0.0
 40
6.0
  1
42
 50
90.0
  7
JACOB-DELAFON
  0
POINT
  5
D4
  8
DEFPOINTS
 62
     0
 10
-41.807159418649519
 20
0.0
 30
0.0
  0
POINT
  5
D5
  8
DEFPOINTS
 62
     0
 10
-70.270608990162742
 20
41.999816152787801
 30
0.0
  0
POINT
  5
D6
  8
DEFPOINTS
 62
     0
 10
-77.829417377111085
 20
41.999816152787801
 30
0.0
  0
ENDBLK
  5
39
  8
0
  0
BLOCK
  8
0
  2
_OBLIQUE
 70
     0
 10
0.0
 20
0.0
 30
0.0
  3
_OBLIQUE
  1

  0
LINE
  5
3B
  8
0
  6
BYBLOCK
 62
     0
 10
-0.5
 20
-0.5
 30
0.0
 11
0.5
 21
0.5
 31
0.0
  0
ENDBLK
  5
3D
  8
0
  0
BLOCK
  8
0
  2
*D2
 70
     1
 10
0.0
 20
0.0
 30
0.0
  3
*D2
  1

  0
LINE
  5
A2
  8
COTATION-JACOBDELAFON
 62
     0
 10
-69.702197870462925
 20
39.624938276080051
 30
0.0
 11
-69.702197870462925
 21
56.798010584492417
 31
0.0
  0
LINE
  5
A3
  8
COTATION-JACOBDELAFON
 62
     0
 10
65.297802129537018
 20
39.624938276080051
 30
0.0
 11
65.297802129537018
 21
56.798010584492417
 31
0.0
  0
LINE
  5
A4
  8
COTATION-JACOBDELAFON
 62
     0
 10
-69.702197870462925
 20
54.99801058449242
 30
0.0
 11
65.297802129537018
 21
54.99801058449242
 31
0.0
  0
INSERT
  5
A5
  8
COTATION-JACOBDELAFON
 62
     0
  2
_OBLIQUE
 10
-69.702197870462925
 20
54.99801058449242
 30
0.0
 41
1.8
 42
1.8
 43
1.8
 50
180.0
  0
INSERT
  5
A6
  8
COTATION-JACOBDELAFON
 62
     0
  2
_OBLIQUE
 10
65.297802129537018
 20
54.99801058449242
 30
0.0
 41
1.8
 42
1.8
 43
1.8
  0
TEXT
  5
A7
  8
0
  6
CONTINUOUS
 62
     0
 10
-9.4832347053879182
 20
56.016700898271409
 30
0.0
 40
6.0
  1
135
  7
JACOB-DELAFON
  0
POINT
  5
A8
  8
DEFPOINTS
 62
     0
 10
-69.702197870462925
 20
38.999938276080051
 30
0.0
  0
POINT
  5
A9
  8
DEFPOINTS
 62
     0
 10
65.297802129537018
 20
38.999938276080051
 30
0.0
  0
POINT
  5
AA
  8
DEFPOINTS
 62
     0
 10
65.297802129537018
 20
54.99801058449242
 30
0.0
  0
ENDBLK
  5
98
  8
0
  0
BLOCK
  8
0
  2
ADCADD_ZZ
 70
     0
 10
0.0
 20
0.0
 30
0.0
  3
ADCADD_ZZ
  1

  0
ENDBLK
  5
ED
  8
0
  0
ENDSEC
  0
SECTION
  2
ENTITIES
  0
POLYLINE
  5
24
  8
0
  6
CONTINUOUS
 66
     1
 10
0.0
 20
0.0
 30
0.0
 70
     1
  0
VERTEX
  5
243
  8
0
  6
CONTINUOUS
 10
-69.702197870462925
 20
38.999938276080051
 30
0.0
  0
VERTEX
  5
244
  8
0
  6
CONTINUOUS
 10
-69.702197870462925
 20
41.400145753222112
 30
0.0
  0
VERTEX
  5
245
  8
0
  6
CONTINUOUS
 10
-69.504799211381993
 20
41.833495354943878
 30
0.0
  0
VERTEX
  5
246
  8
0
  6
CONTINUOUS
 10
-69.103898377702848
 20
41.999816152787801
 30
0.0
  0
VERTEX
  5
247
  8
0
  6
CONTINUOUS
 10
-66.341199299296619
 20
41.999816152787801
 30
0.0
  0
VERTEX
  5
248
  8
0
  6
CONTINUOUS
 10
-62.083100176156023
 20
41.999816152787801
 30
0.0
  0
VERTEX
  5
249
  8
0
  6
CONTINUOUS
 10
-59.66269864572066
 20
41.999816152787801
 30
0.0
  0
VERTEX
  5
24A
  8
0
  6
CONTINUOUS
 10
-58.288197680081311
 20
41.999816152787801
 30
0.0
  0
VERTEX
  5
24B
  8
0
  6
CONTINUOUS
 10
-56.23479982243996
 20
41.999816152787801
 30
0.0
  0
VERTEX
  5
24C
  8
0
  6
CONTINUOUS
 10
-55.073197703481611
 20
41.999816152787801
 30
0.0
  0
VERTEX
  5
24D
  8
0
  6
CONTINUOUS
 10
-53.236498488558681
 20
41.999816152787801
 30
0.0
  0
VERTEX
  5
24E
  8
0
  6
CONTINUOUS
 10
-50.173898645261481
 20
41.999816152787801
 30
0.0
  0
VERTEX
  5
24F
  8
0
  6
CONTINUOUS
 10
-49.59209771788386
 20
41.999816152787801
 30
0.0
  0
VERTEX
  5
250
  8
0
  6
CONTINUOUS
 10
-46.774598130038918
 20
41.999816152787801
 30
0.0
  0
VERTEX
  5
251
  8
0
  6
CONTINUOUS
 10
-45.087098279050529
 20
41.999816152787801
 30
0.0
  0
VERTEX
  5
252
  8
0
  6
CONTINUOUS
 10
-41.607102016923982
 20
41.999816152787801
 30
0.0
  0
VERTEX
  5
253
  8
0
  6
CONTINUOUS
 10
10.71300189648732
 20
41.999816152787801
 30
0.0
  0
VERTEX
  5
254
  8
0
  6
CONTINUOUS
 10
41.6516028439274
 20
41.999816152787801
 30
0.0
  0
VERTEX
  5
255
  8
0
  6
CONTINUOUS
 10
64.699598004206933
 20
41.999816152787801
 30
0.0
  0
VERTEX
  5
256
  8
0
  6
CONTINUOUS
 10
65.122600239778436
 20
41.824340081668069
 30
0.0
  0
VERTEX
  5
257
  8
0
  6
CONTINUOUS
 10
65.297802129537018
 20
41.400145753222112
 30
0.0
  0
VERTEX
  5
258
  8
0
  6
CONTINUOUS
 10
65.297802129537018
 20
38.999938276080051
 30
0.0
  0
VERTEX
  5
259
  8
0
  6
CONTINUOUS
 10
57.636567315560598
 20
38.999938276080051
 30
0.0
  0
VERTEX
  5
25A
  8
0
  6
CONTINUOUS
 10
55.647798389897531
 20
28.541564437344078
 30
0.0
  0
VERTEX
  5
25B
  8
0
  6
CONTINUOUS
 10
55.213793137094818
 20
27.51617383045313
 30
0.0
  0
VERTEX
  5
25C
  8
0
  6
CONTINUOUS
 10
54.484995237368217
 20
26.712035661060959
 30
0.0
  0
VERTEX
  5
25D
  8
0
  6
CONTINUOUS
 10
53.03619708332846
 20
25.105285201155951
 30
0.0
  0
VERTEX
  5
25E
  8
0
  6
CONTINUOUS
 10
51.446896609731418
 20
23.011943563706762
 30
0.0
  0
VERTEX
  5
25F
  8
0
  6
CONTINUOUS
 10
51.320894646275583
 20
22.711181239531101
 30
0.0
  0
VERTEX
  5
260
  8
0
  6
CONTINUOUS
 10
51.058097772102059
 20
21.69952354255387
 30
0.0
  0
VERTEX
  5
261
  8
0
  6
CONTINUOUS
 10
49.339263616426159
 20
10.45726521470821
 30
0.0
  0
VERTEX
  5
262
  8
0
  6
CONTINUOUS
 10
48.22150085640834
 20
2.5283813030034281
 30
0.0
  0
VERTEX
  5
263
  8
0
  6
CONTINUOUS
 10
47.828002919479609
 20
1.519012424345149
 30
0.0
  0
VERTEX
  5
264
  8
0
  6
CONTINUOUS
 10
47.090800764988067
 20
0.7179260127115869
 30
0.0
  0
VERTEX
  5
265
  8
0
  6
CONTINUOUS
 10
46.09399654522656
 20
0.1899719204731127
 30
0.0
  0
VERTEX
  5
266
  8
0
  6
CONTINUOUS
 10
44.92159704505783
 20
0.0
 30
0.0
  0
VERTEX
  5
267
  8
0
  6
CONTINUOUS
 10
44.848199886777671
 20
0.0
 30
0.0
  0
VERTEX
  5
268
  8
0
  6
CONTINUOUS
 10
43.447468262228618
 20
0.0
 30
0.0
  0
VERTEX
  5
269
  8
0
  6
CONTINUOUS
 10
43.304403851572623
 20
0.0
 30
0.0
  0
VERTEX
  5
26A
  8
0
  6
CONTINUOUS
 10
43.087097241488259
 20
0.0
 30
0.0
  0
VERTEX
  5
26B
  8
0
  6
CONTINUOUS
 10
40.058799870653502
 20
0.0
 30
0.0
  0
VERTEX
  5
26C
  8
0
  6
CONTINUOUS
 10
39.705904617028693
 20
0.0
 30
0.0
  0
VERTEX
  5
26D
  8
0
  6
CONTINUOUS
 10
37.409599954824102
 20
0.0
 30
0.0
  0
VERTEX
  5
26E
  8
0
  6
CONTINUOUS
 10
35.309394570467298
 20
0.0
 30
0.0
  0
VERTEX
  5
26F
  8
0
  6
CONTINUOUS
 10
34.834595899500719
 20
0.0
 30
0.0
  0
VERTEX
  5
270
  8
0
  6
CONTINUOUS
 10
31.815000806649518
 20
0.0
 30
0.0
  0
VERTEX
  5
271
  8
0
  6
CONTINUOUS
 10
29.238900025881659
 20
0.0
 30
0.0
  0
VERTEX
  5
272
  8
0
  6
CONTINUOUS
 10
28.660293907407581
 20
0.0
 30
0.0
  0
VERTEX
  5
273
  8
0
  6
CONTINUOUS
 10
25.044104014606742
 20
0.0
 30
0.0
  0
VERTEX
  5
274
  8
0
  6
CONTINUOUS
 10
22.080501524068659
 20
0.0
 30
0.0
  0
VERTEX
  5
275
  8
0
  6
CONTINUOUS
 10
21.42040393669685
 20
0.0
 30
0.0
  0
VERTEX
  5
276
  8
0
  6
CONTINUOUS
 10
17.37090020496052
 20
0.0
 30
0.0
  0
VERTEX
  5
277
  8
0
  6
CONTINUOUS
 10
14.10929833766621
 20
0.0
 30
0.0
  0
VERTEX
  5
278
  8
0
  6
CONTINUOUS
 10
13.39300549219262
 20
0.0
 30
0.0
  0
VERTEX
  5
279
  8
0
  6
CONTINUOUS
 10
9.6904007869225666
 20
0.0
 30
0.0
  0
VERTEX
  5
27A
  8
0
  6
CONTINUOUS
 10
6.5404980219647078
 20
0.0
 30
0.0
  0
VERTEX
  5
27B
  8
0
  6
CONTINUOUS
 10
5.63159873076546
 20
0.0
 30
0.0
  0
VERTEX
  5
27C
  8
0
  6
CONTINUOUS
 10
5.1573007388061853
 20
0.0
 30
0.0
  0
VERTEX
  5
27D
  8
0
  6
CONTINUOUS
 10
3.0267983140451231
 20
0.0
 30
0.0
  0
VERTEX
  5
27E
  8
0
  6
CONTINUOUS
 10
-3.0267983140451231
 20
0.0
 30
0.0
  0
VERTEX
  5
27F
  8
0
  6
CONTINUOUS
 10
-3.7717013885055901
 20
0.0
 30
0.0
  0
VERTEX
  5
280
  8
0
  6
CONTINUOUS
 10
-11.533102189468391
 20
0.0
 30
0.0
  0
VERTEX
  5
281
  8
0
  6
CONTINUOUS
 10
-12.24940099540634
 20
0.0
 30
0.0
  0
VERTEX
  5
282
  8
0
  6
CONTINUOUS
 10
-19.560500633972651
 20
0.0
 30
0.0
  0
VERTEX
  5
283
  8
0
  6
CONTINUOUS
 10
-20.220598221344432
 20
0.0
 30
0.0
  0
VERTEX
  5
284
  8
0
  6
CONTINUOUS
 10
-27.378996723157432
 20
0.0
 30
0.0
  0
VERTEX
  5
285
  8
0
  6
CONTINUOUS
 10
-33.449497228207463
 20
0.0
 30
0.0
  0
VERTEX
  5
286
  8
0
  6
CONTINUOUS
 10
-38.942899612269571
 20
0.0
 30
0.0
  0
VERTEX
  5
287
  8
0
  6
CONTINUOUS
 10
-42.337998000109678
 20
0.0
 30
0.0
  0
VERTEX
  5
288
  8
0
  6
CONTINUOUS
 10
-43.240996431580349
 20
0.0
 30
0.0
  0
VERTEX
  5
289
  8
0
  6
CONTINUOUS
 10
-44.479801465320548
 20
0.1899719204731127
 30
0.0
  0
VERTEX
  5
28A
  8
0
  6
CONTINUOUS
 10
-45.53320029429679
 20
0.7179260127115869
 30
0.0
  0
VERTEX
  5
28B
  8
0
  6
CONTINUOUS
 10
-46.424698009761151
 20
1.519012424345149
 30
0.0
  0
VERTEX
  5
28C
  8
0
  6
CONTINUOUS
 10
-46.844597823626941
 20
2.5283813030034281
 30
0.0
  0
VERTEX
  5
28D
  8
0
  6
CONTINUOUS
 10
-49.744000152411239
 20
12.265014431829551
 30
0.0
  0
VERTEX
  5
28E
  8
0
  6
CONTINUOUS
 10
-50.497998895503891
 20
14.70108006263521
 30
0.0
  0
VERTEX
  5
28F
  8
0
  6
CONTINUOUS
 10
-51.320000576619719
 20
17.140960390639119
 30
0.0
  0
VERTEX
  5
290
  8
0
  6
CONTINUOUS
 10
-52.206199439257148
 20
19.57626308200512
 30
0.0
  0
VERTEX
  5
291
  8
0
  6
CONTINUOUS
 10
-53.103398338893641
 20
22.011565773371132
 30
0.0
  0
VERTEX
  5
292
  8
0
  6
CONTINUOUS
 10
-53.989600181763223
 20
24.447631404176789
 30
0.0
  0
VERTEX
  5
293
  8
0
  6
CONTINUOUS
 10
-54.843099936854372
 20
26.88293409554279
 30
0.0
  0
VERTEX
  5
294
  8
0
  6
CONTINUOUS
 10
-56.342198449731796
 20
31.755065357154109
 30
0.0
  0
VERTEX
  5
295
  8
0
  6
CONTINUOUS
 10
-58.440864088368329
 20
38.999938276080051
 30
0.0
  0
SEQEND
  5
296
  8
0
  6
CONTINUOUS
  0
DIMENSION
  5
2B
  8
COTATION-JACOBDELAFON
  2
*D0
 10
-77.829417377111085
 20
41.999816152787801
 30
0.0
 11
-81.741695685433044
 21
20.99990807639389
 31
0.0
 70
     0
 13
-41.807159418649519
 23
0.0
 33
0.0
 14
-70.270608990162742
 24
41.999816152787801
 34
0.0
 50
90.0
1001
ACAD
1000
DSTYLE
1002
{
1070
   140
1040
6.0
1002
}
  0
LINE
  5
8A
  8
0
  6
CONTINUOUS
 10
-58.440864088368329
 20
38.999938276080051
 30
0.0
 11
57.636567315560598
 21
38.999938276080051
 31
0.0
  0
DIMENSION
  5
8B
  8
COTATION-JACOBDELAFON
  2
*D2
 10
65.297802129537018
 20
54.99801058449242
 30
0.0
 11
-2.2021978704629519
 21
58.963494895542887
 31
0.0
 70
     0
 13
-69.702197870462925
 23
38.999938276080051
 33
0.0
 14
65.297802129537018
 24
38.999938276080051
 34
0.0
1001
ACAD
1000
DSTYLE
1002
{
1070
   140
1040
6.0
1002
}
  0
LINE
  5
BA
  8
0
 10
-38.202197870462939
 20
-4.3314435618363278
 30
0.0
 11
-38.202197870462953
 21
-10.50006172391994
 31
0.0
  0
LINE
  5
BB
  8
0
 10
-36.202197870462939
 20
-4.3314435618363278
 30
0.0
 11
-36.202197870462953
 21
-10.50006172391994
 31
0.0
  0
POLYLINE
  5
BC
  8
0
 66
     1
 10
0.0
 20
0.0
 30
0.0
 70
     1
  0
VERTEX
  5
297
  8
0
 10
-38.702197870462953
 20
-13.50006172391994
 30
0.0
  0
VERTEX
  5
298
  8
0
 10
-35.702197870462939
 20
-13.50006172391994
 30
0.0
  0
VERTEX
  5
299
  8
0
 10
-35.702197870462939
 20
-10.50006172391994
 30
0.0
  0
VERTEX
  5
29A
  8
0
 10
-38.702197870462953
 20
-10.50006172391994
 30
0.0
  0
SEQEND
  5
29B
  8
0
  0
POLYLINE
  5
BD
  8
0
 66
     1
 10
0.0
 20
0.0
 30
0.0
 70
     1
  0
VERTEX
  5
29C
  8
0
 10
-39.702197870462953
 20
-14.00006172391994
 30
0.0
  0
VERTEX
  5
29D
  8
0
 10
-34.702197870462939
 20
-14.00006172391994
 30
0.0
  0
VERTEX
  5
29E
  8
0
 10
-34.702197870462939
 20
-13.50006172391994
 30
0.0
  0
VERTEX
  5
29F
  8
0
 10
-39.702197870462953
 20
-13.50006172391994
 30
0.0
  0
SEQEND
  5
2A0
  8
0
  0
POLYLINE
  5
BE
  8
0
 66
     1
 10
0.0
 20
0.0
 30
0.0
 70
     1
  0
VERTEX
  5
2A1
  8
0
 10
-38.702197870462939
 20
-4.3314435618363278
 30
0.0
  0
VERTEX
  5
2A2
  8
0
 10
-35.702197870462939
 20
-4.3314435618363278
 30
0.0
  0
VERTEX
  5
2A3
  8
0
 10
-35.702197870462939
 20
0.6685564381636695
 30
0.0
  0
VERTEX
  5
2A4
  8
0
 10
-38.702197870462939
 20
0.6685564381636695
 30
0.0
  0
SEQEND
  5
2A5
  8
0
  0
POLYLINE
  5
C4
  8
0
 66
     1
 10
0.0
 20
0.0
 30
0.0
 70
     1
  0
VERTEX
  5
2A6
  8
0
 10
31.29780212953704
 20
-13.50006172391994
 30
0.0
  0
VERTEX
  5
2A7
  8
0
 10
34.297802129537047
 20
-13.50006172391994
 30
0.0
  0
VERTEX
  5
2A8
  8
0
 10
34.297802129537047
 20
-10.50006172391994
 30
0.0
  0
VERTEX
  5
2A9
  8
0
 10
31.29780212953704
 20
-10.50006172391994
 30
0.0
  0
SEQEND
  5
2AA
  8
0
  0
POLYLINE
  5
C5
  8
0
 66
     1
 10
0.0
 20
0.0
 30
0.0
 70
     1
  0
VERTEX
  5
2AB
  8
0
 10
30.29780212953705
 20
-14.00006172391994
 30
0.0
  0
VERTEX
  5
2AC
  8
0
 10
35.297802129537047
 20
-14.00006172391994
 30
0.0
  0
VERTEX
  5
2AD
  8
0
 10
35.297802129537047
 20
-13.50006172391994
 30
0.0
  0
VERTEX
  5
2AE
  8
0
 10
30.29780212953705
 20
-13.50006172391994
 30
0.0
  0
SEQEND
  5
2AF
  8
0
  0
POLYLINE
  5
C6
  8
0
 66
     1
 10
0.0
 20
0.0
 30
0.0
 70
     1
  0
VERTEX
  5
2B0
  8
0
 10
31.29780212953705
 20
-4.3314435618363278
 30
0.0
  0
VERTEX
  5
2B1
  8
0
 10
34.297802129537061
 20
-4.3314435618363278
 30
0.0
  0
VERTEX
  5
2B2
  8
0
 10
34.297802129537061
 20
0.6685564381636695
 30
0.0
  0
VERTEX
  5
2B3
  8
0
 10
31.29780212953705
 20
0.6685564381636695
 30
0.0
  0
SEQEND
  5
2B4
  8
0
  0
LINE
  5
C7
  8
0
 10
31.79780212953705
 20
-4.3314435618363296
 30
0.0
 11
31.79780212953704
 21
-10.50006172391994
 31
0.0
  0
LINE
  5
C8
  8
0
 10
33.797802129537047
 20
-4.3314435618363296
 30
0.0
 11
33.79780212953704
 21
-10.50006172391994
 31
0.0
  0
INSERT
  5
EE
 67
     1
  8
0
  6
CONTINUOUS
  2
ADCADD_ZZ
 10
0.0
 20
0.0
 30
0.0
1001
ADCADD_ZZ
1070
   205
1070
    14
1070
   209
1070
     1
1070
   231
1070
     0
1070
   235
1070
     0
1070
   236
1070
     4
1070
   237
1070
     2
1070
   238
1070
     4
1070
   239
1070
     2
1070
   240
1070
     0
1070
   241
1070
  4096
1070
   242
1070
     2
1070
   244
1070
     0
1070
   245
1070
     1
1070
   303
1040
0.1
1070
   304
1040
4.0
1070
   305
1040
96.0
1070
   306
1040
0.125
1070
   337
1040
0.0
1070
   338
1040
0.3048
1070
   339
1040
0.0625
1070
   340
1040
96.0
1070
   341
1040
4.0
1070
   342
1040
96.0
1070
   530
1010
0.0
1020
0.0
1030
0.0
1070
   531
1010
0.0
1020
0.0
1030
0.0
1070
   107
1000

1070
   108
1000
AIA (256 Color)
1070
   135
1000
L120
1070
   136
1000
'
1070
   137
1000
m
1001
SDSK_PMN
1070
   100
1000
ACADARCH
1070
   300
1040
2453076.6363320369
  0
ENDSEC
  0
EOF
