  0
SECTION
  2
HEADER
  9
$ACADVER
  1
AC1009
  9
$INSBASE
 10
0.0
 20
0.0
 30
0.0
  9
$EXTMIN
 10
-18.850466871461268
 20
-13.99978843439288
 30
0.0
  9
$EXTMAX
 10
140.42449957675441
 20
62.185604484982591
 30
0.0
  9
$LIMMIN
 10
0.0
 20
0.0
  9
$LIMMAX
 10
12.0
 20
9.0
  9
$ORTHOMODE
 70
     1
  9
$REGENMODE
 70
     1
  9
$FILLMODE
 70
     1
  9
$QTEXTMODE
 70
     0
  9
$MIRRTEXT
 70
     1
  9
$DRAGMODE
 70
     2
  9
$LTSCALE
 40
1.0
  9
$OSMODE
 70
     1
  9
$ATTMODE
 70
     1
  9
$TEXTSIZE
 40
0.2
  9
$TRACEWID
 40
0.05
  9
$TEXTSTYLE
  7
STANDARD
  9
$CLAYER
  8
0
  9
$CELTYPE
  6
CONTINUOUS
  9
$CECOLOR
 62
   256
  9
$DIMSCALE
 40
96.0
  9
$DIMASZ
 40
0.18
  9
$DIMEXO
 40
0.0625
  9
$DIMDLI
 40
0.38
  9
$DIMRND
 40
0.0
  9
$DIMDLE
 40
0.0
  9
$DIMEXE
 40
0.18
  9
$DIMTP
 40
0.0
  9
$DIMTM
 40
0.0
  9
$DIMTXT
 40
0.18
  9
$DIMCEN
 40
0.09
  9
$DIMTSZ
 40
0.0
  9
$DIMTOL
 70
     0
  9
$DIMLIM
 70
     0
  9
$DIMTIH
 70
     1
  9
$DIMTOH
 70
     1
  9
$DIMSE1
 70
     0
  9
$DIMSE2
 70
     0
  9
$DIMTAD
 70
     0
  9
$DIMZIN
 70
     0
  9
$DIMBLK
  1

  9
$DIMASO
 70
     1
  9
$DIMSHO
 70
     1
  9
$DIMPOST
  1

  9
$DIMAPOST
  1

  9
$DIMALT
 70
     0
  9
$DIMALTD
 70
     2
  9
$DIMALTF
 40
25.399999999999999
  9
$DIMLFAC
 40
1.0
  9
$DIMTOFL
 70
     0
  9
$DIMTVP
 40
0.0
  9
$DIMTIX
 70
     0
  9
$DIMSOXD
 70
     0
  9
$DIMSAH
 70
     0
  9
$DIMBLK1
  1

  9
$DIMBLK2
  1

  9
$DIMSTYLE
  2
STANDARD
  9
$DIMCLRD
 70
     0
  9
$DIMCLRE
 70
     0
  9
$DIMCLRT
 70
     0
  9
$DIMTFAC
 40
1.0
  9
$DIMGAP
 40
0.09
  9
$LUNITS
 70
     2
  9
$LUPREC
 70
     4
  9
$SKETCHINC
 40
0.1
  9
$FILLETRAD
 40
0.0
  9
$AUNITS
 70
     0
  9
$AUPREC
 70
     2
  9
$MENU
  1
.
  9
$ELEVATION
 40
0.0
  9
$PELEVATION
 40
0.0
  9
$THICKNESS
 40
0.0
  9
$LIMCHECK
 70
     0
  9
$BLIPMODE
 70
     0
  9
$CHAMFERA
 40
0.0
  9
$CHAMFERB
 40
0.0
  9
$SKPOLY
 70
     0
  9
$TDCREATE
 40
2453033.4676452312
  9
$TDUPDATE
 40
2453076.6364548951
  9
$TDINDWG
 40
0.1251664583
  9
$TDUSRTIMER
 40
0.1251664583
  9
$USRTIMER
 70
     1
  9
$ANGBASE
 50
0.0
  9
$ANGDIR
 70
     0
  9
$PDMODE
 70
     0
  9
$PDSIZE
 40
0.0
  9
$PLINEWID
 40
0.0
  9
$COORDS
 70
     1
  9
$SPLFRAME
 70
     0
  9
$SPLINETYPE
 70
     6
  9
$SPLINESEGS
 70
     8
  9
$ATTDIA
 70
     1
  9
$ATTREQ
 70
     1
  9
$HANDLING
 70
 22529
  9
$HANDSEED
  5
2E8
  9
$SURFTAB1
 70
     6
  9
$SURFTAB2
 70
     6
  9
$SURFTYPE
 70
     6
  9
$SURFU
 70
     6
  9
$SURFV
 70
     6
  9
$UCSNAME
  2

  9
$UCSORG
 10
0.0
 20
0.0
 30
0.0
  9
$UCSXDIR
 10
1.0
 20
0.0
 30
0.0
  9
$UCSYDIR
 10
0.0
 20
1.0
 30
0.0
  9
$PUCSNAME
  2

  9
$PUCSORG
 10
0.0
 20
0.0
 30
0.0
  9
$PUCSXDIR
 10
1.0
 20
0.0
 30
0.0
  9
$PUCSYDIR
 10
0.0
 20
1.0
 30
0.0
  9
$USERI1
 70
     0
  9
$USERI2
 70
     0
  9
$USERI3
 70
     0
  9
$USERI4
 70
     0
  9
$USERI5
 70
     0
  9
$USERR1
 40
0.0
  9
$USERR2
 40
0.0
  9
$USERR3
 40
0.0
  9
$USERR4
 40
0.0
  9
$USERR5
 40
0.0
  9
$WORLDVIEW
 70
     1
  9
$SHADEDGE
 70
     3
  9
$SHADEDIF
 70
    70
  9
$TILEMODE
 70
     1
  9
$MAXACTVP
 70
    64
  9
$PLIMCHECK
 70
     0
  9
$PEXTMIN
 10
-185.24284822595379
 20
-4.2100426089932617
 30
0.0
  9
$PEXTMAX
 10
3050.0416039889628
 20
173.56073976098409
 30
0.0
  9
$PLIMMIN
 10
-0.1979161059762549
 20
-0.2679166643638311
  9
$PLIMMAX
 10
11.493750144177531
 20
7.9987497780266699
  9
$UNITMODE
 70
     0
  9
$VISRETAIN
 70
     1
  9
$PLINEGEN
 70
     0
  9
$PSLTSCALE
 70
     1
  0
ENDSEC
  0
SECTION
  2
TABLES
  0
TABLE
  2
VPORT
 70
     2
  0
VPORT
  2
*ACTIVE
 70
     0
 10
0.0
 20
0.0
 11
1.0
 21
1.0
 12
65.485324445027643
 22
24.092908025294861
 13
0.0
 23
0.0
 14
1.0
 24
1.0
 15
0.0
 25
0.0
 16
0.0
 26
0.0
 36
1.0
 17
0.0
 27
0.0
 37
0.0
 40
88.079757304559465
 41
1.928853754940711
 42
50.0
 43
0.0
 44
0.0
 50
0.0
 51
0.0
 71
     0
 72
   100
 73
     1
 74
     1
 75
     0
 76
     0
 77
     0
 78
     0
  0
ENDTAB
  0
TABLE
  2
LTYPE
 70
     1
  0
LTYPE
  2
CONTINUOUS
 70
     0
  3
Solid line
 72
    65
 73
     0
 40
0.0
  0
ENDTAB
  0
TABLE
  2
LAYER
 70
     3
  0
LAYER
  2
0
 70
     0
 62
     7
  6
CONTINUOUS
  0
LAYER
  2
DEFPOINTS
 70
     0
 62
     7
  6
CONTINUOUS
  0
LAYER
  2
COTATION-JACOBDELAFON
 70
     0
 62
     8
  6
CONTINUOUS
  0
ENDTAB
  0
TABLE
  2
STYLE
 70
     2
  0
STYLE
  2
STANDARD
 70
     0
 40
0.0
 41
1.0
 50
0.0
 71
     0
 42
0.2
  3
txt
  4

  0
STYLE
  2
JACOB-DELAFON
 70
     0
 40
0.0
 41
1.0
 50
0.0
 71
     0
 42
2.5
  3
txt
  4

  0
ENDTAB
  0
TABLE
  2
VIEW
 70
     0
  0
ENDTAB
  0
TABLE
  2
UCS
 70
     0
  0
ENDTAB
  0
TABLE
  2
APPID
 70
     5
  0
APPID
  2
ACAD
 70
     0
  0
APPID
  2
ADCADD_ZZ
 70
     0
  0
APPID
  2
SDSK_PMN
 70
     0
  0
APPID
  2
AEC_DWGVARSSETUP_DATA
 70
     0
  0
APPID
  2
AEC_DISPREPSET_DATA
 70
     0
  0
ENDTAB
  0
TABLE
  2
DIMSTYLE
 70
     2
  0
DIMSTYLE
  2
STANDARD
 70
     0
  3

  4

  5

  6

  7

 40
1.0
 41
0.18
 42
0.0625
 43
0.38
 44
0.18
 45
0.0
 46
0.0
 47
0.0
 48
0.0
140
0.18
141
0.09
142
0.0
143
25.399999999999999
144
1.0
145
0.0
146
1.0
147
0.09
 71
     0
 72
     0
 73
     1
 74
     1
 75
     0
 76
     0
 77
     0
 78
     0
170
     0
171
     2
172
     0
173
     0
174
     0
175
     0
176
     0
177
     0
178
     0
  0
DIMSTYLE
  2
COTATION-JACOB-DELAFON
 70
     0
  3

  4

  5
OBLIQUE
  6

  7

 40
1.0
 41
1.8
 42
0.625
 43
3.7999999999999989
 44
1.8
 45
0.0
 46
0.0
 47
0.0
 48
0.0
140
3.0
141
0.9
142
0.0
143
25.399999999999999
144
1.0
145
0.0
146
1.0
147
0.9
 71
     0
 72
     0
 73
     0
 74
     0
 75
     0
 76
     0
 77
     1
 78
    12
170
     0
171
     2
172
     0
173
     0
174
     0
175
     0
176
     0
177
     0
178
     0
  0
ENDTAB
  0
ENDSEC
  0
SECTION
  2
BLOCKS
  0
BLOCK
  8
0
  2
$MODEL_SPACE
 70
     0
 10
0.0
 20
0.0
 30
0.0
  3
$MODEL_SPACE
  1

  0
ENDBLK
  5
9
  8
0
  0
BLOCK
 67
     1
  8
0
  2
$PAPER_SPACE
 70
     0
 10
0.0
 20
0.0
 30
0.0
  3
$PAPER_SPACE
  1

  0
ENDBLK
  5
E
 67
     1
  8
0
  0
BLOCK
  8
0
  2
*D0
 70
     1
 10
0.0
 20
0.0
 30
0.0
  3
*D0
  1

  0
LINE
  5
DB
  8
COTATION-JACOBDELAFON
 62
     0
 10
60.246215954642309
 20
0.0000000000000002
 30
0.0
 11
-12.15019402016523
 21
0.0000000000000207
 31
0.0
  0
LINE
  5
DC
  8
COTATION-JACOBDELAFON
 62
     0
 10
-0.0067916827934873
 20
42.00011046376369
 30
0.0
 11
-12.15019402016523
 21
42.00011046376369
 31
0.0
  0
LINE
  5
DD
  8
COTATION-JACOBDELAFON
 62
     0
 10
-10.35019402016523
 20
0.0000000000000202
 30
0.0
 11
-10.350194020165221
 21
42.00011046376369
 31
0.0
  0
INSERT
  5
DE
  8
COTATION-JACOBDELAFON
 62
     0
  2
_OBLIQUE
 10
-10.35019402016523
 20
0.0000000000000202
 30
0.0
 41
1.8
 42
1.8
 43
1.8
 50
270.0
  0
INSERT
  5
DF
  8
COTATION-JACOBDELAFON
 62
     0
  2
_OBLIQUE
 10
-10.350194020165221
 20
42.00011046376369
 30
0.0
 41
1.8
 42
1.8
 43
1.8
 50
90.0
  0
TEXT
  5
E0
  8
0
  6
CONTINUOUS
 62
     0
 10
-11.26247232848719
 20
16.506194386042829
 30
0.0
 40
6.0
  1
42
 50
90.0
  7
JACOB-DELAFON
  0
POINT
  5
E1
  8
DEFPOINTS
 62
     0
 10
60.871215954642309
 20
0.0
 30
0.0
  0
POINT
  5
E2
  8
DEFPOINTS
 62
     0
 10
0.6182083172065127
 20
42.00011046376369
 30
0.0
  0
POINT
  5
E3
  8
DEFPOINTS
 62
     0
 10
-10.350194020165221
 20
42.00011046376369
 30
0.0
  0
ENDBLK
  5
40
  8
0
  0
BLOCK
  8
0
  2
_OBLIQUE
 70
     0
 10
0.0
 20
0.0
 30
0.0
  3
_OBLIQUE
  1

  0
LINE
  5
42
  8
0
  6
BYBLOCK
 62
     0
 10
-0.5
 20
-0.5
 30
0.0
 11
0.5
 21
0.5
 31
0.0
  0
ENDBLK
  5
44
  8
0
  0
BLOCK
  8
0
  2
*D2
 70
     1
 10
0.0
 20
0.0
 30
0.0
  3
*D2
  1

  0
LINE
  5
B6
  8
COTATION-JACOBDELAFON
 62
     0
 10
0.0199999999999996
 20
39.62521156560711
 30
0.0
 11
0.0200000000000006
 21
55.378919628229532
 31
0.0
  0
LINE
  5
B7
  8
COTATION-JACOBDELAFON
 62
     0
 10
139.52449957675441
 20
39.62521156560711
 30
0.0
 11
139.52449957675441
 21
55.378919628229532
 31
0.0
  0
LINE
  5
B8
  8
COTATION-JACOBDELAFON
 62
     0
 10
0.0200000000000005
 20
53.578919628229528
 30
0.0
 11
139.52449957675441
 21
53.578919628229528
 31
0.0
  0
INSERT
  5
B9
  8
COTATION-JACOBDELAFON
 62
     0
  2
_OBLIQUE
 10
0.0200000000000005
 20
53.578919628229528
 30
0.0
 41
1.8
 42
1.8
 43
1.8
 50
180.0
  0
INSERT
  5
BA
  8
COTATION-JACOBDELAFON
 62
     0
  2
_OBLIQUE
 10
139.52449957675441
 20
53.578919628229528
 30
0.0
 41
1.8
 42
1.8
 43
1.8
  0
TEXT
  5
BB
  8
0
  6
CONTINUOUS
 62
     0
 10
58.995987851133009
 20
54.597609942008518
 30
0.0
 40
6.0
  1
139.5
  7
JACOB-DELAFON
  0
POINT
  5
BC
  8
DEFPOINTS
 62
     0
 10
0.0199999999999996
 20
39.00021156560711
 30
0.0
  0
POINT
  5
BD
  8
DEFPOINTS
 62
     0
 10
139.52449957675441
 20
39.00021156560711
 30
0.0
  0
POINT
  5
BE
  8
DEFPOINTS
 62
     0
 10
139.52449957675441
 20
53.578919628229528
 30
0.0
  0
ENDBLK
  5
8C
  8
0
  0
BLOCK
  8
0
  2
ADCADD_ZZ
 70
     0
 10
0.0
 20
0.0
 30
0.0
  3
ADCADD_ZZ
  1

  0
ENDBLK
  5
13F
  8
0
  0
ENDSEC
  0
SECTION
  2
ENTITIES
  0
POLYLINE
  5
2D
  8
0
  6
CONTINUOUS
 66
     1
 10
0.0
 20
0.0
 30
0.0
 70
     1
  0
VERTEX
  5
295
  8
0
  6
CONTINUOUS
 10
139.52449957675441
 20
39.00021156560711
 30
0.0
  0
VERTEX
  5
296
  8
0
  6
CONTINUOUS
 10
139.52442888887691
 20
41.400435862046713
 30
0.0
  0
VERTEX
  5
297
  8
0
  6
CONTINUOUS
 10
139.3498430097531
 20
41.824633163006808
 30
0.0
  0
VERTEX
  5
298
  8
0
  6
CONTINUOUS
 10
138.9281922884748
 20
42.00011046376369
 30
0.0
  0
VERTEX
  5
299
  8
0
  6
CONTINUOUS
 10
0.6182083172065127
 20
42.00011046376369
 30
0.0
  0
VERTEX
  5
29A
  8
0
  6
CONTINUOUS
 10
0.1298163651204227
 20
41.74681279484507
 30
0.0
  0
VERTEX
  5
29B
  8
0
  6
CONTINUOUS
 10
0.0199999999999996
 20
41.400435862046713
 30
0.0
  0
VERTEX
  5
29C
  8
0
  6
CONTINUOUS
 10
0.0199999999999996
 20
39.00021156560711
 30
0.0
  0
SEQEND
  5
29D
  8
0
  6
CONTINUOUS
  0
POLYLINE
  5
2E
  8
0
  6
CONTINUOUS
 66
     1
 10
0.0
 20
0.0
 30
0.0
  0
VERTEX
  5
29E
  8
0
  6
CONTINUOUS
 10
22.70982915252295
 20
39.00021156560711
 30
0.0
  0
VERTEX
  5
29F
  8
0
  6
CONTINUOUS
 10
24.901432999639951
 20
28.541764440497712
 30
0.0
  0
VERTEX
  5
2A0
  8
0
  6
CONTINUOUS
 10
25.342808479295059
 20
27.51636664824888
 30
0.0
  0
VERTEX
  5
2A1
  8
0
  6
CONTINUOUS
 10
26.08386628664902
 20
26.712985788696749
 30
0.0
  0
VERTEX
  5
2A2
  8
0
  6
CONTINUOUS
 10
27.050410041273089
 20
26.188079775997959
 30
0.0
  0
VERTEX
  5
2A3
  8
0
  6
CONTINUOUS
 10
28.168219520713979
 20
26.000395358666701
 30
0.0
  0
VERTEX
  5
2A4
  8
0
  6
CONTINUOUS
 10
28.911041637885312
 20
26.000395358666701
 30
0.0
  0
VERTEX
  5
2A5
  8
0
  6
CONTINUOUS
 10
31.274704189663112
 20
26.000395358666701
 30
0.0
  0
VERTEX
  5
2A6
  8
0
  6
CONTINUOUS
 10
53.494201491176277
 20
26.008787751311601
 30
0.0
  0
VERTEX
  5
2A7
  8
0
  6
CONTINUOUS
 10
53.994764796799977
 20
25.876798303350991
 30
0.0
  0
VERTEX
  5
2A8
  8
0
  6
CONTINUOUS
 10
54.373000634915797
 20
25.52202897790778
 30
0.0
  0
VERTEX
  5
2A9
  8
0
  6
CONTINUOUS
 10
54.56109036666453
 20
25.009330081783361
 30
0.0
  0
VERTEX
  5
2AA
  8
0
  6
CONTINUOUS
 10
57.556560608759177
 20
2.5291619652566188
 30
0.0
  0
VERTEX
  5
2AB
  8
0
  6
CONTINUOUS
 10
57.951760047348948
 20
1.519023068725772
 30
0.0
  0
VERTEX
  5
2AC
  8
0
  6
CONTINUOUS
 10
58.692323132693332
 20
0.7179310435313653
 30
0.0
  0
VERTEX
  5
2AD
  8
0
  6
CONTINUOUS
 10
59.693592796088133
 20
0.1907361964748588
 30
0.0
  0
VERTEX
  5
2AE
  8
0
  6
CONTINUOUS
 10
60.871215954642309
 20
0.0
 30
0.0
  0
VERTEX
  5
2AF
  8
0
  6
CONTINUOUS
 10
121.9943514109205
 20
0.0
 30
0.0
  0
VERTEX
  5
2B0
  8
0
  6
CONTINUOUS
 10
123.1719745694747
 20
0.1907361964748588
 30
0.0
  0
VERTEX
  5
2B1
  8
0
  6
CONTINUOUS
 10
124.1733157589431
 20
0.7179310435313653
 30
0.0
  0
VERTEX
  5
2B2
  8
0
  6
CONTINUOUS
 10
124.9138043379607
 20
1.519023068725772
 30
0.0
  0
VERTEX
  5
2B3
  8
0
  6
CONTINUOUS
 10
125.30900824693011
 20
2.5291619652566188
 30
0.0
  0
VERTEX
  5
2B4
  8
0
  6
CONTINUOUS
 10
126.6566220603395
 20
12.265100378119239
 30
0.0
  0
VERTEX
  5
2B5
  8
0
  6
CONTINUOUS
 10
126.99349049571821
 20
14.701183079496129
 30
0.0
  0
VERTEX
  5
2B6
  8
0
  6
CONTINUOUS
 10
127.3304289670442
 20
17.138028725658909
 30
0.0
  0
VERTEX
  5
2B7
  8
0
  6
CONTINUOUS
 10
127.6672966573596
 20
19.574111427035799
 30
0.0
  0
VERTEX
  5
2B8
  8
0
  6
CONTINUOUS
 10
128.00416434767519
 20
22.010194128412671
 30
0.0
  0
VERTEX
  5
2B9
  8
0
  6
CONTINUOUS
 10
128.3411035640643
 20
24.446276829789571
 30
0.0
  0
VERTEX
  5
2BA
  8
0
  6
CONTINUOUS
 10
128.6779712543798
 20
26.883122475952341
 30
0.0
  0
VERTEX
  5
2BB
  8
0
  6
CONTINUOUS
 10
129.35177816108441
 20
31.75528787870611
 30
0.0
  0
VERTEX
  5
2BC
  8
0
  6
CONTINUOUS
 10
130.353652487565
 20
39.00021156560711
 30
0.0
  0
SEQEND
  5
2BD
  8
0
  6
CONTINUOUS
  0
POLYLINE
  5
2F
  8
0
  6
CONTINUOUS
 66
     1
 10
0.0
 20
0.0
 30
0.0
  0
VERTEX
  5
2BE
  8
0
  6
CONTINUOUS
 10
126.1248033506449
 20
12.26967804683464
 30
0.0
  0
VERTEX
  5
2BF
  8
0
  6
CONTINUOUS
 10
88.547568548190554
 20
12.271966881192339
 30
0.0
  0
VERTEX
  5
2C0
  8
0
  6
CONTINUOUS
 10
82.488255098071193
 20
15.57170308020738
 30
0.0
  0
VERTEX
  5
2C1
  8
0
  6
CONTINUOUS
 10
75.114280492736555
 20
21.700438545337501
 30
0.0
  0
VERTEX
  5
2C2
  8
0
  6
CONTINUOUS
 10
68.929033468894545
 20
25.000174744352559
 30
0.0
  0
VERTEX
  5
2C3
  8
0
  6
CONTINUOUS
 10
64.946980250533727
 20
25.007804192211552
 30
0.0
  0
VERTEX
  5
2C4
  8
0
  6
CONTINUOUS
 10
64.10136920498087
 20
25.009330081783361
 30
0.0
  0
VERTEX
  5
2C5
  8
0
  6
CONTINUOUS
 10
59.987255012585699
 20
25.009330081783361
 30
0.0
  0
VERTEX
  5
2C6
  8
0
  6
CONTINUOUS
 10
56.994401432686402
 20
25.009330081783361
 30
0.0
  0
VERTEX
  5
2C7
  8
0
  6
CONTINUOUS
 10
55.172954203437477
 20
25.009330081783361
 30
0.0
  0
VERTEX
  5
2C8
  8
0
  6
CONTINUOUS
 10
54.56109036666453
 20
25.009330081783361
 30
0.0
  0
SEQEND
  5
2C9
  8
0
  6
CONTINUOUS
  0
DIMENSION
  5
32
  8
COTATION-JACOBDELAFON
  2
*D0
 10
-10.350194020165221
 20
42.00011046376369
 30
0.0
 11
-14.26247232848719
 21
21.000055231881849
 31
0.0
 70
     0
 13
60.871215954642309
 23
0.0
 33
0.0
 14
0.6182083172065127
 24
42.00011046376369
 34
0.0
 50
90.0
1001
ACAD
1000
DSTYLE
1002
{
1070
   140
1040
6.0
1002
}
  0
DIMENSION
  5
7F
  8
COTATION-JACOBDELAFON
  2
*D2
 10
139.52449957675441
 20
53.578919628229528
 30
0.0
 11
69.772249788377209
 21
57.544403939280002
 31
0.0
 70
     0
 13
0.0199999999999996
 23
39.00021156560711
 33
0.0
 14
139.52449957675441
 24
39.00021156560711
 34
0.0
1001
ACAD
1000
DSTYLE
1002
{
1070
   140
1040
6.0
1002
}
  0
LINE
  5
F2
  8
0
 10
111.856769500871
 20
-4.5681763956575017
 30
0.0
 11
111.856769500871
 21
-10.49978843439288
 31
0.0
  0
LINE
  5
F3
  8
0
 10
113.856769500871
 20
-4.5681763956575017
 30
0.0
 11
113.856769500871
 21
-10.49978843439288
 31
0.0
  0
POLYLINE
  5
F4
  8
0
 66
     1
 10
0.0
 20
0.0
 30
0.0
 70
     1
  0
VERTEX
  5
2CA
  8
0
 10
111.356769500871
 20
-13.49978843439288
 30
0.0
  0
VERTEX
  5
2CB
  8
0
 10
114.356769500871
 20
-13.49978843439288
 30
0.0
  0
VERTEX
  5
2CC
  8
0
 10
114.356769500871
 20
-10.49978843439288
 30
0.0
  0
VERTEX
  5
2CD
  8
0
 10
111.356769500871
 20
-10.49978843439288
 30
0.0
  0
SEQEND
  5
2CE
  8
0
  0
POLYLINE
  5
F5
  8
0
 66
     1
 10
0.0
 20
0.0
 30
0.0
 70
     1
  0
VERTEX
  5
2CF
  8
0
 10
110.356769500871
 20
-13.99978843439288
 30
0.0
  0
VERTEX
  5
2D0
  8
0
 10
115.356769500871
 20
-13.99978843439288
 30
0.0
  0
VERTEX
  5
2D1
  8
0
 10
115.356769500871
 20
-13.49978843439288
 30
0.0
  0
VERTEX
  5
2D2
  8
0
 10
110.356769500871
 20
-13.49978843439288
 30
0.0
  0
SEQEND
  5
2D3
  8
0
  0
POLYLINE
  5
F6
  8
0
 66
     1
 10
0.0
 20
0.0
 30
0.0
 70
     1
  0
VERTEX
  5
2D4
  8
0
 10
111.356769500871
 20
-4.5681763956575017
 30
0.0
  0
VERTEX
  5
2D5
  8
0
 10
114.356769500871
 20
-4.5681763956575017
 30
0.0
  0
VERTEX
  5
2D6
  8
0
 10
114.356769500871
 20
0.4318236043424957
 30
0.0
  0
VERTEX
  5
2D7
  8
0
 10
111.356769500871
 20
0.4318236043424957
 30
0.0
  0
SEQEND
  5
2D8
  8
0
  0
POLYLINE
  5
101
  8
0
 66
     1
 10
0.0
 20
0.0
 30
0.0
 70
     1
  0
VERTEX
  5
2D9
  8
0
 10
64.585382166720194
 20
-13.49978843439288
 30
0.0
  0
VERTEX
  5
2DA
  8
0
 10
67.585382166720194
 20
-13.49978843439288
 30
0.0
  0
VERTEX
  5
2DB
  8
0
 10
67.585382166720194
 20
-10.49978843439288
 30
0.0
  0
VERTEX
  5
2DC
  8
0
 10
64.585382166720194
 20
-10.49978843439288
 30
0.0
  0
SEQEND
  5
2DD
  8
0
  0
POLYLINE
  5
102
  8
0
 66
     1
 10
0.0
 20
0.0
 30
0.0
 70
     1
  0
VERTEX
  5
2DE
  8
0
 10
63.585382166720201
 20
-13.99978843439288
 30
0.0
  0
VERTEX
  5
2DF
  8
0
 10
68.585382166720194
 20
-13.99978843439288
 30
0.0
  0
VERTEX
  5
2E0
  8
0
 10
68.585382166720194
 20
-13.49978843439288
 30
0.0
  0
VERTEX
  5
2E1
  8
0
 10
63.585382166720201
 20
-13.49978843439288
 30
0.0
  0
SEQEND
  5
2E2
  8
0
  0
LINE
  5
103
  8
0
 10
65.085382166720194
 20
-4.5681763956575017
 30
0.0
 11
65.085382166720194
 21
-10.49978843439288
 31
0.0
  0
LINE
  5
104
  8
0
 10
67.085382166720194
 20
-4.5681763956575017
 30
0.0
 11
67.085382166720194
 21
-10.49978843439288
 31
0.0
  0
POLYLINE
  5
105
  8
0
 66
     1
 10
0.0
 20
0.0
 30
0.0
 70
     1
  0
VERTEX
  5
2E3
  8
0
 10
64.585382166720194
 20
-4.5681763956575017
 30
0.0
  0
VERTEX
  5
2E4
  8
0
 10
67.585382166720208
 20
-4.5681763956575017
 30
0.0
  0
VERTEX
  5
2E5
  8
0
 10
67.585382166720208
 20
0.4318236043424957
 30
0.0
  0
VERTEX
  5
2E6
  8
0
 10
64.585382166720194
 20
0.4318236043424957
 30
0.0
  0
SEQEND
  5
2E7
  8
0
  0
INSERT
  5
140
 67
     1
  8
0
  6
CONTINUOUS
  2
ADCADD_ZZ
 10
0.0
 20
0.0
 30
0.0
1001
ADCADD_ZZ
1070
   205
1070
    14
1070
   209
1070
     1
1070
   231
1070
     0
1070
   235
1070
     0
1070
   236
1070
     4
1070
   237
1070
     2
1070
   238
1070
     4
1070
   239
1070
     2
1070
   240
1070
     0
1070
   241
1070
  4096
1070
   242
1070
     2
1070
   244
1070
     0
1070
   245
1070
     1
1070
   303
1040
0.1
1070
   304
1040
4.0
1070
   305
1040
96.0
1070
   306
1040
0.125
1070
   337
1040
0.0
1070
   338
1040
0.3048
1070
   339
1040
0.0625
1070
   340
1040
96.0
1070
   341
1040
4.0
1070
   342
1040
96.0
1070
   530
1010
0.0
1020
0.0
1030
0.0
1070
   531
1010
0.0
1020
0.0
1030
0.0
1070
   107
1000

1070
   108
1000
AIA (256 Color)
1070
   135
1000
L120
1070
   136
1000
'
1070
   137
1000
m
1001
SDSK_PMN
1070
   100
1000
ACADARCH
1070
   300
1040
2453076.6364931478
  0
ENDSEC
  0
EOF
