  0
SECTION
  2
HEADER
  9
$ACADVER
  1
AC1014
  9
$ACADMAINTVER
 70
     9
  9
$DWGCODEPAGE
  3
ANSI_1252
  9
$INSBASE
 10
5746.242612708126
 20
1369.343088236171
 30
0.0
  9
$EXTMIN
 10
5745.342612708128
 20
1352.173065699701
 30
0.0
  9
$EXTMAX
 10
5789.045020168789
 20
1399.090291510387
 30
0.0
  9
$LIMMIN
 10
0.0
 20
0.0
  9
$LIMMAX
 10
420.0
 20
297.0
  9
$ORTHOMODE
 70
     1
  9
$REGENMODE
 70
     1
  9
$FILLMODE
 70
     1
  9
$QTEXTMODE
 70
     0
  9
$MIRRTEXT
 70
     0
  9
$DRAGMODE
 70
     2
  9
$LTSCALE
 40
1.0
  9
$OSMODE
 70
    39
  9
$ATTMODE
 70
     1
  9
$TEXTSIZE
 40
2.5
  9
$TRACEWID
 40
1.0
  9
$TEXTSTYLE
  7
STANDARD
  9
$CLAYER
  8
0
  9
$CELTYPE
  6
BYLAYER
  9
$CECOLOR
 62
   256
  9
$CELTSCALE
 40
1.0
  9
$DELOBJ
 70
     1
  9
$DISPSILH
 70
     0
  9
$DIMSCALE
 40
1.0
  9
$DIMASZ
 40
1.8
  9
$DIMEXO
 40
0.625
  9
$DIMDLI
 40
0.0
  9
$DIMRND
 40
0.0
  9
$DIMDLE
 40
0.0
  9
$DIMEXE
 40
1.8
  9
$DIMTP
 40
0.0
  9
$DIMTM
 40
0.0
  9
$DIMTXT
 40
3.0
  9
$DIMCEN
 40
0.9
  9
$DIMTSZ
 40
0.0
  9
$DIMTOL
 70
     0
  9
$DIMLIM
 70
     0
  9
$DIMTIH
 70
     0
  9
$DIMTOH
 70
     0
  9
$DIMSE1
 70
     0
  9
$DIMSE2
 70
     0
  9
$DIMTAD
 70
     1
  9
$DIMZIN
 70
    12
  9
$DIMBLK
  1
OBLIQUE
  9
$DIMASO
 70
     1
  9
$DIMSHO
 70
     1
  9
$DIMPOST
  1

  9
$DIMAPOST
  1

  9
$DIMALT
 70
     0
  9
$DIMALTD
 70
     3
  9
$DIMALTF
 40
0.03937007874016
  9
$DIMLFAC
 40
1.0
  9
$DIMTOFL
 70
     0
  9
$DIMTVP
 40
0.0
  9
$DIMTIX
 70
     0
  9
$DIMSOXD
 70
     0
  9
$DIMSAH
 70
     0
  9
$DIMBLK1
  1

  9
$DIMBLK2
  1

  9
$DIMSTYLE
  2
COTATION-JACOB-DELAFON
  9
$DIMCLRD
 70
     0
  9
$DIMCLRE
 70
     0
  9
$DIMCLRT
 70
     0
  9
$DIMTFAC
 40
1.0
  9
$DIMGAP
 40
0.9
  9
$DIMJUST
 70
     0
  9
$DIMSD1
 70
     0
  9
$DIMSD2
 70
     0
  9
$DIMTOLJ
 70
     0
  9
$DIMTZIN
 70
     8
  9
$DIMALTZ
 70
     0
  9
$DIMALTTZ
 70
     0
  9
$DIMFIT
 70
     5
  9
$DIMUPT
 70
     0
  9
$DIMUNIT
 70
     2
  9
$DIMDEC
 70
     2
  9
$DIMTDEC
 70
     2
  9
$DIMALTU
 70
     2
  9
$DIMALTTD
 70
     3
  9
$DIMTXSTY
  7
JACOB-DELAFON
  9
$DIMAUNIT
 70
     0
  9
$LUNITS
 70
     2
  9
$LUPREC
 70
     4
  9
$SKETCHINC
 40
1.0
  9
$FILLETRAD
 40
0.3
  9
$AUNITS
 70
     0
  9
$AUPREC
 70
     0
  9
$MENU
  1
.
  9
$ELEVATION
 40
0.0
  9
$PELEVATION
 40
0.0
  9
$THICKNESS
 40
0.0
  9
$LIMCHECK
 70
     0
  9
$BLIPMODE
 70
     0
  9
$CHAMFERA
 40
10.0
  9
$CHAMFERB
 40
10.0
  9
$CHAMFERC
 40
20.0
  9
$CHAMFERD
 40
0.0
  9
$SKPOLY
 70
     0
  9
$TDCREATE
 40
2452278.476416319
  9
$TDUPDATE
 40
2452293.652612662
  9
$TDINDWG
 40
2.1468308449
  9
$TDUSRTIMER
 40
2.1468295718
  9
$USRTIMER
 70
     1
  9
$ANGBASE
 50
0.0
  9
$ANGDIR
 70
     0
  9
$PDMODE
 70
     0
  9
$PDSIZE
 40
0.0
  9
$PLINEWID
 40
0.0
  9
$COORDS
 70
     0
  9
$SPLFRAME
 70
     0
  9
$SPLINETYPE
 70
     6
  9
$SPLINESEGS
 70
     8
  9
$ATTDIA
 70
     0
  9
$ATTREQ
 70
     1
  9
$HANDLING
 70
 22529
  9
$HANDSEED
  5
DC
  9
$SURFTAB1
 70
     6
  9
$SURFTAB2
 70
     6
  9
$SURFTYPE
 70
     6
  9
$SURFU
 70
     6
  9
$SURFV
 70
     6
  9
$UCSNAME
  2

  9
$UCSORG
 10
5746.242612708126
 20
1369.343088236171
 30
0.0
  9
$UCSXDIR
 10
1.0
 20
0.0
 30
0.0
  9
$UCSYDIR
 10
0.0
 20
1.0
 30
0.0
  9
$PUCSNAME
  2

  9
$PUCSORG
 10
0.0
 20
0.0
 30
0.0
  9
$PUCSXDIR
 10
1.0
 20
0.0
 30
0.0
  9
$PUCSYDIR
 10
0.0
 20
1.0
 30
0.0
  9
$USERI1
 70
     0
  9
$USERI2
 70
     0
  9
$USERI3
 70
     0
  9
$USERI4
 70
     0
  9
$USERI5
 70
     0
  9
$USERR1
 40
0.0
  9
$USERR2
 40
0.0
  9
$USERR3
 40
0.0
  9
$USERR4
 40
0.0
  9
$USERR5
 40
0.0
  9
$WORLDVIEW
 70
     1
  9
$SHADEDGE
 70
     3
  9
$SHADEDIF
 70
    70
  9
$TILEMODE
 70
     1
  9
$MAXACTVP
 70
    48
  9
$PINSBASE
 10
0.0
 20
0.0
 30
0.0
  9
$PLIMCHECK
 70
     0
  9
$PEXTMIN
 10
1.049999952316284
 20
0.7999999523162842
 30
0.0
  9
$PEXTMAX
 10
9.449999570846555
 20
7.199999570846556
 30
0.0
  9
$PLIMMIN
 10
-0.2500002402958907
 20
-0.2499999962453767
  9
$PLIMMAX
 10
10.74999951940821
 20
8.249999763458731
  9
$UNITMODE
 70
     0
  9
$VISRETAIN
 70
     1
  9
$PLINEGEN
 70
     0
  9
$PSLTSCALE
 70
     1
  9
$TREEDEPTH
 70
  3020
  9
$PICKSTYLE
 70
     1
  9
$CMLSTYLE
  2
STANDARD
  9
$CMLJUST
 70
     0
  9
$CMLSCALE
 40
20.0
  9
$PROXYGRAPHICS
 70
     1
  9
$MEASUREMENT
 70
     0
  0
ENDSEC
  0
SECTION
  2
CLASSES
  0
CLASS
  1
ACDBDICTIONARYWDFLT
  2
AcDbDictionaryWithDefault
  3
AutoCAD 2000
 90
        0
280
     1
281
     0
  0
CLASS
  1
ACDBPLACEHOLDER
  2
AcDbPlaceHolder
  3
AutoCAD 2000
 90
        0
280
     1
281
     0
  0
CLASS
  1
LAYOUT
  2
AcDbLayout
  3
AutoCAD 2000
 90
        0
280
     1
281
     0
  0
CLASS
  1
RASTERVARIABLES
  2
AcDbRasterVariables
  3
ISM
 90
        0
280
     0
281
     0
  0
CLASS
  1
IMAGEDEF
  2
AcDbRasterImageDef
  3
ISM
 90
        0
280
     0
281
     0
  0
CLASS
  1
IMAGEDEF_REACTOR
  2
AcDbRasterImageDefReactor
  3
ISM
 90
        1
280
     0
281
     0
  0
CLASS
  1
IMAGE
  2
AcDbRasterImage
  3
ISM
 90
      127
280
     0
281
     1
  0
CLASS
  1
LONG_TRANSACTION
  2
AcDbLongTransaction
  3
AutoCAD 2000
 90
        0
280
     1
281
     0
  0
CLASS
  1
LWPOLYLINE
  2
AcDbPolyline
  3
AutoCAD 2000
 90
        0
280
     0
281
     1
  0
CLASS
  1
HATCH
  2
AcDbHatch
  3
AutoCAD 2000
 90
        0
280
     0
281
     1
  0
CLASS
  1
XRECORD
  2
AcDbXrecord
  3
AutoCAD 2000
 90
        0
280
     0
281
     0
  0
CLASS
  1
DICTIONARYVAR
  2
AcDbDictionaryVar
  3
AutoCAD 2000
 90
        0
280
     0
281
     0
  0
CLASS
  1
LONG_TRANSACTION
  2
AcDbLongTransaction
  3
AutoCAD 2000
 90
        0
280
     1
281
     0
  0
CLASS
  1
LWPOLYLINE
  2
AcDbPolyline
  3
AutoCAD 2000
 90
        0
280
     0
281
     1
  0
CLASS
  1
HATCH
  2
AcDbHatch
  3
AutoCAD 2000
 90
        0
280
     0
281
     1
  0
CLASS
  1
XRECORD
  2
AcDbXrecord
  3
AutoCAD 2000
 90
        0
280
     0
281
     0
  0
CLASS
  1
LONG_TRANSACTION
  2
AcDbLongTransaction
  3
AutoCAD 2000
 90
        0
280
     0
281
     0
  0
CLASS
  1
LWPOLYLINE
  2
AcDbPolyline
  3
AutoCAD 2000
 90
        0
280
     0
281
     1
  0
CLASS
  1
HATCH
  2
AcDbHatch
  3
AutoCAD 2000
 90
        0
280
     0
281
     1
  0
CLASS
  1
XRECORD
  2
AcDbXrecord
  3
AutoCAD 2000
 90
        0
280
     0
281
     0
  0
ENDSEC
  0
SECTION
  2
TABLES
  0
TABLE
  2
VPORT
  5
20
330
0
100
AcDbSymbolTable
 70
     3
  0
VPORT
  5
B8
330
20
100
AcDbSymbolTableRecord
100
AcDbViewportTableRecord
  2
*ACTIVE
 70
     0
 10
0.0
 20
0.0
 11
1.0
 21
1.0
 12
5772.395239615359
 22
1375.654319029435
 13
0.0
 23
0.0
 14
10.0
 24
10.0
 15
10.0
 25
10.0
 16
0.0
 26
0.0
 36
1.0
 17
0.0
 27
0.0
 37
0.0
 40
55.92496888588925
 41
1.828516377649325
 42
50.0
 43
0.0
 44
0.0
 50
0.0
 51
0.0
 71
     0
 72
   100
 73
     1
 74
     3
 75
     0
 76
     0
 77
     0
 78
     0
  0
ENDTAB
  0
TABLE
  2
LTYPE
  5
17
330
0
100
AcDbSymbolTable
 70
     1
  0
LTYPE
  5
18
330
17
100
AcDbSymbolTableRecord
100
AcDbLinetypeTableRecord
  2
BYBLOCK
 70
     0
  3

 72
    65
 73
     0
 40
0.0
  0
LTYPE
  5
1B
330
17
100
AcDbSymbolTableRecord
100
AcDbLinetypeTableRecord
  2
BYLAYER
 70
     0
  3

 72
    65
 73
     0
 40
0.0
  0
LTYPE
  5
8
330
17
100
AcDbSymbolTableRecord
100
AcDbLinetypeTableRecord
  2
CONTINUOUS
 70
     0
  3
Solid line
 72
    65
 73
     0
 40
0.0
  0
ENDTAB
  0
TABLE
  2
LAYER
  5
12
330
0
100
AcDbSymbolTable
 70
     3
  0
LAYER
  5
7
330
12
100
AcDbSymbolTableRecord
100
AcDbLayerTableRecord
  2
0
 70
     0
 62
     7
  6
CONTINUOUS
  0
LAYER
  5
35
330
12
100
AcDbSymbolTableRecord
100
AcDbLayerTableRecord
  2
COTATION-JACOBDELAFON
 70
     0
 62
     8
  6
CONTINUOUS
  0
LAYER
  5
46
330
12
100
AcDbSymbolTableRecord
100
AcDbLayerTableRecord
  2
DEFPOINTS
 70
     0
 62
     7
  6
CONTINUOUS
  0
ENDTAB
  0
TABLE
  2
STYLE
  5
13
330
0
100
AcDbSymbolTable
 70
     2
  0
STYLE
  5
14
330
13
100
AcDbSymbolTableRecord
100
AcDbTextStyleTableRecord
  2
STANDARD
 70
     0
 40
0.0
 41
1.0
 50
0.0
 71
     0
 42
2.5
  3
txt
  4

  0
STYLE
  5
2D
330
13
100
AcDbSymbolTableRecord
100
AcDbTextStyleTableRecord
  2
JACOB-DELAFON
 70
     0
 40
0.0
 41
1.0
 50
0.0
 71
     0
 42
2.5
  3
ARIAL.TTF
  4

1001
ACAD
1000
Arial
1071
       34
  0
ENDTAB
  0
TABLE
  2
VIEW
  5
1E
330
0
100
AcDbSymbolTable
 70
     0
  0
ENDTAB
  0
TABLE
  2
UCS
  5
1F
330
0
100
AcDbSymbolTable
 70
     0
  0
ENDTAB
  0
TABLE
  2
APPID
  5
22
330
0
100
AcDbSymbolTable
 70
     1
  0
APPID
  5
23
330
22
100
AcDbSymbolTableRecord
100
AcDbRegAppTableRecord
  2
ACAD
 70
     0
  0
ENDTAB
  0
TABLE
  2
DIMSTYLE
  5
24
330
0
100
AcDbSymbolTable
 70
     1
  0
DIMSTYLE
105
31
102
{ACAD_REACTORS
330
4D
330
34
102
}
330
24
100
AcDbSymbolTableRecord
100
AcDbDimStyleTableRecord
  2
COTATION-JACOB-DELAFON
 70
     0
  3

  4

  5
OBLIQUE
  6

  7

 40
1.0
 41
1.8
 42
0.625
 43
3.799999999999999
 44
1.8
 45
0.0
 46
0.0
 47
0.0
 48
0.0
140
3.0
141
0.9
142
0.0
143
0.03937007874016
144
1.0
145
0.0
146
1.0
147
0.9
 71
     0
 72
     0
 73
     0
 74
     0
 75
     0
 76
     0
 77
     1
 78
    12
170
     0
171
     3
172
     0
173
     0
174
     0
175
     0
176
     0
177
     0
178
     0
270
     2
271
     2
272
     2
273
     2
274
     3
340
2D
275
     0
280
     0
281
     0
282
     0
283
     0
284
     8
285
     0
286
     0
287
     5
288
     0
  0
ENDTAB
  0
TABLE
  2
BLOCK_RECORD
  5
1
330
0
100
AcDbSymbolTable
 70
     3
  0
BLOCK_RECORD
  5
2
102
{ACAD_XDICTIONARY
360
3
102
}
330
1
100
AcDbSymbolTableRecord
100
AcDbBlockTableRecord
  2
*MODEL_SPACE
  0
BLOCK_RECORD
  5
C
102
{ACAD_XDICTIONARY
360
D
102
}
330
1
100
AcDbSymbolTableRecord
100
AcDbBlockTableRecord
  2
*PAPER_SPACE
  0
BLOCK_RECORD
  5
3D
330
1
100
AcDbSymbolTableRecord
100
AcDbBlockTableRecord
  2
_OBLIQUE
  0
BLOCK_RECORD
  5
4E
330
1
100
AcDbSymbolTableRecord
100
AcDbBlockTableRecord
  2
*D1
  0
BLOCK_RECORD
  5
38
330
1
100
AcDbSymbolTableRecord
100
AcDbBlockTableRecord
  2
*D2
  0
ENDTAB
  0
ENDSEC
  0
SECTION
  2
BLOCKS
  0
BLOCK
  5
6
330
2
100
AcDbEntity
  8
0
100
AcDbBlockBegin
  2
*MODEL_SPACE
 70
     0
 10
0.0
 20
0.0
 30
0.0
  3
*MODEL_SPACE
  1

  0
ENDBLK
  5
B
330
2
100
AcDbEntity
  8
0
100
AcDbBlockEnd
  0
BLOCK
  5
10
330
C
100
AcDbEntity
 67
     1
  8
0
100
AcDbBlockBegin
  2
*PAPER_SPACE
 70
     0
 10
0.0
 20
0.0
 30
0.0
  3
*PAPER_SPACE
  1

  0
ENDBLK
  5
11
330
C
100
AcDbEntity
 67
     1
  8
0
100
AcDbBlockEnd
  0
BLOCK
  5
41
330
3D
100
AcDbEntity
  8
0
100
AcDbBlockBegin
  2
_OBLIQUE
 70
     0
 10
0.0
 20
0.0
 30
0.0
  3
_OBLIQUE
  1

  0
LINE
  5
3E
330
3D
100
AcDbEntity
  8
0
  6
BYBLOCK
 62
     0
100
AcDbLine
 10
-0.5
 20
-0.5
 30
0.0
 11
0.5
 21
0.5
 31
0.0
  0
ENDBLK
  5
42
330
3D
100
AcDbEntity
  8
0
100
AcDbBlockEnd
  0
BLOCK
  5
58
330
4E
100
AcDbEntity
  8
0
100
AcDbBlockBegin
  2
*D1
 70
     1
 10
0.0
 20
0.0
 30
0.0
  3
*D1
  1

  0
LINE
  5
4F
330
4E
100
AcDbEntity
  8
0
  6
BYBLOCK
 62
     0
100
AcDbLine
 10
5765.870020168785
 20
1384.343088236171
 30
0.0
 11
5789.045020168789
 21
1384.343088236171
 31
0.0
  0
LINE
  5
50
330
4E
100
AcDbEntity
  8
0
  6
BYBLOCK
 62
     0
100
AcDbLine
 10
5765.87002016879
 20
1354.343088236171
 30
0.0
 11
5789.045020168789
 21
1354.343088236171
 31
0.0
  0
LINE
  5
51
330
4E
100
AcDbEntity
  8
0
  6
BYBLOCK
 62
     0
100
AcDbLine
 10
5787.245020168789
 20
1384.343088236171
 30
0.0
 11
5787.245020168789
 21
1354.343088236171
 31
0.0
  0
INSERT
  5
52
330
4E
100
AcDbEntity
  8
0
  6
BYBLOCK
 62
     0
100
AcDbBlockReference
  2
_OBLIQUE
 10
5787.245020168789
 20
1384.343088236171
 30
0.0
 41
1.8
 42
1.8
 43
1.8
 50
90.0
  0
INSERT
  5
53
330
4E
100
AcDbEntity
  8
0
  6
BYBLOCK
 62
     0
100
AcDbBlockReference
  2
_OBLIQUE
 10
5787.245020168789
 20
1354.343088236171
 30
0.0
 41
1.8
 42
1.8
 43
1.8
 50
270.0
  0
MTEXT
  5
54
330
4E
100
AcDbEntity
  8
0
  6
BYBLOCK
 62
     0
100
AcDbMText
 10
5784.812278013265
 20
1369.343088236171
 30
0.0
 40
3.0
 41
0.0
 71
     5
 72
     1
  1
30
  7
JACOB-DELAFON
 11
0.0000000000000001
 21
1.0
 31
0.0
1001
ACAD
1000
MTEXTBEGIN
1070
    73
1070
     1
1070
    44
1040
1.0
1070
    74
1070
     0
1000
MTEXTEND
  0
POINT
  5
55
330
4E
100
AcDbEntity
  8
DEFPOINTS
  6
BYBLOCK
 62
     0
100
AcDbPoint
 10
5765.245020168785
 20
1384.343088236171
 30
0.0
  0
POINT
  5
56
330
4E
100
AcDbEntity
  8
DEFPOINTS
  6
BYBLOCK
 62
     0
100
AcDbPoint
 10
5765.24502016879
 20
1354.343088236171
 30
0.0
  0
POINT
  5
57
330
4E
100
AcDbEntity
  8
DEFPOINTS
  6
BYBLOCK
 62
     0
100
AcDbPoint
 10
5787.245020168789
 20
1354.343088236171
 30
0.0
  0
ENDBLK
  5
59
330
4E
100
AcDbEntity
  8
0
100
AcDbBlockEnd
  0
BLOCK
  5
4B
330
38
100
AcDbEntity
  8
0
100
AcDbBlockBegin
  2
*D2
 70
     1
 10
0.0
 20
0.0
 30
0.0
  3
*D2
  1

  0
LINE
  5
39
330
38
100
AcDbEntity
  8
0
  6
BYBLOCK
 62
     0
100
AcDbLine
 10
5777.245020168789
 20
1369.968088236172
 30
0.0
 11
5777.245020168789
 21
1396.143088236171
 31
0.0
  0
LINE
  5
3A
330
38
100
AcDbEntity
  8
0
  6
BYBLOCK
 62
     0
100
AcDbLine
 10
5746.242612708128
 20
1375.968088236172
 30
0.0
 11
5746.242612708128
 21
1396.143088236171
 31
0.0
  0
LINE
  5
3B
330
38
100
AcDbEntity
  8
0
  6
BYBLOCK
 62
     0
100
AcDbLine
 10
5777.245020168789
 20
1394.343088236171
 30
0.0
 11
5746.242612708128
 21
1394.343088236171
 31
0.0
  0
INSERT
  5
3C
330
38
100
AcDbEntity
  8
0
  6
BYBLOCK
 62
     0
100
AcDbBlockReference
  2
_OBLIQUE
 10
5777.245020168789
 20
1394.343088236171
 30
0.0
 41
1.8
 42
1.8
 43
1.8
  0
INSERT
  5
43
330
38
100
AcDbEntity
  8
0
  6
BYBLOCK
 62
     0
100
AcDbBlockReference
  2
_OBLIQUE
 10
5746.242612708128
 20
1394.343088236171
 30
0.0
 41
1.8
 42
1.8
 43
1.8
 50
180.0
  0
MTEXT
  5
44
330
38
100
AcDbEntity
  8
0
  6
BYBLOCK
 62
     0
100
AcDbMText
 10
5761.743816438459
 20
1396.775830391697
 30
0.0
 40
3.0
 41
0.0
 71
     5
 72
     1
  1
31
  7
JACOB-DELAFON
1001
ACAD
1000
MTEXTBEGIN
1070
    73
1070
     1
1070
    44
1040
1.0
1070
    74
1070
     0
1000
MTEXTEND
  0
POINT
  5
45
330
38
100
AcDbEntity
  8
DEFPOINTS
  6
BYBLOCK
 62
     0
100
AcDbPoint
 10
5777.245020168789
 20
1369.343088236172
 30
0.0
  0
POINT
  5
49
330
38
100
AcDbEntity
  8
DEFPOINTS
  6
BYBLOCK
 62
     0
100
AcDbPoint
 10
5746.242612708128
 20
1375.343088236172
 30
0.0
  0
POINT
  5
4A
330
38
100
AcDbEntity
  8
DEFPOINTS
  6
BYBLOCK
 62
     0
100
AcDbPoint
 10
5746.242612708128
 20
1394.343088236171
 30
0.0
  0
ENDBLK
  5
4C
330
38
100
AcDbEntity
  8
0
100
AcDbBlockEnd
  0
ENDSEC
  0
SECTION
  2
ENTITIES
  0
DIMENSION
  5
34
330
2
100
AcDbEntity
  8
COTATION-JACOBDELAFON
100
AcDbDimension
  2
*D2
 10
5746.242612708128
 20
1394.343088236171
 30
0.0
 11
5761.743816438459
 21
1396.775830391697
 31
0.0
  3
COTATION-JACOB-DELAFON
100
AcDbAlignedDimension
 13
5777.245020168789
 23
1369.343088236172
 33
0.0
 14
5746.242612708128
 24
1375.343088236172
 34
0.0
100
AcDbRotatedDimension
1001
ACAD
1000
DSTYLE
1002
{
1070
    43
1040
0.0
1002
}
  0
DIMENSION
  5
4D
330
2
100
AcDbEntity
  8
COTATION-JACOBDELAFON
100
AcDbDimension
  2
*D1
 10
5787.245020168789
 20
1354.343088236171
 30
0.0
 11
5784.812278013265
 21
1369.343088236171
 31
0.0
  3
COTATION-JACOB-DELAFON
100
AcDbAlignedDimension
 13
5765.245020168785
 23
1384.343088236171
 33
0.0
 14
5765.24502016879
 24
1354.343088236171
 34
0.0
 50
270.0
100
AcDbRotatedDimension
1001
ACAD
1000
DSTYLE
1002
{
1070
    43
1040
0.0
1002
}
  0
LINE
  5
5A
330
2
100
AcDbEntity
  8
0
100
AcDbLine
 10
5746.242612708126
 20
1375.343088236172
 30
0.0
 11
5746.242612708126
 21
1363.343088236171
 31
0.0
  0
LINE
  5
5B
330
2
100
AcDbEntity
  8
0
100
AcDbLine
 10
5751.326422413291
 20
1363.343088236171
 30
0.0
 11
5746.242612708126
 21
1363.343088236171
 31
0.0
  0
LINE
  5
5C
330
2
100
AcDbEntity
  8
0
100
AcDbLine
 10
5751.326422413292
 20
1375.343088236171
 30
0.0
 11
5746.242612708127
 21
1375.343088236172
 31
0.0
  0
ELLIPSE
  5
5D
330
2
100
AcDbEntity
  8
0
100
AcDbEllipse
 10
5765.24502016879
 20
1369.343088236172
 30
0.0
 11
-0.0000000000002842
 21
14.99999999999977
 31
0.0
210
0.0
220
0.0
230
-1.0
 40
0.800000000000012
 41
0.0
 42
6.283185307179586
  0
SPLINE
  5
5E
330
2
100
AcDbEntity
  8
0
100
AcDbSpline
210
0.0
220
0.0
230
1.0
 70
    11
 71
     3
 72
    44
 73
    40
 74
     0
 42
0.0000000001
 43
0.0000000001
 40
0.0
 40
0.0
 40
0.0
 40
0.0
 40
0.2291038864761836
 40
0.2291038864761836
 40
0.5665735126968075
 40
0.5665735126968075
 40
0.9040431389174312
 40
0.9040431389174312
 40
1.241512765138055
 40
1.241512765138055
 40
1.578982391358678
 40
1.578982391358678
 40
1.916452017579302
 40
1.916452017579302
 40
2.253921643799926
 40
2.253921643799926
 40
2.59139127002055
 40
2.59139127002055
 40
2.928860896241173
 40
2.928860896241173
 40
3.266330522461797
 40
3.266330522461797
 40
3.603800148682421
 40
3.603800148682421
 40
3.941269774903045
 40
3.941269774903045
 40
4.278739401123669
 40
4.278739401123669
 40
4.616209027344293
 40
4.616209027344293
 40
4.953678653564917
 40
4.953678653564917
 40
5.291148279785542
 40
5.291148279785542
 40
5.628617906006166
 40
5.628617906006166
 40
5.96608753222679
 40
5.96608753222679
 40
6.283185307179586
 40
6.283185307179586
 40
6.283185307179586
 40
6.283185307179586
 10
5765.24502016879
 20
1383.343088236171
 30
0.0
 10
5766.065975761996
 20
1383.343088236171
 30
0.0
 10
5766.887020471768
 20
1383.225290912178
 30
0.0
 10
5768.873847107588
 20
1382.646135122337
 30
0.0
 10
5770.019313819132
 20
1382.046921603536
 30
0.0
 10
5772.107800513844
 20
1380.386196406208
 30
0.0
 10
5773.049562267861
 20
1379.324527707658
 30
0.0
 10
5774.607989530774
 20
1376.849208533203
 30
0.0
 10
5775.223863080639
 20
1375.436354666716
 30
0.0
 10
5776.047551638265
 20
1372.423370568433
 30
0.0
 10
5776.255100255944
 20
1370.824146950562
 30
0.0
 10
5776.234178834283
 20
1367.62954804267
 30
0.0
 10
5776.005714419642
 20
1366.035059600602
 30
0.0
 10
5775.142972888771
 20
1363.040370021564
 30
0.0
 10
5774.508979867827
 20
1361.641076445218
 30
0.0
 10
5772.919486825186
 20
1359.19973954221
 30
0.0
 10
5771.964812259501
 20
1358.158473366055
 30
0.0
 10
5769.856917434777
 20
1356.542291565328
 30
0.0
 10
5768.704943302412
 20
1355.967145251877
 30
0.0
 10
5766.330906069857
 20
1355.326155271591
 30
0.0
 10
5765.108563195529
 20
1355.259226649218
 30
0.0
 10
5762.705217003358
 20
1355.63591774441
 30
0.0
 10
5761.523429461729
 20
1356.080311488863
 30
0.0
 10
5759.321660944149
 20
1357.451466002754
 30
0.0
 10
5758.302755811652
 20
1358.378856604876
 30
0.0
 10
5756.555075096666
 20
1360.626753246195
 30
0.0
 10
5755.827306191704
 20
1361.946628145566
 30
0.0
 10
5754.759672137659
 20
1364.828725299635
 30
0.0
 10
5754.420198537874
 20
1366.390039702948
 30
0.0
 10
5754.174832659888
 20
1369.569091193718
 30
0.0
 10
5754.269007420969
 20
1371.185939136082
 30
0.0
 10
5754.878632975611
 20
1374.282572048227
 30
0.0
 10
5755.393902486204
 20
1375.761457402892
 30
0.0
 10
5756.777189448225
 20
1378.407796003345
 30
0.0
 10
5757.644585425324
 20
1379.574380512471
 30
0.0
 10
5759.618402688309
 20
1381.46785480646
 30
0.0
 10
5760.723585997827
 20
1382.194537243809
 30
0.0
 10
5762.972073474387
 20
1383.116899259955
 30
0.0
 10
5764.108753141876
 20
1383.343088236171
 30
0.0
 10
5765.24502016879
 20
1383.343088236171
 30
0.0
  0
ELLIPSE
  5
5F
330
2
100
AcDbEntity
  8
0
100
AcDbEllipse
 10
5752.008823115146
 20
1369.343088236171
 30
0.0
 11
0.0
 21
-0.9206631886622925
 31
0.0
210
0.0
220
0.0
230
-1.0
 40
0.5149806734845609
 41
0.0
 42
6.283185307179586
  0
ARC
  5
60
330
2
100
AcDbEntity
  8
0
100
AcDbCircle
 10
5764.978475807607
 20
1374.204270049173
 30
0.0
 40
19.86297029413212
100
AcDbArc
 50
213.1481331522846
 51
270.7688842657308
  0
ARC
  5
61
330
2
100
AcDbEntity
  8
0
100
AcDbCircle
 10
5764.978475807607
 20
1364.48190642317
 30
0.0
 40
19.86297029413212
100
AcDbArc
 50
89.23111573426913
 51
146.8518668477153
  0
ARC
  5
62
330
2
100
AcDbEntity
  8
0
100
AcDbCircle
 10
5751.326422413291
 20
1363.643088236172
 30
0.0
 40
0.3
100
AcDbArc
 50
270.0
 51
40.62684055156569
  0
ARC
  5
63
330
2
100
AcDbEntity
  8
0
100
AcDbCircle
 10
5757.970424997644
 20
1369.343088236171
 30
0.0
 40
8.454014527169009
100
AcDbArc
 50
139.3731594484042
 51
220.6268405515858
  0
ARC
  5
64
330
2
100
AcDbEntity
  8
0
100
AcDbCircle
 10
5751.326422413292
 20
1375.043088236172
 30
0.0
 40
0.3
100
AcDbArc
 50
319.3731594484013
 51
90.0
  0
CIRCLE
  5
65
330
2
100
AcDbEntity
  8
0
100
AcDbCircle
 10
5760.74502016879
 20
1369.343088236171
 30
0.0
 40
3.25
  0
CIRCLE
  5
66
330
2
100
AcDbEntity
  8
0
100
AcDbCircle
 10
5760.74502016879
 20
1369.343088236171
 30
0.0
 40
2.25
  0
ENDSEC
  0
SECTION
  2
OBJECTS
  0
DICTIONARY
  5
2A
330
0
100
AcDbDictionary
  3
ACAD_GROUP
350
26
  3
ACAD_LAYOUT
350
6F
  3
ACAD_MLINESTYLE
350
27
  3
ACAD_PLOTSETTINGS
350
70
  3
ACAD_PLOTSTYLENAME
350
6D
  3
ACDBHEADERROUNDTRIPXREC
350
B9
  3
ACDBVARIABLEDICTIONARY
350
B6
  0
DICTIONARY
  5
3
330
2
100
AcDbDictionary
280
     1
  3
ACAD_LAYOUTSELFREF
360
DA
  0
DICTIONARY
  5
D
330
C
100
AcDbDictionary
280
     1
  3
ACAD_LAYOUTSELFREF
360
DB
  0
DICTIONARY
  5
26
102
{ACAD_REACTORS
330
2A
102
}
330
2A
100
AcDbDictionary
  0
DICTIONARY
  5
6F
102
{ACAD_REACTORS
330
2A
102
}
330
2A
100
AcDbDictionary
  0
DICTIONARY
  5
27
102
{ACAD_REACTORS
330
2A
102
}
330
2A
100
AcDbDictionary
  3
STANDARD
350
30
  0
DICTIONARY
  5
70
102
{ACAD_REACTORS
330
2A
102
}
330
2A
100
AcDbDictionary
  0
ACDBDICTIONARYWDFLT
  5
6D
102
{ACAD_REACTORS
330
2A
102
}
330
2A
100
AcDbDictionary
281
     1
  3
Normal
350
6E
100
AcDbDictionaryWithDefault
340
6E
  0
DICTIONARY
  5
B9
102
{ACAD_REACTORS
330
2A
102
}
330
2A
100
AcDbDictionary
  3
CEPSNTYPE
350
C3
  3
DIMSTYLEDATA
350
C7
  3
FINGERPRINTGUID
350
C4
  3
HYPERLINKBASE
350
BC
  3
INSUNITS
350
C2
  3
LAYOUTDICT
350
BE
  3
LWETCUNION
350
C1
  3
PLOTSETDICT
350
BF
  3
PLOTSTYLNAMDICT
350
C0
  3
PSVPSCALE
350
C6
  3
PUCSBASE
350
CA
  3
PUCSORGBACK
350
D0
  3
PUCSORGBOTTOM
350
CC
  3
PUCSORGFRONT
350
CF
  3
PUCSORGLEFT
350
CD
  3
PUCSORGRIGHT
350
CE
  3
PUCSORGTOP
350
CB
  3
PUCSORTHOREF
350
C8
  3
PUCSORTHOVIEW
350
C9
  3
STYLESHEET
350
BD
  3
TSTACKALIGN
350
BA
  3
TSTACKSIZE
350
BB
  3
UCSBASE
350
D3
  3
UCSORGBACK
350
D9
  3
UCSORGBOTTOM
350
D5
  3
UCSORGFRONT
350
D8
  3
UCSORGLEFT
350
D6
  3
UCSORGRIGHT
350
D7
  3
UCSORGTOP
350
D4
  3
UCSORTHOREF
350
D1
  3
UCSORTHOVIEW
350
D2
  3
VERSIONGUID
350
C5
  0
DICTIONARY
  5
B6
102
{ACAD_REACTORS
330
2A
102
}
330
2A
100
AcDbDictionary
  3
DIMASSOC
350
B7
  0
XRECORD
  5
DA
102
{ACAD_REACTORS
330
3
102
}
330
3
100
AcDbXrecord
340
2
  0
XRECORD
  5
DB
102
{ACAD_REACTORS
330
D
102
}
330
D
100
AcDbXrecord
340
C
  0
MLINESTYLE
  5
30
102
{ACAD_REACTORS
330
27
102
}
330
27
100
AcDbMlineStyle
  2
STANDARD
 70
     0
  3

 62
   256
 51
90.0
 52
90.0
 71
     2
 49
0.5
 62
   256
  6
BYLAYER
 49
-0.5
 62
   256
  6
BYLAYER
  0
ACDBPLACEHOLDER
  5
6E
102
{ACAD_REACTORS
330
6D
102
}
330
6D
100
AcDbPlaceHolder
280
     0
  0
XRECORD
  5
C3
102
{ACAD_REACTORS
330
B9
102
}
330
B9
100
AcDbXrecord
 90
        0
  0
XRECORD
  5
C7
102
{ACAD_REACTORS
330
B9
102
}
330
B9
100
AcDbXrecord
1000
DSTYLE
1002
{
1070
   279
 70
     2
1070
   341
340
3D
1070
   342
340
3D
1002
}
  0
XRECORD
  5
C4
102
{ACAD_REACTORS
330
B9
102
}
330
B9
100
AcDbXrecord
  1
{1E8C8474-7A93-42D2-8C8B-2F254D02E8F2}
  0
XRECORD
  5
BC
102
{ACAD_REACTORS
330
B9
102
}
330
B9
100
AcDbXrecord
  1

  0
XRECORD
  5
C2
102
{ACAD_REACTORS
330
B9
102
}
330
B9
100
AcDbXrecord
 90
        0
  0
XRECORD
  5
BE
102
{ACAD_REACTORS
330
B9
102
}
330
B9
100
AcDbXrecord
340
6F
  0
XRECORD
  5
C1
102
{ACAD_REACTORS
330
B9
102
}
330
B9
100
AcDbXrecord
 90
    14877
  0
XRECORD
  5
BF
102
{ACAD_REACTORS
330
B9
102
}
330
B9
100
AcDbXrecord
340
70
  0
XRECORD
  5
C0
102
{ACAD_REACTORS
330
B9
102
}
330
B9
100
AcDbXrecord
340
6D
  0
XRECORD
  5
C6
102
{ACAD_REACTORS
330
B9
102
}
330
B9
100
AcDbXrecord
 40
0.0
  0
XRECORD
  5
CA
102
{ACAD_REACTORS
330
B9
102
}
330
B9
100
AcDbXrecord
340
0
  0
XRECORD
  5
D0
102
{ACAD_REACTORS
330
B9
102
}
330
B9
100
AcDbXrecord
 10
0.0
 20
0.0
 30
0.0
  0
XRECORD
  5
CC
102
{ACAD_REACTORS
330
B9
102
}
330
B9
100
AcDbXrecord
 10
0.0
 20
0.0
 30
0.0
  0
XRECORD
  5
CF
102
{ACAD_REACTORS
330
B9
102
}
330
B9
100
AcDbXrecord
 10
0.0
 20
0.0
 30
0.0
  0
XRECORD
  5
CD
102
{ACAD_REACTORS
330
B9
102
}
330
B9
100
AcDbXrecord
 10
0.0
 20
0.0
 30
0.0
  0
XRECORD
  5
CE
102
{ACAD_REACTORS
330
B9
102
}
330
B9
100
AcDbXrecord
 10
0.0
 20
0.0
 30
0.0
  0
XRECORD
  5
CB
102
{ACAD_REACTORS
330
B9
102
}
330
B9
100
AcDbXrecord
 10
0.0
 20
0.0
 30
0.0
  0
XRECORD
  5
C8
102
{ACAD_REACTORS
330
B9
102
}
330
B9
100
AcDbXrecord
340
0
  0
XRECORD
  5
C9
102
{ACAD_REACTORS
330
B9
102
}
330
B9
100
AcDbXrecord
 70
     0
  0
XRECORD
  5
BD
102
{ACAD_REACTORS
330
B9
102
}
330
B9
100
AcDbXrecord
  1

  0
XRECORD
  5
BA
102
{ACAD_REACTORS
330
B9
102
}
330
B9
100
AcDbXrecord
 90
        1
  0
XRECORD
  5
BB
102
{ACAD_REACTORS
330
B9
102
}
330
B9
100
AcDbXrecord
 90
       70
  0
XRECORD
  5
D3
102
{ACAD_REACTORS
330
B9
102
}
330
B9
100
AcDbXrecord
340
0
  0
XRECORD
  5
D9
102
{ACAD_REACTORS
330
B9
102
}
330
B9
100
AcDbXrecord
 10
0.0
 20
0.0
 30
0.0
  0
XRECORD
  5
D5
102
{ACAD_REACTORS
330
B9
102
}
330
B9
100
AcDbXrecord
 10
0.0
 20
0.0
 30
0.0
  0
XRECORD
  5
D8
102
{ACAD_REACTORS
330
B9
102
}
330
B9
100
AcDbXrecord
 10
0.0
 20
0.0
 30
0.0
  0
XRECORD
  5
D6
102
{ACAD_REACTORS
330
B9
102
}
330
B9
100
AcDbXrecord
 10
0.0
 20
0.0
 30
0.0
  0
XRECORD
  5
D7
102
{ACAD_REACTORS
330
B9
102
}
330
B9
100
AcDbXrecord
 10
0.0
 20
0.0
 30
0.0
  0
XRECORD
  5
D4
102
{ACAD_REACTORS
330
B9
102
}
330
B9
100
AcDbXrecord
 10
0.0
 20
0.0
 30
0.0
  0
XRECORD
  5
D1
102
{ACAD_REACTORS
330
B9
102
}
330
B9
100
AcDbXrecord
340
0
  0
XRECORD
  5
D2
102
{ACAD_REACTORS
330
B9
102
}
330
B9
100
AcDbXrecord
 70
     0
  0
XRECORD
  5
C5
102
{ACAD_REACTORS
330
B9
102
}
330
B9
100
AcDbXrecord
  1
{22E031D2-A3D7-4FD5-9780-13BA21A9D995}
  0
DICTIONARYVAR
  5
B7
102
{ACAD_REACTORS
330
B6
102
}
330
B6
100
DictionaryVariables
280
     0
  1
1
  0
ENDSEC
  0
EOF
