  0
SECTION
  2
HEADER
  9
$ACADVER
  1
AC1009
  9
$INSBASE
 10
0.0
 20
0.0000000000000132
 30
0.0
  9
$EXTMIN
 10
-99.081393427186001
 20
-18.269949337194021
 30
0.0
  9
$EXTMAX
 10
99.549152197837856
 20
54.275170589455321
 30
0.0
  9
$LIMMIN
 10
0.0
 20
0.0
  9
$LIMMAX
 10
12.0
 20
9.0
  9
$ORTHOMODE
 70
     1
  9
$REGENMODE
 70
     1
  9
$FILLMODE
 70
     1
  9
$QTEXTMODE
 70
     0
  9
$MIRRTEXT
 70
     1
  9
$DRAGMODE
 70
     2
  9
$LTSCALE
 40
1.0
  9
$OSMODE
 70
     1
  9
$ATTMODE
 70
     1
  9
$TEXTSIZE
 40
0.2
  9
$TRACEWID
 40
0.05
  9
$TEXTSTYLE
  7
STANDARD
  9
$CLAYER
  8
0
  9
$CELTYPE
  6
CONTINUOUS
  9
$CECOLOR
 62
   256
  9
$DIMSCALE
 40
96.0
  9
$DIMASZ
 40
1.8
  9
$DIMEXO
 40
0.625
  9
$DIMDLI
 40
3.7999999999999989
  9
$DIMRND
 40
0.0
  9
$DIMDLE
 40
0.0
  9
$DIMEXE
 40
1.8
  9
$DIMTP
 40
0.0
  9
$DIMTM
 40
0.0
  9
$DIMTXT
 40
3.0
  9
$DIMCEN
 40
0.9
  9
$DIMTSZ
 40
0.0
  9
$DIMTOL
 70
     0
  9
$DIMLIM
 70
     0
  9
$DIMTIH
 70
     0
  9
$DIMTOH
 70
     0
  9
$DIMSE1
 70
     0
  9
$DIMSE2
 70
     0
  9
$DIMTAD
 70
     1
  9
$DIMZIN
 70
    12
  9
$DIMBLK
  1
OBLIQUE
  9
$DIMASO
 70
     1
  9
$DIMSHO
 70
     1
  9
$DIMPOST
  1

  9
$DIMAPOST
  1

  9
$DIMALT
 70
     0
  9
$DIMALTD
 70
     2
  9
$DIMALTF
 40
25.399999999999999
  9
$DIMLFAC
 40
1.0
  9
$DIMTOFL
 70
     0
  9
$DIMTVP
 40
0.0
  9
$DIMTIX
 70
     0
  9
$DIMSOXD
 70
     0
  9
$DIMSAH
 70
     0
  9
$DIMBLK1
  1

  9
$DIMBLK2
  1

  9
$DIMSTYLE
  2
COTATION-JACOB-DELAFON
  9
$DIMCLRD
 70
     0
  9
$DIMCLRE
 70
     0
  9
$DIMCLRT
 70
     0
  9
$DIMTFAC
 40
1.0
  9
$DIMGAP
 40
0.9
  9
$LUNITS
 70
     2
  9
$LUPREC
 70
     4
  9
$SKETCHINC
 40
0.1
  9
$FILLETRAD
 40
0.0
  9
$AUNITS
 70
     0
  9
$AUPREC
 70
     2
  9
$MENU
  1
.
  9
$ELEVATION
 40
0.0
  9
$PELEVATION
 40
0.0
  9
$THICKNESS
 40
0.0
  9
$LIMCHECK
 70
     0
  9
$BLIPMODE
 70
     0
  9
$CHAMFERA
 40
0.0
  9
$CHAMFERB
 40
0.0
  9
$SKPOLY
 70
     0
  9
$TDCREATE
 40
2453040.4524793061
  9
$TDUPDATE
 40
2453076.5799103361
  9
$TDINDWG
 40
0.1130620486
  9
$TDUSRTIMER
 40
0.1130620486
  9
$USRTIMER
 70
     1
  9
$ANGBASE
 50
0.0
  9
$ANGDIR
 70
     0
  9
$PDMODE
 70
     0
  9
$PDSIZE
 40
0.0
  9
$PLINEWID
 40
0.0
  9
$COORDS
 70
     1
  9
$SPLFRAME
 70
     0
  9
$SPLINETYPE
 70
     6
  9
$SPLINESEGS
 70
     8
  9
$ATTDIA
 70
     1
  9
$ATTREQ
 70
     1
  9
$HANDLING
 70
 22529
  9
$HANDSEED
  5
31C
  9
$SURFTAB1
 70
     6
  9
$SURFTAB2
 70
     6
  9
$SURFTYPE
 70
     6
  9
$SURFU
 70
     6
  9
$SURFV
 70
     6
  9
$UCSNAME
  2

  9
$UCSORG
 10
0.0
 20
0.0
 30
0.0
  9
$UCSXDIR
 10
1.0
 20
0.0
 30
0.0
  9
$UCSYDIR
 10
0.0
 20
1.0
 30
0.0
  9
$PUCSNAME
  2

  9
$PUCSORG
 10
0.0
 20
0.0
 30
0.0
  9
$PUCSXDIR
 10
1.0
 20
0.0
 30
0.0
  9
$PUCSYDIR
 10
0.0
 20
1.0
 30
0.0
  9
$USERI1
 70
     0
  9
$USERI2
 70
     0
  9
$USERI3
 70
     0
  9
$USERI4
 70
     0
  9
$USERI5
 70
     0
  9
$USERR1
 40
0.0
  9
$USERR2
 40
0.0
  9
$USERR3
 40
0.0
  9
$USERR4
 40
0.0
  9
$USERR5
 40
0.0
  9
$WORLDVIEW
 70
     1
  9
$SHADEDGE
 70
     3
  9
$SHADEDIF
 70
    70
  9
$TILEMODE
 70
     1
  9
$MAXACTVP
 70
    64
  9
$PLIMCHECK
 70
     0
  9
$PEXTMIN
 10
-0.8187279627505859
 20
-0.8221314904020644
 30
0.0
  9
$PEXTMAX
 10
1043.155851236734
 20
316.7296924349256
 30
0.0
  9
$PLIMMIN
 10
-0.1979161059762549
 20
-0.2679166643638311
  9
$PLIMMAX
 10
11.493750144177531
 20
7.9987497780266699
  9
$UNITMODE
 70
     0
  9
$VISRETAIN
 70
     1
  9
$PLINEGEN
 70
     0
  9
$PSLTSCALE
 70
     1
  0
ENDSEC
  0
SECTION
  2
TABLES
  0
TABLE
  2
VPORT
 70
     2
  0
VPORT
  2
*ACTIVE
 70
     0
 10
0.0
 20
0.0
 11
1.0
 21
1.0
 12
5.7236758617482053
 22
19.371564693555751
 13
0.0
 23
0.0
 14
1.0
 24
1.0
 15
0.0
 25
0.0
 16
0.0
 26
0.0
 36
1.0
 17
0.0
 27
0.0
 37
0.0
 40
109.41644302890801
 41
1.928853754940711
 42
50.0
 43
0.0
 44
0.0
 50
0.0
 51
0.0
 71
     0
 72
   100
 73
     1
 74
     1
 75
     0
 76
     0
 77
     0
 78
     0
  0
ENDTAB
  0
TABLE
  2
LTYPE
 70
     1
  0
LTYPE
  2
CONTINUOUS
 70
     0
  3
Solid line
 72
    65
 73
     0
 40
0.0
  0
ENDTAB
  0
TABLE
  2
LAYER
 70
     3
  0
LAYER
  2
0
 70
     0
 62
     7
  6
CONTINUOUS
  0
LAYER
  2
DEFPOINTS
 70
     0
 62
     7
  6
CONTINUOUS
  0
LAYER
  2
COTATION-JACOBDELAFON
 70
     0
 62
     8
  6
CONTINUOUS
  0
ENDTAB
  0
TABLE
  2
STYLE
 70
     2
  0
STYLE
  2
STANDARD
 70
     0
 40
0.0
 41
1.0
 50
0.0
 71
     0
 42
0.2
  3
txt
  4

  0
STYLE
  2
JACOB-DELAFON
 70
     0
 40
0.0
 41
1.0
 50
0.0
 71
     0
 42
2.5
  3
txt
  4

  0
ENDTAB
  0
TABLE
  2
VIEW
 70
     0
  0
ENDTAB
  0
TABLE
  2
UCS
 70
     0
  0
ENDTAB
  0
TABLE
  2
APPID
 70
     5
  0
APPID
  2
ACAD
 70
     0
  0
APPID
  2
ADCADD_ZZ
 70
     0
  0
APPID
  2
SDSK_PMN
 70
     0
  0
APPID
  2
AEC_DWGVARSSETUP_DATA
 70
     0
  0
APPID
  2
AEC_DISPREPSET_DATA
 70
     0
  0
ENDTAB
  0
TABLE
  2
DIMSTYLE
 70
     2
  0
DIMSTYLE
  2
STANDARD
 70
     0
  3

  4

  5

  6

  7

 40
1.0
 41
0.18
 42
0.0625
 43
0.38
 44
0.18
 45
0.0
 46
0.0
 47
0.0
 48
0.0
140
0.18
141
0.09
142
0.0
143
25.399999999999999
144
1.0
145
0.0
146
1.0
147
0.09
 71
     0
 72
     0
 73
     1
 74
     1
 75
     0
 76
     0
 77
     0
 78
     0
170
     0
171
     2
172
     0
173
     0
174
     0
175
     0
176
     0
177
     0
178
     0
  0
DIMSTYLE
  2
COTATION-JACOB-DELAFON
 70
     0
  3

  4

  5
OBLIQUE
  6

  7

 40
1.0
 41
1.8
 42
0.625
 43
3.7999999999999989
 44
1.8
 45
0.0
 46
0.0
 47
0.0
 48
0.0
140
3.0
141
0.9
142
0.0
143
25.399999999999999
144
1.0
145
0.0
146
1.0
147
0.9
 71
     0
 72
     0
 73
     0
 74
     0
 75
     0
 76
     0
 77
     1
 78
    12
170
     0
171
     2
172
     0
173
     0
174
     0
175
     0
176
     0
177
     0
178
     0
  0
ENDTAB
  0
ENDSEC
  0
SECTION
  2
BLOCKS
  0
BLOCK
  8
0
  2
$MODEL_SPACE
 70
     0
 10
0.0
 20
0.0
 30
0.0
  3
$MODEL_SPACE
  1

  0
ENDBLK
  5
9
  8
0
  0
BLOCK
 67
     1
  8
0
  2
$PAPER_SPACE
 70
     0
 10
0.0
 20
0.0
 30
0.0
  3
$PAPER_SPACE
  1

  0
ENDBLK
  5
E
 67
     1
  8
0
  0
BLOCK
  8
0
  2
_OBLIQUE
 70
     0
 10
0.0
 20
0.0
 30
0.0
  3
_OBLIQUE
  1

  0
LINE
  5
56
  8
0
  6
BYBLOCK
 62
     0
 10
-0.5
 20
-0.5
 30
0.0
 11
0.5
 21
0.5
 31
0.0
  0
ENDBLK
  5
58
  8
0
  0
BLOCK
  8
0
  2
*D1
 70
     1
 10
0.0
 20
0.0
 30
0.0
  3
*D1
  1

  0
LINE
  5
FF
  8
COTATION-JACOBDELAFON
 62
     0
 10
-59.645109728784519
 20
-1.2699493371940129
 30
0.0
 11
-96.181257001537972
 21
-1.2699493371940029
 31
0.0
  0
LINE
  5
100
  8
COTATION-JACOBDELAFON
 62
     0
 10
-90.86252982995029
 20
40.730050662805979
 30
0.0
 11
-96.181257001537972
 21
40.730050662805979
 31
0.0
  0
LINE
  5
101
  8
COTATION-JACOBDELAFON
 62
     0
 10
-94.381257001537975
 20
-1.2699493371940029
 30
0.0
 11
-94.381257001537946
 21
40.730050662805979
 31
0.0
  0
INSERT
  5
102
  8
COTATION-JACOBDELAFON
 62
     0
  2
_OBLIQUE
 10
-94.381257001537975
 20
-1.2699493371940029
 30
0.0
 41
1.8
 42
1.8
 43
1.8
 50
270.0
  0
INSERT
  5
103
  8
COTATION-JACOBDELAFON
 62
     0
  2
_OBLIQUE
 10
-94.381257001537946
 20
40.730050662805979
 30
0.0
 41
1.8
 42
1.8
 43
1.8
 50
90.0
  0
TEXT
  5
104
  8
0
  6
CONTINUOUS
 62
     0
 10
-95.287396155698957
 20
17.48312023988646
 30
0.0
 40
3.0
  1
42
 50
90.0
  7
JACOB-DELAFON
  0
POINT
  5
105
  8
DEFPOINTS
 62
     0
 10
-59.020109728784519
 20
-1.2699493371940129
 30
0.0
  0
POINT
  5
106
  8
DEFPOINTS
 62
     0
 10
-90.23752982995029
 20
40.730050662805979
 30
0.0
  0
POINT
  5
107
  8
DEFPOINTS
 62
     0
 10
-94.381257001537946
 20
40.730050662805979
 30
0.0
  0
ENDBLK
  5
A5
  8
0
  0
BLOCK
  8
0
  2
*D2
 70
     1
 10
0.0
 20
0.0
 30
0.0
  3
*D2
  1

  0
LINE
  5
123
  8
COTATION-JACOBDELAFON
 62
     0
 10
-91.355544328689575
 20
38.356698612024729
 30
0.0
 11
-91.355544328689575
 21
51.323874545799107
 31
0.0
  0
LINE
  5
124
  8
COTATION-JACOBDELAFON
 62
     0
 10
98.649152197837836
 20
38.356698612024729
 30
0.0
 11
98.649152197837836
 21
51.323874545799107
 31
0.0
  0
LINE
  5
125
  8
COTATION-JACOBDELAFON
 62
     0
 10
-91.355544328689575
 20
49.523874545799117
 30
0.0
 11
98.649152197837836
 21
49.523874545799117
 31
0.0
  0
INSERT
  5
126
  8
COTATION-JACOBDELAFON
 62
     0
  2
_OBLIQUE
 10
-91.355544328689575
 20
49.523874545799117
 30
0.0
 41
1.8
 42
1.8
 43
1.8
 50
180.0
  0
INSERT
  5
127
  8
COTATION-JACOBDELAFON
 62
     0
  2
_OBLIQUE
 10
98.649152197837836
 20
49.523874545799117
 30
0.0
 41
1.8
 42
1.8
 43
1.8
  0
TEXT
  5
128
  8
0
  6
CONTINUOUS
 62
     0
 10
0.0226565948742664
 20
50.481173317968278
 30
0.0
 40
3.0
  1
190
  7
JACOB-DELAFON
  0
POINT
  5
129
  8
DEFPOINTS
 62
     0
 10
-91.355544328689575
 20
37.731698612024729
 30
0.0
  0
POINT
  5
12A
  8
DEFPOINTS
 62
     0
 10
98.649152197837836
 20
37.731698612024729
 30
0.0
  0
POINT
  5
12B
  8
DEFPOINTS
 62
     0
 10
98.649152197837836
 20
49.523874545799117
 30
0.0
  0
ENDBLK
  5
119
  8
0
  0
BLOCK
  8
0
  2
ADCADD_ZZ
 70
     0
 10
0.0
 20
0.0
 30
0.0
  3
ADCADD_ZZ
  1

  0
ENDBLK
  5
16B
  8
0
  0
ENDSEC
  0
SECTION
  2
ENTITIES
  0
POLYLINE
  5
24
  8
0
  6
CONTINUOUS
 66
     1
 10
0.0
 20
0.0
 30
0.0
  0
VERTEX
  5
2C1
  8
0
  6
CONTINUOUS
 10
-21.373326366379612
 20
37.731698612024729
 30
0.0
  0
VERTEX
  5
2C2
  8
0
  6
CONTINUOUS
 10
-14.00605738162994
 20
36.591867069055979
 30
0.0
  0
VERTEX
  5
2C3
  8
0
  6
CONTINUOUS
 10
-10.125878453254691
 20
36.19590149288404
 30
0.0
  0
VERTEX
  5
2C4
  8
0
  6
CONTINUOUS
 10
-3.169575333595275
 20
35.417703250696597
 30
0.0
  0
VERTEX
  5
2C5
  8
0
  6
CONTINUOUS
 10
1.097533106803894
 20
35.423806766321597
 30
0.0
  0
VERTEX
  5
2C6
  8
0
  6
CONTINUOUS
 10
4.9595445394515991
 20
35.420755008509097
 30
0.0
  0
VERTEX
  5
2C7
  8
0
  6
CONTINUOUS
 10
8.3490580320358276
 20
35.420755008509097
 30
0.0
  0
VERTEX
  5
2C8
  8
0
  6
CONTINUOUS
 10
9.9174946546554565
 20
35.417703250696597
 30
0.0
  0
VERTEX
  5
2C9
  8
0
  6
CONTINUOUS
 10
14.892551302909849
 20
35.422280887415347
 30
0.0
  0
VERTEX
  5
2CA
  8
0
  6
CONTINUOUS
 10
18.957778811454769
 20
35.423806766321597
 30
0.0
  0
VERTEX
  5
2CB
  8
0
  6
CONTINUOUS
 10
23.939487338066101
 20
35.374978641321597
 30
0.0
  0
VERTEX
  5
2CC
  8
0
  6
CONTINUOUS
 10
27.054926753044121
 20
35.326913455774672
 30
0.0
  0
VERTEX
  5
2CD
  8
0
  6
CONTINUOUS
 10
30.696174502372742
 20
35.304025272180979
 30
0.0
  0
VERTEX
  5
2CE
  8
0
  6
CONTINUOUS
 10
33.833751082420342
 20
35.281900028040347
 30
0.0
  0
VERTEX
  5
2CF
  8
0
  6
CONTINUOUS
 10
35.870930552482598
 20
35.439828494837229
 30
0.0
  0
VERTEX
  5
2D0
  8
0
  6
CONTINUOUS
 10
38.649293780326843
 20
36.21116028194654
 30
0.0
  0
VERTEX
  5
2D1
  8
0
  6
CONTINUOUS
 10
40.131530165672302
 20
36.858895877649729
 30
0.0
  0
VERTEX
  5
2D2
  8
0
  6
CONTINUOUS
 10
41.280250848852567
 20
37.731698612024729
 30
0.0
  0
SEQEND
  5
2D3
  8
0
  6
CONTINUOUS
  0
POLYLINE
  5
25
  8
0
  6
CONTINUOUS
 66
     1
 10
0.0
 20
0.0
 30
0.0
  0
VERTEX
  5
2D4
  8
0
  6
CONTINUOUS
 10
-67.698963316555364
 20
37.731698612024729
 30
0.0
  0
VERTEX
  5
2D5
  8
0
  6
CONTINUOUS
 10
-64.195713400840745
 20
3.240548709680986
 30
0.0
  0
VERTEX
  5
2D6
  8
0
  6
CONTINUOUS
 10
-63.65025341510772
 20
1.394998172571611
 30
0.0
  0
VERTEX
  5
2D7
  8
0
  6
CONTINUOUS
 10
-62.798824906349182
 20
0.2017608678841114
 30
0.0
  0
VERTEX
  5
2D8
  8
0
  6
CONTINUOUS
 10
-61.775496602058411
 20
-0.5108245813346386
 30
0.0
  0
VERTEX
  5
2D9
  8
0
  6
CONTINUOUS
 10
-60.700133442878723
 20
-0.9533294641471385
 30
0.0
  0
VERTEX
  5
2DA
  8
0
  6
CONTINUOUS
 10
-60.140600800514221
 20
-1.0891326868033879
 30
0.0
  0
VERTEX
  5
2DB
  8
0
  6
CONTINUOUS
 10
-59.585520625114441
 20
-1.2157806360221379
 30
0.0
  0
VERTEX
  5
2DC
  8
0
  6
CONTINUOUS
 10
-59.288111329078667
 20
-1.2699493371940129
 30
0.0
  0
VERTEX
  5
2DD
  8
0
  6
CONTINUOUS
 10
-29.49748337268829
 20
-1.2699493371940129
 30
0.0
  0
VERTEX
  5
2DE
  8
0
  6
CONTINUOUS
 10
-9.1497093439102173
 20
-1.2684234582877629
 30
0.0
  0
VERTEX
  5
2DF
  8
0
  6
CONTINUOUS
 10
-3.128841519355773
 20
-1.1639007532096379
 30
0.0
  0
VERTEX
  5
2E0
  8
0
  6
CONTINUOUS
 10
1.3004034757614129
 20
-1.4011749231315129
 30
0.0
  0
VERTEX
  5
2E1
  8
0
  6
CONTINUOUS
 10
9.0513557195663452
 20
-1.2699493371940129
 30
0.0
  0
VERTEX
  5
2E2
  8
0
  6
CONTINUOUS
 10
9.3485563993453962
 20
-1.1036285364127629
 30
0.0
  0
VERTEX
  5
2E3
  8
0
  6
CONTINUOUS
 10
9.9719375371932983
 20
-0.1636871301627636
 30
0.0
  0
VERTEX
  5
2E4
  8
0
  6
CONTINUOUS
 10
10.275432467460631
 20
0.0262847936653614
 30
0.0
  0
SEQEND
  5
2E5
  8
0
  6
CONTINUOUS
  0
POLYLINE
  5
26
  8
0
  6
CONTINUOUS
 66
     1
 10
0.0
 20
0.0
 30
0.0
 70
     1
  0
VERTEX
  5
2E6
  8
0
  6
CONTINUOUS
 10
-91.355544328689575
 20
37.731698612024729
 30
0.0
  0
VERTEX
  5
2E7
  8
0
  6
CONTINUOUS
 10
-91.355544328689575
 20
39.880899051477847
 30
0.0
  0
VERTEX
  5
2E8
  8
0
  6
CONTINUOUS
 10
-91.199555993080125
 20
40.371469119837229
 30
0.0
  0
VERTEX
  5
2E9
  8
0
  6
CONTINUOUS
 10
-90.930572152137756
 20
40.481332401087229
 30
0.0
  0
VERTEX
  5
2EA
  8
0
  6
CONTINUOUS
 10
-90.505531430244446
 20
40.730050662805979
 30
0.0
  0
VERTEX
  5
2EB
  8
0
  6
CONTINUOUS
 10
97.799070754051215
 20
40.730050662805979
 30
0.0
  0
VERTEX
  5
2EC
  8
0
  6
CONTINUOUS
 10
98.22409955501557
 20
40.481332401087229
 30
0.0
  0
VERTEX
  5
2ED
  8
0
  6
CONTINUOUS
 10
98.493154921531683
 20
40.371469119837229
 30
0.0
  0
VERTEX
  5
2EE
  8
0
  6
CONTINUOUS
 10
98.649152197837836
 20
39.880899051477847
 30
0.0
  0
VERTEX
  5
2EF
  8
0
  6
CONTINUOUS
 10
98.649152197837836
 20
37.731698612024729
 30
0.0
  0
SEQEND
  5
2F0
  8
0
  6
CONTINUOUS
  0
LINE
  5
27
  8
0
  6
CONTINUOUS
 10
-64.195713400840745
 20
3.240548709680986
 30
0.0
 11
64.195713400840745
 21
2.896463016321611
 31
0.0
  0
POLYLINE
  5
28
  8
0
  6
CONTINUOUS
 66
     1
 10
0.0
 20
0.0
 30
0.0
  0
VERTEX
  5
2F1
  8
0
  6
CONTINUOUS
 10
8.882567286491394
 20
0.0262847936653614
 30
0.0
  0
VERTEX
  5
2F2
  8
0
  6
CONTINUOUS
 10
10.275432467460631
 20
0.0262847936653614
 30
0.0
  0
VERTEX
  5
2F3
  8
0
  6
CONTINUOUS
 10
11.05974614620208
 20
0.0316253698372364
 30
0.0
  0
VERTEX
  5
2F4
  8
0
  6
CONTINUOUS
 10
16.008362174034112
 20
0.0316253698372364
 30
0.0
  0
VERTEX
  5
2F5
  8
0
  6
CONTINUOUS
 10
22.298929095268239
 20
0.0316253698372364
 30
0.0
  0
VERTEX
  5
2F6
  8
0
  6
CONTINUOUS
 10
26.332411170005791
 20
0.0262847936653614
 30
0.0
  0
VERTEX
  5
2F7
  8
0
  6
CONTINUOUS
 10
55.85567653179168
 20
0.0278106725716114
 30
0.0
  0
VERTEX
  5
2F8
  8
0
  6
CONTINUOUS
 10
57.480606436729431
 20
0.2307525671028614
 30
0.0
  0
VERTEX
  5
2F9
  8
0
  6
CONTINUOUS
 10
59.841629862785332
 20
0.8067718542122933
 30
0.0
  0
VERTEX
  5
2FA
  8
0
  6
CONTINUOUS
 10
62.296149134635918
 20
1.710092166712236
 30
0.0
  0
VERTEX
  5
2FB
  8
0
  6
CONTINUOUS
 10
64.195713400840745
 20
2.896463016321611
 30
0.0
  0
VERTEX
  5
2FC
  8
0
  6
CONTINUOUS
 10
76.089229144616638
 20
37.731698612024729
 30
0.0
  0
SEQEND
  5
2FD
  8
0
  6
CONTINUOUS
  0
DIMENSION
  5
98
  8
COTATION-JACOBDELAFON
  2
*D1
 10
-94.381257001537946
 20
40.730050662805979
 30
0.0
 11
-96.787396155698957
 21
19.730050662805969
 31
0.0
 70
     0
 13
-59.020109728784519
 23
-1.2699493371940129
 33
0.0
 14
-90.23752982995029
 24
40.730050662805979
 34
0.0
 50
90.0
  0
DIMENSION
  5
10D
  8
COTATION-JACOBDELAFON
  2
*D2
 10
98.649152197837836
 20
49.523874545799117
 30
0.0
 11
3.6468039345741299
 21
51.955593508964192
 31
0.0
 70
     0
 13
-91.355544328689575
 23
37.731698612024729
 33
0.0
 14
98.649152197837836
 24
37.731698612024729
 34
0.0
  0
LINE
  5
135
  8
0
 10
-42.353196065425863
 20
-5.7935898480114094
 30
0.0
 11
-42.353196065425877
 21
-14.769949337194021
 31
0.0
  0
LINE
  5
136
  8
0
 10
-40.353196065425863
 20
-5.7935898480114094
 30
0.0
 11
-40.353196065425877
 21
-14.769949337194021
 31
0.0
  0
POLYLINE
  5
137
  8
0
 66
     1
 10
0.0
 20
0.0
 30
0.0
 70
     1
  0
VERTEX
  5
2FE
  8
0
 10
-42.853196065425863
 20
-5.7935898480114094
 30
0.0
  0
VERTEX
  5
2FF
  8
0
 10
-39.853196065425863
 20
-5.7935898480114094
 30
0.0
  0
VERTEX
  5
300
  8
0
 10
-39.853196065425863
 20
-0.7935898480114112
 30
0.0
  0
VERTEX
  5
301
  8
0
 10
-42.853196065425863
 20
-0.7935898480114112
 30
0.0
  0
SEQEND
  5
302
  8
0
  0
POLYLINE
  5
138
  8
0
 66
     1
 10
0.0
 20
0.0
 30
0.0
 70
     1
  0
VERTEX
  5
303
  8
0
 10
-42.853196065425877
 20
-17.769949337194021
 30
0.0
  0
VERTEX
  5
304
  8
0
 10
-39.853196065425863
 20
-17.769949337194021
 30
0.0
  0
VERTEX
  5
305
  8
0
 10
-39.853196065425863
 20
-14.769949337194021
 30
0.0
  0
VERTEX
  5
306
  8
0
 10
-42.853196065425877
 20
-14.769949337194021
 30
0.0
  0
SEQEND
  5
307
  8
0
  0
POLYLINE
  5
139
  8
0
 66
     1
 10
0.0
 20
0.0
 30
0.0
 70
     1
  0
VERTEX
  5
308
  8
0
 10
-43.85319606542587
 20
-18.269949337194021
 30
0.0
  0
VERTEX
  5
309
  8
0
 10
-38.853196065425863
 20
-18.269949337194021
 30
0.0
  0
VERTEX
  5
30A
  8
0
 10
-38.853196065425863
 20
-17.769949337194021
 30
0.0
  0
VERTEX
  5
30B
  8
0
 10
-43.85319606542587
 20
-17.769949337194021
 30
0.0
  0
SEQEND
  5
30C
  8
0
  0
POLYLINE
  5
149
  8
0
 66
     1
 10
0.0
 20
0.0
 30
0.0
 70
     1
  0
VERTEX
  5
30D
  8
0
 10
47.146803934574123
 20
-4.7046890716914911
 30
0.0
  0
VERTEX
  5
30E
  8
0
 10
50.146803934574123
 20
-4.7046890716914911
 30
0.0
  0
VERTEX
  5
30F
  8
0
 10
50.146803934574123
 20
0.2953109283085062
 30
0.0
  0
VERTEX
  5
310
  8
0
 10
47.146803934574123
 20
0.2953109283085062
 30
0.0
  0
SEQEND
  5
311
  8
0
  0
LINE
  5
14A
  8
0
 10
49.646803934574123
 20
-4.7046890716914911
 30
0.0
 11
49.646803934574109
 21
-14.769949337194021
 31
0.0
  0
LINE
  5
14B
  8
0
 10
47.646803934574123
 20
-4.7046890716914911
 30
0.0
 11
47.646803934574102
 21
-14.769949337194021
 31
0.0
  0
POLYLINE
  5
14C
  8
0
 66
     1
 10
0.0
 20
0.0
 30
0.0
 70
     1
  0
VERTEX
  5
312
  8
0
 10
46.146803934574109
 20
-18.269949337194021
 30
0.0
  0
VERTEX
  5
313
  8
0
 10
51.146803934574123
 20
-18.269949337194021
 30
0.0
  0
VERTEX
  5
314
  8
0
 10
51.146803934574123
 20
-17.769949337194021
 30
0.0
  0
VERTEX
  5
315
  8
0
 10
46.146803934574109
 20
-17.769949337194021
 30
0.0
  0
SEQEND
  5
316
  8
0
  0
POLYLINE
  5
14D
  8
0
 66
     1
 10
0.0
 20
0.0
 30
0.0
 70
     1
  0
VERTEX
  5
317
  8
0
 10
47.146803934574109
 20
-17.769949337194021
 30
0.0
  0
VERTEX
  5
318
  8
0
 10
50.146803934574123
 20
-17.769949337194021
 30
0.0
  0
VERTEX
  5
319
  8
0
 10
50.146803934574123
 20
-14.769949337194021
 30
0.0
  0
VERTEX
  5
31A
  8
0
 10
47.146803934574109
 20
-14.769949337194021
 30
0.0
  0
SEQEND
  5
31B
  8
0
  0
INSERT
  5
16C
 67
     1
  8
0
  6
CONTINUOUS
  2
ADCADD_ZZ
 10
0.0
 20
0.0
 30
0.0
1001
ADCADD_ZZ
1070
   205
1070
    14
1070
   209
1070
     1
1070
   231
1070
     0
1070
   235
1070
     0
1070
   236
1070
     4
1070
   237
1070
     2
1070
   238
1070
     4
1070
   239
1070
     2
1070
   240
1070
     0
1070
   241
1070
  4096
1070
   242
1070
     2
1070
   244
1070
     0
1070
   245
1070
     1
1070
   303
1040
0.1
1070
   304
1040
4.0
1070
   305
1040
96.0
1070
   306
1040
0.125
1070
   337
1040
0.0
1070
   338
1040
0.3048
1070
   339
1040
0.0625
1070
   340
1040
96.0
1070
   341
1040
4.0
1070
   342
1040
96.0
1070
   530
1010
0.0
1020
0.0
1030
0.0
1070
   531
1010
0.0
1020
0.0
1030
0.0
1070
   107
1000

1070
   108
1000
AIA (256 Color)
1070
   135
1000
L120
1070
   136
1000
'
1070
   137
1000
m
1001
SDSK_PMN
1070
   100
1000
ACADARCH
1070
   300
1040
2453076.5799394208
  0
ENDSEC
  0
EOF
