  0
SECTION
  2
HEADER
  9
$ACADVER
  1
AC1009
  9
$INSBASE
 10
0.0
 20
0.0
 30
0.0
  9
$EXTMIN
 10
-163.60277704409489
 20
-145.85702751808341
 30
0.0
  9
$EXTMAX
 10
0.942972445188767
 20
11.680810222313459
 30
0.0
  9
$LIMMIN
 10
0.0
 20
0.0
  9
$LIMMAX
 10
12.0
 20
9.0
  9
$ORTHOMODE
 70
     1
  9
$REGENMODE
 70
     1
  9
$FILLMODE
 70
     1
  9
$QTEXTMODE
 70
     0
  9
$MIRRTEXT
 70
     1
  9
$DRAGMODE
 70
     2
  9
$LTSCALE
 40
1.0
  9
$OSMODE
 70
     1
  9
$ATTMODE
 70
     1
  9
$TEXTSIZE
 40
0.2
  9
$TRACEWID
 40
0.05
  9
$TEXTSTYLE
  7
STANDARD
  9
$CLAYER
  8
0
  9
$CELTYPE
  6
CONTINUOUS
  9
$CECOLOR
 62
   256
  9
$DIMSCALE
 40
1.0
  9
$DIMASZ
 40
0.18
  9
$DIMEXO
 40
0.0625
  9
$DIMDLI
 40
0.38
  9
$DIMRND
 40
0.0
  9
$DIMDLE
 40
0.0
  9
$DIMEXE
 40
0.18
  9
$DIMTP
 40
0.0
  9
$DIMTM
 40
0.0
  9
$DIMTXT
 40
0.18
  9
$DIMCEN
 40
0.09
  9
$DIMTSZ
 40
0.0
  9
$DIMTOL
 70
     0
  9
$DIMLIM
 70
     0
  9
$DIMTIH
 70
     1
  9
$DIMTOH
 70
     1
  9
$DIMSE1
 70
     0
  9
$DIMSE2
 70
     0
  9
$DIMTAD
 70
     0
  9
$DIMZIN
 70
     0
  9
$DIMBLK
  1

  9
$DIMASO
 70
     1
  9
$DIMSHO
 70
     1
  9
$DIMPOST
  1

  9
$DIMAPOST
  1

  9
$DIMALT
 70
     0
  9
$DIMALTD
 70
     2
  9
$DIMALTF
 40
25.399999999999999
  9
$DIMLFAC
 40
1.0
  9
$DIMTOFL
 70
     0
  9
$DIMTVP
 40
0.0
  9
$DIMTIX
 70
     0
  9
$DIMSOXD
 70
     0
  9
$DIMSAH
 70
     0
  9
$DIMBLK1
  1

  9
$DIMBLK2
  1

  9
$DIMSTYLE
  2
STANDARD
  9
$DIMCLRD
 70
     0
  9
$DIMCLRE
 70
     0
  9
$DIMCLRT
 70
     0
  9
$DIMTFAC
 40
1.0
  9
$DIMGAP
 40
0.09
  9
$LUNITS
 70
     2
  9
$LUPREC
 70
     4
  9
$SKETCHINC
 40
0.1
  9
$FILLETRAD
 40
0.0
  9
$AUNITS
 70
     0
  9
$AUPREC
 70
     2
  9
$MENU
  1
.
  9
$ELEVATION
 40
0.0
  9
$PELEVATION
 40
0.0
  9
$THICKNESS
 40
0.0
  9
$LIMCHECK
 70
     0
  9
$BLIPMODE
 70
     0
  9
$CHAMFERA
 40
0.0
  9
$CHAMFERB
 40
0.0
  9
$SKPOLY
 70
     0
  9
$TDCREATE
 40
2453070.689044293
  9
$TDUPDATE
 40
2453076.5787290041
  9
$TDINDWG
 40
0.0343743056
  9
$TDUSRTIMER
 40
0.0343744213
  9
$USRTIMER
 70
     1
  9
$ANGBASE
 50
0.0
  9
$ANGDIR
 70
     0
  9
$PDMODE
 70
     0
  9
$PDSIZE
 40
0.0
  9
$PLINEWID
 40
0.0
  9
$COORDS
 70
     1
  9
$SPLFRAME
 70
     0
  9
$SPLINETYPE
 70
     6
  9
$SPLINESEGS
 70
     8
  9
$ATTDIA
 70
     1
  9
$ATTREQ
 70
     1
  9
$HANDLING
 70
 22529
  9
$HANDSEED
  5
40D
  9
$SURFTAB1
 70
     6
  9
$SURFTAB2
 70
     6
  9
$SURFTYPE
 70
     6
  9
$SURFU
 70
     6
  9
$SURFV
 70
     6
  9
$UCSNAME
  2

  9
$UCSORG
 10
0.0
 20
0.0
 30
0.0
  9
$UCSXDIR
 10
1.0
 20
0.0
 30
0.0
  9
$UCSYDIR
 10
0.0
 20
1.0
 30
0.0
  9
$PUCSNAME
  2

  9
$PUCSORG
 10
0.0
 20
0.0
 30
0.0
  9
$PUCSXDIR
 10
1.0
 20
0.0
 30
0.0
  9
$PUCSYDIR
 10
0.0
 20
1.0
 30
0.0
  9
$USERI1
 70
     0
  9
$USERI2
 70
     0
  9
$USERI3
 70
     0
  9
$USERI4
 70
     0
  9
$USERI5
 70
     0
  9
$USERR1
 40
0.0
  9
$USERR2
 40
0.0
  9
$USERR3
 40
0.0
  9
$USERR4
 40
0.0
  9
$USERR5
 40
0.0
  9
$WORLDVIEW
 70
     1
  9
$SHADEDGE
 70
     3
  9
$SHADEDIF
 70
    70
  9
$TILEMODE
 70
     1
  9
$MAXACTVP
 70
    64
  9
$PLIMCHECK
 70
     0
  9
$PEXTMIN
 10
-3.6172137408635758
 20
-2.659570856866992
 30
0.0
  9
$PEXTMAX
 10
293.38278625913642
 20
439.0943489526984
 30
0.0
  9
$PLIMMIN
 10
-0.1979161059762549
 20
-0.2679166643638311
  9
$PLIMMAX
 10
11.493750144177531
 20
7.9987497780266699
  9
$UNITMODE
 70
     0
  9
$VISRETAIN
 70
     1
  9
$PLINEGEN
 70
     0
  9
$PSLTSCALE
 70
     1
  0
ENDSEC
  0
SECTION
  2
TABLES
  0
TABLE
  2
VPORT
 70
     2
  0
VPORT
  2
*ACTIVE
 70
     0
 10
0.0
 20
0.0
 11
1.0
 21
1.0
 12
-69.76699125762832
 22
-67.084343987981185
 13
0.0
 23
0.0
 14
1.0
 24
1.0
 15
0.0
 25
0.0
 16
0.0
 26
0.0
 36
1.0
 17
0.0
 27
0.0
 37
0.0
 40
159.43427601145689
 41
1.928853754940711
 42
50.0
 43
0.0
 44
0.0
 50
0.0
 51
0.0
 71
     0
 72
   100
 73
     1
 74
     1
 75
     0
 76
     0
 77
     0
 78
     0
  0
ENDTAB
  0
TABLE
  2
LTYPE
 70
     1
  0
LTYPE
  2
CONTINUOUS
 70
     0
  3
Solid line
 72
    65
 73
     0
 40
0.0
  0
ENDTAB
  0
TABLE
  2
LAYER
 70
     3
  0
LAYER
  2
0
 70
     0
 62
     7
  6
CONTINUOUS
  0
LAYER
  2
DEFPOINTS
 70
     0
 62
     7
  6
CONTINUOUS
  0
LAYER
  2
COTATION-JACOBDELAFON
 70
     0
 62
     8
  6
CONTINUOUS
  0
ENDTAB
  0
TABLE
  2
STYLE
 70
     2
  0
STYLE
  2
STANDARD
 70
     0
 40
0.0
 41
1.0
 50
0.0
 71
     0
 42
0.2
  3
txt
  4

  0
STYLE
  2
JACOB-DELAFON
 70
     0
 40
0.0
 41
1.0
 50
0.0
 71
     0
 42
2.5
  3
txt
  4

  0
ENDTAB
  0
TABLE
  2
VIEW
 70
     0
  0
ENDTAB
  0
TABLE
  2
UCS
 70
     0
  0
ENDTAB
  0
TABLE
  2
APPID
 70
     8
  0
APPID
  2
ACAD
 70
     0
  0
APPID
  2
ACAECLAYERSTANDARD
 70
     0
  0
APPID
  2
ADCADD_ZZ
 70
     0
  0
APPID
  2
SDSK_PMN
 70
     0
  0
APPID
  2
AECBASE
 70
     0
  0
APPID
  2
AEC_DWGVARSSETUP_DATA
 70
     0
  0
APPID
  2
AEC_DISPREPCONFIG_DATA
 70
     0
  0
APPID
  2
AEC_DISPREPSET_DATA
 70
     0
  0
ENDTAB
  0
TABLE
  2
DIMSTYLE
 70
     2
  0
DIMSTYLE
  2
STANDARD
 70
     0
  3

  4

  5

  6

  7

 40
1.0
 41
0.18
 42
0.0625
 43
0.38
 44
0.18
 45
0.0
 46
0.0
 47
0.0
 48
0.0
140
0.18
141
0.09
142
0.0
143
25.399999999999999
144
1.0
145
0.0
146
1.0
147
0.09
 71
     0
 72
     0
 73
     1
 74
     1
 75
     0
 76
     0
 77
     0
 78
     0
170
     0
171
     2
172
     0
173
     0
174
     0
175
     0
176
     0
177
     0
178
     0
  0
DIMSTYLE
  2
COTATION-JACOB-DELAFON
 70
     0
  3

  4

  5
OBLIQUE
  6

  7

 40
1.0
 41
1.8
 42
0.625
 43
3.7999999999999989
 44
1.8
 45
0.0
 46
0.0
 47
0.0
 48
0.0
140
3.0
141
0.9
142
0.0
143
25.399999999999999
144
1.0
145
0.0
146
1.0
147
0.9
 71
     0
 72
     0
 73
     0
 74
     0
 75
     0
 76
     0
 77
     1
 78
    12
170
     0
171
     2
172
     0
173
     0
174
     0
175
     0
176
     0
177
     0
178
     0
  0
ENDTAB
  0
ENDSEC
  0
SECTION
  2
BLOCKS
  0
BLOCK
  8
0
  2
$MODEL_SPACE
 70
     0
 10
0.0
 20
0.0
 30
0.0
  3
$MODEL_SPACE
  1

  0
ENDBLK
  5
9
  8
0
  0
BLOCK
 67
     1
  8
0
  2
$PAPER_SPACE
 70
     0
 10
0.0
 20
0.0
 30
0.0
  3
$PAPER_SPACE
  1

  0
ENDBLK
  5
E
 67
     1
  8
0
  0
BLOCK
  8
0
  2
_OBLIQUE
 70
     0
 10
0.0
 20
0.0
 30
0.0
  3
_OBLIQUE
  1

  0
LINE
  5
3F
  8
0
  6
BYBLOCK
 62
     0
 10
-0.5
 20
-0.5
 30
0.0
 11
0.5
 21
0.5
 31
0.0
  0
ENDBLK
  5
41
  8
0
  0
BLOCK
  8
0
  2
*D1
 70
     1
 10
0.0
 20
0.0
 30
0.0
  3
*D1
  1

  0
LINE
  5
E6
  8
COTATION-JACOBDELAFON
 62
     0
 10
-55.083432090811129
 20
-144.95702751808349
 30
0.0
 11
-160.65148100043871
 21
-144.95702751808349
 31
0.0
  0
LINE
  5
E7
  8
COTATION-JACOBDELAFON
 62
     0
 10
-144.83460686015411
 20
0.0429648174017236
 30
0.0
 11
-160.65148100043871
 21
0.042964817401728
 31
0.0
  0
LINE
  5
E8
  8
COTATION-JACOBDELAFON
 62
     0
 10
-158.8514810004387
 20
-144.95702751808349
 30
0.0
 11
-158.8514810004387
 21
0.0429648174017275
 31
0.0
  0
INSERT
  5
E9
  8
COTATION-JACOBDELAFON
 62
     0
  2
_OBLIQUE
 10
-158.8514810004387
 20
-144.95702751808349
 30
0.0
 41
1.8
 42
1.8
 43
1.8
 50
270.0
  0
INSERT
  5
EA
  8
COTATION-JACOBDELAFON
 62
     0
  2
_OBLIQUE
 10
-158.8514810004387
 20
0.0429648174017275
 30
0.0
 41
1.8
 42
1.8
 43
1.8
 50
90.0
  0
TEXT
  5
EB
  8
0
  6
CONTINUOUS
 62
     0
 10
-159.80877977260789
 20
-76.097549767803386
 30
0.0
 40
3.0
  1
145
 50
90.0
  7
JACOB-DELAFON
  0
POINT
  5
EC
  8
DEFPOINTS
 62
     0
 10
-54.458432090811129
 20
-144.95702751808349
 30
0.0
  0
POINT
  5
ED
  8
DEFPOINTS
 62
     0
 10
-144.20960686015411
 20
0.0429648174017234
 30
0.0
  0
POINT
  5
EE
  8
DEFPOINTS
 62
     0
 10
-158.8514810004387
 20
0.0429648174017275
 30
0.0
  0
ENDBLK
  5
76
  8
0
  0
BLOCK
  8
0
  2
*D2
 70
     1
 10
0.0
 20
0.0
 30
0.0
  3
*D2
  1

  0
LINE
  5
B9
  8
COTATION-JACOBDELAFON
 62
     0
 10
-144.9570294714303
 20
-0.0794510886501911
 30
0.0
 11
-144.9570294714303
 21
8.7295141786572596
 31
0.0
  0
LINE
  5
BA
  8
COTATION-JACOBDELAFON
 62
     0
 10
0.0429724451887666
 20
-0.0794539645597283
 30
0.0
 11
0.0429724451887671
 21
8.7295141786572596
 31
0.0
  0
LINE
  5
BB
  8
COTATION-JACOBDELAFON
 62
     0
 10
-144.9570294714303
 20
6.9295141786572589
 30
0.0
 11
0.042972445188767
 21
6.9295141786572589
 31
0.0
  0
INSERT
  5
BC
  8
COTATION-JACOBDELAFON
 62
     0
  2
_OBLIQUE
 10
-144.9570294714303
 20
6.9295141786572589
 30
0.0
 41
1.8
 42
1.8
 43
1.8
 50
180.0
  0
INSERT
  5
BD
  8
COTATION-JACOBDELAFON
 62
     0
  2
_OBLIQUE
 10
0.042972445188767
 20
6.9295141786572589
 30
0.0
 41
1.8
 42
1.8
 43
1.8
  0
TEXT
  5
BE
  8
0
  6
CONTINUOUS
 62
     0
 10
-76.097546930583263
 20
7.8868129508264282
 30
0.0
 40
3.0
  1
145
  7
JACOB-DELAFON
  0
POINT
  5
BF
  8
DEFPOINTS
 62
     0
 10
-144.9570294714303
 20
-0.7044510886501911
 30
0.0
  0
POINT
  5
C0
  8
DEFPOINTS
 62
     0
 10
0.0429724451887665
 20
-0.7044539645597283
 30
0.0
  0
POINT
  5
C1
  8
DEFPOINTS
 62
     0
 10
0.042972445188767
 20
6.9295141786572589
 30
0.0
  0
ENDBLK
  5
82
  8
0
  0
BLOCK
  8
0
  2
ADCADD_ZZ
 70
     0
 10
0.0
 20
0.0
 30
0.0
  3
ADCADD_ZZ
  1

  0
ENDBLK
  5
105
  8
0
  0
ENDSEC
  0
SECTION
  2
ENTITIES
  0
POLYLINE
  5
24
  8
0
  6
CONTINUOUS
 66
     1
 10
0.0
 20
0.0
 30
0.0
 70
     1
  0
VERTEX
  5
26D
  8
0
  6
CONTINUOUS
 10
-144.9570294714303
 20
-0.7044510886501911
 30
0.0
  0
VERTEX
  5
26E
  8
0
  6
CONTINUOUS
 10
-144.73812696969361
 20
-0.1759510947836712
 30
0.0
  0
VERTEX
  5
26F
  8
0
  6
CONTINUOUS
 10
-144.20960686015411
 20
0.0429648174017234
 30
0.0
  0
VERTEX
  5
270
  8
0
  6
CONTINUOUS
 10
-0.704450166087463
 20
0.042970565297338
 30
0.0
  0
VERTEX
  5
271
  8
0
  6
CONTINUOUS
 10
-0.1759530442070911
 20
-0.1759453468880565
 30
0.0
  0
VERTEX
  5
272
  8
0
  6
CONTINUOUS
 10
0.0429724451887705
 20
-0.7044539645597283
 30
0.0
  0
VERTEX
  5
273
  8
0
  6
CONTINUOUS
 10
0.0429724451887705
 20
-144.20960490680719
 30
0.0
  0
VERTEX
  5
274
  8
0
  6
CONTINUOUS
 10
-0.1759377191009741
 20
-144.73810969124071
 30
0.0
  0
VERTEX
  5
275
  8
0
  6
CONTINUOUS
 10
-0.7044654951171107
 20
-144.95702751808349
 30
0.0
  0
VERTEX
  5
276
  8
0
  6
CONTINUOUS
 10
-54.458432090811122
 20
-144.95702751808349
 30
0.0
  0
VERTEX
  5
277
  8
0
  6
CONTINUOUS
 10
-54.744459024334319
 20
-144.90015240821049
 30
0.0
  0
VERTEX
  5
278
  8
0
  6
CONTINUOUS
 10
-54.986940708482841
 20
-144.73810969124071
 30
0.0
  0
VERTEX
  5
279
  8
0
  6
CONTINUOUS
 10
-144.73810781134921
 20
-54.986942588374227
 30
0.0
  0
VERTEX
  5
27A
  8
0
  6
CONTINUOUS
 10
-144.90012754065989
 20
-54.744464733540539
 30
0.0
  0
VERTEX
  5
27B
  8
0
  6
CONTINUOUS
 10
-144.95702563819199
 20
-54.458433970702551
 30
0.0
  0
SEQEND
  5
27C
  8
0
  6
CONTINUOUS
  0
POLYLINE
  5
25
  8
0
  6
CONTINUOUS
 66
     1
 10
0.0
 20
0.0
 30
0.0
 70
     1
  0
VERTEX
  5
27D
  8
0
  6
CONTINUOUS
 10
-144.2096221852602
 20
-0.7044510886501911
 30
0.0
  0
VERTEX
  5
27E
  8
0
  6
CONTINUOUS
 10
-0.7044425035344045
 20
-0.7044539645597283
 30
0.0
  0
VERTEX
  5
27F
  8
0
  6
CONTINUOUS
 10
-0.704450166087463
 20
-144.20960490680719
 30
0.0
  0
VERTEX
  5
280
  8
0
  6
CONTINUOUS
 10
-54.458432090811122
 20
-144.20960490680719
 30
0.0
  0
VERTEX
  5
281
  8
0
  6
CONTINUOUS
 10
-144.20961068946889
 20
-54.458433970702551
 30
0.0
  0
SEQEND
  5
282
  8
0
  6
CONTINUOUS
  0
POLYLINE
  5
26
  8
0
  6
CONTINUOUS
 66
     1
 10
0.0
 20
0.0
 30
0.0
 70
     1
  0
VERTEX
  5
283
  8
0
  6
CONTINUOUS
 10
-129.51117483892909
 20
-61.640441414713337
 30
0.0
  0
VERTEX
  5
284
  8
0
  6
CONTINUOUS
 10
-133.69555483745981
 20
-56.466124548041307
 30
0.0
  0
VERTEX
  5
285
  8
0
  6
CONTINUOUS
 10
-136.67440974199161
 20
-50.737221732045853
 30
0.0
  0
VERTEX
  5
286
  8
0
  6
CONTINUOUS
 10
-138.44865336200269
 20
-44.640596274252012
 30
0.0
  0
VERTEX
  5
287
  8
0
  6
CONTINUOUS
 10
-139.01918993760739
 20
-38.363040616320447
 30
0.0
  0
VERTEX
  5
288
  8
0
  6
CONTINUOUS
 10
-138.38695053374099
 20
-32.091400826012837
 30
0.0
  0
VERTEX
  5
289
  8
0
  6
CONTINUOUS
 10
-136.47266096191419
 20
-25.924615415837689
 30
0.0
  0
VERTEX
  5
28A
  8
0
  6
CONTINUOUS
 10
-133.44367442971711
 20
-20.34411126417368
 30
0.0
  0
VERTEX
  5
28B
  8
0
  6
CONTINUOUS
 10
-128.8844509078053
 20
-15.48198308023521
 30
0.0
  0
VERTEX
  5
28C
  8
0
  6
CONTINUOUS
 10
-123.35861108016999
 20
-11.470374895281919
 30
0.0
  0
VERTEX
  5
28D
  8
0
  6
CONTINUOUS
 10
-117.0163084495767
 20
-8.4413917176587088
 30
0.0
  0
VERTEX
  5
28E
  8
0
  6
CONTINUOUS
 10
-110.0076831122654
 20
-6.5271098083849957
 30
0.0
  0
VERTEX
  5
28F
  8
0
  6
CONTINUOUS
 10
-102.8799161271549
 20
-5.894876631078664
 30
0.0
  0
VERTEX
  5
290
  8
0
  6
CONTINUOUS
 10
-86.737311240895039
 20
-5.9347493596198824
 30
0.0
  0
VERTEX
  5
291
  8
0
  6
CONTINUOUS
 10
-80.503615008784521
 20
-5.9347474449624027
 30
0.0
  0
VERTEX
  5
292
  8
0
  6
CONTINUOUS
 10
-74.813696006321877
 20
-5.934745530305066
 30
0.0
  0
VERTEX
  5
293
  8
0
  6
CONTINUOUS
 10
-45.389894452766796
 20
-5.9347474449624027
 30
0.0
  0
VERTEX
  5
294
  8
0
  6
CONTINUOUS
 10
-42.234747401622762
 20
-5.9364122434933249
 30
0.0
  0
VERTEX
  5
295
  8
0
  6
CONTINUOUS
 10
-39.079611850193579
 20
-5.9364122434933249
 30
0.0
  0
VERTEX
  5
296
  8
0
  6
CONTINUOUS
 10
-32.704124408967409
 20
-5.9364122434933249
 30
0.0
  0
VERTEX
  5
297
  8
0
  6
CONTINUOUS
 10
-27.30950270310689
 20
-6.4802311404805328
 30
0.0
  0
VERTEX
  5
298
  8
0
  6
CONTINUOUS
 10
-22.28492937103189
 20
-8.0399464191317911
 30
0.0
  0
VERTEX
  5
299
  8
0
  6
CONTINUOUS
 10
-17.73803951886703
 20
-10.50791052020233
 30
0.0
  0
VERTEX
  5
29A
  8
0
  6
CONTINUOUS
 10
-13.776498906872719
 20
-13.77648821593975
 30
0.0
  0
VERTEX
  5
29B
  8
0
  6
CONTINUOUS
 10
-10.50793498254408
 20
-17.738034932866249
 30
0.0
  0
VERTEX
  5
29C
  8
0
  6
CONTINUOUS
 10
-8.0399675308231
 20
-22.284909220592791
 30
0.0
  0
VERTEX
  5
29D
  8
0
  6
CONTINUOUS
 10
-6.4802469790170321
 20
-27.309488300563501
 30
0.0
  0
VERTEX
  5
29E
  8
0
  6
CONTINUOUS
 10
-5.9364390991568614
 20
-32.70411096375269
 30
0.0
  0
VERTEX
  5
29F
  8
0
  6
CONTINUOUS
 10
-5.9364620868160722
 20
-86.394662042678235
 30
0.0
  0
VERTEX
  5
2A0
  8
0
  6
CONTINUOUS
 10
-5.9364620868160722
 20
-92.396334727914635
 30
0.0
  0
VERTEX
  5
2A1
  8
0
  6
CONTINUOUS
 10
-5.9318565981601621
 20
-99.173461436586663
 30
0.0
  0
VERTEX
  5
2A2
  8
0
  6
CONTINUOUS
 10
-5.927266434610404
 20
-105.9506034703648
 30
0.0
  0
VERTEX
  5
2A3
  8
0
  6
CONTINUOUS
 10
-6.5594981759236957
 20
-112.22221452511759
 30
0.0
  0
VERTEX
  5
2A4
  8
0
  6
CONTINUOUS
 10
-8.4737724226443163
 20
-118.38902579493799
 30
0.0
  0
VERTEX
  5
2A5
  8
0
  6
CONTINUOUS
 10
-11.50277427994758
 20
-123.9695376091551
 30
0.0
  0
VERTEX
  5
2A6
  8
0
  6
CONTINUOUS
 10
-15.51436222759988
 20
-128.8316620814831
 30
0.0
  0
VERTEX
  5
2A7
  8
0
  6
CONTINUOUS
 10
-20.376486703851441
 20
-132.8432653581651
 30
0.0
  0
VERTEX
  5
2A8
  8
0
  6
CONTINUOUS
 10
-26.027950636407411
 20
-135.8722442278092
 30
0.0
  0
VERTEX
  5
2A9
  8
0
  6
CONTINUOUS
 10
-32.273139517155869
 20
-137.7865261331593
 30
0.0
  0
VERTEX
  5
2AA
  8
0
  6
CONTINUOUS
 10
-38.624496032914422
 20
-138.41877320350221
 30
0.0
  0
VERTEX
  5
2AB
  8
0
  6
CONTINUOUS
 10
-44.981871870571972
 20
-137.84824428652709
 30
0.0
  0
VERTEX
  5
2AC
  8
0
  6
CONTINUOUS
 10
-51.155993682915089
 20
-136.07398917072479
 30
0.0
  0
VERTEX
  5
2AD
  8
0
  6
CONTINUOUS
 10
-56.957741393409052
 20
-133.09511894501031
 30
0.0
  0
VERTEX
  5
2AE
  8
0
  6
CONTINUOUS
 10
-62.219324997551062
 20
-128.91074469045179
 30
0.0
  0
SEQEND
  5
2AF
  8
0
  6
CONTINUOUS
  0
POLYLINE
  5
27
  8
0
  6
CONTINUOUS
 66
     1
 10
0.0
 20
0.0
 30
0.0
 70
     1
  0
VERTEX
  5
2B0
  8
0
  6
CONTINUOUS
 10
-128.7960327981713
 20
-60.998040814178893
 30
0.0
  0
VERTEX
  5
2B1
  8
0
  6
CONTINUOUS
 10
-132.8908049982152
 20
-55.940305663053728
 30
0.0
  0
VERTEX
  5
2B2
  8
0
  6
CONTINUOUS
 10
-135.7818146013237
 20
-50.380346130535401
 30
0.0
  0
VERTEX
  5
2B3
  8
0
  6
CONTINUOUS
 10
-137.5039188752904
 20
-44.462894127635018
 30
0.0
  0
VERTEX
  5
2B4
  8
0
  6
CONTINUOUS
 10
-138.05790711016309
 20
-38.3687131812096
 30
0.0
  0
VERTEX
  5
2B5
  8
0
  6
CONTINUOUS
 10
-137.4451509931815
 20
-32.28399801062217
 30
0.0
  0
VERTEX
  5
2B6
  8
0
  6
CONTINUOUS
 10
-135.58730356755299
 20
-26.299075784100982
 30
0.0
  0
VERTEX
  5
2B7
  8
0
  6
CONTINUOUS
 10
-132.66481801300361
 20
-20.90755090710682
 30
0.0
  0
VERTEX
  5
2B8
  8
0
  6
CONTINUOUS
 10
-128.24932828492371
 20
-16.20359069538749
 30
0.0
  0
VERTEX
  5
2B9
  8
0
  6
CONTINUOUS
 10
-122.8678716887852
 20
-12.296983809134151
 30
0.0
  0
VERTEX
  5
2BA
  8
0
  6
CONTINUOUS
 10
-116.68208097731311
 20
-9.3427088368472262
 30
0.0
  0
VERTEX
  5
2BB
  8
0
  6
CONTINUOUS
 10
-109.838844232545
 20
-7.4734607171411929
 30
0.0
  0
VERTEX
  5
2BC
  8
0
  6
CONTINUOUS
 10
-102.83954721593371
 20
-6.8553275398835183
 30
0.0
  0
VERTEX
  5
2BD
  8
0
  6
CONTINUOUS
 10
-86.740638915452635
 20
-6.8960341056448948
 30
0.0
  0
VERTEX
  5
2BE
  8
0
  6
CONTINUOUS
 10
-80.503615008784521
 20
-6.8930436030397493
 30
0.0
  0
VERTEX
  5
2BF
  8
0
  6
CONTINUOUS
 10
-74.813694091664487
 20
-6.8930392950606318
 30
0.0
  0
VERTEX
  5
2C0
  8
0
  6
CONTINUOUS
 10
-45.389894452766796
 20
-6.8930392950606318
 30
0.0
  0
VERTEX
  5
2C1
  8
0
  6
CONTINUOUS
 10
-42.037757376956591
 20
-7.4216844066180618
 30
0.0
  0
VERTEX
  5
2C2
  8
0
  6
CONTINUOUS
 10
-39.036196875991521
 20
-6.8473464788471992
 30
0.0
  0
VERTEX
  5
2C3
  8
0
  6
CONTINUOUS
 10
-32.752148701140158
 20
-6.8916743130454909
 30
0.0
  0
VERTEX
  5
2C4
  8
0
  6
CONTINUOUS
 10
-27.500197542193138
 20
-7.4175003858453321
 30
0.0
  0
VERTEX
  5
2C5
  8
0
  6
CONTINUOUS
 10
-22.65663296221441
 20
-8.921236174856336
 30
0.0
  0
VERTEX
  5
2C6
  8
0
  6
CONTINUOUS
 10
-18.27300425142715
 20
-11.30077354248764
 30
0.0
  0
VERTEX
  5
2C7
  8
0
  6
CONTINUOUS
 10
-14.45282380345483
 20
-14.45280550489745
 30
0.0
  0
VERTEX
  5
2C8
  8
0
  6
CONTINUOUS
 10
-11.300784115716279
 20
-18.273005170066352
 30
0.0
  0
VERTEX
  5
2C9
  8
0
  6
CONTINUOUS
 10
-8.9212558466310412
 20
-22.656610893194429
 30
0.0
  0
VERTEX
  5
2CA
  8
0
  6
CONTINUOUS
 10
-7.4175061685069954
 20
-27.500187926293201
 30
0.0
  0
VERTEX
  5
2CB
  8
0
  6
CONTINUOUS
 10
-6.8916911128341551
 20
-32.752131422687171
 30
0.0
  0
VERTEX
  5
2CC
  8
0
  6
CONTINUOUS
 10
-6.9305427443839474
 20
-86.357036502012662
 30
0.0
  0
VERTEX
  5
2CD
  8
0
  6
CONTINUOUS
 10
-6.8929861666960042
 20
-92.361421903668884
 30
0.0
  0
VERTEX
  5
2CE
  8
0
  6
CONTINUOUS
 10
-6.8794992101276886
 20
-99.143223067897921
 30
0.0
  0
VERTEX
  5
2CF
  8
0
  6
CONTINUOUS
 10
-6.9148258397035871
 20
-105.92703195050601
 30
0.0
  0
VERTEX
  5
2D0
  8
0
  6
CONTINUOUS
 10
-7.523371115015105
 20
-112.0075496859486
 30
0.0
  0
VERTEX
  5
2D1
  8
0
  6
CONTINUOUS
 10
-9.3777893264681556
 20
-117.99594231531989
 30
0.0
  0
VERTEX
  5
2D2
  8
0
  6
CONTINUOUS
 10
-12.315585642920899
 20
-123.4145876630582
 30
0.0
  0
VERTEX
  5
2D3
  8
0
  6
CONTINUOUS
 10
-16.209178045706661
 20
-128.13551289674919
 30
0.0
  0
VERTEX
  5
2D4
  8
0
  6
CONTINUOUS
 10
-20.927735401406881
 20
-132.02800182127029
 30
0.0
  0
VERTEX
  5
2D5
  8
0
  6
CONTINUOUS
 10
-26.415432428771322
 20
-134.965798137723
 30
0.0
  0
VERTEX
  5
2D6
  8
0
  6
CONTINUOUS
 10
-32.483773590536998
 20
-136.82170297863499
 30
0.0
  0
VERTEX
  5
2D7
  8
0
  6
CONTINUOUS
 10
-38.654650109595913
 20
-137.43102221888839
 30
0.0
  0
VERTEX
  5
2D8
  8
0
  6
CONTINUOUS
 10
-44.83548091677261
 20
-136.87238634935619
 30
0.0
  0
VERTEX
  5
2D9
  8
0
  6
CONTINUOUS
 10
-50.836751292470247
 20
-135.14496775545459
 30
0.0
  0
VERTEX
  5
2DA
  8
0
  6
CONTINUOUS
 10
-56.474601826523561
 20
-132.24872046186539
 30
0.0
  0
VERTEX
  5
2DB
  8
0
  6
CONTINUOUS
 10
-61.599545705365962
 20
-128.15158229848811
 30
0.0
  0
SEQEND
  5
2DC
  8
0
  6
CONTINUOUS
  0
POLYLINE
  5
28
  8
0
  6
CONTINUOUS
 66
     1
 10
0.0
 20
0.0
 30
0.0
  0
VERTEX
  5
2DD
  8
0
  6
CONTINUOUS
 10
-136.88485990232871
 20
-44.346425443573722
 30
0.0
  0
VERTEX
  5
2DE
  8
0
  6
CONTINUOUS
 10
-135.1969251418017
 20
-50.146462380218281
 30
0.0
  0
VERTEX
  5
2DF
  8
0
  6
CONTINUOUS
 10
-132.36349565053021
 20
-55.595729247839671
 30
0.0
  0
VERTEX
  5
2E0
  8
0
  6
CONTINUOUS
 10
-128.32745109732559
 20
-60.57706768944194
 30
0.0
  0
VERTEX
  5
2E1
  8
0
  6
CONTINUOUS
 10
-61.29271361019876
 20
-127.56893044570769
 30
0.0
  0
VERTEX
  5
2E2
  8
0
  6
CONTINUOUS
 10
-56.236997669320587
 20
-131.61512469978911
 30
0.0
  0
VERTEX
  5
2E3
  8
0
  6
CONTINUOUS
 10
-50.698981264084999
 20
-134.4648190055585
 30
0.0
  0
VERTEX
  5
2E4
  8
0
  6
CONTINUOUS
 10
-44.802660102913229
 20
-136.16986150850281
 30
0.0
  0
VERTEX
  5
2E5
  8
0
  6
CONTINUOUS
 10
-38.729115734117372
 20
-136.72912575054499
 30
0.0
  0
VERTEX
  5
2E6
  8
0
  6
CONTINUOUS
 10
-32.6687747878088
 20
-136.1425504234137
 30
0.0
  0
VERTEX
  5
2E7
  8
0
  6
CONTINUOUS
 10
-26.70996150832735
 20
-134.33125215629039
 30
0.0
  0
VERTEX
  5
2E8
  8
0
  6
CONTINUOUS
 10
-21.325539315823821
 20
-131.4571970366907
 30
0.0
  0
VERTEX
  5
2E9
  8
0
  6
CONTINUOUS
 10
-16.699697125939409
 20
-127.6441662097797
 30
0.0
  0
VERTEX
  5
2EA
  8
0
  6
CONTINUOUS
 10
-12.884765860315641
 20
-123.0144311918331
 30
0.0
  0
VERTEX
  5
2EB
  8
0
  6
CONTINUOUS
 10
-10.010672427950681
 20
-117.6978575875012
 30
0.0
  0
VERTEX
  5
2EC
  8
0
  6
CONTINUOUS
 10
-8.2017190511589266
 20
-111.82017294813291
 30
0.0
  0
VERTEX
  5
2ED
  8
0
  6
CONTINUOUS
 10
-7.6162931815341848
 20
-105.8572905900982
 30
0.0
  0
VERTEX
  5
2EE
  8
0
  6
CONTINUOUS
 10
-7.5196085621255921
 20
-99.058078991026534
 30
0.0
  0
VERTEX
  5
2EF
  8
0
  6
CONTINUOUS
 10
-7.4964355185673348
 20
-92.267197120734835
 30
0.0
  0
VERTEX
  5
2F0
  8
0
  6
CONTINUOUS
 10
-7.6575663328697239
 20
-86.256765576282106
 30
0.0
  0
VERTEX
  5
2F1
  8
0
  6
CONTINUOUS
 10
-7.5176468229883886
 20
-32.783601626232347
 30
0.0
  0
VERTEX
  5
2F2
  8
0
  6
CONTINUOUS
 10
-8.0316761148083344
 20
-27.625148221848079
 30
0.0
  0
VERTEX
  5
2F3
  8
0
  6
CONTINUOUS
 10
-9.4987274800405164
 20
-22.90017977317277
 30
0.0
  0
VERTEX
  5
2F4
  8
0
  6
CONTINUOUS
 10
-11.82033080278312
 20
-18.62355205595145
 30
0.0
  0
VERTEX
  5
2F5
  8
0
  6
CONTINUOUS
 10
-14.89600059797276
 20
-14.89598738816669
 30
0.0
  0
VERTEX
  5
2F6
  8
0
  6
CONTINUOUS
 10
-18.62355783861311
 20
-11.82031783623273
 30
0.0
  0
VERTEX
  5
2F7
  8
0
  6
CONTINUOUS
 10
-22.900202799521448
 20
-9.4987130774970918
 30
0.0
  0
VERTEX
  5
2F8
  8
0
  6
CONTINUOUS
 10
-27.625166457629849
 20
-8.031659797607535
 30
0.0
  0
VERTEX
  5
2F9
  8
0
  6
CONTINUOUS
 10
-32.783620823266212
 20
-7.517627147290189
 30
0.0
  0
VERTEX
  5
2FA
  8
0
  6
CONTINUOUS
 10
-38.891139292742821
 20
-7.3664477530429426
 30
0.0
  0
SEQEND
  5
2FB
  8
0
  6
CONTINUOUS
  0
POLYLINE
  5
29
  8
0
  6
CONTINUOUS
 66
     1
 10
0.0
 20
0.0
 30
0.0
 70
     1
  0
VERTEX
  5
2FC
  8
0
  6
CONTINUOUS
 10
-38.518853316139229
 20
-8.1470585256024588
 30
0.0
  0
VERTEX
  5
2FD
  8
0
  6
CONTINUOUS
 10
-32.831208322449662
 20
-8.4640096675107497
 30
0.0
  0
VERTEX
  5
2FE
  8
0
  6
CONTINUOUS
 10
-28.004793630891871
 20
-9.8974810964599644
 30
0.0
  0
VERTEX
  5
2FF
  8
0
  6
CONTINUOUS
 10
-23.640146280337081
 20
-11.25310965318225
 30
0.0
  0
VERTEX
  5
300
  8
0
  6
CONTINUOUS
 10
-19.688536972724879
 20
-13.39868682152227
 30
0.0
  0
VERTEX
  5
301
  8
0
  6
CONTINUOUS
 10
-16.24237435213087
 20
-16.242356834345689
 30
0.0
  0
VERTEX
  5
302
  8
0
  6
CONTINUOUS
 10
-13.39870320149878
 20
-19.688529750146689
 30
0.0
  0
VERTEX
  5
303
  8
0
  6
CONTINUOUS
 10
-11.253119987078669
 20
-23.64013474977973
 30
0.0
  0
VERTEX
  5
304
  8
0
  6
CONTINUOUS
 10
-9.8974892763668638
 20
-28.004775395110201
 30
0.0
  0
VERTEX
  5
305
  8
0
  6
CONTINUOUS
 10
-9.4193076991193614
 20
-32.879207673616328
 30
0.0
  0
VERTEX
  5
306
  8
0
  6
CONTINUOUS
 10
-9.8062377523509312
 20
-86.01214590250531
 30
0.0
  0
VERTEX
  5
307
  8
0
  6
CONTINUOUS
 10
-8.9326201426007561
 20
-92.037474399607774
 30
0.0
  0
VERTEX
  5
308
  8
0
  6
CONTINUOUS
 10
-8.7035564441959359
 20
-98.967999912176396
 30
0.0
  0
VERTEX
  5
309
  8
0
  6
CONTINUOUS
 10
-10.23908476618627
 20
-92.466804077945767
 30
0.0
  0
VERTEX
  5
30A
  8
0
  6
CONTINUOUS
 10
-12.77750624283229
 20
-86.373128891410786
 30
0.0
  0
VERTEX
  5
30B
  8
0
  6
CONTINUOUS
 10
-16.652377831807328
 20
-79.459362453515681
 30
0.0
  0
VERTEX
  5
30C
  8
0
  6
CONTINUOUS
 10
-19.06576142611555
 20
-74.382569312703865
 30
0.0
  0
VERTEX
  5
30D
  8
0
  6
CONTINUOUS
 10
-18.622201480403231
 20
-34.507889869069139
 30
0.0
  0
VERTEX
  5
30E
  8
0
  6
CONTINUOUS
 10
-19.166009360263399
 20
-29.11326912053736
 30
0.0
  0
VERTEX
  5
30F
  8
0
  6
CONTINUOUS
 10
-20.725737574622489
 20
-24.088691959147582
 30
0.0
  0
VERTEX
  5
310
  8
0
  6
CONTINUOUS
 10
-23.193689701237361
 20
-19.541817432088859
 30
0.0
  0
VERTEX
  5
311
  8
0
  6
CONTINUOUS
 10
-26.46226895067214
 20
-15.5802762198024
 30
0.0
  0
VERTEX
  5
312
  8
0
  6
CONTINUOUS
 10
-30.423794237560308
 20
-12.31169301942494
 30
0.0
  0
VERTEX
  5
313
  8
0
  6
CONTINUOUS
 10
-34.970691752278263
 20
-9.8437372989040508
 30
0.0
  0
SEQEND
  5
314
  8
0
  6
CONTINUOUS
  0
POLYLINE
  5
2A
  8
0
  6
CONTINUOUS
 66
     1
 10
0.0
 20
0.0
 30
0.0
 70
     1
  0
VERTEX
  5
315
  8
0
  6
CONTINUOUS
 10
-80.50361117554624
 20
-8.9091161149605007
 30
0.0
  0
VERTEX
  5
316
  8
0
  6
CONTINUOUS
 10
-74.813694091664487
 20
-8.6971965610045299
 30
0.0
  0
VERTEX
  5
317
  8
0
  6
CONTINUOUS
 10
-45.58196480448386
 20
-9.5175651198856066
 30
0.0
  0
VERTEX
  5
318
  8
0
  6
CONTINUOUS
 10
-42.263568111677067
 20
-10.30621849716162
 30
0.0
  0
VERTEX
  5
319
  8
0
  6
CONTINUOUS
 10
-38.868698072046229
 20
-11.27846858026804
 30
0.0
  0
VERTEX
  5
31A
  8
0
  6
CONTINUOUS
 10
-36.167038441681839
 20
-12.44927937409823
 30
0.0
  0
VERTEX
  5
31B
  8
0
  6
CONTINUOUS
 10
-32.028021742118248
 20
-14.68916555852741
 30
0.0
  0
VERTEX
  5
31C
  8
0
  6
CONTINUOUS
 10
-28.49030107969163
 20
-17.60830511587573
 30
0.0
  0
VERTEX
  5
31D
  8
0
  6
CONTINUOUS
 10
-25.57115661014851
 20
-21.146028175547631
 30
0.0
  0
VERTEX
  5
31E
  8
0
  6
CONTINUOUS
 10
-23.368330463690771
 20
-25.203366889187489
 30
0.0
  0
VERTEX
  5
31F
  8
0
  6
CONTINUOUS
 10
-21.976637467303121
 20
-29.684434068651981
 30
0.0
  0
VERTEX
  5
320
  8
0
  6
CONTINUOUS
 10
-21.486371270939099
 20
-34.657403511380181
 30
0.0
  0
VERTEX
  5
321
  8
0
  6
CONTINUOUS
 10
-22.60137475304969
 20
-74.040720942939302
 30
0.0
  0
VERTEX
  5
322
  8
0
  6
CONTINUOUS
 10
-21.73535121990313
 20
-77.808394214855497
 30
0.0
  0
VERTEX
  5
323
  8
0
  6
CONTINUOUS
 10
-23.956254486478901
 20
-74.687742357235777
 30
0.0
  0
VERTEX
  5
324
  8
0
  6
CONTINUOUS
 10
-53.479968720810213
 20
-48.017347047761177
 30
0.0
  0
VERTEX
  5
325
  8
0
  6
CONTINUOUS
 10
-55.7409765267941
 20
-44.632594140213961
 30
0.0
  0
VERTEX
  5
326
  8
0
  6
CONTINUOUS
 10
-57.107814437405459
 20
-40.651911246525742
 30
0.0
  0
VERTEX
  5
327
  8
0
  6
CONTINUOUS
 10
-57.58852482195212
 20
-37.733345340935948
 30
0.0
  0
VERTEX
  5
328
  8
0
  6
CONTINUOUS
 10
-58.353089659096248
 20
-32.388636870169591
 30
0.0
  0
VERTEX
  5
329
  8
0
  6
CONTINUOUS
 10
-59.908806269935432
 20
-27.462973315048181
 30
0.0
  0
VERTEX
  5
32A
  8
0
  6
CONTINUOUS
 10
-62.30608597905411
 20
-22.355451366839809
 30
0.0
  0
VERTEX
  5
32B
  8
0
  6
CONTINUOUS
 10
-65.893505309394953
 20
-17.668717437586938
 30
0.0
  0
VERTEX
  5
32C
  8
0
  6
CONTINUOUS
 10
-70.246541235853954
 20
-13.799869388250061
 30
0.0
  0
VERTEX
  5
32D
  8
0
  6
CONTINUOUS
 10
-75.237092573348917
 20
-10.88221978354691
 30
0.0
  0
SEQEND
  5
32E
  8
0
  6
CONTINUOUS
  0
POLYLINE
  5
2B
  8
0
  6
CONTINUOUS
 66
     1
 10
0.0
 20
0.0
 30
0.0
 70
     1
  0
VERTEX
  5
32F
  8
0
  6
CONTINUOUS
 10
-121.57691323593841
 20
-52.009513012876859
 30
0.0
  0
VERTEX
  5
330
  8
0
  6
CONTINUOUS
 10
-124.78858480670721
 20
-48.094778272571133
 30
0.0
  0
VERTEX
  5
331
  8
0
  6
CONTINUOUS
 10
-126.7777921250744
 20
-44.251401789457852
 30
0.0
  0
VERTEX
  5
332
  8
0
  6
CONTINUOUS
 10
-127.96523818822109
 20
-40.14669445179355
 30
0.0
  0
VERTEX
  5
333
  8
0
  6
CONTINUOUS
 10
-128.34471401723221
 20
-35.907789981617327
 30
0.0
  0
VERTEX
  5
334
  8
0
  6
CONTINUOUS
 10
-127.922001383091
 20
-31.717699097585239
 30
0.0
  0
VERTEX
  5
335
  8
0
  6
CONTINUOUS
 10
-126.6258665401881
 20
-27.570140977971231
 30
0.0
  0
VERTEX
  5
336
  8
0
  6
CONTINUOUS
 10
-124.7789274591956
 20
-24.105520958050931
 30
0.0
  0
VERTEX
  5
337
  8
0
  6
CONTINUOUS
 10
-121.8205980193885
 20
-21.01511465300867
 30
0.0
  0
VERTEX
  5
338
  8
0
  6
CONTINUOUS
 10
-117.8901770246147
 20
-18.170874044816351
 30
0.0
  0
VERTEX
  5
339
  8
0
  6
CONTINUOUS
 10
-113.28588522968469
 20
-15.978990961853761
 30
0.0
  0
VERTEX
  5
33A
  8
0
  6
CONTINUOUS
 10
-108.1214671025251
 20
-14.573181263170479
 30
0.0
  0
VERTEX
  5
33B
  8
0
  6
CONTINUOUS
 10
-102.3630895836522
 20
-14.09922518178448
 30
0.0
  0
VERTEX
  5
33C
  8
0
  6
CONTINUOUS
 10
-87.228271900760575
 20
-13.782562674479021
 30
0.0
  0
VERTEX
  5
33D
  8
0
  6
CONTINUOUS
 10
-78.207429998894867
 20
-16.730051841998211
 30
0.0
  0
VERTEX
  5
33E
  8
0
  6
CONTINUOUS
 10
-74.103255245942009
 20
-19.107835811112199
 30
0.0
  0
VERTEX
  5
33F
  8
0
  6
CONTINUOUS
 10
-70.702157065127935
 20
-22.134057899751991
 30
0.0
  0
VERTEX
  5
340
  8
0
  6
CONTINUOUS
 10
-67.917226975707365
 20
-25.76011381972188
 30
0.0
  0
VERTEX
  5
341
  8
0
  6
CONTINUOUS
 10
-66.024593163844074
 20
-29.847440415426949
 30
0.0
  0
VERTEX
  5
342
  8
0
  6
CONTINUOUS
 10
-64.754731069275365
 20
-33.84350016593347
 30
0.0
  0
VERTEX
  5
343
  8
0
  6
CONTINUOUS
 10
-64.077310360905145
 20
-38.73233226100426
 30
0.0
  0
VERTEX
  5
344
  8
0
  6
CONTINUOUS
 10
-63.471615735815632
 20
-42.264267327056132
 30
0.0
  0
VERTEX
  5
345
  8
0
  6
CONTINUOUS
 10
-61.623251329712168
 20
-47.545778677548697
 30
0.0
  0
VERTEX
  5
346
  8
0
  6
CONTINUOUS
 10
-58.507231781645821
 20
-52.236668610015883
 30
0.0
  0
VERTEX
  5
347
  8
0
  6
CONTINUOUS
 10
-32.816242398975369
 20
-76.232814999175631
 30
0.0
  0
VERTEX
  5
348
  8
0
  6
CONTINUOUS
 10
-29.791340266514052
 20
-78.463718537034609
 30
0.0
  0
VERTEX
  5
349
  8
0
  6
CONTINUOUS
 10
-28.017468305829549
 20
-80.95524218743175
 30
0.0
  0
VERTEX
  5
34A
  8
0
  6
CONTINUOUS
 10
-25.80743123396255
 20
-85.593858673290697
 30
0.0
  0
VERTEX
  5
34B
  8
0
  6
CONTINUOUS
 10
-23.84962323758208
 20
-90.083513252047496
 30
0.0
  0
VERTEX
  5
34C
  8
0
  6
CONTINUOUS
 10
-22.479034265949061
 20
-95.296007402440907
 30
0.0
  0
VERTEX
  5
34D
  8
0
  6
CONTINUOUS
 10
-22.070379481929422
 20
-100.49634030034009
 30
0.0
  0
VERTEX
  5
34E
  8
0
  6
CONTINUOUS
 10
-22.492781765015629
 20
-104.6702774867025
 30
0.0
  0
VERTEX
  5
34F
  8
0
  6
CONTINUOUS
 10
-23.78551421464072
 20
-108.8120452193747
 30
0.0
  0
VERTEX
  5
350
  8
0
  6
CONTINUOUS
 10
-25.829776666860571
 20
-112.5644843627654
 30
0.0
  0
VERTEX
  5
351
  8
0
  6
CONTINUOUS
 10
-28.542417438076779
 20
-115.8433704052235
 30
0.0
  0
VERTEX
  5
352
  8
0
  6
CONTINUOUS
 10
-31.8030424473728
 20
-118.5314204703236
 30
0.0
  0
VERTEX
  5
353
  8
0
  6
CONTINUOUS
 10
-35.610406457290431
 20
-120.56395846696211
 30
0.0
  0
VERTEX
  5
354
  8
0
  6
CONTINUOUS
 10
-39.85028796379703
 20
-121.8600013513812
 30
0.0
  0
VERTEX
  5
355
  8
0
  6
CONTINUOUS
 10
-44.1462361317842
 20
-122.2774839615182
 30
0.0
  0
VERTEX
  5
356
  8
0
  6
CONTINUOUS
 10
-48.48889437973785
 20
-121.8833123287417
 30
0.0
  0
VERTEX
  5
357
  8
0
  6
CONTINUOUS
 10
-52.68731116323525
 20
-120.67346335766361
 30
0.0
  0
VERTEX
  5
358
  8
0
  6
CONTINUOUS
 10
-56.609195524602171
 20
-118.65750818913109
 30
0.0
  0
VERTEX
  5
359
  8
0
  6
CONTINUOUS
 10
-60.493247440676733
 20
-115.5089092113593
 30
0.0
  0
SEQEND
  5
35A
  8
0
  6
CONTINUOUS
  0
POLYLINE
  5
2C
  8
0
  6
CONTINUOUS
 66
     1
 10
0.0
 20
0.0
 30
0.0
  0
VERTEX
  5
35B
  8
0
  6
CONTINUOUS
 10
-19.622611807001611
 20
-77.589028099232024
 30
0.0
  0
VERTEX
  5
35C
  8
0
  6
CONTINUOUS
 10
-17.762423324279919
 20
-80.027193979177099
 30
0.0
  0
VERTEX
  5
35D
  8
0
  6
CONTINUOUS
 10
-13.59416445070233
 20
-86.704624492833588
 30
0.0
  0
VERTEX
  5
35E
  8
0
  6
CONTINUOUS
 10
-10.90875047256794
 20
-92.501985107242831
 30
0.0
  0
VERTEX
  5
35F
  8
0
  6
CONTINUOUS
 10
-9.0838503066567942
 20
-99.024376924711873
 30
0.0
  0
VERTEX
  5
360
  8
0
  6
CONTINUOUS
 10
-8.4822707393623613
 20
-105.5768231978256
 30
0.0
  0
VERTEX
  5
361
  8
0
  6
CONTINUOUS
 10
-9.0211742713795093
 20
-111.45728952051481
 30
0.0
  0
VERTEX
  5
362
  8
0
  6
CONTINUOUS
 10
-10.767673842626939
 20
-117.2541213912978
 30
0.0
  0
VERTEX
  5
363
  8
0
  6
CONTINUOUS
 10
-13.570347713451429
 20
-122.48974260208411
 30
0.0
  0
VERTEX
  5
364
  8
0
  6
CONTINUOUS
 10
-17.308817128042481
 20
-127.03960571709059
 30
0.0
  0
VERTEX
  5
365
  8
0
  6
CONTINUOUS
 10
-21.854319967861692
 20
-130.77437388314021
 30
0.0
  0
VERTEX
  5
366
  8
0
  6
CONTINUOUS
 10
-27.157835746061519
 20
-133.57519329449391
 30
0.0
  0
VERTEX
  5
367
  8
0
  6
CONTINUOUS
 10
-33.03769669174693
 20
-135.32302623629201
 30
0.0
  0
VERTEX
  5
368
  8
0
  6
CONTINUOUS
 10
-39.022717581976259
 20
-135.86149297531981
 30
0.0
  0
VERTEX
  5
369
  8
0
  6
CONTINUOUS
 10
-45.02614127240831
 20
-135.27223558198099
 30
0.0
  0
VERTEX
  5
36A
  8
0
  6
CONTINUOUS
 10
-50.854012297719407
 20
-133.5587024248718
 30
0.0
  0
VERTEX
  5
36B
  8
0
  6
CONTINUOUS
 10
-56.32541003498234
 20
-130.7255756221021
 30
0.0
  0
VERTEX
  5
36C
  8
0
  6
CONTINUOUS
 10
-61.338465812179336
 20
-126.7043552253313
 30
0.0
  0
VERTEX
  5
36D
  8
0
  6
CONTINUOUS
 10
-127.8984643427593
 20
-60.186597305206789
 30
0.0
  0
VERTEX
  5
36E
  8
0
  6
CONTINUOUS
 10
-131.87998825755651
 20
-55.275245441404401
 30
0.0
  0
VERTEX
  5
36F
  8
0
  6
CONTINUOUS
 10
-134.65973046897651
 20
-49.927575207511318
 30
0.0
  0
VERTEX
  5
370
  8
0
  6
CONTINUOUS
 10
-136.3154881093368
 20
-44.235445419204503
 30
0.0
  0
VERTEX
  5
371
  8
0
  6
CONTINUOUS
 10
-136.84792020135939
 20
-38.372031282480208
 30
0.0
  0
VERTEX
  5
372
  8
0
  6
CONTINUOUS
 10
-136.25892718375709
 20
-32.522669247981831
 30
0.0
  0
VERTEX
  5
373
  8
0
  6
CONTINUOUS
 10
-134.4713920160132
 20
-26.766874896199621
 30
0.0
  0
VERTEX
  5
374
  8
0
  6
CONTINUOUS
 10
-131.6822127682336
 20
-21.613642892014301
 30
0.0
  0
VERTEX
  5
375
  8
0
  6
CONTINUOUS
 10
-127.4470191238093
 20
-17.10932651427817
 30
0.0
  0
VERTEX
  5
376
  8
0
  6
CONTINUOUS
 10
-122.2468835494029
 20
-13.33546946394752
 30
0.0
  0
VERTEX
  5
377
  8
0
  6
CONTINUOUS
 10
-116.25778783664821
 20
-10.47587468841173
 30
0.0
  0
VERTEX
  5
378
  8
0
  6
CONTINUOUS
 10
-109.6225433343234
 20
-8.6639581125002145
 30
0.0
  0
VERTEX
  5
379
  8
0
  6
CONTINUOUS
 10
-102.78490540482331
 20
-8.0640778232637889
 30
0.0
  0
VERTEX
  5
37A
  8
0
  6
CONTINUOUS
 10
-86.737307407656786
 20
-7.8564347272286801
 30
0.0
  0
VERTEX
  5
37B
  8
0
  6
CONTINUOUS
 10
-80.503615008784521
 20
-7.8564347272286801
 30
0.0
  0
VERTEX
  5
37C
  8
0
  6
CONTINUOUS
 10
-74.81369983956013
 20
-7.8564376031382182
 30
0.0
  0
VERTEX
  5
37D
  8
0
  6
CONTINUOUS
 10
-45.389894452766796
 20
-7.8564323339068309
 30
0.0
  0
SEQEND
  5
37E
  8
0
  6
CONTINUOUS
  0
POLYLINE
  5
2D
  8
0
  6
CONTINUOUS
 66
     1
 10
0.0
 20
0.0
 30
0.0
  0
VERTEX
  5
37F
  8
0
  6
CONTINUOUS
 10
-19.622611807001611
 20
-77.589028099232024
 30
0.0
  0
VERTEX
  5
380
  8
0
  6
CONTINUOUS
 10
-19.093279415831429
 20
-79.921290715980135
 30
0.0
  0
VERTEX
  5
381
  8
0
  6
CONTINUOUS
 10
-16.778427233926031
 20
-85.306042421806524
 30
0.0
  0
VERTEX
  5
382
  8
0
  6
CONTINUOUS
 10
-14.598766464549991
 20
-91.094598201681023
 30
0.0
  0
VERTEX
  5
383
  8
0
  6
CONTINUOUS
 10
-13.113216515240049
 20
-97.626162679773046
 30
0.0
  0
VERTEX
  5
384
  8
0
  6
CONTINUOUS
 10
-12.574811076636781
 20
-104.22856433398439
 30
0.0
  0
VERTEX
  5
385
  8
0
  6
CONTINUOUS
 10
-12.999320699139
 20
-109.6249255492492
 30
0.0
  0
VERTEX
  5
386
  8
0
  6
CONTINUOUS
 10
-14.53854260711771
 20
-114.96271045800211
 30
0.0
  0
VERTEX
  5
387
  8
0
  6
CONTINUOUS
 10
-17.06185256001066
 20
-119.7682586796444
 30
0.0
  0
VERTEX
  5
388
  8
0
  6
CONTINUOUS
 10
-20.49860496514264
 20
-123.96149141445601
 30
0.0
  0
VERTEX
  5
389
  8
0
  6
CONTINUOUS
 10
-24.783104545152881
 20
-127.475425989844
 30
0.0
  0
VERTEX
  5
38A
  8
0
  6
CONTINUOUS
 10
-29.78468874671373
 20
-130.11116045448509
 30
0.0
  0
VERTEX
  5
38B
  8
0
  6
CONTINUOUS
 10
-35.334280177937082
 20
-131.76158844980429
 30
0.0
  0
VERTEX
  5
38C
  8
0
  6
CONTINUOUS
 10
-40.970122997534773
 20
-132.27495872282549
 30
0.0
  0
VERTEX
  5
38D
  8
0
  6
CONTINUOUS
 10
-46.622058206530589
 20
-131.73662225504691
 30
0.0
  0
VERTEX
  5
38E
  8
0
  6
CONTINUOUS
 10
-52.086459585564171
 20
-130.1527707816966
 30
0.0
  0
VERTEX
  5
38F
  8
0
  6
CONTINUOUS
 10
-57.189448841332542
 20
-127.53312104390059
 30
0.0
  0
VERTEX
  5
390
  8
0
  6
CONTINUOUS
 10
-61.938175594896869
 20
-123.72178375107529
 30
0.0
  0
SEQEND
  5
391
  8
0
  6
CONTINUOUS
  0
POLYLINE
  5
2E
  8
0
  6
CONTINUOUS
 66
     1
 10
0.0
 20
0.0
 30
0.0
  0
VERTEX
  5
392
  8
0
  6
CONTINUOUS
 10
-28.355339555524768
 20
-73.24068387201703
 30
0.0
  0
VERTEX
  5
393
  8
0
  6
CONTINUOUS
 10
-26.169739930865639
 20
-75.803305241031808
 30
0.0
  0
VERTEX
  5
394
  8
0
  6
CONTINUOUS
 10
-24.272155791917449
 20
-78.458258620744502
 30
0.0
  0
VERTEX
  5
395
  8
0
  6
CONTINUOUS
 10
-20.665735942999682
 20
-83.50840736174257
 30
0.0
  0
VERTEX
  5
396
  8
0
  6
CONTINUOUS
 10
-19.4699409927284
 20
-88.765163247495707
 30
0.0
  0
VERTEX
  5
397
  8
0
  6
CONTINUOUS
 10
-17.873905279224829
 20
-94.742796965748255
 30
0.0
  0
VERTEX
  5
398
  8
0
  6
CONTINUOUS
 10
-17.361477563006911
 20
-100.7831680197026
 30
0.0
  0
VERTEX
  5
399
  8
0
  6
CONTINUOUS
 10
-17.841475279112839
 20
-105.83601798132921
 30
0.0
  0
VERTEX
  5
39A
  8
0
  6
CONTINUOUS
 10
-19.369470828847589
 20
-110.85157957424261
 30
0.0
  0
VERTEX
  5
39B
  8
0
  6
CONTINUOUS
 10
-21.810740238959919
 20
-115.38495948217989
 30
0.0
  0
VERTEX
  5
39C
  8
0
  6
CONTINUOUS
 10
-25.0627749809011
 20
-119.3300475373175
 30
0.0
  0
VERTEX
  5
39D
  8
0
  6
CONTINUOUS
 10
-29.001548688190681
 20
-122.56366798326459
 30
0.0
  0
VERTEX
  5
39E
  8
0
  6
CONTINUOUS
 10
-33.600317347825111
 20
-124.9923929936119
 30
0.0
  0
VERTEX
  5
39F
  8
0
  6
CONTINUOUS
 10
-38.708862307682203
 20
-126.5159439761521
 30
0.0
  0
VERTEX
  5
3A0
  8
0
  6
CONTINUOUS
 10
-43.899440151690342
 20
-126.9861713132609
 30
0.0
  0
VERTEX
  5
3A1
  8
0
  6
CONTINUOUS
 10
-49.120654844611273
 20
-126.4788625081423
 30
0.0
  0
VERTEX
  5
3A2
  8
0
  6
CONTINUOUS
 10
-54.179853641459758
 20
-124.99518233948579
 30
0.0
  0
VERTEX
  5
3A3
  8
0
  6
CONTINUOUS
 10
-58.920062923885133
 20
-122.5417057015609
 30
0.0
  0
VERTEX
  5
3A4
  8
0
  6
CONTINUOUS
 10
-63.407690629841909
 20
-118.9209406352024
 30
0.0
  0
SEQEND
  5
3A5
  8
0
  6
CONTINUOUS
  0
POLYLINE
  5
2F
  8
0
  6
CONTINUOUS
 66
     1
 10
0.0
 20
0.0
 30
0.0
  0
VERTEX
  5
3A6
  8
0
  6
CONTINUOUS
 10
-136.88485990232871
 20
-44.346425443573722
 30
0.0
  0
VERTEX
  5
3A7
  8
0
  6
CONTINUOUS
 10
-137.4279972715222
 20
-38.372406771121518
 30
0.0
  0
VERTEX
  5
3A8
  8
0
  6
CONTINUOUS
 10
-136.82800012148539
 20
-32.410177687913453
 30
0.0
  0
VERTEX
  5
3A9
  8
0
  6
CONTINUOUS
 10
-135.00712688027679
 20
-26.544424404829829
 30
0.0
  0
VERTEX
  5
3AA
  8
0
  6
CONTINUOUS
 10
-132.15442866537711
 20
-21.276735750788511
 30
0.0
  0
VERTEX
  5
3AB
  8
0
  6
CONTINUOUS
 10
-127.8331215703041
 20
-16.676413648783502
 30
0.0
  0
VERTEX
  5
3AC
  8
0
  6
CONTINUOUS
 10
-122.54628057477051
 20
-12.83862089516424
 30
0.0
  0
VERTEX
  5
3AD
  8
0
  6
CONTINUOUS
 10
-116.46304054177421
 20
-9.9333201950742094
 30
0.0
  0
VERTEX
  5
3AE
  8
0
  6
CONTINUOUS
 10
-109.7281755165594
 20
-8.0935786251187078
 30
0.0
  0
VERTEX
  5
3AF
  8
0
  6
CONTINUOUS
 10
-102.8130714001345
 20
-7.4846808527485607
 30
0.0
  0
VERTEX
  5
3B0
  8
0
  6
CONTINUOUS
 10
-86.742792230187021
 20
-7.5259458628666369
 30
0.0
  0
VERTEX
  5
3B1
  8
0
  6
CONTINUOUS
 10
-80.50361117554624
 20
-7.5220803343664651
 30
0.0
  0
VERTEX
  5
3B2
  8
0
  6
CONTINUOUS
 10
-74.81369983956013
 20
-7.5220846462689712
 30
0.0
  0
VERTEX
  5
3B3
  8
0
  6
CONTINUOUS
 10
-45.38988295697547
 20
-7.5220808130307653
 30
0.0
  0
VERTEX
  5
3B4
  8
0
  6
CONTINUOUS
 10
-42.037757376956591
 20
-7.4216844066180618
 30
0.0
  0
SEQEND
  5
3B5
  8
0
  6
CONTINUOUS
  0
POLYLINE
  5
30
  8
0
  6
CONTINUOUS
 66
     1
 10
0.0
 20
0.0
 30
0.0
  0
VERTEX
  5
3B6
  8
0
  6
CONTINUOUS
 10
-127.5151991399612
 20
-57.466358628072179
 30
0.0
  0
VERTEX
  5
3B7
  8
0
  6
CONTINUOUS
 10
-131.20609446189411
 20
-52.845420786030751
 30
0.0
  0
VERTEX
  5
3B8
  8
0
  6
CONTINUOUS
 10
-133.6385494563377
 20
-47.875684195237277
 30
0.0
  0
VERTEX
  5
3B9
  8
0
  6
CONTINUOUS
 10
-134.99337171865719
 20
-42.537677056751363
 30
0.0
  0
VERTEX
  5
3BA
  8
0
  6
CONTINUOUS
 10
-135.27729897531751
 20
-36.993842486347859
 30
0.0
  0
VERTEX
  5
3BB
  8
0
  6
CONTINUOUS
 10
-134.501036499566
 20
-31.435216324380299
 30
0.0
  0
VERTEX
  5
3BC
  8
0
  6
CONTINUOUS
 10
-132.589620569544
 20
-25.916361359183082
 30
0.0
  0
VERTEX
  5
3BD
  8
0
  6
CONTINUOUS
 10
-129.80763308490569
 20
-21.012225207433499
 30
0.0
  0
VERTEX
  5
3BE
  8
0
  6
CONTINUOUS
 10
-125.6542041195811
 20
-16.640313768338821
 30
0.0
  0
VERTEX
  5
3BF
  8
0
  6
CONTINUOUS
 10
-120.8575814265123
 20
-13.167441610344779
 30
0.0
  0
VERTEX
  5
3C0
  8
0
  6
CONTINUOUS
 10
-115.3063520176554
 20
-10.523292646251949
 30
0.0
  0
VERTEX
  5
3C1
  8
0
  6
CONTINUOUS
 10
-109.13493142594071
 20
-8.8435846388942476
 30
0.0
  0
VERTEX
  5
3C2
  8
0
  6
CONTINUOUS
 10
-102.6583059388975
 20
-8.2876380194582531
 30
0.0
  0
VERTEX
  5
3C3
  8
0
  6
CONTINUOUS
 10
-86.737309322314175
 20
-8.3334194356580831
 30
0.0
  0
VERTEX
  5
3C4
  8
0
  6
CONTINUOUS
 10
-80.50361117554624
 20
-8.9091161149605007
 30
0.0
  0
SEQEND
  5
3C5
  8
0
  6
CONTINUOUS
  0
POLYLINE
  5
31
  8
0
  6
CONTINUOUS
 66
     1
 10
0.0
 20
0.0
 30
0.0
  0
VERTEX
  5
3C6
  8
0
  6
CONTINUOUS
 10
-28.355339555524768
 20
-73.24068387201703
 30
0.0
  0
VERTEX
  5
3C7
  8
0
  6
CONTINUOUS
 10
-55.605934539934793
 20
-49.792395286849768
 30
0.0
  0
VERTEX
  5
3C8
  8
0
  6
CONTINUOUS
 10
-58.221143543774581
 20
-45.8650088592656
 30
0.0
  0
VERTEX
  5
3C9
  8
0
  6
CONTINUOUS
 10
-59.791132571915213
 20
-41.336272756672933
 30
0.0
  0
VERTEX
  5
3CA
  8
0
  6
CONTINUOUS
 10
-60.324614504331052
 20
-38.159303276208327
 30
0.0
  0
VERTEX
  5
3CB
  8
0
  6
CONTINUOUS
 10
-61.052354586648882
 20
-33.006896968025913
 30
0.0
  0
VERTEX
  5
3CC
  8
0
  6
CONTINUOUS
 10
-62.487385923860927
 20
-28.473151152581188
 30
0.0
  0
VERTEX
  5
3CD
  8
0
  6
CONTINUOUS
 10
-64.671721148793964
 20
-23.79568399642465
 30
0.0
  0
VERTEX
  5
3CE
  8
0
  6
CONTINUOUS
 10
-67.920614039955581
 20
-19.556007950704789
 30
0.0
  0
VERTEX
  5
3CF
  8
0
  6
CONTINUOUS
 10
-71.785623291449625
 20
-16.16028731275453
 30
0.0
  0
VERTEX
  5
3D0
  8
0
  6
CONTINUOUS
 10
-76.415572872652575
 20
-13.51048721381091
 30
0.0
  0
VERTEX
  5
3D1
  8
0
  6
CONTINUOUS
 10
-81.302054333419491
 20
-11.287260726274029
 30
0.0
  0
VERTEX
  5
3D2
  8
0
  6
CONTINUOUS
 10
-86.914757631657267
 20
-10.109194707041389
 30
0.0
  0
VERTEX
  5
3D3
  8
0
  6
CONTINUOUS
 10
-102.6200541797116
 20
-10.35561208325216
 30
0.0
  0
VERTEX
  5
3D4
  8
0
  6
CONTINUOUS
 10
-108.7815607107311
 20
-10.84215068884158
 30
0.0
  0
VERTEX
  5
3D5
  8
0
  6
CONTINUOUS
 10
-114.60257810218199
 20
-12.42643500423851
 30
0.0
  0
VERTEX
  5
3D6
  8
0
  6
CONTINUOUS
 10
-119.8240207688081
 20
-14.912958876030521
 30
0.0
  0
VERTEX
  5
3D7
  8
0
  6
CONTINUOUS
 10
-124.3190873738792
 20
-18.16693835275402
 30
0.0
  0
VERTEX
  5
3D8
  8
0
  6
CONTINUOUS
 10
-127.849963026251
 20
-21.885981712238099
 30
0.0
  0
VERTEX
  5
3D9
  8
0
  6
CONTINUOUS
 10
-130.12016073654479
 20
-26.102762017997069
 30
0.0
  0
VERTEX
  5
3DA
  8
0
  6
CONTINUOUS
 10
-131.636931842693
 20
-30.96337974519302
 30
0.0
  0
VERTEX
  5
3DB
  8
0
  6
CONTINUOUS
 10
-132.13644733305759
 20
-35.891745482194949
 30
0.0
  0
VERTEX
  5
3DC
  8
0
  6
CONTINUOUS
 10
-131.69171110894121
 20
-40.853437796870232
 30
0.0
  0
VERTEX
  5
3DD
  8
0
  6
CONTINUOUS
 10
-130.29862344157829
 20
-45.665321443285691
 30
0.0
  0
VERTEX
  5
3DE
  8
0
  6
CONTINUOUS
 10
-127.9587265168804
 20
-50.18178900979418
 30
0.0
  0
VERTEX
  5
3DF
  8
0
  6
CONTINUOUS
 10
-124.41383132715239
 20
-54.532332530985528
 30
0.0
  0
VERTEX
  5
3E0
  8
0
  6
CONTINUOUS
 10
-63.407690629841909
 20
-118.9209406352024
 30
0.0
  0
SEQEND
  5
3E1
  8
0
  6
CONTINUOUS
  0
POLYLINE
  5
32
  8
0
  6
CONTINUOUS
 66
     1
 10
0.0
 20
0.0
 30
0.0
  0
VERTEX
  5
3E2
  8
0
  6
CONTINUOUS
 10
-61.938175594896869
 20
-123.72178375107529
 30
0.0
  0
VERTEX
  5
3E3
  8
0
  6
CONTINUOUS
 10
-127.5151991399612
 20
-57.466358628072179
 30
0.0
  0
SEQEND
  5
3E4
  8
0
  6
CONTINUOUS
  0
POLYLINE
  5
33
  8
0
  6
CONTINUOUS
 66
     1
 10
0.0
 20
0.0
 30
0.0
 70
     1
  0
VERTEX
  5
3E5
  8
0
  6
CONTINUOUS
 10
-128.2507363702712
 20
-58.713174121016998
 30
0.0
  0
VERTEX
  5
3E6
  8
0
  6
CONTINUOUS
 10
-127.28849757557499
 20
-57.717392270733683
 30
0.0
  0
VERTEX
  5
3E7
  8
0
  6
CONTINUOUS
 10
-126.89026453072179
 20
-57.70836137322771
 30
0.0
  0
VERTEX
  5
3E8
  8
0
  6
CONTINUOUS
 10
-126.616341378583
 20
-57.783631620750178
 30
0.0
  0
VERTEX
  5
3E9
  8
0
  6
CONTINUOUS
 10
-126.03491753134431
 20
-58.196585371685572
 30
0.0
  0
VERTEX
  5
3EA
  8
0
  6
CONTINUOUS
 10
-125.23451071967639
 20
-58.884504448676353
 30
0.0
  0
VERTEX
  5
3EB
  8
0
  6
CONTINUOUS
 10
-124.33698441419151
 20
-59.742485620362132
 30
0.0
  0
VERTEX
  5
3EC
  8
0
  6
CONTINUOUS
 10
-123.47896875905511
 20
-60.640000433979203
 30
0.0
  0
VERTEX
  5
3ED
  8
0
  6
CONTINUOUS
 10
-122.7911033199358
 20
-61.44042448541061
 30
0.0
  0
VERTEX
  5
3EE
  8
0
  6
CONTINUOUS
 10
-122.37810933765429
 20
-62.021842584753671
 30
0.0
  0
VERTEX
  5
3EF
  8
0
  6
CONTINUOUS
 10
-122.3028256836065
 20
-62.295788728475209
 30
0.0
  0
VERTEX
  5
3F0
  8
0
  6
CONTINUOUS
 10
-122.3118086872132
 20
-62.694025602643173
 30
0.0
  0
VERTEX
  5
3F1
  8
0
  6
CONTINUOUS
 10
-123.3076020293643
 20
-63.656277807788094
 30
0.0
  0
VERTEX
  5
3F2
  8
0
  6
CONTINUOUS
 10
-123.6027862984044
 20
-63.575164492781113
 30
0.0
  0
VERTEX
  5
3F3
  8
0
  6
CONTINUOUS
 10
-124.2292860851379
 20
-63.130117913686263
 30
0.0
  0
VERTEX
  5
3F4
  8
0
  6
CONTINUOUS
 10
-125.091723315886
 20
-62.388948345909839
 30
0.0
  0
VERTEX
  5
3F5
  8
0
  6
CONTINUOUS
 10
-126.0588530479765
 20
-61.464394485493393
 30
0.0
  0
VERTEX
  5
3F6
  8
0
  6
CONTINUOUS
 10
-126.9833800874955
 20
-60.497291574300348
 30
0.0
  0
VERTEX
  5
3F7
  8
0
  6
CONTINUOUS
 10
-127.7245803054841
 20
-59.634846680999189
 30
0.0
  0
VERTEX
  5
3F8
  8
0
  6
CONTINUOUS
 10
-128.16962879923639
 20
-59.008320073368147
 30
0.0
  0
SEQEND
  5
3F9
  8
0
  6
CONTINUOUS
  0
POLYLINE
  5
34
  8
0
  6
CONTINUOUS
 66
     1
 10
0.0
 20
0.0
 30
0.0
  0
VERTEX
  5
3FA
  8
0
  6
CONTINUOUS
 10
-127.28849757557499
 20
-57.717392270733683
 30
0.0
  0
VERTEX
  5
3FB
  8
0
  6
CONTINUOUS
 10
-127.206870834201
 20
-58.014565099808408
 30
0.0
  0
VERTEX
  5
3FC
  8
0
  6
CONTINUOUS
 10
-126.7587667041808
 20
-58.645306378424422
 30
0.0
  0
VERTEX
  5
3FD
  8
0
  6
CONTINUOUS
 10
-126.0125663466271
 20
-59.513644151690308
 30
0.0
  0
VERTEX
  5
3FE
  8
0
  6
CONTINUOUS
 10
-125.0817575280533
 20
-60.487298965570233
 30
0.0
  0
VERTEX
  5
3FF
  8
0
  6
CONTINUOUS
 10
-124.10807397861851
 20
-61.418117365277972
 30
0.0
  0
VERTEX
  5
400
  8
0
  6
CONTINUOUS
 10
-123.23975344511619
 20
-62.164302393802039
 30
0.0
  0
VERTEX
  5
401
  8
0
  6
CONTINUOUS
 10
-122.6090294062637
 20
-62.61238736940134
 30
0.0
  0
VERTEX
  5
402
  8
0
  6
CONTINUOUS
 10
-122.3118086872132
 20
-62.694025602643173
 30
0.0
  0
SEQEND
  5
403
  8
0
  6
CONTINUOUS
  0
POLYLINE
  5
35
  8
0
  6
CONTINUOUS
 66
     1
 10
0.0
 20
0.0
 30
0.0
  0
VERTEX
  5
404
  8
0
  6
CONTINUOUS
 10
-45.389894452766796
 20
-5.9347474449624027
 30
0.0
  0
VERTEX
  5
405
  8
0
  6
CONTINUOUS
 10
-45.389894452766796
 20
-6.8930392950606318
 30
0.0
  0
VERTEX
  5
406
  8
0
  6
CONTINUOUS
 10
-45.389894452766796
 20
-7.2075559814752372
 30
0.0
  0
VERTEX
  5
407
  8
0
  6
CONTINUOUS
 10
-45.38988295697547
 20
-7.5220808130307653
 30
0.0
  0
VERTEX
  5
408
  8
0
  6
CONTINUOUS
 10
-45.389879127660649
 20
-7.8025553891922188
 30
0.0
  0
VERTEX
  5
409
  8
0
  6
CONTINUOUS
 10
-45.444666056462019
 20
-8.3302560332124092
 30
0.0
  0
VERTEX
  5
40A
  8
0
  6
CONTINUOUS
 10
-45.486464126032423
 20
-8.6916331904392816
 30
0.0
  0
VERTEX
  5
40B
  8
0
  6
CONTINUOUS
 10
-45.58196480448386
 20
-9.5175651198856066
 30
0.0
  0
SEQEND
  5
40C
  8
0
  6
CONTINUOUS
  0
DIMENSION
  5
69
  8
COTATION-JACOBDELAFON
  2
*D1
 10
-158.8514810004387
 20
0.0429648174017275
 30
0.0
 11
-161.28319996360369
 21
-72.457031350340898
 31
0.0
 70
     0
 13
-54.458432090811129
 23
-144.95702751808349
 33
0.0
 14
-144.20960686015411
 24
0.0429648174017234
 34
0.0
 50
270.0
1001
ACAD
1000
DSTYLE
1002
{
1070
   271
1070
     2
1002
}
  0
DIMENSION
  5
6A
  8
COTATION-JACOBDELAFON
  2
*D2
 10
0.042972445188767
 20
6.9295141786572589
 30
0.0
 11
-72.457028513120775
 21
9.3612331418223356
 31
0.0
 70
     0
 13
-144.9570294714303
 23
-0.7044510886501911
 33
0.0
 14
0.0429724451887665
 24
-0.7044539645597283
 34
0.0
 50
180.0
1001
ACAD
1000
DSTYLE
1002
{
1070
   271
1070
     0
1002
}
  0
INSERT
  5
106
 67
     1
  8
0
  6
CONTINUOUS
  2
ADCADD_ZZ
 10
0.0
 20
0.0
 30
0.0
1001
ADCADD_ZZ
1070
   205
1070
    14
1070
   209
1070
     1
1070
   231
1070
     0
1070
   235
1070
     0
1070
   236
1070
     4
1070
   237
1070
     2
1070
   238
1070
     4
1070
   239
1070
     2
1070
   240
1070
     0
1070
   241
1070
  4096
1070
   242
1070
     2
1070
   244
1070
     0
1070
   245
1070
     1
1070
   303
1040
0.1
1070
   304
1040
4.0
1070
   305
1040
1.0
1070
   306
1040
1.0
1070
   337
1040
0.0
1070
   338
1040
0.3048
1070
   339
1040
0.0625
1070
   340
1040
96.0
1070
   341
1040
4.0
1070
   342
1040
1.0
1070
   530
1010
0.0
1020
0.0
1030
0.0
1070
   531
1010
0.0
1020
0.0
1030
0.0
1070
   107
1000

1070
   108
1000
Architectural Desktop
1070
   135
1000
L120
1070
   136
1000
'
1070
   137
1000
m
1001
SDSK_PMN
1070
   100
1000
ACADARCH
1070
   300
1040
2453076.578753808
  0
ENDSEC
  0
EOF
