  0
SECTION
  2
HEADER
  9
$ACADVER
  1
AC1009
  9
$INSBASE
 10
-0.0000000000000142
 20
0.0
 30
0.0
  9
$EXTMIN
 10
-120.87415434635071
 20
-44.199999999999982
 30
0.0
  9
$EXTMAX
 10
103.1264006603668
 20
11.637798428286359
 30
0.0
  9
$LIMMIN
 10
0.0
 20
0.0
  9
$LIMMAX
 10
12.0
 20
9.0
  9
$ORTHOMODE
 70
     1
  9
$REGENMODE
 70
     1
  9
$FILLMODE
 70
     1
  9
$QTEXTMODE
 70
     0
  9
$MIRRTEXT
 70
     1
  9
$DRAGMODE
 70
     2
  9
$LTSCALE
 40
1.0
  9
$OSMODE
 70
     1
  9
$ATTMODE
 70
     1
  9
$TEXTSIZE
 40
0.2
  9
$TRACEWID
 40
0.05
  9
$TEXTSTYLE
  7
STANDARD
  9
$CLAYER
  8
0
  9
$CELTYPE
  6
CONTINUOUS
  9
$CECOLOR
 62
   256
  9
$DIMSCALE
 40
1.0
  9
$DIMASZ
 40
0.18
  9
$DIMEXO
 40
0.0625
  9
$DIMDLI
 40
0.38
  9
$DIMRND
 40
0.0
  9
$DIMDLE
 40
0.0
  9
$DIMEXE
 40
0.18
  9
$DIMTP
 40
0.0
  9
$DIMTM
 40
0.0
  9
$DIMTXT
 40
0.18
  9
$DIMCEN
 40
0.09
  9
$DIMTSZ
 40
0.0
  9
$DIMTOL
 70
     0
  9
$DIMLIM
 70
     0
  9
$DIMTIH
 70
     1
  9
$DIMTOH
 70
     1
  9
$DIMSE1
 70
     0
  9
$DIMSE2
 70
     0
  9
$DIMTAD
 70
     0
  9
$DIMZIN
 70
     0
  9
$DIMBLK
  1

  9
$DIMASO
 70
     1
  9
$DIMSHO
 70
     1
  9
$DIMPOST
  1

  9
$DIMAPOST
  1

  9
$DIMALT
 70
     0
  9
$DIMALTD
 70
     2
  9
$DIMALTF
 40
25.399999999999999
  9
$DIMLFAC
 40
1.0
  9
$DIMTOFL
 70
     0
  9
$DIMTVP
 40
0.0
  9
$DIMTIX
 70
     0
  9
$DIMSOXD
 70
     0
  9
$DIMSAH
 70
     0
  9
$DIMBLK1
  1

  9
$DIMBLK2
  1

  9
$DIMSTYLE
  2
STANDARD
  9
$DIMCLRD
 70
     0
  9
$DIMCLRE
 70
     0
  9
$DIMCLRT
 70
     0
  9
$DIMTFAC
 40
1.0
  9
$DIMGAP
 40
0.09
  9
$LUNITS
 70
     2
  9
$LUPREC
 70
     4
  9
$SKETCHINC
 40
0.1
  9
$FILLETRAD
 40
0.0
  9
$AUNITS
 70
     0
  9
$AUPREC
 70
     2
  9
$MENU
  1
.
  9
$ELEVATION
 40
0.0
  9
$PELEVATION
 40
0.0
  9
$THICKNESS
 40
0.0
  9
$LIMCHECK
 70
     0
  9
$BLIPMODE
 70
     0
  9
$CHAMFERA
 40
0.0
  9
$CHAMFERB
 40
0.0
  9
$SKPOLY
 70
     0
  9
$TDCREATE
 40
2453070.689044293
  9
$TDUPDATE
 40
2453076.5788942701
  9
$TDINDWG
 40
0.0404002199
  9
$TDUSRTIMER
 40
0.0404002199
  9
$USRTIMER
 70
     1
  9
$ANGBASE
 50
0.0
  9
$ANGDIR
 70
     0
  9
$PDMODE
 70
     0
  9
$PDSIZE
 40
0.0
  9
$PLINEWID
 40
0.0
  9
$COORDS
 70
     1
  9
$SPLFRAME
 70
     0
  9
$SPLINETYPE
 70
     6
  9
$SPLINESEGS
 70
     8
  9
$ATTDIA
 70
     1
  9
$ATTREQ
 70
     1
  9
$HANDLING
 70
 22529
  9
$HANDSEED
  5
46C
  9
$SURFTAB1
 70
     6
  9
$SURFTAB2
 70
     6
  9
$SURFTYPE
 70
     6
  9
$SURFU
 70
     6
  9
$SURFV
 70
     6
  9
$UCSNAME
  2

  9
$UCSORG
 10
0.0
 20
0.0
 30
0.0
  9
$UCSXDIR
 10
1.0
 20
0.0
 30
0.0
  9
$UCSYDIR
 10
0.0
 20
1.0
 30
0.0
  9
$PUCSNAME
  2

  9
$PUCSORG
 10
0.0
 20
0.0
 30
0.0
  9
$PUCSXDIR
 10
1.0
 20
0.0
 30
0.0
  9
$PUCSYDIR
 10
0.0
 20
1.0
 30
0.0
  9
$USERI1
 70
     0
  9
$USERI2
 70
     0
  9
$USERI3
 70
     0
  9
$USERI4
 70
     0
  9
$USERI5
 70
     0
  9
$USERR1
 40
0.0
  9
$USERR2
 40
0.0
  9
$USERR3
 40
0.0
  9
$USERR4
 40
0.0
  9
$USERR5
 40
0.0
  9
$WORLDVIEW
 70
     1
  9
$SHADEDGE
 70
     3
  9
$SHADEDIF
 70
    70
  9
$TILEMODE
 70
     1
  9
$MAXACTVP
 70
    64
  9
$PLIMCHECK
 70
     0
  9
$PEXTMIN
 10
-3.6172137408635758
 20
-2.659570856866992
 30
0.0
  9
$PEXTMAX
 10
293.38278625913642
 20
439.0943489526984
 30
0.0
  9
$PLIMMIN
 10
-0.1979161059762549
 20
-0.2679166643638311
  9
$PLIMMAX
 10
11.493750144177531
 20
7.9987497780266699
  9
$UNITMODE
 70
     0
  9
$VISRETAIN
 70
     1
  9
$PLINEGEN
 70
     0
  9
$PSLTSCALE
 70
     1
  0
ENDSEC
  0
SECTION
  2
TABLES
  0
TABLE
  2
VPORT
 70
     2
  0
VPORT
  2
*ACTIVE
 70
     0
 10
0.0
 20
0.0
 11
1.0
 21
1.0
 12
-2.693766232357504
 22
-16.282445516656701
 13
0.0
 23
0.0
 14
1.0
 24
1.0
 15
0.0
 25
0.0
 16
0.0
 26
0.0
 36
1.0
 17
0.0
 27
0.0
 37
0.0
 40
123.3305966228591
 41
1.928853754940711
 42
50.0
 43
0.0
 44
0.0
 50
0.0
 51
0.0
 71
     0
 72
   100
 73
     1
 74
     1
 75
     0
 76
     0
 77
     0
 78
     0
  0
ENDTAB
  0
TABLE
  2
LTYPE
 70
     1
  0
LTYPE
  2
CONTINUOUS
 70
     0
  3
Solid line
 72
    65
 73
     0
 40
0.0
  0
ENDTAB
  0
TABLE
  2
LAYER
 70
     3
  0
LAYER
  2
0
 70
     0
 62
     7
  6
CONTINUOUS
  0
LAYER
  2
DEFPOINTS
 70
     0
 62
     7
  6
CONTINUOUS
  0
LAYER
  2
COTATION-JACOBDELAFON
 70
     0
 62
     8
  6
CONTINUOUS
  0
ENDTAB
  0
TABLE
  2
STYLE
 70
     2
  0
STYLE
  2
STANDARD
 70
     0
 40
0.0
 41
1.0
 50
0.0
 71
     0
 42
0.2
  3
txt
  4

  0
STYLE
  2
JACOB-DELAFON
 70
     0
 40
0.0
 41
1.0
 50
0.0
 71
     0
 42
2.5
  3
txt
  4

  0
ENDTAB
  0
TABLE
  2
VIEW
 70
     0
  0
ENDTAB
  0
TABLE
  2
UCS
 70
     0
  0
ENDTAB
  0
TABLE
  2
APPID
 70
     8
  0
APPID
  2
ACAD
 70
     0
  0
APPID
  2
ACAECLAYERSTANDARD
 70
     0
  0
APPID
  2
ADCADD_ZZ
 70
     0
  0
APPID
  2
SDSK_PMN
 70
     0
  0
APPID
  2
AECBASE
 70
     0
  0
APPID
  2
AEC_DWGVARSSETUP_DATA
 70
     0
  0
APPID
  2
AEC_DISPREPCONFIG_DATA
 70
     0
  0
APPID
  2
AEC_DISPREPSET_DATA
 70
     0
  0
ENDTAB
  0
TABLE
  2
DIMSTYLE
 70
     2
  0
DIMSTYLE
  2
STANDARD
 70
     0
  3

  4

  5

  6

  7

 40
1.0
 41
0.18
 42
0.0625
 43
0.38
 44
0.18
 45
0.0
 46
0.0
 47
0.0
 48
0.0
140
0.18
141
0.09
142
0.0
143
25.399999999999999
144
1.0
145
0.0
146
1.0
147
0.09
 71
     0
 72
     0
 73
     1
 74
     1
 75
     0
 76
     0
 77
     0
 78
     0
170
     0
171
     2
172
     0
173
     0
174
     0
175
     0
176
     0
177
     0
178
     0
  0
DIMSTYLE
  2
COTATION-JACOB-DELAFON
 70
     0
  3

  4

  5
OBLIQUE
  6

  7

 40
1.0
 41
1.8
 42
0.625
 43
3.7999999999999989
 44
1.8
 45
0.0
 46
0.0
 47
0.0
 48
0.0
140
3.0
141
0.9
142
0.0
143
25.399999999999999
144
1.0
145
0.0
146
1.0
147
0.9
 71
     0
 72
     0
 73
     0
 74
     0
 75
     0
 76
     0
 77
     1
 78
    12
170
     0
171
     2
172
     0
173
     0
174
     0
175
     0
176
     0
177
     0
178
     0
  0
ENDTAB
  0
ENDSEC
  0
SECTION
  2
BLOCKS
  0
BLOCK
  8
0
  2
$MODEL_SPACE
 70
     0
 10
0.0
 20
0.0
 30
0.0
  3
$MODEL_SPACE
  1

  0
ENDBLK
  5
9
  8
0
  0
BLOCK
 67
     1
  8
0
  2
$PAPER_SPACE
 70
     0
 10
0.0
 20
0.0
 30
0.0
  3
$PAPER_SPACE
  1

  0
ENDBLK
  5
E
 67
     1
  8
0
  0
BLOCK
  8
0
  2
_OBLIQUE
 70
     0
 10
0.0
 20
0.0
 30
0.0
  3
_OBLIQUE
  1

  0
LINE
  5
34
  8
0
  6
BYBLOCK
 62
     0
 10
-0.5
 20
-0.5
 30
0.0
 11
0.5
 21
0.5
 31
0.0
  0
ENDBLK
  5
36
  8
0
  0
BLOCK
  8
0
  2
*D1
 70
     1
 10
0.0
 20
0.0
 30
0.0
  3
*D1
  1

  0
LINE
  5
AE
  8
COTATION-JACOBDELAFON
 62
     0
 10
-71.909076611909754
 20
-43.299999999999997
 30
0.0
 11
-117.92081191797421
 21
-43.299999999999983
 31
0.0
  0
LINE
  5
AF
  8
COTATION-JACOBDELAFON
 62
     0
 10
-102.10393777768959
 20
0.0000000000000002
 30
0.0
 11
-117.92081191797421
 21
0.0000000000000047
 31
0.0
  0
LINE
  5
B0
  8
COTATION-JACOBDELAFON
 62
     0
 10
-116.12081191797419
 20
-43.299999999999983
 30
0.0
 11
-116.12081191797419
 21
0.0000000000000041
 31
0.0
  0
INSERT
  5
B1
  8
COTATION-JACOBDELAFON
 62
     0
  2
_OBLIQUE
 10
-116.12081191797419
 20
-43.299999999999983
 30
0.0
 41
1.8
 42
1.8
 43
1.8
 50
270.0
  0
INSERT
  5
B2
  8
COTATION-JACOBDELAFON
 62
     0
  2
_OBLIQUE
 10
-116.12081191797419
 20
0.0000000000000041
 30
0.0
 41
1.8
 42
1.8
 43
1.8
 50
90.0
  0
TEXT
  5
B3
  8
0
  6
CONTINUOUS
 62
     0
 10
-117.08015707486371
 20
-25.659890859481582
 30
0.0
 40
3.0
  1
43.3
 50
90.0
  7
JACOB-DELAFON
  0
POINT
  5
B4
  8
DEFPOINTS
 62
     0
 10
-71.284076611909754
 20
-43.299999999999997
 30
0.0
  0
POINT
  5
B5
  8
DEFPOINTS
 62
     0
 10
-101.47893777768959
 20
0.0
 30
0.0
  0
POINT
  5
B6
  8
DEFPOINTS
 62
     0
 10
-116.12081191797419
 20
0.0000000000000041
 30
0.0
  0
ENDBLK
  5
6B
  8
0
  0
BLOCK
  8
0
  2
*D2
 70
     1
 10
0.0
 20
0.0
 30
0.0
  3
*D2
  1

  0
LINE
  5
DB
  8
COTATION-JACOBDELAFON
 62
     0
 10
-102.1578108097918
 20
0.093309395503717
 30
0.0
 11
-102.1578108097918
 21
8.6865023846301561
 31
0.0
  0
LINE
  5
DC
  8
COTATION-JACOBDELAFON
 62
     0
 10
102.22640066036681
 20
-0.1224628826772947
 30
0.0
 11
102.22640066036681
 21
8.6865023846301543
 31
0.0
  0
LINE
  5
DD
  8
COTATION-JACOBDELAFON
 62
     0
 10
-102.1578108097918
 20
6.8865023846301554
 30
0.0
 11
102.22640066036681
 21
6.8865023846301554
 31
0.0
  0
INSERT
  5
DE
  8
COTATION-JACOBDELAFON
 62
     0
  2
_OBLIQUE
 10
-102.1578108097918
 20
6.8865023846301554
 30
0.0
 41
1.8
 42
1.8
 43
1.8
 50
180.0
  0
INSERT
  5
DF
  8
COTATION-JACOBDELAFON
 62
     0
  2
_OBLIQUE
 10
102.22640066036681
 20
6.8865023846301554
 30
0.0
 41
1.8
 42
1.8
 43
1.8
  0
TEXT
  5
E0
  8
0
  6
CONTINUOUS
 62
     0
 10
-3.4220488673455449
 20
7.843801156799322
 30
0.0
 40
3.0
  1
204
  7
JACOB-DELAFON
  0
POINT
  5
E1
  8
DEFPOINTS
 62
     0
 10
-102.1578108097918
 20
-0.5316906044962831
 30
0.0
  0
POINT
  5
E2
  8
DEFPOINTS
 62
     0
 10
102.22640066036681
 20
-0.7474628826772947
 30
0.0
  0
POINT
  5
E3
  8
DEFPOINTS
 62
     0
 10
102.22640066036681
 20
6.8865023846301554
 30
0.0
  0
ENDBLK
  5
77
  8
0
  0
BLOCK
  8
0
  2
ADCADD_ZZ
 70
     0
 10
0.0
 20
0.0
 30
0.0
  3
ADCADD_ZZ
  1

  0
ENDBLK
  5
282
  8
0
  0
ENDSEC
  0
SECTION
  2
ENTITIES
  0
POLYLINE
  5
24
  8
0
  6
CONTINUOUS
 66
     1
 10
0.0
 20
0.0
 30
0.0
 70
     1
  0
VERTEX
  5
3E8
  8
0
  6
CONTINUOUS
 10
-102.22639299691041
 20
-2.989851530709037
 30
0.0
  0
VERTEX
  5
3E9
  8
0
  6
CONTINUOUS
 10
-102.22640066036681
 20
-0.7474628826772947
 30
0.0
  0
VERTEX
  5
3EA
  8
0
  6
CONTINUOUS
 10
-102.0892209592168
 20
-0.3159183263152714
 30
0.0
  0
VERTEX
  5
3EB
  8
0
  6
CONTINUOUS
 10
-101.8526692190282
 20
-0.2189296222146094
 30
0.0
  0
VERTEX
  5
3EC
  8
0
  6
CONTINUOUS
 10
-101.47893777768959
 20
0.0
 30
0.0
  0
VERTEX
  5
3ED
  8
0
  6
CONTINUOUS
 10
101.4789377776895
 20
0.0
 30
0.0
  0
VERTEX
  5
3EE
  8
0
  6
CONTINUOUS
 10
101.8526692190282
 20
-0.2189296222146094
 30
0.0
  0
VERTEX
  5
3EF
  8
0
  6
CONTINUOUS
 10
102.0892401178578
 20
-0.3159183263152714
 30
0.0
  0
VERTEX
  5
3F0
  8
0
  6
CONTINUOUS
 10
102.22640066036681
 20
-0.7474628826772947
 30
0.0
  0
VERTEX
  5
3F1
  8
0
  6
CONTINUOUS
 10
102.22640066036681
 20
-2.989851530709037
 30
0.0
  0
SEQEND
  5
3F2
  8
0
  6
CONTINUOUS
  0
POLYLINE
  5
25
  8
0
  6
CONTINUOUS
 66
     1
 10
0.0
 20
0.0
 30
0.0
  0
VERTEX
  5
3F3
  8
0
  6
CONTINUOUS
 10
-78.246748234396236
 20
-2.989851530709037
 30
0.0
  0
VERTEX
  5
3F4
  8
0
  6
CONTINUOUS
 10
-78.21649290855953
 20
-3.1501097307843491
 30
0.0
  0
VERTEX
  5
3F5
  8
0
  6
CONTINUOUS
 10
-78.135681760902926
 20
-3.587846359911298
 30
0.0
  0
VERTEX
  5
3F6
  8
0
  6
CONTINUOUS
 10
-78.024730239255518
 20
-4.1857798814624596
 30
0.0
  0
VERTEX
  5
3F7
  8
0
  6
CONTINUOUS
 10
-77.088608387113155
 20
-18.522635407787909
 30
0.0
  0
VERTEX
  5
3F8
  8
0
  6
CONTINUOUS
 10
-76.924579766492826
 20
-19.342441318808291
 30
0.0
  0
VERTEX
  5
3F9
  8
0
  6
CONTINUOUS
 10
-76.859900194542007
 20
-19.678713785301419
 30
0.0
  0
VERTEX
  5
3FA
  8
0
  6
CONTINUOUS
 10
-76.747331683595846
 20
-20.276708614503679
 30
0.0
  0
VERTEX
  5
3FB
  8
0
  6
CONTINUOUS
 10
-76.632563760665079
 20
-20.874642136054771
 30
0.0
  0
VERTEX
  5
3FC
  8
0
  6
CONTINUOUS
 10
-75.745242798828755
 20
-39.033661864941898
 30
0.0
  0
VERTEX
  5
3FD
  8
0
  6
CONTINUOUS
 10
-75.064942447973394
 20
-41.201071255631661
 30
0.0
  0
VERTEX
  5
3FE
  8
0
  6
CONTINUOUS
 10
-73.469265221429595
 20
-42.723953309905177
 30
0.0
  0
VERTEX
  5
3FF
  8
0
  6
CONTINUOUS
 10
-71.284076611909754
 20
-43.299999999999997
 30
0.0
  0
VERTEX
  5
400
  8
0
  6
CONTINUOUS
 10
61.734429024712689
 20
-43.299999999999997
 30
0.0
  0
VERTEX
  5
401
  8
0
  6
CONTINUOUS
 10
63.983622822020862
 20
-42.723953309905177
 30
0.0
  0
VERTEX
  5
402
  8
0
  6
CONTINUOUS
 10
65.73984179652652
 20
-41.201071255631661
 30
0.0
  0
VERTEX
  5
403
  8
0
  6
CONTINUOUS
 10
66.660621408971494
 20
-39.033661864941898
 30
0.0
  0
VERTEX
  5
404
  8
0
  6
CONTINUOUS
 10
72.381284317417794
 20
-20.874642136054771
 30
0.0
  0
VERTEX
  5
405
  8
0
  6
CONTINUOUS
 10
72.579323357507079
 20
-20.276708614503679
 30
0.0
  0
VERTEX
  5
406
  8
0
  6
CONTINUOUS
 10
72.774710841684595
 20
-19.678713785301419
 30
0.0
  0
VERTEX
  5
407
  8
0
  6
CONTINUOUS
 10
72.88592292084931
 20
-19.342441318808291
 30
0.0
  0
VERTEX
  5
408
  8
0
  6
CONTINUOUS
 10
73.163263407685889
 20
-18.522635407787909
 30
0.0
  0
VERTEX
  5
409
  8
0
  6
CONTINUOUS
 10
77.595576681287938
 20
-4.1858411891135594
 30
0.0
  0
VERTEX
  5
40A
  8
0
  6
CONTINUOUS
 10
77.763912164400736
 20
-3.587846359911298
 30
0.0
  0
VERTEX
  5
40B
  8
0
  6
CONTINUOUS
 10
77.885607851910066
 20
-3.1501097307843491
 30
0.0
  0
VERTEX
  5
40C
  8
0
  6
CONTINUOUS
 10
77.930684302409475
 20
-2.989851530709037
 30
0.0
  0
SEQEND
  5
40D
  8
0
  6
CONTINUOUS
  0
POLYLINE
  5
26
  8
0
  6
CONTINUOUS
 66
     1
 10
0.0
 20
0.0
 30
0.0
  0
VERTEX
  5
40E
  8
0
  6
CONTINUOUS
 10
-77.088608387113155
 20
-18.522635407787909
 30
0.0
  0
VERTEX
  5
40F
  8
0
  6
CONTINUOUS
 10
-76.934105442788422
 20
-18.522635407787909
 30
0.0
  0
VERTEX
  5
410
  8
0
  6
CONTINUOUS
 10
-75.433439748596115
 20
-18.522635407787909
 30
0.0
  0
VERTEX
  5
411
  8
0
  6
CONTINUOUS
 10
-72.882459038560071
 20
-18.522635407787909
 30
0.0
  0
VERTEX
  5
412
  8
0
  6
CONTINUOUS
 10
-69.50063704029877
 20
-18.522635407787909
 30
0.0
  0
VERTEX
  5
413
  8
0
  6
CONTINUOUS
 10
-65.37955972115634
 20
-18.522635407787909
 30
0.0
  0
VERTEX
  5
414
  8
0
  6
CONTINUOUS
 10
-60.646762322413068
 20
-18.522635407787909
 30
0.0
  0
VERTEX
  5
415
  8
0
  6
CONTINUOUS
 10
-55.412338058600447
 20
-18.522635407787909
 30
0.0
  0
VERTEX
  5
416
  8
0
  6
CONTINUOUS
 10
-49.534673919045559
 20
-18.522635407787909
 30
0.0
  0
VERTEX
  5
417
  8
0
  6
CONTINUOUS
 10
43.689962641977409
 20
-18.522635407787909
 30
0.0
  0
VERTEX
  5
418
  8
0
  6
CONTINUOUS
 10
49.743173577110227
 20
-18.522635407787909
 30
0.0
  0
VERTEX
  5
419
  8
0
  6
CONTINUOUS
 10
55.20419858298613
 20
-18.522635407787909
 30
0.0
  0
VERTEX
  5
41A
  8
0
  6
CONTINUOUS
 10
60.188342024483319
 20
-18.522635407787909
 30
0.0
  0
VERTEX
  5
41B
  8
0
  6
CONTINUOUS
 10
64.56575429649105
 20
-18.522635407787909
 30
0.0
  0
VERTEX
  5
41C
  8
0
  6
CONTINUOUS
 10
68.188086210167626
 20
-18.522635407787909
 30
0.0
  0
VERTEX
  5
41D
  8
0
  6
CONTINUOUS
 10
70.945351839371071
 20
-18.522635407787909
 30
0.0
  0
VERTEX
  5
41E
  8
0
  6
CONTINUOUS
 10
72.618361004369334
 20
-18.522635407787909
 30
0.0
  0
VERTEX
  5
41F
  8
0
  6
CONTINUOUS
 10
73.163263407685889
 20
-18.522635407787909
 30
0.0
  0
SEQEND
  5
420
  8
0
  6
CONTINUOUS
  0
POLYLINE
  5
27
  8
0
  6
CONTINUOUS
 66
     1
 10
0.0
 20
0.0
 30
0.0
  0
VERTEX
  5
421
  8
0
  6
CONTINUOUS
 10
72.381284317417794
 20
-20.874642136054771
 30
0.0
  0
VERTEX
  5
422
  8
0
  6
CONTINUOUS
 10
71.845761984725399
 20
-20.87470344370594
 30
0.0
  0
VERTEX
  5
423
  8
0
  6
CONTINUOUS
 10
70.200157339785875
 20
-20.87470344370594
 30
0.0
  0
VERTEX
  5
424
  8
0
  6
CONTINUOUS
 10
67.487155834704325
 20
-20.87470344370594
 30
0.0
  0
VERTEX
  5
425
  8
0
  6
CONTINUOUS
 10
63.923158151085751
 20
-20.87470344370594
 30
0.0
  0
VERTEX
  5
426
  8
0
  6
CONTINUOUS
 10
59.614762967346898
 20
-20.87470344370594
 30
0.0
  0
VERTEX
  5
427
  8
0
  6
CONTINUOUS
 10
54.710166203201517
 20
-20.874642136054771
 30
0.0
  0
VERTEX
  5
428
  8
0
  6
CONTINUOUS
 10
49.337102349796197
 20
-20.87470344370594
 30
0.0
  0
VERTEX
  5
429
  8
0
  6
CONTINUOUS
 10
43.355881924012429
 20
-20.87470344370594
 30
0.0
  0
VERTEX
  5
42A
  8
0
  6
CONTINUOUS
 10
-49.508932369023881
 20
-20.874642136054771
 30
0.0
  0
VERTEX
  5
42B
  8
0
  6
CONTINUOUS
 10
-55.317303535879809
 20
-20.874642136054771
 30
0.0
  0
VERTEX
  5
42C
  8
0
  6
CONTINUOUS
 10
-60.465467934540939
 20
-20.874642136054771
 30
0.0
  0
VERTEX
  5
42D
  8
0
  6
CONTINUOUS
 10
-65.120619193117648
 20
-20.874642136054771
 30
0.0
  0
VERTEX
  5
42E
  8
0
  6
CONTINUOUS
 10
-69.174633605371241
 20
-20.874642136054771
 30
0.0
  0
VERTEX
  5
42F
  8
0
  6
CONTINUOUS
 10
-72.500366766297461
 20
-20.874642136054771
 30
0.0
  0
VERTEX
  5
430
  8
0
  6
CONTINUOUS
 10
-75.009405379498574
 20
-20.874642136054771
 30
0.0
  0
VERTEX
  5
431
  8
0
  6
CONTINUOUS
 10
-76.482620572893765
 20
-20.874642136054771
 30
0.0
  0
VERTEX
  5
432
  8
0
  6
CONTINUOUS
 10
-76.632563760665079
 20
-20.874642136054771
 30
0.0
  0
SEQEND
  5
433
  8
0
  6
CONTINUOUS
  0
POLYLINE
  5
28
  8
0
  6
CONTINUOUS
 66
     1
 10
0.0
 20
0.0
 30
0.0
  0
VERTEX
  5
434
  8
0
  6
CONTINUOUS
 10
-75.745242798828755
 20
-39.033661864941898
 30
0.0
  0
VERTEX
  5
435
  8
0
  6
CONTINUOUS
 10
-74.186679691592744
 20
-39.033723172593
 30
0.0
  0
VERTEX
  5
436
  8
0
  6
CONTINUOUS
 10
-71.759525109943141
 20
-39.033723172593
 30
0.0
  0
VERTEX
  5
437
  8
0
  6
CONTINUOUS
 10
-68.543639932943833
 20
-39.033784480244172
 30
0.0
  0
VERTEX
  5
438
  8
0
  6
CONTINUOUS
 10
-64.620387077111687
 20
-39.033784480244172
 30
0.0
  0
VERTEX
  5
439
  8
0
  6
CONTINUOUS
 10
-60.116612072651662
 20
-39.033784480244172
 30
0.0
  0
VERTEX
  5
43A
  8
0
  6
CONTINUOUS
 10
-55.138131925428361
 20
-39.033784480244172
 30
0.0
  0
VERTEX
  5
43B
  8
0
  6
CONTINUOUS
 10
-49.457204038376027
 20
-39.033784480244172
 30
0.0
  0
VERTEX
  5
43C
  8
0
  6
CONTINUOUS
 10
39.255917427230727
 20
-39.033845787895338
 30
0.0
  0
VERTEX
  5
43D
  8
0
  6
CONTINUOUS
 10
44.98973082684617
 20
-39.033845787895338
 30
0.0
  0
VERTEX
  5
43E
  8
0
  6
CONTINUOUS
 10
50.07670252621498
 20
-39.033784480244172
 30
0.0
  0
VERTEX
  5
43F
  8
0
  6
CONTINUOUS
 10
54.70346834231465
 20
-39.033784480244172
 30
0.0
  0
VERTEX
  5
440
  8
0
  6
CONTINUOUS
 10
58.75437139127299
 20
-39.033784480244172
 30
0.0
  0
VERTEX
  5
441
  8
0
  6
CONTINUOUS
 10
62.092343092057689
 20
-39.033784480244172
 30
0.0
  0
VERTEX
  5
442
  8
0
  6
CONTINUOUS
 10
64.627445120448925
 20
-39.033723172593
 30
0.0
  0
VERTEX
  5
443
  8
0
  6
CONTINUOUS
 10
66.161975628438739
 20
-39.033723172593
 30
0.0
  0
VERTEX
  5
444
  8
0
  6
CONTINUOUS
 10
66.660621408971494
 20
-39.033661864941898
 30
0.0
  0
SEQEND
  5
445
  8
0
  6
CONTINUOUS
  0
POLYLINE
  5
29
  8
0
  6
CONTINUOUS
 66
     1
 10
0.0
 20
0.0
 30
0.0
  0
VERTEX
  5
446
  8
0
  6
CONTINUOUS
 10
-47.894625279990457
 20
-2.989851530709037
 30
0.0
  0
VERTEX
  5
447
  8
0
  6
CONTINUOUS
 10
-47.89291632921497
 20
-3.1501097307843491
 30
0.0
  0
VERTEX
  5
448
  8
0
  6
CONTINUOUS
 10
-47.888356572661571
 20
-3.587846359911298
 30
0.0
  0
VERTEX
  5
449
  8
0
  6
CONTINUOUS
 10
-47.88209552878908
 20
-4.1857798814624596
 30
0.0
  0
VERTEX
  5
44A
  8
0
  6
CONTINUOUS
 10
-49.534673919045559
 20
-18.522635407787909
 30
0.0
  0
VERTEX
  5
44B
  8
0
  6
CONTINUOUS
 10
-49.525416463723687
 20
-19.342441318808291
 30
0.0
  0
VERTEX
  5
44C
  8
0
  6
CONTINUOUS
 10
-49.521760995024579
 20
-19.678713785301419
 30
0.0
  0
VERTEX
  5
44D
  8
0
  6
CONTINUOUS
 10
-49.515407989675367
 20
-20.276708614503679
 30
0.0
  0
VERTEX
  5
44E
  8
0
  6
CONTINUOUS
 10
-49.508932369023881
 20
-20.874642136054771
 30
0.0
  0
VERTEX
  5
44F
  8
0
  6
CONTINUOUS
 10
-49.457204038376027
 20
-39.033784480244172
 30
0.0
  0
VERTEX
  5
450
  8
0
  6
CONTINUOUS
 10
-49.416334825435982
 20
-41.201316486236202
 30
0.0
  0
VERTEX
  5
451
  8
0
  6
CONTINUOUS
 10
-49.320120130430951
 20
-42.724443771114323
 30
0.0
  0
VERTEX
  5
452
  8
0
  6
CONTINUOUS
 10
-49.194224868818587
 20
-43.299999999999997
 30
0.0
  0
SEQEND
  5
453
  8
0
  6
CONTINUOUS
  0
POLYLINE
  5
2A
  8
0
  6
CONTINUOUS
 66
     1
 10
0.0
 20
0.0
 30
0.0
  0
VERTEX
  5
454
  8
0
  6
CONTINUOUS
 10
-63.467075207355741
 20
0.0
 30
0.0
  0
VERTEX
  5
455
  8
0
  6
CONTINUOUS
 10
-63.840798985237981
 20
-0.2189296222146094
 30
0.0
  0
VERTEX
  5
456
  8
0
  6
CONTINUOUS
 10
-63.995608467818421
 20
-0.7474628826772947
 30
0.0
  0
VERTEX
  5
457
  8
0
  6
CONTINUOUS
 10
-63.995608467818421
 20
-2.989851530709037
 30
0.0
  0
SEQEND
  5
458
  8
0
  6
CONTINUOUS
  0
POLYLINE
  5
2B
  8
0
  6
CONTINUOUS
 66
     1
 10
0.0
 20
0.0
 30
0.0
  0
VERTEX
  5
459
  8
0
  6
CONTINUOUS
 10
46.465360009004947
 20
-2.989851530709037
 30
0.0
  0
VERTEX
  5
45A
  8
0
  6
CONTINUOUS
 10
46.432560415645987
 20
-3.1501097307843491
 30
0.0
  0
VERTEX
  5
45B
  8
0
  6
CONTINUOUS
 10
46.343603013844401
 20
-3.587846359911298
 30
0.0
  0
VERTEX
  5
45C
  8
0
  6
CONTINUOUS
 10
46.223164133183388
 20
-4.1858411891135594
 30
0.0
  0
VERTEX
  5
45D
  8
0
  6
CONTINUOUS
 10
43.689962641977409
 20
-18.522635407787909
 30
0.0
  0
VERTEX
  5
45E
  8
0
  6
CONTINUOUS
 10
43.5707805681647
 20
-19.342441318808291
 30
0.0
  0
VERTEX
  5
45F
  8
0
  6
CONTINUOUS
 10
43.522761350410683
 20
-19.678713785301419
 30
0.0
  0
VERTEX
  5
460
  8
0
  6
CONTINUOUS
 10
43.438631926136267
 20
-20.276708614503679
 30
0.0
  0
VERTEX
  5
461
  8
0
  6
CONTINUOUS
 10
43.355881924012429
 20
-20.87470344370594
 30
0.0
  0
VERTEX
  5
462
  8
0
  6
CONTINUOUS
 10
39.255917427230727
 20
-39.033845787895338
 30
0.0
  0
VERTEX
  5
463
  8
0
  6
CONTINUOUS
 10
39.13786954496409
 20
-41.201316486236202
 30
0.0
  0
VERTEX
  5
464
  8
0
  6
CONTINUOUS
 10
39.017967106250488
 20
-42.724443771114323
 30
0.0
  0
VERTEX
  5
465
  8
0
  6
CONTINUOUS
 10
38.904057490435648
 20
-43.299999999999997
 30
0.0
  0
SEQEND
  5
466
  8
0
  6
CONTINUOUS
  0
POLYLINE
  5
2C
  8
0
  6
CONTINUOUS
 66
     1
 10
0.0
 20
0.0
 30
0.0
  0
VERTEX
  5
467
  8
0
  6
CONTINUOUS
 10
63.467090534268493
 20
0.0
 30
0.0
  0
VERTEX
  5
468
  8
0
  6
CONTINUOUS
 10
63.840821975607099
 20
-0.2189296222146094
 30
0.0
  0
VERTEX
  5
469
  8
0
  6
CONTINUOUS
 10
63.995623794731173
 20
-0.7474628826772947
 30
0.0
  0
VERTEX
  5
46A
  8
0
  6
CONTINUOUS
 10
63.995623794731173
 20
-2.989851530709037
 30
0.0
  0
SEQEND
  5
46B
  8
0
  6
CONTINUOUS
  0
DIMENSION
  5
5E
  8
COTATION-JACOBDELAFON
  2
*D1
 10
-116.12081191797419
 20
0.0000000000000041
 30
0.0
 11
-118.5535540734994
 21
-21.649999999999999
 31
0.0
 70
     0
 13
-71.284076611909754
 23
-43.299999999999997
 33
0.0
 14
-101.47893777768959
 24
0.0
 34
0.0
 50
270.0
1001
ACAD
1000
DSTYLE
1002
{
1070
   271
1070
     2
1002
}
  0
DIMENSION
  5
5F
  8
COTATION-JACOBDELAFON
  2
*D2
 10
102.22640066036681
 20
6.8865023846301554
 30
0.0
 11
0.0342949252874691
 21
9.3182213477952303
 31
0.0
 70
     0
 13
-102.1578108097918
 23
-0.5316906044962831
 33
0.0
 14
102.22640066036681
 24
-0.7474628826772947
 34
0.0
 50
180.0
1001
ACAD
1000
DSTYLE
1002
{
1070
   271
1070
     0
1002
}
  0
INSERT
  5
283
 67
     1
  8
0
  6
CONTINUOUS
  2
ADCADD_ZZ
 10
0.0
 20
0.0
 30
0.0
1001
ADCADD_ZZ
1070
   205
1070
    14
1070
   209
1070
     1
1070
   231
1070
     0
1070
   235
1070
     0
1070
   236
1070
     4
1070
   237
1070
     2
1070
   238
1070
     4
1070
   239
1070
     2
1070
   240
1070
     0
1070
   241
1070
  4096
1070
   242
1070
     2
1070
   244
1070
     0
1070
   245
1070
     1
1070
   303
1040
0.1
1070
   304
1040
4.0
1070
   305
1040
1.0
1070
   306
1040
1.0
1070
   337
1040
0.0
1070
   338
1040
0.3048
1070
   339
1040
0.0625
1070
   340
1040
96.0
1070
   341
1040
4.0
1070
   342
1040
1.0
1070
   530
1010
0.0
1020
0.0
1030
0.0
1070
   531
1010
0.0
1020
0.0
1030
0.0
1070
   107
1000

1070
   108
1000
Architectural Desktop
1070
   135
1000
L120
1070
   136
1000
'
1070
   137
1000
m
1001
SDSK_PMN
1070
   100
1000
ACADARCH
1070
   300
1040
2453076.5789218508
  0
ENDSEC
  0
EOF
