  0
SECTION
  2
HEADER
  9
$ACADVER
  1
AC1009
  9
$INSBASE
 10
-0.0000000000000001
 20
0.0000000000000002
 30
0.0
  9
$EXTMIN
 10
-17.55811033754571
 20
-11.18740571839639
 30
0.0
  9
$EXTMAX
 10
135.89999999999989
 20
135.89999999999989
 30
0.0
  9
$LIMMIN
 10
0.0
 20
0.0
  9
$LIMMAX
 10
12.0
 20
9.0
  9
$ORTHOMODE
 70
     1
  9
$REGENMODE
 70
     1
  9
$FILLMODE
 70
     1
  9
$QTEXTMODE
 70
     0
  9
$MIRRTEXT
 70
     1
  9
$DRAGMODE
 70
     2
  9
$LTSCALE
 40
1.0
  9
$OSMODE
 70
     1
  9
$ATTMODE
 70
     1
  9
$TEXTSIZE
 40
0.2
  9
$TRACEWID
 40
0.05
  9
$TEXTSTYLE
  7
STANDARD
  9
$CLAYER
  8
0
  9
$CELTYPE
  6
CONTINUOUS
  9
$CECOLOR
 62
   256
  9
$DIMSCALE
 40
96.0
  9
$DIMASZ
 40
1.8
  9
$DIMEXO
 40
0.625
  9
$DIMDLI
 40
3.7999999999999989
  9
$DIMRND
 40
0.0
  9
$DIMDLE
 40
0.0
  9
$DIMEXE
 40
1.8
  9
$DIMTP
 40
0.0
  9
$DIMTM
 40
0.0
  9
$DIMTXT
 40
3.0
  9
$DIMCEN
 40
0.9
  9
$DIMTSZ
 40
0.0
  9
$DIMTOL
 70
     0
  9
$DIMLIM
 70
     0
  9
$DIMTIH
 70
     0
  9
$DIMTOH
 70
     0
  9
$DIMSE1
 70
     0
  9
$DIMSE2
 70
     0
  9
$DIMTAD
 70
     1
  9
$DIMZIN
 70
    12
  9
$DIMBLK
  1
OBLIQUE
  9
$DIMASO
 70
     1
  9
$DIMSHO
 70
     1
  9
$DIMPOST
  1

  9
$DIMAPOST
  1

  9
$DIMALT
 70
     0
  9
$DIMALTD
 70
     2
  9
$DIMALTF
 40
25.399999999999999
  9
$DIMLFAC
 40
1.0
  9
$DIMTOFL
 70
     0
  9
$DIMTVP
 40
0.0
  9
$DIMTIX
 70
     0
  9
$DIMSOXD
 70
     0
  9
$DIMSAH
 70
     0
  9
$DIMBLK1
  1

  9
$DIMBLK2
  1

  9
$DIMSTYLE
  2
COTATION-JACOB-DELAFON
  9
$DIMCLRD
 70
     0
  9
$DIMCLRE
 70
     0
  9
$DIMCLRT
 70
     0
  9
$DIMTFAC
 40
1.0
  9
$DIMGAP
 40
0.9
  9
$LUNITS
 70
     2
  9
$LUPREC
 70
     4
  9
$SKETCHINC
 40
0.1
  9
$FILLETRAD
 40
0.0
  9
$AUNITS
 70
     0
  9
$AUPREC
 70
     2
  9
$MENU
  1
.
  9
$ELEVATION
 40
0.0
  9
$PELEVATION
 40
0.0
  9
$THICKNESS
 40
0.0
  9
$LIMCHECK
 70
     0
  9
$BLIPMODE
 70
     0
  9
$CHAMFERA
 40
0.0
  9
$CHAMFERB
 40
0.0
  9
$SKPOLY
 70
     0
  9
$TDCREATE
 40
2453040.4309214
  9
$TDUPDATE
 40
2453076.5704957522
  9
$TDINDWG
 40
0.0810630903
  9
$TDUSRTIMER
 40
0.0810630903
  9
$USRTIMER
 70
     1
  9
$ANGBASE
 50
0.0
  9
$ANGDIR
 70
     0
  9
$PDMODE
 70
     0
  9
$PDSIZE
 40
0.0
  9
$PLINEWID
 40
0.0
  9
$COORDS
 70
     1
  9
$SPLFRAME
 70
     0
  9
$SPLINETYPE
 70
     6
  9
$SPLINESEGS
 70
     8
  9
$ATTDIA
 70
     1
  9
$ATTREQ
 70
     1
  9
$HANDLING
 70
 22529
  9
$HANDSEED
  5
39A
  9
$SURFTAB1
 70
     6
  9
$SURFTAB2
 70
     6
  9
$SURFTYPE
 70
     6
  9
$SURFU
 70
     6
  9
$SURFV
 70
     6
  9
$UCSNAME
  2

  9
$UCSORG
 10
0.0
 20
0.0
 30
0.0
  9
$UCSXDIR
 10
1.0
 20
0.0
 30
0.0
  9
$UCSYDIR
 10
0.0
 20
1.0
 30
0.0
  9
$PUCSNAME
  2

  9
$PUCSORG
 10
0.0
 20
0.0
 30
0.0
  9
$PUCSXDIR
 10
1.0
 20
0.0
 30
0.0
  9
$PUCSYDIR
 10
0.0
 20
1.0
 30
0.0
  9
$USERI1
 70
     0
  9
$USERI2
 70
     0
  9
$USERI3
 70
     0
  9
$USERI4
 70
     0
  9
$USERI5
 70
     0
  9
$USERR1
 40
0.0
  9
$USERR2
 40
0.0
  9
$USERR3
 40
0.0
  9
$USERR4
 40
0.0
  9
$USERR5
 40
0.0
  9
$WORLDVIEW
 70
     1
  9
$SHADEDGE
 70
     3
  9
$SHADEDIF
 70
    70
  9
$TILEMODE
 70
     1
  9
$MAXACTVP
 70
    64
  9
$PLIMCHECK
 70
     0
  9
$PEXTMIN
 10
-1.0632977390648071
 20
-0.9686579706321367
 30
0.0
  9
$PEXTMAX
 10
1065.7070885844969
 20
301.62041393438369
 30
0.0
  9
$PLIMMIN
 10
-0.1979161059762549
 20
-0.2679166643638311
  9
$PLIMMAX
 10
11.493750144177531
 20
7.9987497780266699
  9
$UNITMODE
 70
     0
  9
$VISRETAIN
 70
     1
  9
$PLINEGEN
 70
     0
  9
$PSLTSCALE
 70
     1
  0
ENDSEC
  0
SECTION
  2
TABLES
  0
TABLE
  2
VPORT
 70
     2
  0
VPORT
  2
*ACTIVE
 70
     0
 10
0.0
 20
0.0
 11
1.0
 21
1.0
 12
66.635363019374523
 22
62.356297483266388
 13
0.0
 23
0.0
 14
1.0
 24
1.0
 15
0.0
 25
0.0
 16
0.0
 26
0.0
 36
1.0
 17
0.0
 27
0.0
 37
0.0
 40
148.79364918144179
 41
1.928853754940711
 42
50.0
 43
0.0
 44
0.0
 50
0.0
 51
0.0
 71
     0
 72
   100
 73
     1
 74
     1
 75
     0
 76
     0
 77
     0
 78
     0
  0
ENDTAB
  0
TABLE
  2
LTYPE
 70
     1
  0
LTYPE
  2
CONTINUOUS
 70
     0
  3
Solid line
 72
    65
 73
     0
 40
0.0
  0
ENDTAB
  0
TABLE
  2
LAYER
 70
     3
  0
LAYER
  2
0
 70
     0
 62
     7
  6
CONTINUOUS
  0
LAYER
  2
DEFPOINTS
 70
     0
 62
     7
  6
CONTINUOUS
  0
LAYER
  2
COTATION-JACOBDELAFON
 70
     0
 62
     8
  6
CONTINUOUS
  0
ENDTAB
  0
TABLE
  2
STYLE
 70
     2
  0
STYLE
  2
STANDARD
 70
     0
 40
0.0
 41
1.0
 50
0.0
 71
     0
 42
0.2
  3
txt
  4

  0
STYLE
  2
JACOB-DELAFON
 70
     0
 40
0.0
 41
1.0
 50
0.0
 71
     0
 42
2.5
  3
txt
  4

  0
ENDTAB
  0
TABLE
  2
VIEW
 70
     0
  0
ENDTAB
  0
TABLE
  2
UCS
 70
     0
  0
ENDTAB
  0
TABLE
  2
APPID
 70
     5
  0
APPID
  2
ACAD
 70
     0
  0
APPID
  2
ADCADD_ZZ
 70
     0
  0
APPID
  2
SDSK_PMN
 70
     0
  0
APPID
  2
AEC_DWGVARSSETUP_DATA
 70
     0
  0
APPID
  2
AEC_DISPREPSET_DATA
 70
     0
  0
ENDTAB
  0
TABLE
  2
DIMSTYLE
 70
     2
  0
DIMSTYLE
  2
STANDARD
 70
     0
  3

  4

  5

  6

  7

 40
1.0
 41
0.18
 42
0.0625
 43
0.38
 44
0.18
 45
0.0
 46
0.0
 47
0.0
 48
0.0
140
0.18
141
0.09
142
0.0
143
25.399999999999999
144
1.0
145
0.0
146
1.0
147
0.09
 71
     0
 72
     0
 73
     1
 74
     1
 75
     0
 76
     0
 77
     0
 78
     0
170
     0
171
     2
172
     0
173
     0
174
     0
175
     0
176
     0
177
     0
178
     0
  0
DIMSTYLE
  2
COTATION-JACOB-DELAFON
 70
     0
  3

  4

  5
OBLIQUE
  6

  7

 40
1.0
 41
1.8
 42
0.625
 43
3.7999999999999989
 44
1.8
 45
0.0
 46
0.0
 47
0.0
 48
0.0
140
3.0
141
0.9
142
0.0
143
25.399999999999999
144
1.0
145
0.0
146
1.0
147
0.9
 71
     0
 72
     0
 73
     0
 74
     0
 75
     0
 76
     0
 77
     1
 78
    12
170
     0
171
     2
172
     0
173
     0
174
     0
175
     0
176
     0
177
     0
178
     0
  0
ENDTAB
  0
ENDSEC
  0
SECTION
  2
BLOCKS
  0
BLOCK
  8
0
  2
$MODEL_SPACE
 70
     0
 10
0.0
 20
0.0
 30
0.0
  3
$MODEL_SPACE
  1

  0
ENDBLK
  5
9
  8
0
  0
BLOCK
 67
     1
  8
0
  2
$PAPER_SPACE
 70
     0
 10
0.0
 20
0.0
 30
0.0
  3
$PAPER_SPACE
  1

  0
ENDBLK
  5
E
 67
     1
  8
0
  0
BLOCK
  8
0
  2
*D0
 70
     1
 10
0.0
 20
0.0
 30
0.0
  3
*D0
  1

  0
LINE
  5
E3
  8
COTATION-JACOBDELAFON
 62
     0
 10
135.0
 20
0.2249999999999943
 30
0.0
 11
135.0
 21
-11.18740571839639
 31
0.0
  0
LINE
  5
E4
  8
COTATION-JACOBDELAFON
 62
     0
 10
0.0
 20
0.2250000000000227
 30
0.0
 11
-0.0000000000000007
 21
-11.18740571839639
 31
0.0
  0
LINE
  5
E5
  8
COTATION-JACOBDELAFON
 62
     0
 10
135.0
 20
-9.3874057183963941
 30
0.0
 11
-0.0000000000000006
 21
-9.3874057183963941
 31
0.0
  0
INSERT
  5
E6
  8
COTATION-JACOBDELAFON
 62
     0
  2
_OBLIQUE
 10
135.0
 20
-9.3874057183963941
 30
0.0
 41
1.8
 42
1.8
 43
1.8
  0
INSERT
  5
E7
  8
COTATION-JACOBDELAFON
 62
     0
  2
_OBLIQUE
 10
-0.0000000000000006
 20
-9.3874057183963941
 30
0.0
 41
1.8
 42
1.8
 43
1.8
 50
180.0
  0
TEXT
  5
E8
  8
0
  6
CONTINUOUS
 62
     0
 10
63.859481582537519
 20
-8.4280605615068982
 30
0.0
 40
3.0
  1
135
  7
JACOB-DELAFON
  0
POINT
  5
E9
  8
DEFPOINTS
 62
     0
 10
135.0
 20
0.8499999999999943
 30
0.0
  0
POINT
  5
EA
  8
DEFPOINTS
 62
     0
 10
0.0
 20
0.8500000000000227
 30
0.0
  0
POINT
  5
EB
  8
DEFPOINTS
 62
     0
 10
-0.0000000000000006
 20
-9.3874057183963941
 30
0.0
  0
ENDBLK
  5
46
  8
0
  0
BLOCK
  8
0
  2
_OBLIQUE
 70
     0
 10
0.0
 20
0.0
 30
0.0
  3
_OBLIQUE
  1

  0
LINE
  5
48
  8
0
  6
BYBLOCK
 62
     0
 10
-0.5
 20
-0.5
 30
0.0
 11
0.5
 21
0.5
 31
0.0
  0
ENDBLK
  5
4A
  8
0
  0
BLOCK
  8
0
  2
*D2
 70
     1
 10
0.0
 20
0.0
 30
0.0
  3
*D2
  1

  0
LINE
  5
EC
  8
COTATION-JACOBDELAFON
 62
     0
 10
-0.3771105594764492
 20
135.0
 30
0.0
 11
-14.60476790916915
 21
135.0
 31
0.0
  0
LINE
  5
ED
  8
COTATION-JACOBDELAFON
 62
     0
 10
0.2250000000000227
 20
0.0000000000000002
 30
0.0
 11
-14.60476790916918
 21
0.0000000000000044
 31
0.0
  0
LINE
  5
EE
  8
COTATION-JACOBDELAFON
 62
     0
 10
-12.804767909169151
 20
135.0
 30
0.0
 11
-12.804767909169181
 21
0.0000000000000039
 31
0.0
  0
INSERT
  5
EF
  8
COTATION-JACOBDELAFON
 62
     0
  2
_OBLIQUE
 10
-12.804767909169151
 20
135.0
 30
0.0
 41
1.8
 42
1.8
 43
1.8
 50
90.0
  0
INSERT
  5
F0
  8
COTATION-JACOBDELAFON
 62
     0
  2
_OBLIQUE
 10
-12.804767909169181
 20
0.0000000000000039
 30
0.0
 41
1.8
 42
1.8
 43
1.8
 50
270.0
  0
TEXT
  5
F1
  8
0
  6
CONTINUOUS
 62
     0
 10
-13.76411306605867
 20
63.859481582537519
 30
0.0
 40
3.0
  1
135
 50
90.0
  7
JACOB-DELAFON
  0
POINT
  5
F2
  8
DEFPOINTS
 62
     0
 10
0.2478894405235508
 20
135.0
 30
0.0
  0
POINT
  5
F3
  8
DEFPOINTS
 62
     0
 10
0.8500000000000227
 20
0.0
 30
0.0
  0
POINT
  5
F4
  8
DEFPOINTS
 62
     0
 10
-12.804767909169181
 20
0.0000000000000039
 30
0.0
  0
ENDBLK
  5
96
  8
0
  0
BLOCK
  8
0
  2
ADCADD_ZZ
 70
     0
 10
0.0
 20
0.0
 30
0.0
  3
ADCADD_ZZ
  1

  0
ENDBLK
  5
110
  8
0
  0
ENDSEC
  0
SECTION
  2
ENTITIES
  0
POLYLINE
  5
24
  8
0
  6
CONTINUOUS
 66
     1
 10
0.0
 20
0.0
 30
0.0
 70
     1
  0
VERTEX
  5
266
  8
0
  6
CONTINUOUS
 10
135.0
 20
0.8499999999999943
 30
0.0
  0
VERTEX
  5
267
  8
0
  6
CONTINUOUS
 10
134.75099999999989
 20
0.2488999999999635
 30
0.0
  0
VERTEX
  5
268
  8
0
  6
CONTINUOUS
 10
134.14999999999989
 20
-0.0000000000000284
 30
0.0
  0
VERTEX
  5
269
  8
0
  6
CONTINUOUS
 10
0.8500000000000227
 20
0.0
 30
0.0
  0
VERTEX
  5
26A
  8
0
  6
CONTINUOUS
 10
0.24899999999991
 20
0.2488999999999919
 30
0.0
  0
VERTEX
  5
26B
  8
0
  6
CONTINUOUS
 10
0.0
 20
0.8500000000000227
 30
0.0
  0
VERTEX
  5
26C
  8
0
  6
CONTINUOUS
 10
0.0000000000000284
 20
134.15000000000001
 30
0.0
  0
VERTEX
  5
26D
  8
0
  6
CONTINUOUS
 10
0.2489999999999384
 20
134.75099999999989
 30
0.0
  0
VERTEX
  5
26E
  8
0
  6
CONTINUOUS
 10
0.8500000000000511
 20
135.0
 30
0.0
  0
VERTEX
  5
26F
  8
0
  6
CONTINUOUS
 10
54.64790000000005
 20
135.0
 30
0.0
  0
VERTEX
  5
270
  8
0
  6
CONTINUOUS
 10
54.973199999999913
 20
134.93530000000001
 30
0.0
  0
VERTEX
  5
271
  8
0
  6
CONTINUOUS
 10
55.249000000000017
 20
134.75099999999989
 30
0.0
  0
VERTEX
  5
272
  8
0
  6
CONTINUOUS
 10
134.75099999999989
 20
55.248899999999992
 30
0.0
  0
VERTEX
  5
273
  8
0
  6
CONTINUOUS
 10
134.9352999999999
 20
54.973199999999991
 30
0.0
  0
VERTEX
  5
274
  8
0
  6
CONTINUOUS
 10
135.0
 20
54.647899999999993
 30
0.0
  0
SEQEND
  5
275
  8
0
  6
CONTINUOUS
  0
POLYLINE
  5
25
  8
0
  6
CONTINUOUS
 66
     1
 10
0.0
 20
0.0
 30
0.0
 70
     1
  0
VERTEX
  5
276
  8
0
  6
CONTINUOUS
 10
119.9278
 20
60.555000000000007
 30
0.0
  0
VERTEX
  5
277
  8
0
  6
CONTINUOUS
 10
123.1438
 20
57.797299999999979
 30
0.0
  0
VERTEX
  5
278
  8
0
  6
CONTINUOUS
 10
125.74379999999989
 20
54.447299999999977
 30
0.0
  0
VERTEX
  5
279
  8
0
  6
CONTINUOUS
 10
127.6137999999999
 20
50.651599999999974
 30
0.0
  0
VERTEX
  5
27A
  8
0
  6
CONTINUOUS
 10
129.41279999999989
 20
43.511899999999969
 30
0.0
  0
VERTEX
  5
27B
  8
0
  6
CONTINUOUS
 10
129.61379999999991
 20
36.144599999999969
 30
0.0
  0
VERTEX
  5
27C
  8
0
  6
CONTINUOUS
 10
128.20779999999999
 20
28.924800000000001
 30
0.0
  0
VERTEX
  5
27D
  8
0
  6
CONTINUOUS
 10
124.87779999999989
 20
21.523199999999971
 30
0.0
  0
VERTEX
  5
27E
  8
0
  6
CONTINUOUS
 10
119.9127999999999
 20
15.257599999999959
 30
0.0
  0
VERTEX
  5
27F
  8
0
  6
CONTINUOUS
 10
113.93380000000001
 20
10.494199999999971
 30
0.0
  0
VERTEX
  5
280
  8
0
  6
CONTINUOUS
 10
107.1377999999999
 20
7.2302000000000239
 30
0.0
  0
VERTEX
  5
281
  8
0
  6
CONTINUOUS
 10
99.786600000000035
 20
5.5663999999999874
 30
0.0
  0
VERTEX
  5
282
  8
0
  6
CONTINUOUS
 10
92.250800000000027
 20
5.5837999999999957
 30
0.0
  0
VERTEX
  5
283
  8
0
  6
CONTINUOUS
 10
84.909499999999966
 20
7.2805999999999917
 30
0.0
  0
VERTEX
  5
284
  8
0
  6
CONTINUOUS
 10
77.836400000000026
 20
10.619199999999971
 30
0.0
  0
VERTEX
  5
285
  8
0
  6
CONTINUOUS
 10
72.361899999999991
 20
15.3279
 30
0.0
  0
VERTEX
  5
286
  8
0
  6
CONTINUOUS
 10
71.956299999999942
 20
15.49299999999999
 30
0.0
  0
VERTEX
  5
287
  8
0
  6
CONTINUOUS
 10
70.735199999999963
 20
15.6363
 30
0.0
  0
VERTEX
  5
288
  8
0
  6
CONTINUOUS
 10
69.516700000000014
 20
15.4984
 30
0.0
  0
VERTEX
  5
289
  8
0
  6
CONTINUOUS
 10
68.350299999999947
 20
15.17349999999999
 30
0.0
  0
VERTEX
  5
28A
  8
0
  6
CONTINUOUS
 10
67.311599999999999
 20
14.63979999999998
 30
0.0
  0
VERTEX
  5
28B
  8
0
  6
CONTINUOUS
 10
61.681399999999933
 20
10.211100000000039
 30
0.0
  0
VERTEX
  5
28C
  8
0
  6
CONTINUOUS
 10
56.345299999999952
 20
7.6707000000000098
 30
0.0
  0
VERTEX
  5
28D
  8
0
  6
CONTINUOUS
 10
50.580600000000011
 20
6.3662999999999661
 30
0.0
  0
VERTEX
  5
28E
  8
0
  6
CONTINUOUS
 10
44.670499999999947
 20
6.3620999999999981
 30
0.0
  0
VERTEX
  5
28F
  8
0
  6
CONTINUOUS
 10
38.904299999999921
 20
7.6582000000000221
 30
0.0
  0
VERTEX
  5
290
  8
0
  6
CONTINUOUS
 10
33.564300000000003
 20
10.19129999999995
 30
0.0
  0
VERTEX
  5
291
  8
0
  6
CONTINUOUS
 10
28.912599999999991
 20
13.836799999999981
 30
0.0
  0
VERTEX
  5
292
  8
0
  6
CONTINUOUS
 10
25.176600000000011
 20
18.416499999999981
 30
0.0
  0
VERTEX
  5
293
  8
0
  6
CONTINUOUS
 10
18.832300000000028
 20
29.501599999999989
 30
0.0
  0
VERTEX
  5
294
  8
0
  6
CONTINUOUS
 10
14.654899999999991
 20
38.462199999999989
 30
0.0
  0
VERTEX
  5
295
  8
0
  6
CONTINUOUS
 10
10.997200000000021
 20
47.647199999999991
 30
0.0
  0
VERTEX
  5
296
  8
0
  6
CONTINUOUS
 10
7.3974999999999218
 20
58.598500000000001
 30
0.0
  0
VERTEX
  5
297
  8
0
  6
CONTINUOUS
 10
4.9973999999999696
 20
67.531800000000004
 30
0.0
  0
VERTEX
  5
298
  8
0
  6
CONTINUOUS
 10
3.7021000000000859
 20
78.835800000000006
 30
0.0
  0
VERTEX
  5
299
  8
0
  6
CONTINUOUS
 10
4.3697999999999411
 20
90.194599999999994
 30
0.0
  0
VERTEX
  5
29A
  8
0
  6
CONTINUOUS
 10
6.9805999999999813
 20
101.2692
 30
0.0
  0
VERTEX
  5
29B
  8
0
  6
CONTINUOUS
 10
11.45119999999997
 20
111.72020000000001
 30
0.0
  0
VERTEX
  5
29C
  8
0
  6
CONTINUOUS
 10
15.19590000000005
 20
117.4872
 30
0.0
  0
VERTEX
  5
29D
  8
0
  6
CONTINUOUS
 10
19.876499999999961
 20
122.5442
 30
0.0
  0
VERTEX
  5
29E
  8
0
  6
CONTINUOUS
 10
25.344000000000051
 20
126.72669999999999
 30
0.0
  0
VERTEX
  5
29F
  8
0
  6
CONTINUOUS
 10
30.5258
 20
129.25800000000001
 30
0.0
  0
VERTEX
  5
2A0
  8
0
  6
CONTINUOUS
 10
36.166399999999953
 20
130.5642
 30
0.0
  0
VERTEX
  5
2A1
  8
0
  6
CONTINUOUS
 10
41.954000000000057
 20
130.5652
 30
0.0
  0
VERTEX
  5
2A2
  8
0
  6
CONTINUOUS
 10
47.594999999999906
 20
129.26320000000001
 30
0.0
  0
VERTEX
  5
2A3
  8
0
  6
CONTINUOUS
 10
52.792500000000011
 20
126.72620000000001
 30
0.0
  0
VERTEX
  5
2A4
  8
0
  6
CONTINUOUS
 10
59.134699999999953
 20
121.72319999999991
 30
0.0
  0
VERTEX
  5
2A5
  8
0
  6
CONTINUOUS
 10
64.352499999999964
 20
115.5561999999999
 30
0.0
  0
VERTEX
  5
2A6
  8
0
  6
CONTINUOUS
 10
75.33540000000005
 20
101.04219999999989
 30
0.0
  0
VERTEX
  5
2A7
  8
0
  6
CONTINUOUS
 10
87.601700000000051
 20
87.596099999999979
 30
0.0
  0
VERTEX
  5
2A8
  8
0
  6
CONTINUOUS
 10
99.950800000000086
 20
75.98660000000001
 30
0.0
  0
VERTEX
  5
2A9
  8
0
  6
CONTINUOUS
 10
108.6377999999999
 20
68.916200000000003
 30
0.0
  0
SEQEND
  5
2AA
  8
0
  6
CONTINUOUS
  0
POLYLINE
  5
26
  8
0
  6
CONTINUOUS
 66
     1
 10
0.0
 20
0.0
 30
0.0
 70
     1
  0
VERTEX
  5
2AB
  8
0
  6
CONTINUOUS
 10
112.1802999999999
 20
58.851699999999987
 30
0.0
  0
VERTEX
  5
2AC
  8
0
  6
CONTINUOUS
 10
114.91079999999999
 20
56.082299999999982
 30
0.0
  0
VERTEX
  5
2AD
  8
0
  6
CONTINUOUS
 10
117.18729999999999
 20
53.448799999999999
 30
0.0
  0
VERTEX
  5
2AE
  8
0
  6
CONTINUOUS
 10
118.3186
 20
50.751800000000003
 30
0.0
  0
VERTEX
  5
2AF
  8
0
  6
CONTINUOUS
 10
118.9443
 20
46.072599999999959
 30
0.0
  0
VERTEX
  5
2B0
  8
0
  6
CONTINUOUS
 10
118.538
 20
41.029600000000023
 30
0.0
  0
VERTEX
  5
2B1
  8
0
  6
CONTINUOUS
 10
116.7273999999999
 20
35.240299999999991
 30
0.0
  0
VERTEX
  5
2B2
  8
0
  6
CONTINUOUS
 10
114.129
 20
29.32589999999999
 30
0.0
  0
VERTEX
  5
2B3
  8
0
  6
CONTINUOUS
 10
110.15769999999991
 20
24.676999999999961
 30
0.0
  0
VERTEX
  5
2B4
  8
0
  6
CONTINUOUS
 10
105.4566999999999
 20
20.47399999999999
 30
0.0
  0
VERTEX
  5
2B5
  8
0
  6
CONTINUOUS
 10
99.982999999999947
 20
16.87700000000001
 30
0.0
  0
VERTEX
  5
2B6
  8
0
  6
CONTINUOUS
 10
94.352899999999977
 20
14.60929999999996
 30
0.0
  0
VERTEX
  5
2B7
  8
0
  6
CONTINUOUS
 10
88.685000000000059
 20
13.20709999999996
 30
0.0
  0
VERTEX
  5
2B8
  8
0
  6
CONTINUOUS
 10
84.203399999999988
 20
13.08289999999999
 30
0.0
  0
VERTEX
  5
2B9
  8
0
  6
CONTINUOUS
 10
79.310400000000072
 20
14.94470000000001
 30
0.0
  0
VERTEX
  5
2BA
  8
0
  6
CONTINUOUS
 10
74.6404
 20
18.738799999999969
 30
0.0
  0
VERTEX
  5
2BB
  8
0
  6
CONTINUOUS
 10
74.229199999999992
 20
19.106899999999989
 30
0.0
  0
VERTEX
  5
2BC
  8
0
  6
CONTINUOUS
 10
73.054899999999975
 20
20.273799999999991
 30
0.0
  0
VERTEX
  5
2BD
  8
0
  6
CONTINUOUS
 10
71.971799999999917
 20
21.32660000000001
 30
0.0
  0
VERTEX
  5
2BE
  8
0
  6
CONTINUOUS
 10
70.988899999999944
 20
22.30019999999999
 30
0.0
  0
VERTEX
  5
2BF
  8
0
  6
CONTINUOUS
 10
69.050299999999993
 20
23.98539999999997
 30
0.0
  0
VERTEX
  5
2C0
  8
0
  6
CONTINUOUS
 10
67.511300000000006
 20
25.184900000000031
 30
0.0
  0
VERTEX
  5
2C1
  8
0
  6
CONTINUOUS
 10
65.181499999999915
 20
27.078499999999991
 30
0.0
  0
VERTEX
  5
2C2
  8
0
  6
CONTINUOUS
 10
62.039800000000007
 20
29.231799999999989
 30
0.0
  0
VERTEX
  5
2C3
  8
0
  6
CONTINUOUS
 10
58.886799999999987
 20
30.866199999999989
 30
0.0
  0
VERTEX
  5
2C4
  8
0
  6
CONTINUOUS
 10
53.52150000000006
 20
32.984099999999977
 30
0.0
  0
VERTEX
  5
2C5
  8
0
  6
CONTINUOUS
 10
48.494699999999959
 20
33.877899999999983
 30
0.0
  0
VERTEX
  5
2C6
  8
0
  6
CONTINUOUS
 10
41.969500000000032
 20
33.758299999999963
 30
0.0
  0
VERTEX
  5
2C7
  8
0
  6
CONTINUOUS
 10
39.662299999999952
 20
33.641099999999987
 30
0.0
  0
VERTEX
  5
2C8
  8
0
  6
CONTINUOUS
 10
35.490800000000029
 20
34.06140000000002
 30
0.0
  0
VERTEX
  5
2C9
  8
0
  6
CONTINUOUS
 10
31.446199999999969
 20
35.314200000000021
 30
0.0
  0
VERTEX
  5
2CA
  8
0
  6
CONTINUOUS
 10
27.73739999999998
 20
37.525099999999981
 30
0.0
  0
VERTEX
  5
2CB
  8
0
  6
CONTINUOUS
 10
22.329399999999961
 20
41.595399999999977
 30
0.0
  0
VERTEX
  5
2CC
  8
0
  6
CONTINUOUS
 10
19.403999999999989
 20
44.516899999999993
 30
0.0
  0
VERTEX
  5
2CD
  8
0
  6
CONTINUOUS
 10
14.098599999999919
 20
51.232199999999999
 30
0.0
  0
VERTEX
  5
2CE
  8
0
  6
CONTINUOUS
 10
9.8457999999999402
 20
59.533999999999992
 30
0.0
  0
VERTEX
  5
2CF
  8
0
  6
CONTINUOUS
 10
7.3559999999999937
 20
67.370400000000018
 30
0.0
  0
VERTEX
  5
2D0
  8
0
  6
CONTINUOUS
 10
6.5054999999999827
 20
77.652800000000013
 30
0.0
  0
VERTEX
  5
2D1
  8
0
  6
CONTINUOUS
 10
7.4797999999999538
 20
88.068600000000004
 30
0.0
  0
VERTEX
  5
2D2
  8
0
  6
CONTINUOUS
 10
10.224899999999931
 20
98.357500000000016
 30
0.0
  0
VERTEX
  5
2D3
  8
0
  6
CONTINUOUS
 10
14.63710000000003
 20
108.2059
 30
0.0
  0
VERTEX
  5
2D4
  8
0
  6
CONTINUOUS
 10
18.111199999999929
 20
113.6233
 30
0.0
  0
VERTEX
  5
2D5
  8
0
  6
CONTINUOUS
 10
22.397899999999929
 20
118.4901
 30
0.0
  0
VERTEX
  5
2D6
  8
0
  6
CONTINUOUS
 10
27.3306
 20
122.6322
 30
0.0
  0
VERTEX
  5
2D7
  8
0
  6
CONTINUOUS
 10
31.833999999999939
 20
125.28440000000001
 30
0.0
  0
VERTEX
  5
2D8
  8
0
  6
CONTINUOUS
 10
36.697000000000003
 20
126.92400000000001
 30
0.0
  0
VERTEX
  5
2D9
  8
0
  6
CONTINUOUS
 10
41.686799999999941
 20
127.45999999999999
 30
0.0
  0
VERTEX
  5
2DA
  8
0
  6
CONTINUOUS
 10
47.532299999999957
 20
126.3892
 30
0.0
  0
VERTEX
  5
2DB
  8
0
  6
CONTINUOUS
 10
52.009599999999978
 20
124.3302
 30
0.0
  0
VERTEX
  5
2DC
  8
0
  6
CONTINUOUS
 10
57.052100000000003
 20
119.7372
 30
0.0
  0
VERTEX
  5
2DD
  8
0
  6
CONTINUOUS
 10
60.946500000000007
 20
113.4682999999999
 30
0.0
  0
VERTEX
  5
2DE
  8
0
  6
CONTINUOUS
 10
70.081399999999917
 20
98.704200000000014
 30
0.0
  0
VERTEX
  5
2DF
  8
0
  6
CONTINUOUS
 10
84.19360000000006
 20
84.016500000000008
 30
0.0
  0
VERTEX
  5
2E0
  8
0
  6
CONTINUOUS
 10
95.722099999999955
 20
72.78449999999998
 30
0.0
  0
VERTEX
  5
2E1
  8
0
  6
CONTINUOUS
 10
102.9533999999999
 20
66.542300000000012
 30
0.0
  0
SEQEND
  5
2E2
  8
0
  6
CONTINUOUS
  0
POLYLINE
  5
27
  8
0
  6
CONTINUOUS
 66
     1
 10
0.0
 20
0.0
 30
0.0
 70
     1
  0
VERTEX
  5
2E3
  8
0
  6
CONTINUOUS
 10
119.35550000000001
 20
59.838099999999997
 30
0.0
  0
VERTEX
  5
2E4
  8
0
  6
CONTINUOUS
 10
122.46939999999999
 20
57.186099999999982
 30
0.0
  0
VERTEX
  5
2E5
  8
0
  6
CONTINUOUS
 10
124.9656999999999
 20
53.961199999999963
 30
0.0
  0
VERTEX
  5
2E6
  8
0
  6
CONTINUOUS
 10
126.7525
 20
50.335299999999961
 30
0.0
  0
VERTEX
  5
2E7
  8
0
  6
CONTINUOUS
 10
128.5037999999999
 20
43.386699999999962
 30
0.0
  0
VERTEX
  5
2E8
  8
0
  6
CONTINUOUS
 10
128.69929999999999
 20
36.220300000000002
 30
0.0
  0
VERTEX
  5
2E9
  8
0
  6
CONTINUOUS
 10
127.33329999999999
 20
29.202599999999961
 30
0.0
  0
VERTEX
  5
2EA
  8
0
  6
CONTINUOUS
 10
124.0937999999999
 20
21.999899999999968
 30
0.0
  0
VERTEX
  5
2EB
  8
0
  6
CONTINUOUS
 10
119.26299999999991
 20
15.905300000000009
 30
0.0
  0
VERTEX
  5
2EC
  8
0
  6
CONTINUOUS
 10
113.446
 20
11.27120000000002
 30
0.0
  0
VERTEX
  5
2ED
  8
0
  6
CONTINUOUS
 10
106.8356999999999
 20
8.0962999999999852
 30
0.0
  0
VERTEX
  5
2EE
  8
0
  6
CONTINUOUS
 10
99.685400000000072
 20
6.4780000000000078
 30
0.0
  0
VERTEX
  5
2EF
  8
0
  6
CONTINUOUS
 10
92.355299999999957
 20
6.4948999999999719
 30
0.0
  0
VERTEX
  5
2F0
  8
0
  6
CONTINUOUS
 10
85.209799999999973
 20
8.1469999999999914
 30
0.0
  0
VERTEX
  5
2F1
  8
0
  6
CONTINUOUS
 10
78.335199999999986
 20
11.38849999999996
 30
0.0
  0
VERTEX
  5
2F2
  8
0
  6
CONTINUOUS
 10
72.95939999999996
 20
16.023200000000031
 30
0.0
  0
VERTEX
  5
2F3
  8
0
  6
CONTINUOUS
 10
72.612499999999955
 20
16.335500000000021
 30
0.0
  0
VERTEX
  5
2F4
  8
0
  6
CONTINUOUS
 10
71.700699999999983
 20
18.01400000000001
 30
0.0
  0
VERTEX
  5
2F5
  8
0
  6
CONTINUOUS
 10
70.868799999999965
 20
19.419999999999948
 30
0.0
  0
VERTEX
  5
2F6
  8
0
  6
CONTINUOUS
 10
70.013299999999944
 20
20.66070000000002
 30
0.0
  0
VERTEX
  5
2F7
  8
0
  6
CONTINUOUS
 10
68.197400000000016
 20
22.774100000000001
 30
0.0
  0
VERTEX
  5
2F8
  8
0
  6
CONTINUOUS
 10
66.774800000000013
 20
24.232399999999981
 30
0.0
  0
VERTEX
  5
2F9
  8
0
  6
CONTINUOUS
 10
64.383199999999988
 20
26.27799999999996
 30
0.0
  0
VERTEX
  5
2FA
  8
0
  6
CONTINUOUS
 10
61.331900000000019
 20
28.376300000000011
 30
0.0
  0
VERTEX
  5
2FB
  8
0
  6
CONTINUOUS
 10
58.441500000000019
 20
29.891699999999961
 30
0.0
  0
VERTEX
  5
2FC
  8
0
  6
CONTINUOUS
 10
53.388000000000027
 20
31.883399999999991
 30
0.0
  0
VERTEX
  5
2FD
  8
0
  6
CONTINUOUS
 10
48.501599999999939
 20
32.746099999999977
 30
0.0
  0
VERTEX
  5
2FE
  8
0
  6
CONTINUOUS
 10
41.529599999999952
 20
32.80990000000002
 30
0.0
  0
VERTEX
  5
2FF
  8
0
  6
CONTINUOUS
 10
39.176399999999937
 20
32.674900000000001
 30
0.0
  0
VERTEX
  5
300
  8
0
  6
CONTINUOUS
 10
34.76929999999993
 20
33.061199999999978
 30
0.0
  0
VERTEX
  5
301
  8
0
  6
CONTINUOUS
 10
30.518800000000049
 20
34.27249999999998
 30
0.0
  0
VERTEX
  5
302
  8
0
  6
CONTINUOUS
 10
26.512500000000038
 20
36.300699999999999
 30
0.0
  0
VERTEX
  5
303
  8
0
  6
CONTINUOUS
 10
20.937999999999981
 20
40.564000000000021
 30
0.0
  0
VERTEX
  5
304
  8
0
  6
CONTINUOUS
 10
18.17900000000008
 20
43.292399999999979
 30
0.0
  0
VERTEX
  5
305
  8
0
  6
CONTINUOUS
 10
12.88699999999994
 20
50.469600000000021
 30
0.0
  0
VERTEX
  5
306
  8
0
  6
CONTINUOUS
 10
8.7043999999999642
 20
59.069600000000008
 30
0.0
  0
VERTEX
  5
307
  8
0
  6
CONTINUOUS
 10
5.9079000000000397
 20
67.636200000000002
 30
0.0
  0
VERTEX
  5
308
  8
0
  6
CONTINUOUS
 10
4.6182999999999756
 20
78.861199999999997
 30
0.0
  0
VERTEX
  5
309
  8
0
  6
CONTINUOUS
 10
5.2699999999999809
 20
90.062799999999982
 30
0.0
  0
VERTEX
  5
30A
  8
0
  6
CONTINUOUS
 10
7.8511000000000868
 20
100.98260000000001
 30
0.0
  0
VERTEX
  5
30B
  8
0
  6
CONTINUOUS
 10
12.259699999999951
 20
111.2885
 30
0.0
  0
VERTEX
  5
30C
  8
0
  6
CONTINUOUS
 10
15.918999999999979
 20
116.92400000000001
 30
0.0
  0
VERTEX
  5
30D
  8
0
  6
CONTINUOUS
 10
20.493200000000002
 20
121.8660999999999
 30
0.0
  0
VERTEX
  5
30E
  8
0
  6
CONTINUOUS
 10
25.82590000000005
 20
125.9472
 30
0.0
  0
VERTEX
  5
30F
  8
0
  6
CONTINUOUS
 10
30.832300000000028
 20
128.3946
 30
0.0
  0
VERTEX
  5
310
  8
0
  6
CONTINUOUS
 10
36.270899999999983
 20
129.6541
 30
0.0
  0
VERTEX
  5
311
  8
0
  6
CONTINUOUS
 10
41.853200000000008
 20
129.65610000000001
 30
0.0
  0
VERTEX
  5
312
  8
0
  6
CONTINUOUS
 10
47.288099999999979
 20
128.3989
 30
0.0
  0
VERTEX
  5
313
  8
0
  6
CONTINUOUS
 10
52.303999999999967
 20
125.9498
 30
0.0
  0
VERTEX
  5
314
  8
0
  6
CONTINUOUS
 10
58.496899999999982
 20
121.0638
 30
0.0
  0
VERTEX
  5
315
  8
0
  6
CONTINUOUS
 10
63.636000000000081
 20
114.9833
 30
0.0
  0
VERTEX
  5
316
  8
0
  6
CONTINUOUS
 10
74.629700000000071
 20
100.4559999999999
 30
0.0
  0
VERTEX
  5
317
  8
0
  6
CONTINUOUS
 10
86.947799999999916
 20
86.95259999999999
 30
0.0
  0
VERTEX
  5
318
  8
0
  6
CONTINUOUS
 10
99.346299999999928
 20
75.296600000000012
 30
0.0
  0
VERTEX
  5
319
  8
0
  6
CONTINUOUS
 10
108.07470000000001
 20
68.192000000000007
 30
0.0
  0
SEQEND
  5
31A
  8
0
  6
CONTINUOUS
  0
POLYLINE
  5
28
  8
0
  6
CONTINUOUS
 66
     1
 10
0.0
 20
0.0
 30
0.0
  0
VERTEX
  5
31B
  8
0
  6
CONTINUOUS
 10
72.320800000000077
 20
16.026099999999978
 30
0.0
  0
VERTEX
  5
31C
  8
0
  6
CONTINUOUS
 10
70.88130000000001
 20
16.225399999999979
 30
0.0
  0
VERTEX
  5
31D
  8
0
  6
CONTINUOUS
 10
69.451800000000048
 20
16.125099999999971
 30
0.0
  0
VERTEX
  5
31E
  8
0
  6
CONTINUOUS
 10
68.090199999999982
 20
15.793599999999961
 30
0.0
  0
VERTEX
  5
31F
  8
0
  6
CONTINUOUS
 10
66.892300000000091
 20
15.209099999999969
 30
0.0
  0
VERTEX
  5
320
  8
0
  6
CONTINUOUS
 10
61.246099999999963
 20
10.84519999999997
 30
0.0
  0
VERTEX
  5
321
  8
0
  6
CONTINUOUS
 10
55.986800000000009
 20
8.3734999999999786
 30
0.0
  0
VERTEX
  5
322
  8
0
  6
CONTINUOUS
 10
50.356899999999989
 20
7.0908999999999764
 30
0.0
  0
VERTEX
  5
323
  8
0
  6
CONTINUOUS
 10
44.616599999999941
 20
7.066699999999968
 30
0.0
  0
VERTEX
  5
324
  8
0
  6
CONTINUOUS
 10
39.032299999999957
 20
8.3075000000000045
 30
0.0
  0
VERTEX
  5
325
  8
0
  6
CONTINUOUS
 10
33.863600000000019
 20
10.75739999999996
 30
0.0
  0
VERTEX
  5
326
  8
0
  6
CONTINUOUS
 10
29.350500000000011
 20
14.3005
 30
0.0
  0
VERTEX
  5
327
  8
0
  6
CONTINUOUS
 10
26.18910000000005
 20
19.100500000000011
 30
0.0
  0
VERTEX
  5
328
  8
0
  6
CONTINUOUS
 10
19.799599999999941
 20
30.045099999999991
 30
0.0
  0
VERTEX
  5
329
  8
0
  6
CONTINUOUS
 10
15.64260000000001
 20
38.82650000000001
 30
0.0
  0
VERTEX
  5
32A
  8
0
  6
CONTINUOUS
 10
11.687299999999929
 20
48.304099999999998
 30
0.0
  0
VERTEX
  5
32B
  8
0
  6
CONTINUOUS
 10
8.7043999999999642
 20
59.069600000000008
 30
0.0
  0
SEQEND
  5
32C
  8
0
  6
CONTINUOUS
  0
POLYLINE
  5
29
  8
0
  6
CONTINUOUS
 66
     1
 10
0.0
 20
0.0
 30
0.0
 70
     1
  0
VERTEX
  5
32D
  8
0
  6
CONTINUOUS
 10
64.860199999999963
 20
97.056499999999986
 30
0.0
  0
VERTEX
  5
32E
  8
0
  6
CONTINUOUS
 10
80.901399999999967
 20
80.915700000000015
 30
0.0
  0
VERTEX
  5
32F
  8
0
  6
CONTINUOUS
 10
90.817000000000007
 20
71.595500000000015
 30
0.0
  0
VERTEX
  5
330
  8
0
  6
CONTINUOUS
 10
97.82510000000002
 20
65.891300000000001
 30
0.0
  0
VERTEX
  5
331
  8
0
  6
CONTINUOUS
 10
105.9703999999999
 20
59.535399999999981
 30
0.0
  0
VERTEX
  5
332
  8
0
  6
CONTINUOUS
 10
110.41070000000001
 20
55.629699999999993
 30
0.0
  0
VERTEX
  5
333
  8
0
  6
CONTINUOUS
 10
112.37779999999989
 20
53.066500000000019
 30
0.0
  0
VERTEX
  5
334
  8
0
  6
CONTINUOUS
 10
113.0722
 20
50.564399999999978
 30
0.0
  0
VERTEX
  5
335
  8
0
  6
CONTINUOUS
 10
113.04129999999989
 20
47.083699999999958
 30
0.0
  0
VERTEX
  5
336
  8
0
  6
CONTINUOUS
 10
112.1465
 20
43.272100000000023
 30
0.0
  0
VERTEX
  5
337
  8
0
  6
CONTINUOUS
 10
110.5068999999999
 20
39.257799999999968
 30
0.0
  0
VERTEX
  5
338
  8
0
  6
CONTINUOUS
 10
107.8881999999999
 20
34.823399999999992
 30
0.0
  0
VERTEX
  5
339
  8
0
  6
CONTINUOUS
 10
104.51009999999999
 20
30.82409999999998
 30
0.0
  0
VERTEX
  5
33A
  8
0
  6
CONTINUOUS
 10
100.2359
 20
27.127800000000001
 30
0.0
  0
VERTEX
  5
33B
  8
0
  6
CONTINUOUS
 10
95.708899999999957
 20
24.194799999999979
 30
0.0
  0
VERTEX
  5
33C
  8
0
  6
CONTINUOUS
 10
91.193399999999997
 20
22.025300000000009
 30
0.0
  0
VERTEX
  5
33D
  8
0
  6
CONTINUOUS
 10
86.947000000000003
 20
20.696199999999969
 30
0.0
  0
VERTEX
  5
33E
  8
0
  6
CONTINUOUS
 10
83.105999999999995
 20
20.344399999999968
 30
0.0
  0
VERTEX
  5
33F
  8
0
  6
CONTINUOUS
 10
79.722600000000057
 20
20.962399999999999
 30
0.0
  0
VERTEX
  5
340
  8
0
  6
CONTINUOUS
 10
77.147499999999923
 20
22.209199999999999
 30
0.0
  0
VERTEX
  5
341
  8
0
  6
CONTINUOUS
 10
76.49210000000005
 20
22.756199999999971
 30
0.0
  0
VERTEX
  5
342
  8
0
  6
CONTINUOUS
 10
75.103399999999965
 20
23.925799999999981
 30
0.0
  0
VERTEX
  5
343
  8
0
  6
CONTINUOUS
 10
73.723699999999994
 20
25.112599999999979
 30
0.0
  0
VERTEX
  5
344
  8
0
  6
CONTINUOUS
 10
72.353700000000003
 20
26.316099999999999
 30
0.0
  0
VERTEX
  5
345
  8
0
  6
CONTINUOUS
 10
70.961900000000014
 20
27.564399999999971
 30
0.0
  0
VERTEX
  5
346
  8
0
  6
CONTINUOUS
 10
70.067300000000046
 20
28.342499999999969
 30
0.0
  0
VERTEX
  5
347
  8
0
  6
CONTINUOUS
 10
68.073899999999981
 20
29.973299999999991
 30
0.0
  0
VERTEX
  5
348
  8
0
  6
CONTINUOUS
 10
64.563499999999976
 20
32.616299999999988
 30
0.0
  0
VERTEX
  5
349
  8
0
  6
CONTINUOUS
 10
60.811000000000028
 20
34.581400000000002
 30
0.0
  0
VERTEX
  5
34A
  8
0
  6
CONTINUOUS
 10
54.426700000000103
 20
37.093199999999989
 30
0.0
  0
VERTEX
  5
34B
  8
0
  6
CONTINUOUS
 10
48.874099999999999
 20
40.703099999999999
 30
0.0
  0
VERTEX
  5
34C
  8
0
  6
CONTINUOUS
 10
53.364699999999971
 20
44.138899999999971
 30
0.0
  0
VERTEX
  5
34D
  8
0
  6
CONTINUOUS
 10
57.196699999999971
 20
48.278300000000002
 30
0.0
  0
VERTEX
  5
34E
  8
0
  6
CONTINUOUS
 10
60.276399999999967
 20
53.020399999999988
 30
0.0
  0
VERTEX
  5
34F
  8
0
  6
CONTINUOUS
 10
63.920399999999972
 20
61.335499999999989
 30
0.0
  0
VERTEX
  5
350
  8
0
  6
CONTINUOUS
 10
66.234700000000089
 20
70.093799999999987
 30
0.0
  0
VERTEX
  5
351
  8
0
  6
CONTINUOUS
 10
67.174099999999953
 20
79.113399999999984
 30
0.0
  0
VERTEX
  5
352
  8
0
  6
CONTINUOUS
 10
66.712199999999939
 20
88.178299999999979
 30
0.0
  0
SEQEND
  5
353
  8
0
  6
CONTINUOUS
  0
POLYLINE
  5
2A
  8
0
  6
CONTINUOUS
 66
     1
 10
0.0
 20
0.0
 30
0.0
 70
     1
  0
VERTEX
  5
354
  8
0
  6
CONTINUOUS
 10
61.964900000000057
 20
21.706399999999999
 30
0.0
  0
VERTEX
  5
355
  8
0
  6
CONTINUOUS
 10
56.800399999999968
 20
17.314299999999999
 30
0.0
  0
VERTEX
  5
356
  8
0
  6
CONTINUOUS
 10
53.201499999999903
 20
15.472799999999999
 30
0.0
  0
VERTEX
  5
357
  8
0
  6
CONTINUOUS
 10
49.274399999999901
 20
14.48539999999997
 30
0.0
  0
VERTEX
  5
358
  8
0
  6
CONTINUOUS
 10
45.220700000000079
 20
14.407000000000041
 30
0.0
  0
VERTEX
  5
359
  8
0
  6
CONTINUOUS
 10
41.25
 20
15.245099999999979
 30
0.0
  0
VERTEX
  5
35A
  8
0
  6
CONTINUOUS
 10
37.56859999999994
 20
16.958500000000011
 30
0.0
  0
VERTEX
  5
35B
  8
0
  6
CONTINUOUS
 10
34.368100000000027
 20
19.459799999999969
 30
0.0
  0
VERTEX
  5
35C
  8
0
  6
CONTINUOUS
 10
31.815899999999939
 20
22.618300000000001
 30
0.0
  0
VERTEX
  5
35D
  8
0
  6
CONTINUOUS
 10
25.104000000000038
 20
32.824599999999968
 30
0.0
  0
VERTEX
  5
35E
  8
0
  6
CONTINUOUS
 10
20.655499999999961
 20
40.278700000000008
 30
0.0
  0
VERTEX
  5
35F
  8
0
  6
CONTINUOUS
 10
26.23419999999998
 20
35.997799999999977
 30
0.0
  0
VERTEX
  5
360
  8
0
  6
CONTINUOUS
 10
30.247700000000009
 20
33.952099999999973
 30
0.0
  0
VERTEX
  5
361
  8
0
  6
CONTINUOUS
 10
34.576199999999972
 20
32.701099999999968
 30
0.0
  0
VERTEX
  5
362
  8
0
  6
CONTINUOUS
 10
39.064399999999978
 20
32.290300000000002
 30
0.0
  0
VERTEX
  5
363
  8
0
  6
CONTINUOUS
 10
41.45780000000002
 20
32.421500000000002
 30
0.0
  0
VERTEX
  5
364
  8
0
  6
CONTINUOUS
 10
48.2468
 20
32.400799999999968
 30
0.0
  0
VERTEX
  5
365
  8
0
  6
CONTINUOUS
 10
53.122000000000071
 20
31.553899999999999
 30
0.0
  0
VERTEX
  5
366
  8
0
  6
CONTINUOUS
 10
58.168299999999931
 20
29.57569999999998
 30
0.0
  0
VERTEX
  5
367
  8
0
  6
CONTINUOUS
 10
61.054499999999962
 20
28.070699999999992
 30
0.0
  0
SEQEND
  5
368
  8
0
  6
CONTINUOUS
  0
POLYLINE
  5
2B
  8
0
  6
CONTINUOUS
 66
     1
 10
0.0
 20
0.0
 30
0.0
 70
     1
  0
VERTEX
  5
369
  8
0
  6
CONTINUOUS
 10
63.618399999999951
 20
96.81089999999999
 30
0.0
  0
VERTEX
  5
36A
  8
0
  6
CONTINUOUS
 10
65.457099999999969
 20
88.024000000000001
 30
0.0
  0
VERTEX
  5
36B
  8
0
  6
CONTINUOUS
 10
65.915800000000104
 20
79.149299999999982
 30
0.0
  0
VERTEX
  5
36C
  8
0
  6
CONTINUOUS
 10
65.002500000000055
 20
70.318299999999965
 30
0.0
  0
VERTEX
  5
36D
  8
0
  6
CONTINUOUS
 10
62.742999999999931
 20
61.742699999999992
 30
0.0
  0
VERTEX
  5
36E
  8
0
  6
CONTINUOUS
 10
59.183999999999969
 20
53.604500000000002
 30
0.0
  0
VERTEX
  5
36F
  8
0
  6
CONTINUOUS
 10
56.222099999999948
 20
49.031900000000007
 30
0.0
  0
VERTEX
  5
370
  8
0
  6
CONTINUOUS
 10
52.538199999999961
 20
45.043399999999963
 30
0.0
  0
VERTEX
  5
371
  8
0
  6
CONTINUOUS
 10
48.130400000000002
 20
41.673099999999998
 30
0.0
  0
VERTEX
  5
372
  8
0
  6
CONTINUOUS
 10
43.664999999999957
 20
38.987499999999983
 30
0.0
  0
VERTEX
  5
373
  8
0
  6
CONTINUOUS
 10
41.660399999999967
 20
38.404899999999991
 30
0.0
  0
VERTEX
  5
374
  8
0
  6
CONTINUOUS
 10
38.882299999999979
 20
38.157999999999987
 30
0.0
  0
VERTEX
  5
375
  8
0
  6
CONTINUOUS
 10
35.402099999999898
 20
38.868899999999989
 30
0.0
  0
VERTEX
  5
376
  8
0
  6
CONTINUOUS
 10
31.22730000000001
 20
40.957999999999991
 30
0.0
  0
VERTEX
  5
377
  8
0
  6
CONTINUOUS
 10
26.270600000000051
 20
44.516099999999987
 30
0.0
  0
VERTEX
  5
378
  8
0
  6
CONTINUOUS
 10
23.06269999999995
 20
47.771999999999991
 30
0.0
  0
VERTEX
  5
379
  8
0
  6
CONTINUOUS
 10
18.224699999999981
 20
53.885300000000001
 30
0.0
  0
VERTEX
  5
37A
  8
0
  6
CONTINUOUS
 10
14.38160000000005
 20
61.40320000000002
 30
0.0
  0
VERTEX
  5
37B
  8
0
  6
CONTINUOUS
 10
12.168900000000001
 20
68.322900000000004
 30
0.0
  0
VERTEX
  5
37C
  8
0
  6
CONTINUOUS
 10
11.41229999999995
 20
77.627900000000011
 30
0.0
  0
VERTEX
  5
37D
  8
0
  6
CONTINUOUS
 10
12.31150000000002
 20
87.207099999999997
 30
0.0
  0
VERTEX
  5
37E
  8
0
  6
CONTINUOUS
 10
14.850800000000049
 20
96.718499999999992
 30
0.0
  0
VERTEX
  5
37F
  8
0
  6
CONTINUOUS
 10
18.9556
 20
105.8738
 30
0.0
  0
VERTEX
  5
380
  8
0
  6
CONTINUOUS
 10
22.031600000000019
 20
110.67059999999999
 30
0.0
  0
VERTEX
  5
381
  8
0
  6
CONTINUOUS
 10
25.829699999999999
 20
114.98139999999999
 30
0.0
  0
VERTEX
  5
382
  8
0
  6
CONTINUOUS
 10
30.166799999999959
 20
118.627
 30
0.0
  0
VERTEX
  5
383
  8
0
  6
CONTINUOUS
 10
34.327999999999967
 20
121.0577
 30
0.0
  0
VERTEX
  5
384
  8
0
  6
CONTINUOUS
 10
37.856599999999958
 20
122.2825
 30
0.0
  0
VERTEX
  5
385
  8
0
  6
CONTINUOUS
 10
41.509500000000003
 20
122.6995999999999
 30
0.0
  0
VERTEX
  5
386
  8
0
  6
CONTINUOUS
 10
46.020300000000013
 20
121.8322
 30
0.0
  0
VERTEX
  5
387
  8
0
  6
CONTINUOUS
 10
49.38739999999995
 20
120.2612
 30
0.0
  0
VERTEX
  5
388
  8
0
  6
CONTINUOUS
 10
53.476800000000033
 20
116.4679
 30
0.0
  0
VERTEX
  5
389
  8
0
  6
CONTINUOUS
 10
57.013500000000022
 20
110.6268
 30
0.0
  0
SEQEND
  5
38A
  8
0
  6
CONTINUOUS
  0
CIRCLE
  5
2C
  8
0
  6
CONTINUOUS
 10
40.942625523741178
 20
107.9408744762587
 30
0.0
 40
1.996833454049781
  0
CIRCLE
  5
2D
  8
0
  6
CONTINUOUS
 10
40.942632844224022
 20
107.94085191953759
 30
0.0
 40
4.0027328445607626
  0
POLYLINE
  5
2E
  8
0
  6
CONTINUOUS
 66
     1
 10
0.0
 20
0.0
 30
0.0
  0
VERTEX
  5
38B
  8
0
  6
CONTINUOUS
 10
61.964900000000057
 20
21.706399999999999
 30
0.0
  0
VERTEX
  5
38C
  8
0
  6
CONTINUOUS
 10
62.974600000000002
 20
22.450299999999991
 30
0.0
  0
VERTEX
  5
38D
  8
0
  6
CONTINUOUS
 10
63.99860000000001
 20
23.063799999999979
 30
0.0
  0
VERTEX
  5
38E
  8
0
  6
CONTINUOUS
 10
65.297699999999963
 20
23.644200000000009
 30
0.0
  0
VERTEX
  5
38F
  8
0
  6
CONTINUOUS
 10
66.492799999999988
 20
23.94419999999996
 30
0.0
  0
VERTEX
  5
390
  8
0
  6
CONTINUOUS
 10
66.696100000000001
 20
24.156700000000001
 30
0.0
  0
SEQEND
  5
391
  8
0
  6
CONTINUOUS
  0
POLYLINE
  5
2F
  8
0
  6
CONTINUOUS
 66
     1
 10
0.0
 20
0.0
 30
0.0
  0
VERTEX
  5
392
  8
0
  6
CONTINUOUS
 10
61.964900000000057
 20
21.706399999999999
 30
0.0
  0
VERTEX
  5
393
  8
0
  6
CONTINUOUS
 10
63.101600000000069
 20
20.124500000000008
 30
0.0
  0
VERTEX
  5
394
  8
0
  6
CONTINUOUS
 10
64.324399999999969
 20
18.538499999999988
 30
0.0
  0
VERTEX
  5
395
  8
0
  6
CONTINUOUS
 10
65.405100000000061
 20
17.159999999999961
 30
0.0
  0
VERTEX
  5
396
  8
0
  6
CONTINUOUS
 10
66.338100000000054
 20
15.97899999999998
 30
0.0
  0
VERTEX
  5
397
  8
0
  6
CONTINUOUS
 10
66.892300000000091
 20
15.209099999999969
 30
0.0
  0
VERTEX
  5
398
  8
0
  6
CONTINUOUS
 10
67.311599999999999
 20
14.63979999999998
 30
0.0
  0
SEQEND
  5
399
  8
0
  6
CONTINUOUS
  0
DIMENSION
  5
38
  8
COTATION-JACOBDELAFON
  2
*D0
 10
-0.0000000000000006
 20
-9.3874057183963941
 30
0.0
 11
67.5
 21
-6.9546635628711551
 31
0.0
 70
     0
 13
135.0
 23
0.8499999999999943
 33
0.0
 14
0.0
 24
0.8500000000000227
 34
0.0
 50
180.0
  0
DIMENSION
  5
89
  8
COTATION-JACOBDELAFON
  2
*D2
 10
-12.804767909169181
 20
0.0000000000000039
 30
0.0
 11
-15.237510064694421
 21
67.5
 31
0.0
 70
     0
 13
0.2478894405235508
 23
135.0
 33
0.0
 14
0.8500000000000227
 24
0.0
 34
0.0
 50
270.0
  0
INSERT
  5
111
 67
     1
  8
0
  6
CONTINUOUS
  2
ADCADD_ZZ
 10
0.0
 20
0.0
 30
0.0
1001
ADCADD_ZZ
1070
   205
1070
    14
1070
   209
1070
     1
1070
   231
1070
     0
1070
   235
1070
     0
1070
   236
1070
     4
1070
   237
1070
     2
1070
   238
1070
     4
1070
   239
1070
     2
1070
   240
1070
     0
1070
   241
1070
  4096
1070
   242
1070
     2
1070
   244
1070
     0
1070
   245
1070
     1
1070
   303
1040
0.1
1070
   304
1040
4.0
1070
   305
1040
96.0
1070
   306
1040
0.125
1070
   337
1040
0.0
1070
   338
1040
0.3048
1070
   339
1040
0.0625
1070
   340
1040
96.0
1070
   341
1040
4.0
1070
   342
1040
96.0
1070
   530
1010
0.0
1020
0.0
1030
0.0
1070
   531
1010
0.0
1020
0.0
1030
0.0
1070
   107
1000

1070
   108
1000
AIA (256 Color)
1070
   135
1000
L120
1070
   136
1000
'
1070
   137
1000
m
1001
SDSK_PMN
1070
   100
1000
ACADARCH
1070
   300
1040
2453076.5705307522
  0
ENDSEC
  0
EOF
