  0
SECTION
  2
HEADER
  9
$ACADVER
  1
AC1009
  9
$INSBASE
 10
0.0
 20
0.0
 30
0.0
  9
$EXTMIN
 10
-8.6478721662149685
 20
-17.0
 30
0.0
  9
$EXTMAX
 10
135.90000238418591
 20
53.865192681254257
 30
0.0
  9
$LIMMIN
 10
0.0
 20
0.0
  9
$LIMMAX
 10
12.0
 20
9.0
  9
$ORTHOMODE
 70
     1
  9
$REGENMODE
 70
     1
  9
$FILLMODE
 70
     1
  9
$QTEXTMODE
 70
     0
  9
$MIRRTEXT
 70
     1
  9
$DRAGMODE
 70
     2
  9
$LTSCALE
 40
1.0
  9
$OSMODE
 70
     1
  9
$ATTMODE
 70
     1
  9
$TEXTSIZE
 40
0.2
  9
$TRACEWID
 40
0.05
  9
$TEXTSTYLE
  7
STANDARD
  9
$CLAYER
  8
0
  9
$CELTYPE
  6
CONTINUOUS
  9
$CECOLOR
 62
   256
  9
$DIMSCALE
 40
96.0
  9
$DIMASZ
 40
1.8
  9
$DIMEXO
 40
0.625
  9
$DIMDLI
 40
3.7999999999999989
  9
$DIMRND
 40
0.0
  9
$DIMDLE
 40
0.0
  9
$DIMEXE
 40
1.8
  9
$DIMTP
 40
0.0
  9
$DIMTM
 40
0.0
  9
$DIMTXT
 40
3.0
  9
$DIMCEN
 40
0.9
  9
$DIMTSZ
 40
0.0
  9
$DIMTOL
 70
     0
  9
$DIMLIM
 70
     0
  9
$DIMTIH
 70
     0
  9
$DIMTOH
 70
     0
  9
$DIMSE1
 70
     0
  9
$DIMSE2
 70
     0
  9
$DIMTAD
 70
     1
  9
$DIMZIN
 70
    12
  9
$DIMBLK
  1
OBLIQUE
  9
$DIMASO
 70
     1
  9
$DIMSHO
 70
     1
  9
$DIMPOST
  1

  9
$DIMAPOST
  1

  9
$DIMALT
 70
     0
  9
$DIMALTD
 70
     2
  9
$DIMALTF
 40
25.399999999999999
  9
$DIMLFAC
 40
1.0
  9
$DIMTOFL
 70
     0
  9
$DIMTVP
 40
0.0
  9
$DIMTIX
 70
     0
  9
$DIMSOXD
 70
     0
  9
$DIMSAH
 70
     0
  9
$DIMBLK1
  1

  9
$DIMBLK2
  1

  9
$DIMSTYLE
  2
COTATION-JACOB-DELAFON
  9
$DIMCLRD
 70
     0
  9
$DIMCLRE
 70
     0
  9
$DIMCLRT
 70
     0
  9
$DIMTFAC
 40
1.0
  9
$DIMGAP
 40
0.9
  9
$LUNITS
 70
     2
  9
$LUPREC
 70
     4
  9
$SKETCHINC
 40
0.1
  9
$FILLETRAD
 40
0.0
  9
$AUNITS
 70
     0
  9
$AUPREC
 70
     2
  9
$MENU
  1
.
  9
$ELEVATION
 40
0.0
  9
$PELEVATION
 40
0.0
  9
$THICKNESS
 40
0.0
  9
$LIMCHECK
 70
     0
  9
$BLIPMODE
 70
     0
  9
$CHAMFERA
 40
0.0
  9
$CHAMFERB
 40
0.0
  9
$SKPOLY
 70
     0
  9
$TDCREATE
 40
2453040.4309214
  9
$TDUPDATE
 40
2453076.5714789121
  9
$TDINDWG
 40
0.0754612731
  9
$TDUSRTIMER
 40
0.0754612731
  9
$USRTIMER
 70
     1
  9
$ANGBASE
 50
0.0
  9
$ANGDIR
 70
     0
  9
$PDMODE
 70
     0
  9
$PDSIZE
 40
0.0
  9
$PLINEWID
 40
0.0
  9
$COORDS
 70
     1
  9
$SPLFRAME
 70
     0
  9
$SPLINETYPE
 70
     6
  9
$SPLINESEGS
 70
     8
  9
$ATTDIA
 70
     1
  9
$ATTREQ
 70
     1
  9
$HANDLING
 70
 22529
  9
$HANDSEED
  5
34B
  9
$SURFTAB1
 70
     6
  9
$SURFTAB2
 70
     6
  9
$SURFTYPE
 70
     6
  9
$SURFU
 70
     6
  9
$SURFV
 70
     6
  9
$UCSNAME
  2

  9
$UCSORG
 10
0.0
 20
0.0
 30
0.0
  9
$UCSXDIR
 10
1.0
 20
0.0
 30
0.0
  9
$UCSYDIR
 10
0.0
 20
1.0
 30
0.0
  9
$PUCSNAME
  2

  9
$PUCSORG
 10
0.0
 20
0.0
 30
0.0
  9
$PUCSXDIR
 10
1.0
 20
0.0
 30
0.0
  9
$PUCSYDIR
 10
0.0
 20
1.0
 30
0.0
  9
$USERI1
 70
     0
  9
$USERI2
 70
     0
  9
$USERI3
 70
     0
  9
$USERI4
 70
     0
  9
$USERI5
 70
     0
  9
$USERR1
 40
0.0
  9
$USERR2
 40
0.0
  9
$USERR3
 40
0.0
  9
$USERR4
 40
0.0
  9
$USERR5
 40
0.0
  9
$WORLDVIEW
 70
     1
  9
$SHADEDGE
 70
     3
  9
$SHADEDIF
 70
    70
  9
$TILEMODE
 70
     1
  9
$MAXACTVP
 70
    64
  9
$PLIMCHECK
 70
     0
  9
$PEXTMIN
 10
-1.0632977390648071
 20
-0.9686579706321367
 30
0.0
  9
$PEXTMAX
 10
1063.866055066585
 20
620.64611596859572
 30
0.0
  9
$PLIMMIN
 10
-0.1979161059762549
 20
-0.2679166643638311
  9
$PLIMMAX
 10
11.493750144177531
 20
7.9987497780266699
  9
$UNITMODE
 70
     0
  9
$VISRETAIN
 70
     1
  9
$PLINEGEN
 70
     0
  9
$PSLTSCALE
 70
     1
  0
ENDSEC
  0
SECTION
  2
TABLES
  0
TABLE
  2
VPORT
 70
     3
  0
VPORT
  2
*ACTIVE
 70
     0
 10
0.0
 20
0.0
 11
1.0
 21
1.0
 12
67.621983795385077
 22
19.428046515907479
 13
0.0
 23
0.0
 14
1.0
 24
1.0
 15
0.0
 25
0.0
 16
0.0
 26
0.0
 36
1.0
 17
0.0
 27
0.0
 37
0.0
 40
79.645475339648868
 41
1.928853754940711
 42
50.0
 43
0.0
 44
0.0
 50
0.0
 51
0.0
 71
     0
 72
   100
 73
     1
 74
     1
 75
     0
 76
     0
 77
     0
 78
     0
  0
ENDTAB
  0
TABLE
  2
LTYPE
 70
     1
  0
LTYPE
  2
CONTINUOUS
 70
     0
  3
Solid line
 72
    65
 73
     0
 40
0.0
  0
ENDTAB
  0
TABLE
  2
LAYER
 70
     3
  0
LAYER
  2
0
 70
     0
 62
     7
  6
CONTINUOUS
  0
LAYER
  2
DEFPOINTS
 70
     0
 62
     7
  6
CONTINUOUS
  0
LAYER
  2
COTATION-JACOBDELAFON
 70
     0
 62
     8
  6
CONTINUOUS
  0
ENDTAB
  0
TABLE
  2
STYLE
 70
     2
  0
STYLE
  2
STANDARD
 70
     0
 40
0.0
 41
1.0
 50
0.0
 71
     0
 42
0.2
  3
txt
  4

  0
STYLE
  2
JACOB-DELAFON
 70
     0
 40
0.0
 41
1.0
 50
0.0
 71
     0
 42
2.5
  3
txt
  4

  0
ENDTAB
  0
TABLE
  2
VIEW
 70
     0
  0
ENDTAB
  0
TABLE
  2
UCS
 70
     0
  0
ENDTAB
  0
TABLE
  2
APPID
 70
     5
  0
APPID
  2
ACAD
 70
     0
  0
APPID
  2
ADCADD_ZZ
 70
     0
  0
APPID
  2
SDSK_PMN
 70
     0
  0
APPID
  2
AEC_DWGVARSSETUP_DATA
 70
     0
  0
APPID
  2
AEC_DISPREPSET_DATA
 70
     0
  0
ENDTAB
  0
TABLE
  2
DIMSTYLE
 70
     2
  0
DIMSTYLE
  2
STANDARD
 70
     0
  3

  4

  5

  6

  7

 40
1.0
 41
0.18
 42
0.0625
 43
0.38
 44
0.18
 45
0.0
 46
0.0
 47
0.0
 48
0.0
140
0.18
141
0.09
142
0.0
143
25.399999999999999
144
1.0
145
0.0
146
1.0
147
0.09
 71
     0
 72
     0
 73
     1
 74
     1
 75
     0
 76
     0
 77
     0
 78
     0
170
     0
171
     2
172
     0
173
     0
174
     0
175
     0
176
     0
177
     0
178
     0
  0
DIMSTYLE
  2
COTATION-JACOB-DELAFON
 70
     0
  3

  4

  5
OBLIQUE
  6

  7

 40
1.0
 41
1.8
 42
0.625
 43
3.7999999999999989
 44
1.8
 45
0.0
 46
0.0
 47
0.0
 48
0.0
140
3.0
141
0.9
142
0.0
143
25.399999999999999
144
1.0
145
0.0
146
1.0
147
0.9
 71
     0
 72
     0
 73
     0
 74
     0
 75
     0
 76
     0
 77
     1
 78
    12
170
     0
171
     2
172
     0
173
     0
174
     0
175
     0
176
     0
177
     0
178
     0
  0
ENDTAB
  0
ENDSEC
  0
SECTION
  2
BLOCKS
  0
BLOCK
  8
0
  2
$MODEL_SPACE
 70
     0
 10
0.0
 20
0.0
 30
0.0
  3
$MODEL_SPACE
  1

  0
ENDBLK
  5
9
  8
0
  0
BLOCK
 67
     1
  8
0
  2
$PAPER_SPACE
 70
     0
 10
0.0
 20
0.0
 30
0.0
  3
$PAPER_SPACE
  1

  0
ENDBLK
  5
E
 67
     1
  8
0
  0
BLOCK
  8
0
  2
*D0
 70
     1
 10
0.0
 20
0.0
 30
0.0
  3
*D0
  1

  0
LINE
  5
E3
  8
COTATION-JACOBDELAFON
 62
     0
 10
34.530365943121289
 20
0.0000000000000002
 30
0.0
 11
-5.7477357405669451
 21
0.0000000000000116
 31
0.0
  0
LINE
  5
E4
  8
COTATION-JACOBDELAFON
 62
     0
 10
0.225000977516288
 20
42.0
 30
0.0
 11
-5.7477357405669389
 21
42.0
 31
0.0
  0
LINE
  5
E5
  8
COTATION-JACOBDELAFON
 62
     0
 10
-3.947735740566948
 20
0.0000000000000111
 30
0.0
 11
-3.9477357405669391
 21
42.0
 31
0.0
  0
INSERT
  5
E6
  8
COTATION-JACOBDELAFON
 62
     0
  2
_OBLIQUE
 10
-3.947735740566948
 20
0.0000000000000111
 30
0.0
 41
1.8
 42
1.8
 43
1.8
 50
270.0
  0
INSERT
  5
E7
  8
COTATION-JACOBDELAFON
 62
     0
  2
_OBLIQUE
 10
-3.9477357405669391
 20
42.0
 30
0.0
 41
1.8
 42
1.8
 43
1.8
 50
90.0
  0
TEXT
  5
E8
  8
0
  6
CONTINUOUS
 62
     0
 10
-4.8538748947279284
 20
18.753069577080488
 30
0.0
 40
3.0
  1
42
 50
90.0
  7
JACOB-DELAFON
  0
POINT
  5
E9
  8
DEFPOINTS
 62
     0
 10
35.155365943121289
 20
0.0
 30
0.0
  0
POINT
  5
EA
  8
DEFPOINTS
 62
     0
 10
0.850000977516288
 20
42.0
 30
0.0
  0
POINT
  5
EB
  8
DEFPOINTS
 62
     0
 10
-3.9477357405669391
 20
42.0
 30
0.0
  0
ENDBLK
  5
52
  8
0
  0
BLOCK
  8
0
  2
_OBLIQUE
 70
     0
 10
0.0
 20
0.0
 30
0.0
  3
_OBLIQUE
  1

  0
LINE
  5
54
  8
0
  6
BYBLOCK
 62
     0
 10
-0.5
 20
-0.5
 30
0.0
 11
0.5
 21
0.5
 31
0.0
  0
ENDBLK
  5
56
  8
0
  0
BLOCK
  8
0
  2
*D2
 70
     1
 10
0.0
 20
0.0
 30
0.0
  3
*D2
  1

  0
LINE
  5
DA
  8
COTATION-JACOBDELAFON
 62
     0
 10
0.0
 20
40.599216692036407
 30
0.0
 11
0.0000000000000007
 21
50.911850252877727
 31
0.0
  0
LINE
  5
DB
  8
COTATION-JACOBDELAFON
 62
     0
 10
135.0000023841859
 20
40.599216692036407
 30
0.0
 11
135.0000023841859
 21
50.911850252877727
 31
0.0
  0
LINE
  5
DC
  8
COTATION-JACOBDELAFON
 62
     0
 10
0.0000000000000006
 20
49.11185025287773
 30
0.0
 11
135.0000023841859
 21
49.11185025287773
 31
0.0
  0
INSERT
  5
DD
  8
COTATION-JACOBDELAFON
 62
     0
  2
_OBLIQUE
 10
0.0000000000000006
 20
49.11185025287773
 30
0.0
 41
1.8
 42
1.8
 43
1.8
 50
180.0
  0
INSERT
  5
DE
  8
COTATION-JACOBDELAFON
 62
     0
  2
_OBLIQUE
 10
135.0000023841859
 20
49.11185025287773
 30
0.0
 41
1.8
 42
1.8
 43
1.8
  0
TEXT
  5
DF
  8
0
  6
CONTINUOUS
 62
     0
 10
63.859482774630472
 20
50.071195409767228
 30
0.0
 40
3.0
  1
135
  7
JACOB-DELAFON
  0
POINT
  5
E0
  8
DEFPOINTS
 62
     0
 10
0.0
 20
39.974216692036407
 30
0.0
  0
POINT
  5
E1
  8
DEFPOINTS
 62
     0
 10
135.0000023841859
 20
39.974216692036407
 30
0.0
  0
POINT
  5
E2
  8
DEFPOINTS
 62
     0
 10
135.0000023841859
 20
49.11185025287773
 30
0.0
  0
ENDBLK
  5
B8
  8
0
  0
BLOCK
  8
0
  2
ADCADD_ZZ
 70
     0
 10
0.0
 20
0.0
 30
0.0
  3
ADCADD_ZZ
  1

  0
ENDBLK
  5
124
  8
0
  0
ENDSEC
  0
SECTION
  2
ENTITIES
  0
POLYLINE
  5
24
  8
0
  6
CONTINUOUS
 66
     1
 10
0.0
 20
0.0
 30
0.0
  0
VERTEX
  5
2E5
  8
0
  6
CONTINUOUS
 10
16.299448417072881
 20
37.294352390727227
 30
0.0
  0
VERTEX
  5
2E6
  8
0
  6
CONTINUOUS
 10
18.738800287246701
 20
4.3636322021484366
 30
0.0
  0
VERTEX
  5
2E7
  8
0
  6
CONTINUOUS
 10
19.348698854446411
 20
3.1429290771484371
 30
0.0
  0
VERTEX
  5
2E8
  8
0
  6
CONTINUOUS
 10
20.16730010509502
 20
2.2129058837890621
 30
0.0
  0
VERTEX
  5
2E9
  8
0
  6
CONTINUOUS
 10
21.139600872993579
 20
1.6208648681640621
 30
0.0
  0
VERTEX
  5
2EA
  8
0
  6
CONTINUOUS
 10
22.20920026302349
 20
1.4072418212890621
 30
0.0
  0
SEQEND
  5
2EB
  8
0
  6
CONTINUOUS
  0
POLYLINE
  5
25
  8
0
  6
CONTINUOUS
 66
     1
 10
0.0
 20
0.0
 30
0.0
  0
VERTEX
  5
2EC
  8
0
  6
CONTINUOUS
 10
32.674896717071533
 20
36.46659851074218
 30
0.0
  0
VERTEX
  5
2ED
  8
0
  6
CONTINUOUS
 10
33.641099929809677
 20
4.5528411865234366
 30
0.0
  0
VERTEX
  5
2EE
  8
0
  6
CONTINUOUS
 10
34.271997213363761
 20
3.3061981201171871
 30
0.0
  0
VERTEX
  5
2EF
  8
0
  6
CONTINUOUS
 10
35.121899843215942
 20
2.3632049560546871
 30
0.0
  0
SEQEND
  5
2F0
  8
0
  6
CONTINUOUS
  0
POLYLINE
  5
26
  8
0
  6
CONTINUOUS
 66
     1
 10
0.0
 20
0.0
 30
0.0
  0
VERTEX
  5
2F1
  8
0
  6
CONTINUOUS
 10
6.8959561762527519
 20
38.84544372558593
 30
0.0
  0
VERTEX
  5
2F2
  8
0
  6
CONTINUOUS
 10
13.0829006433488
 20
4.3811798095703116
 30
0.0
  0
VERTEX
  5
2F3
  8
0
  6
CONTINUOUS
 10
14.756700396537889
 20
3.1589508056640621
 30
0.0
  0
VERTEX
  5
2F4
  8
0
  6
CONTINUOUS
 10
16.909500956535449
 20
2.2281646728515621
 30
0.0
  0
VERTEX
  5
2F5
  8
0
  6
CONTINUOUS
 10
18.964698910713189
 20
1.6345977783203121
 30
0.0
  0
VERTEX
  5
2F6
  8
0
  6
CONTINUOUS
 10
20.344400405883778
 20
1.4141082763671871
 30
0.0
  0
VERTEX
  5
2F7
  8
0
  6
CONTINUOUS
 10
36.073837068929151
 20
1.401686107157502
 30
0.0
  0
SEQEND
  5
2F8
  8
0
  6
CONTINUOUS
  0
POLYLINE
  5
27
  8
0
  6
CONTINUOUS
 66
     1
 10
0.0
 20
0.0
 30
0.0
  0
VERTEX
  5
2F9
  8
0
  6
CONTINUOUS
 10
38.868898153305047
 20
-0.0675201416015625
 30
0.0
  0
VERTEX
  5
2FA
  8
0
  6
CONTINUOUS
 10
41.67309999465953
 20
0.0675201416015625
 30
0.0
  0
VERTEX
  5
2FB
  8
0
  6
CONTINUOUS
 10
44.516098499298209
 20
0.0690460205078125
 30
0.0
  0
VERTEX
  5
2FC
  8
0
  6
CONTINUOUS
 10
45.043396949768059
 20
0.0675201416015625
 30
0.0
  0
VERTEX
  5
2FD
  8
0
  6
CONTINUOUS
 10
47.772002220153922
 20
0.0675201416015625
 30
0.0
  0
VERTEX
  5
2FE
  8
0
  6
CONTINUOUS
 10
49.031901359558219
 20
0.0675201416015625
 30
0.0
  0
VERTEX
  5
2FF
  8
0
  6
CONTINUOUS
 10
53.604501485824699
 20
0.0675201416015625
 30
0.0
  0
VERTEX
  5
300
  8
0
  6
CONTINUOUS
 10
61.742699146270752
 20
0.0675201416015625
 30
0.0
  0
VERTEX
  5
301
  8
0
  6
CONTINUOUS
 10
68.322896957397575
 20
0.0675201416015625
 30
0.0
  0
VERTEX
  5
302
  8
0
  6
CONTINUOUS
 10
70.318299531936759
 20
0.0675201416015625
 30
0.0
  0
VERTEX
  5
303
  8
0
  6
CONTINUOUS
 10
122.69959449768059
 20
0.0675201416015625
 30
0.0
  0
VERTEX
  5
304
  8
0
  6
CONTINUOUS
 10
124.1623044013978
 20
0.3932952880859375
 30
0.0
  0
VERTEX
  5
305
  8
0
  6
CONTINUOUS
 10
125.19700527191171
 20
0.8487701416015625
 30
0.0
  0
VERTEX
  5
306
  8
0
  6
CONTINUOUS
 10
126.1759996414185
 20
1.5827178955078121
 30
0.0
  0
VERTEX
  5
307
  8
0
  6
CONTINUOUS
 10
126.9754052162171
 20
2.8110504150390621
 30
0.0
  0
VERTEX
  5
308
  8
0
  6
CONTINUOUS
 10
127.46000289916989
 20
4.7100067138671866
 30
0.0
  0
VERTEX
  5
309
  8
0
  6
CONTINUOUS
 10
129.52034654995271
 20
38.84544372558593
 30
0.0
  0
SEQEND
  5
30A
  8
0
  6
CONTINUOUS
  0
POLYLINE
  5
28
  8
0
  6
CONTINUOUS
 66
     1
 10
0.0
 20
0.0
 30
0.0
  0
VERTEX
  5
30B
  8
0
  6
CONTINUOUS
 10
38.868898153305047
 20
-0.0675201416015625
 30
0.0
  0
VERTEX
  5
30C
  8
0
  6
CONTINUOUS
 10
38.15799951553344
 20
0.0675201416015625
 30
0.0
  0
VERTEX
  5
30D
  8
0
  6
CONTINUOUS
 10
37.871897220611679
 20
0.1972198486328125
 30
0.0
  0
VERTEX
  5
30E
  8
0
  6
CONTINUOUS
 10
37.472599744796753
 20
0.4283905029296875
 30
0.0
  0
VERTEX
  5
30F
  8
0
  6
CONTINUOUS
 10
37.120699882507317
 20
0.6298065185546875
 30
0.0
  0
VERTEX
  5
310
  8
0
  6
CONTINUOUS
 10
36.233597993850701
 20
1.2722015380859371
 30
0.0
  0
VERTEX
  5
311
  8
0
  6
CONTINUOUS
 10
35.315799713134759
 20
2.0160675048828121
 30
0.0
  0
VERTEX
  5
312
  8
0
  6
CONTINUOUS
 10
35.121899843215942
 20
2.3632049560546871
 30
0.0
  0
SEQEND
  5
313
  8
0
  6
CONTINUOUS
  0
LINE
  5
29
  8
0
  6
CONTINUOUS
 10
0.0000000000001137
 20
41.12567138671875
 30
0.0
 11
135.0000023841859
 21
41.12567138671875
 31
0.0
  0
POLYLINE
  5
2A
  8
0
  6
CONTINUOUS
 66
     1
 10
0.0
 20
0.0
 30
0.0
 70
     1
  0
VERTEX
  5
314
  8
0
  6
CONTINUOUS
 10
0.0
 20
38.84544372558593
 30
0.0
  0
VERTEX
  5
315
  8
0
  6
CONTINUOUS
 10
0.0
 20
41.12567138671875
 30
0.0
  0
VERTEX
  5
316
  8
0
  6
CONTINUOUS
 10
0.2489000558853149
 20
41.74365234375
 30
0.0
  0
VERTEX
  5
317
  8
0
  6
CONTINUOUS
 10
0.850000977516288
 20
42.0
 30
0.0
  0
VERTEX
  5
318
  8
0
  6
CONTINUOUS
 10
134.15000438690191
 20
42.0
 30
0.0
  0
VERTEX
  5
319
  8
0
  6
CONTINUOUS
 10
134.7509980201722
 20
41.74365234375
 30
0.0
  0
VERTEX
  5
31A
  8
0
  6
CONTINUOUS
 10
135.0000023841859
 20
41.12567138671875
 30
0.0
  0
VERTEX
  5
31B
  8
0
  6
CONTINUOUS
 10
135.0000023841859
 20
38.84544372558593
 30
0.0
  0
SEQEND
  5
31C
  8
0
  6
CONTINUOUS
  0
POLYLINE
  5
2B
  8
0
  6
CONTINUOUS
 66
     1
 10
0.0
 20
0.0
 30
0.0
  0
VERTEX
  5
31D
  8
0
  6
CONTINUOUS
 10
9.8009621357026617
 20
38.84544372558593
 30
0.0
  0
VERTEX
  5
31E
  8
0
  6
CONTINUOUS
 10
10.99790036678314
 20
38.23051452636718
 30
0.0
  0
VERTEX
  5
31F
  8
0
  6
CONTINUOUS
 10
12.80620098114013
 20
37.681961059570313
 30
0.0
  0
VERTEX
  5
320
  8
0
  6
CONTINUOUS
 10
15.47279953956615
 20
37.35771179199218
 30
0.0
  0
VERTEX
  5
321
  8
0
  6
CONTINUOUS
 10
17.314299941063041
 20
37.216567993164063
 30
0.0
  0
VERTEX
  5
322
  8
0
  6
CONTINUOUS
 10
21.706399321556201
 20
36.97013854980468
 30
0.0
  0
SEQEND
  5
323
  8
0
  6
CONTINUOUS
  0
POLYLINE
  5
2C
  8
0
  6
CONTINUOUS
 66
     1
 10
0.0
 20
0.0
 30
0.0
  0
VERTEX
  5
324
  8
0
  6
CONTINUOUS
 10
21.446967396682108
 20
36.98469461042589
 30
0.0
  0
VERTEX
  5
325
  8
0
  6
CONTINUOUS
 10
22.774100303650009
 20
36.48643493652343
 30
0.0
  0
VERTEX
  5
326
  8
0
  6
CONTINUOUS
 10
24.232399463653561
 20
36.323928833007813
 30
0.0
  0
VERTEX
  5
327
  8
0
  6
CONTINUOUS
 10
26.278001070022579
 20
36.34605407714843
 30
0.0
  0
VERTEX
  5
328
  8
0
  6
CONTINUOUS
 10
28.376299142837521
 20
36.370468139648551
 30
0.0
  0
VERTEX
  5
329
  8
0
  6
CONTINUOUS
 10
29.891699552536011
 20
36.420059204101563
 30
0.0
  0
VERTEX
  5
32A
  8
0
  6
CONTINUOUS
 10
31.88340067863475
 20
36.46965026855468
 30
0.0
  0
VERTEX
  5
32B
  8
0
  6
CONTINUOUS
 10
32.674896717071533
 20
36.46659851074218
 30
0.0
  0
SEQEND
  5
32C
  8
0
  6
CONTINUOUS
  0
DIMENSION
  5
45
  8
COTATION-JACOBDELAFON
  2
*D0
 10
-3.9477357405669391
 20
42.0
 30
0.0
 11
-6.3538748947279293
 21
21.0
 31
0.0
 70
     0
 13
35.155365943121289
 23
0.0
 33
0.0
 14
0.850000977516288
 24
42.0
 34
0.0
 50
90.0
  0
DIMENSION
  5
AB
  8
COTATION-JACOBDELAFON
  2
*D2
 10
135.0000023841859
 20
49.11185025287773
 30
0.0
 11
67.500001192092952
 21
51.54459240840297
 31
0.0
 70
     0
 13
0.0
 23
39.974216692036407
 33
0.0
 14
135.0000023841859
 24
39.974216692036407
 34
0.0
  0
LINE
  5
FA
  8
0
 10
31.500001192092959
 20
-4.3379355080648727
 30
0.0
 11
31.500001192092959
 21
-13.5
 31
0.0
  0
LINE
  5
FB
  8
0
 10
33.500001192092959
 20
-4.3379355080648727
 30
0.0
 11
33.500001192092959
 21
-13.5
 31
0.0
  0
POLYLINE
  5
FC
  8
0
 66
     1
 10
0.0
 20
0.0
 30
0.0
 70
     1
  0
VERTEX
  5
32D
  8
0
 10
31.000001192092959
 20
-4.3379355080648727
 30
0.0
  0
VERTEX
  5
32E
  8
0
 10
34.000001192092967
 20
-4.3379355080648727
 30
0.0
  0
VERTEX
  5
32F
  8
0
 10
34.000001192092967
 20
1.6436096154007751
 30
0.0
  0
VERTEX
  5
330
  8
0
 10
31.000001192092959
 20
1.6436096154007751
 30
0.0
  0
SEQEND
  5
331
  8
0
  0
POLYLINE
  5
FD
  8
0
 66
     1
 10
0.0
 20
0.0
 30
0.0
 70
     1
  0
VERTEX
  5
332
  8
0
 10
31.000001192092959
 20
-16.5
 30
0.0
  0
VERTEX
  5
333
  8
0
 10
34.000001192092959
 20
-16.5
 30
0.0
  0
VERTEX
  5
334
  8
0
 10
34.000001192092959
 20
-13.5
 30
0.0
  0
VERTEX
  5
335
  8
0
 10
31.000001192092959
 20
-13.5
 30
0.0
  0
SEQEND
  5
336
  8
0
  0
POLYLINE
  5
FE
  8
0
 66
     1
 10
0.0
 20
0.0
 30
0.0
 70
     1
  0
VERTEX
  5
337
  8
0
 10
30.000001192092959
 20
-17.0
 30
0.0
  0
VERTEX
  5
338
  8
0
 10
35.000001192092959
 20
-17.0
 30
0.0
  0
VERTEX
  5
339
  8
0
 10
35.000001192092959
 20
-16.5
 30
0.0
  0
VERTEX
  5
33A
  8
0
 10
30.000001192092959
 20
-16.5
 30
0.0
  0
SEQEND
  5
33B
  8
0
  0
POLYLINE
  5
104
  8
0
 66
     1
 10
0.0
 20
0.0
 30
0.0
 70
     1
  0
VERTEX
  5
33C
  8
0
 10
101.0000011920929
 20
-4.3379355080648727
 30
0.0
  0
VERTEX
  5
33D
  8
0
 10
104.0000011920929
 20
-4.3379355080648727
 30
0.0
  0
VERTEX
  5
33E
  8
0
 10
104.0000011920929
 20
0.6620644919351247
 30
0.0
  0
VERTEX
  5
33F
  8
0
 10
101.0000011920929
 20
0.6620644919351247
 30
0.0
  0
SEQEND
  5
340
  8
0
  0
LINE
  5
105
  8
0
 10
103.5000011920929
 20
-4.3379355080648727
 30
0.0
 11
103.5000011920929
 21
-13.5
 31
0.0
  0
POLYLINE
  5
106
  8
0
 66
     1
 10
0.0
 20
0.0
 30
0.0
 70
     1
  0
VERTEX
  5
341
  8
0
 10
101.0000011920929
 20
-16.5
 30
0.0
  0
VERTEX
  5
342
  8
0
 10
104.0000011920929
 20
-16.5
 30
0.0
  0
VERTEX
  5
343
  8
0
 10
104.0000011920929
 20
-13.5
 30
0.0
  0
VERTEX
  5
344
  8
0
 10
101.0000011920929
 20
-13.5
 30
0.0
  0
SEQEND
  5
345
  8
0
  0
POLYLINE
  5
107
  8
0
 66
     1
 10
0.0
 20
0.0
 30
0.0
 70
     1
  0
VERTEX
  5
346
  8
0
 10
100.0000011920929
 20
-17.0
 30
0.0
  0
VERTEX
  5
347
  8
0
 10
105.0000011920929
 20
-17.0
 30
0.0
  0
VERTEX
  5
348
  8
0
 10
105.0000011920929
 20
-16.5
 30
0.0
  0
VERTEX
  5
349
  8
0
 10
100.0000011920929
 20
-16.5
 30
0.0
  0
SEQEND
  5
34A
  8
0
  0
LINE
  5
108
  8
0
 10
101.5000011920929
 20
-4.3379355080648727
 30
0.0
 11
101.5000011920929
 21
-13.5
 31
0.0
  0
INSERT
  5
125
 67
     1
  8
0
  6
CONTINUOUS
  2
ADCADD_ZZ
 10
0.0
 20
0.0
 30
0.0
1001
ADCADD_ZZ
1070
   205
1070
    14
1070
   209
1070
     1
1070
   231
1070
     0
1070
   235
1070
     0
1070
   236
1070
     4
1070
   237
1070
     2
1070
   238
1070
     4
1070
   239
1070
     2
1070
   240
1070
     0
1070
   241
1070
  4096
1070
   242
1070
     2
1070
   244
1070
     0
1070
   245
1070
     1
1070
   303
1040
0.1
1070
   304
1040
4.0
1070
   305
1040
96.0
1070
   306
1040
0.125
1070
   337
1040
0.0
1070
   338
1040
0.3048
1070
   339
1040
0.0625
1070
   340
1040
96.0
1070
   341
1040
4.0
1070
   342
1040
96.0
1070
   530
1010
0.0
1020
0.0
1030
0.0
1070
   531
1010
0.0
1020
0.0
1030
0.0
1070
   107
1000

1070
   108
1000
AIA (256 Color)
1070
   135
1000
L120
1070
   136
1000
'
1070
   137
1000
m
1001
SDSK_PMN
1070
   100
1000
ACADARCH
1070
   300
1040
2453076.5715084719
  0
ENDSEC
  0
EOF
