  0
SECTION
  2
HEADER
  9
$ACADVER
  1
AC1014
  9
$ACADMAINTVER
 70
     9
  9
$DWGCODEPAGE
  3
ANSI_1252
  9
$INSBASE
 10
0.0
 20
0.0
 30
0.0
  9
$EXTMIN
 10
-48.40790343234945
 20
-0.8999999999999978
 30
0.0
  9
$EXTMAX
 10
36.49525627652167
 20
68.48696968454764
 30
0.0
  9
$LIMMIN
 10
0.0
 20
0.0
  9
$LIMMAX
 10
420.0
 20
297.0
  9
$ORTHOMODE
 70
     1
  9
$REGENMODE
 70
     1
  9
$FILLMODE
 70
     1
  9
$QTEXTMODE
 70
     0
  9
$MIRRTEXT
 70
     1
  9
$DRAGMODE
 70
     2
  9
$LTSCALE
 40
1.0
  9
$OSMODE
 70
   167
  9
$ATTMODE
 70
     1
  9
$TEXTSIZE
 40
2.5
  9
$TRACEWID
 40
1.0
  9
$TEXTSTYLE
  7
STANDARD
  9
$CLAYER
  8
0
  9
$CELTYPE
  6
BYLAYER
  9
$CECOLOR
 62
   256
  9
$CELTSCALE
 40
1.0
  9
$DELOBJ
 70
     1
  9
$DISPSILH
 70
     0
  9
$DIMSCALE
 40
1.0
  9
$DIMASZ
 40
1.8
  9
$DIMEXO
 40
0.625
  9
$DIMDLI
 40
3.799999999999999
  9
$DIMRND
 40
0.0
  9
$DIMDLE
 40
0.0
  9
$DIMEXE
 40
1.8
  9
$DIMTP
 40
0.0
  9
$DIMTM
 40
0.0
  9
$DIMTXT
 40
3.0
  9
$DIMCEN
 40
0.9
  9
$DIMTSZ
 40
0.0
  9
$DIMTOL
 70
     0
  9
$DIMLIM
 70
     0
  9
$DIMTIH
 70
     0
  9
$DIMTOH
 70
     0
  9
$DIMSE1
 70
     0
  9
$DIMSE2
 70
     0
  9
$DIMTAD
 70
     1
  9
$DIMZIN
 70
    12
  9
$DIMBLK
  1
OBLIQUE
  9
$DIMASO
 70
     1
  9
$DIMSHO
 70
     1
  9
$DIMPOST
  1

  9
$DIMAPOST
  1

  9
$DIMALT
 70
     0
  9
$DIMALTD
 70
     2
  9
$DIMALTF
 40
25.4
  9
$DIMLFAC
 40
1.0
  9
$DIMTOFL
 70
     0
  9
$DIMTVP
 40
0.0
  9
$DIMTIX
 70
     0
  9
$DIMSOXD
 70
     0
  9
$DIMSAH
 70
     0
  9
$DIMBLK1
  1

  9
$DIMBLK2
  1

  9
$DIMSTYLE
  2
COTATION-JACOB-DELAFON
  9
$DIMCLRD
 70
     0
  9
$DIMCLRE
 70
     0
  9
$DIMCLRT
 70
     0
  9
$DIMTFAC
 40
1.0
  9
$DIMGAP
 40
0.9
  9
$DIMJUST
 70
     0
  9
$DIMSD1
 70
     0
  9
$DIMSD2
 70
     0
  9
$DIMTOLJ
 70
     1
  9
$DIMTZIN
 70
     0
  9
$DIMALTZ
 70
     0
  9
$DIMALTTZ
 70
     0
  9
$DIMFIT
 70
     5
  9
$DIMUPT
 70
     0
  9
$DIMUNIT
 70
     2
  9
$DIMDEC
 70
     2
  9
$DIMTDEC
 70
     2
  9
$DIMALTU
 70
     2
  9
$DIMALTTD
 70
     2
  9
$DIMTXSTY
  7
JACOB-DELAFON
  9
$DIMAUNIT
 70
     0
  9
$LUNITS
 70
     2
  9
$LUPREC
 70
     4
  9
$SKETCHINC
 40
1.0
  9
$FILLETRAD
 40
0.0
  9
$AUNITS
 70
     0
  9
$AUPREC
 70
     0
  9
$MENU
  1
.
  9
$ELEVATION
 40
0.0
  9
$PELEVATION
 40
0.0
  9
$THICKNESS
 40
0.0
  9
$LIMCHECK
 70
     0
  9
$BLIPMODE
 70
     0
  9
$CHAMFERA
 40
10.0
  9
$CHAMFERB
 40
10.0
  9
$CHAMFERC
 40
20.0
  9
$CHAMFERD
 40
0.0
  9
$SKPOLY
 70
     0
  9
$TDCREATE
 40
2451205.774017129
  9
$TDUPDATE
 40
2452285.712424131
  9
$TDINDWG
 40
0.1049759722
  9
$TDUSRTIMER
 40
0.1049759722
  9
$USRTIMER
 70
     1
  9
$ANGBASE
 50
0.0
  9
$ANGDIR
 70
     0
  9
$PDMODE
 70
     0
  9
$PDSIZE
 40
0.0
  9
$PLINEWID
 40
0.0
  9
$COORDS
 70
     0
  9
$SPLFRAME
 70
     0
  9
$SPLINETYPE
 70
     6
  9
$SPLINESEGS
 70
     8
  9
$ATTDIA
 70
     0
  9
$ATTREQ
 70
     1
  9
$HANDLING
 70
 22529
  9
$HANDSEED
  5
8A9
  9
$SURFTAB1
 70
     6
  9
$SURFTAB2
 70
     6
  9
$SURFTYPE
 70
     6
  9
$SURFU
 70
     6
  9
$SURFV
 70
     6
  9
$UCSNAME
  2

  9
$UCSORG
 10
0.0
 20
0.0
 30
0.0
  9
$UCSXDIR
 10
1.0
 20
0.0
 30
0.0
  9
$UCSYDIR
 10
0.0
 20
1.0
 30
0.0
  9
$PUCSNAME
  2

  9
$PUCSORG
 10
0.0
 20
0.0
 30
0.0
  9
$PUCSXDIR
 10
1.0
 20
0.0
 30
0.0
  9
$PUCSYDIR
 10
0.0
 20
1.0
 30
0.0
  9
$USERI1
 70
     0
  9
$USERI2
 70
     0
  9
$USERI3
 70
     0
  9
$USERI4
 70
     0
  9
$USERI5
 70
     0
  9
$USERR1
 40
0.0
  9
$USERR2
 40
0.0
  9
$USERR3
 40
0.0
  9
$USERR4
 40
0.0
  9
$USERR5
 40
0.0
  9
$WORLDVIEW
 70
     1
  9
$SHADEDGE
 70
     3
  9
$SHADEDIF
 70
    70
  9
$TILEMODE
 70
     1
  9
$MAXACTVP
 70
    48
  9
$PINSBASE
 10
0.0
 20
0.0
 30
0.0
  9
$PLIMCHECK
 70
     0
  9
$PEXTMIN
 10
1.000000000000000E+20
 20
1.000000000000000E+20
 30
1.000000000000000E+20
  9
$PEXTMAX
 10
-1.000000000000000E+20
 20
-1.000000000000000E+20
 30
-1.000000000000000E+20
  9
$PLIMMIN
 10
0.0
 20
0.0
  9
$PLIMMAX
 10
420.0
 20
297.0
  9
$UNITMODE
 70
     0
  9
$VISRETAIN
 70
     1
  9
$PLINEGEN
 70
     0
  9
$PSLTSCALE
 70
     1
  9
$TREEDEPTH
 70
  3020
  9
$PICKSTYLE
 70
     1
  9
$CMLSTYLE
  2
STANDARD
  9
$CMLJUST
 70
     0
  9
$CMLSCALE
 40
20.0
  9
$PROXYGRAPHICS
 70
     1
  9
$MEASUREMENT
 70
     1
  0
ENDSEC
  0
SECTION
  2
CLASSES
  0
CLASS
  1
RASTERVARIABLES
  2
AcDbRasterVariables
  3
ISM
 90
        0
280
     0
281
     0
  0
CLASS
  1
IMAGEDEF
  2
AcDbRasterImageDef
  3
ISM
 90
        0
280
     0
281
     0
  0
CLASS
  1
IMAGEDEF_REACTOR
  2
AcDbRasterImageDefReactor
  3
ISM
 90
        1
280
     0
281
     0
  0
CLASS
  1
IMAGE
  2
AcDbRasterImage
  3
ISM
 90
      127
280
     0
281
     1
  0
CLASS
  1
LWPOLYLINE
  2
AcDbPolyline
  3
AutoCAD 2000
 90
        0
280
     0
281
     1
  0
CLASS
  1
ACDBDICTIONARYWDFLT
  2
AcDbDictionaryWithDefault
  3
AutoCAD 2000
 90
        0
280
     0
281
     0
  0
CLASS
  1
ACDBPLACEHOLDER
  2
AcDbPlaceHolder
  3
AutoCAD 2000
 90
        0
280
     0
281
     0
  0
CLASS
  1
LAYOUT
  2
AcDbLayout
  3
AutoCAD 2000
 90
        0
280
     0
281
     0
  0
CLASS
  1
DICTIONARYVAR
  2
AcDbDictionaryVar
  3
AutoCAD 2000
 90
        0
280
     0
281
     0
  0
CLASS
  1
LONG_TRANSACTION
  2
AcDbLongTransaction
  3
AutoCAD 2000
 90
        0
280
     0
281
     0
  0
CLASS
  1
LWPOLYLINE
  2
AcDbPolyline
  3
AutoCAD 2000
 90
        0
280
     0
281
     1
  0
CLASS
  1
HATCH
  2
AcDbHatch
  3
AutoCAD 2000
 90
        0
280
     0
281
     1
  0
CLASS
  1
XRECORD
  2
AcDbXrecord
  3
AutoCAD 2000
 90
        0
280
     0
281
     0
  0
ENDSEC
  0
SECTION
  2
TABLES
  0
TABLE
  2
VPORT
  5
8
330
0
100
AcDbSymbolTable
 70
     3
  0
VPORT
  5
883
330
8
100
AcDbSymbolTableRecord
100
AcDbViewportTableRecord
  2
*ACTIVE
 70
     0
 10
0.0
 20
0.0
 11
1.0
 21
1.0
 12
-6.267651040259053
 22
34.69578066850135
 13
0.0
 23
0.0
 14
10.0
 24
10.0
 15
10.0
 25
10.0
 16
0.0
 26
0.0
 36
1.0
 17
0.0
 27
0.0
 37
0.0
 40
72.01729520905454
 41
1.828516377649325
 42
50.0
 43
0.0
 44
0.0
 50
0.0
 51
0.0
 71
     0
 72
   100
 73
     1
 74
     1
 75
     0
 76
     0
 77
     0
 78
     0
  0
ENDTAB
  0
TABLE
  2
LTYPE
  5
5
330
0
100
AcDbSymbolTable
 70
     1
  0
LTYPE
  5
12
330
5
100
AcDbSymbolTableRecord
100
AcDbLinetypeTableRecord
  2
BYBLOCK
 70
     0
  3

 72
    65
 73
     0
 40
0.0
  0
LTYPE
  5
13
330
5
100
AcDbSymbolTableRecord
100
AcDbLinetypeTableRecord
  2
BYLAYER
 70
     0
  3

 72
    65
 73
     0
 40
0.0
  0
LTYPE
  5
14
330
5
100
AcDbSymbolTableRecord
100
AcDbLinetypeTableRecord
  2
CONTINUOUS
 70
     0
  3
Solid line
 72
    65
 73
     0
 40
0.0
  0
ENDTAB
  0
TABLE
  2
LAYER
  5
2
330
0
100
AcDbSymbolTable
 70
     3
  0
LAYER
  5
E
330
2
100
AcDbSymbolTableRecord
100
AcDbLayerTableRecord
  2
0
 70
     0
 62
   255
  6
CONTINUOUS
  0
LAYER
  5
1E1
330
2
100
AcDbSymbolTableRecord
100
AcDbLayerTableRecord
  2
DEFPOINTS
 70
     0
 62
     7
  6
CONTINUOUS
  0
LAYER
  5
4D7
330
2
100
AcDbSymbolTableRecord
100
AcDbLayerTableRecord
  2
COTATION-JACOBDELAFON
 70
     0
 62
     8
  6
CONTINUOUS
  0
ENDTAB
  0
TABLE
  2
STYLE
  5
3
330
0
100
AcDbSymbolTable
 70
     2
  0
STYLE
  5
F
330
3
100
AcDbSymbolTableRecord
100
AcDbTextStyleTableRecord
  2
STANDARD
 70
     0
 40
0.0
 41
1.0
 50
0.0
 71
     0
 42
2.5
  3
txt
  4

  0
STYLE
  5
4D8
330
3
100
AcDbSymbolTableRecord
100
AcDbTextStyleTableRecord
  2
JACOB-DELAFON
 70
     0
 40
0.0
 41
1.0
 50
0.0
 71
     0
 42
2.5
  3
ARIAL.TTF
  4

1001
ACAD
1000
Arial
1071
       34
  0
ENDTAB
  0
TABLE
  2
VIEW
  5
6
330
0
100
AcDbSymbolTable
 70
     0
  0
ENDTAB
  0
TABLE
  2
UCS
  5
7
330
0
100
AcDbSymbolTable
 70
     0
  0
ENDTAB
  0
TABLE
  2
APPID
  5
9
330
0
100
AcDbSymbolTable
 70
     2
  0
APPID
  5
10
330
9
100
AcDbSymbolTableRecord
100
AcDbRegAppTableRecord
  2
ACAD
 70
     0
  0
APPID
  5
4DA
330
9
100
AcDbSymbolTableRecord
100
AcDbRegAppTableRecord
  2
PE_URL
 70
     0
  0
ENDTAB
  0
TABLE
  2
DIMSTYLE
  5
A
330
0
100
AcDbSymbolTable
 70
     2
  0
DIMSTYLE
105
1D
330
A
100
AcDbSymbolTableRecord
100
AcDbDimStyleTableRecord
  2
STANDARD
 70
     0
  3

  4

  5

  6

  7

 40
1.0
 41
0.18
 42
0.0625
 43
0.38
 44
0.18
 45
0.0
 46
0.0
 47
0.0
 48
0.0
140
0.18
141
0.09
142
0.0
143
25.4
144
1.0
145
0.0
146
1.0
147
0.09
 71
     0
 72
     0
 73
     1
 74
     1
 75
     0
 76
     0
 77
     0
 78
     0
170
     0
171
     2
172
     0
173
     0
174
     0
175
     0
176
     0
177
     0
178
     0
270
     2
271
     4
272
     4
273
     2
274
     2
340
F
275
     0
280
     0
281
     0
282
     0
283
     1
284
     0
285
     0
286
     0
287
     3
288
     0
  0
DIMSTYLE
105
4D9
102
{ACAD_REACTORS
330
754
330
761
102
}
330
A
100
AcDbSymbolTableRecord
100
AcDbDimStyleTableRecord
  2
COTATION-JACOB-DELAFON
 70
     0
  3

  4

  5
OBLIQUE
  6

  7

 40
1.0
 41
1.8
 42
0.625
 43
3.799999999999999
 44
1.8
 45
0.0
 46
0.0
 47
0.0
 48
0.0
140
3.0
141
0.9
142
0.0
143
25.4
144
1.0
145
0.0
146
1.0
147
0.9
 71
     0
 72
     0
 73
     0
 74
     0
 75
     0
 76
     0
 77
     1
 78
    12
170
     0
171
     2
172
     0
173
     0
174
     0
175
     0
176
     0
177
     0
178
     0
270
     2
271
     2
272
     2
273
     2
274
     2
340
4D8
275
     0
280
     0
281
     0
282
     0
283
     1
284
     0
285
     0
286
     0
287
     5
288
     0
  0
ENDTAB
  0
TABLE
  2
BLOCK_RECORD
  5
1
330
0
100
AcDbSymbolTable
 70
     3
  0
BLOCK_RECORD
  5
18
102
{ACAD_XDICTIONARY
360
8A7
102
}
330
1
100
AcDbSymbolTableRecord
100
AcDbBlockTableRecord
  2
*MODEL_SPACE
  0
BLOCK_RECORD
  5
15
102
{ACAD_XDICTIONARY
360
8A5
102
}
330
1
100
AcDbSymbolTableRecord
100
AcDbBlockTableRecord
  2
*PAPER_SPACE
  0
BLOCK_RECORD
  5
4BB
330
1
100
AcDbSymbolTableRecord
100
AcDbBlockTableRecord
  2
_OBLIQUE
  0
BLOCK_RECORD
  5
755
330
1
100
AcDbSymbolTableRecord
100
AcDbBlockTableRecord
  2
*D1
  0
BLOCK_RECORD
  5
762
330
1
100
AcDbSymbolTableRecord
100
AcDbBlockTableRecord
  2
*D2
  0
ENDTAB
  0
ENDSEC
  0
SECTION
  2
BLOCKS
  0
BLOCK
  5
19
330
18
100
AcDbEntity
  8
0
100
AcDbBlockBegin
  2
*MODEL_SPACE
 70
     0
 10
0.0
 20
0.0
 30
0.0
  3
*MODEL_SPACE
  1

  0
ENDBLK
  5
1A
330
18
100
AcDbEntity
  8
0
100
AcDbBlockEnd
  0
BLOCK
  5
16
330
15
100
AcDbEntity
 67
     1
  8
0
100
AcDbBlockBegin
  2
*PAPER_SPACE
 70
     0
 10
0.0
 20
0.0
 30
0.0
  3
*PAPER_SPACE
  1

  0
ENDBLK
  5
17
330
15
100
AcDbEntity
 67
     1
  8
0
100
AcDbBlockEnd
  0
BLOCK
  5
4BD
330
4BB
100
AcDbEntity
  8
0
100
AcDbBlockBegin
  2
_OBLIQUE
 70
     0
 10
0.0
 20
0.0
 30
0.0
  3
_OBLIQUE
  1

  0
LINE
  5
4BC
330
4BB
100
AcDbEntity
  8
0
  6
BYBLOCK
 62
     0
100
AcDbLine
 10
-0.5
 20
-0.5
 30
0.0
 11
0.5
 21
0.5
 31
0.0
  0
ENDBLK
  5
4BE
330
4BB
100
AcDbEntity
  8
0
100
AcDbBlockEnd
  0
BLOCK
  5
75F
330
755
100
AcDbEntity
  8
0
100
AcDbBlockBegin
  2
*D1
 70
     1
 10
0.0
 20
0.0
 30
0.0
  3
*D1
  1

  0
LINE
  5
834
330
755
100
AcDbEntity
  8
COTATION-JACOBDELAFON
 62
     0
100
AcDbLine
 10
-35.625
 20
54.49999999999971
 30
0.0
 11
-45.46274654285421
 21
54.49999999999971
 31
0.0
  0
LINE
  5
835
330
755
100
AcDbEntity
  8
COTATION-JACOBDELAFON
 62
     0
100
AcDbLine
 10
-36.25
 20
0.0000000000000002
 30
0.0
 11
-45.46274654285423
 21
0.0000000000000028
 31
0.0
  0
LINE
  5
836
330
755
100
AcDbEntity
  8
COTATION-JACOBDELAFON
 62
     0
100
AcDbLine
 10
-43.66274654285422
 20
54.49999999999971
 30
0.0
 11
-43.66274654285422
 21
0.0000000000000023
 31
0.0
  0
INSERT
  5
837
330
755
100
AcDbEntity
  8
COTATION-JACOBDELAFON
 62
     0
100
AcDbBlockReference
  2
_OBLIQUE
 10
-43.66274654285422
 20
54.49999999999971
 30
0.0
 41
1.8
 42
1.8
 43
1.8
 50
90.0
  0
INSERT
  5
838
330
755
100
AcDbEntity
  8
COTATION-JACOBDELAFON
 62
     0
100
AcDbBlockReference
  2
_OBLIQUE
 10
-43.66274654285422
 20
0.0000000000000023
 30
0.0
 41
1.8
 42
1.8
 43
1.8
 50
270.0
  0
MTEXT
  5
839
330
755
100
AcDbEntity
  8
COTATION-JACOBDELAFON
 62
     0
100
AcDbMText
 10
-46.08832635185832
 20
27.24999999999985
 30
0.0
 40
3.0
 41
0.0
 71
     5
 72
     1
  1
\A1;54.5
  7
JACOB-DELAFON
 11
0.0000000000000001
 21
1.0
 31
0.0
1001
ACAD
1000
MTEXTBEGIN
1070
    73
1070
     1
1070
    44
1040
1.0
1070
    74
1070
     0
1000
MTEXTEND
  0
POINT
  5
83A
330
755
100
AcDbEntity
  8
DEFPOINTS
 62
     0
100
AcDbPoint
 10
-35.0
 20
54.49999999999971
 30
0.0
  0
POINT
  5
83B
330
755
100
AcDbEntity
  8
DEFPOINTS
 62
     0
100
AcDbPoint
 10
-35.625
 20
0.0
 30
0.0
  0
POINT
  5
83C
330
755
100
AcDbEntity
  8
DEFPOINTS
 62
     0
100
AcDbPoint
 10
-43.66274654285422
 20
0.0000000000000023
 30
0.0
  0
ENDBLK
  5
760
330
755
100
AcDbEntity
  8
0
100
AcDbBlockEnd
  0
BLOCK
  5
76C
330
762
100
AcDbEntity
  8
0
100
AcDbBlockBegin
  2
*D2
 70
     1
 10
0.0
 20
0.0
 30
0.0
  3
*D2
  1

  0
LINE
  5
82B
330
762
100
AcDbEntity
  8
COTATION-JACOBDELAFON
 62
     0
100
AcDbLine
 10
-35.0
 20
55.125
 30
0.0
 11
-35.0
 21
65.53567364089143
 31
0.0
  0
LINE
  5
82C
330
762
100
AcDbEntity
  8
COTATION-JACOBDELAFON
 62
     0
100
AcDbLine
 10
35.0
 20
55.12500000000017
 30
0.0
 11
35.0
 21
65.53567364089143
 31
0.0
  0
LINE
  5
82D
330
762
100
AcDbEntity
  8
COTATION-JACOBDELAFON
 62
     0
100
AcDbLine
 10
-35.0
 20
63.73567364089144
 30
0.0
 11
35.0
 21
63.73567364089144
 31
0.0
  0
INSERT
  5
82E
330
762
100
AcDbEntity
  8
COTATION-JACOBDELAFON
 62
     0
100
AcDbBlockReference
  2
_OBLIQUE
 10
-35.0
 20
63.73567364089144
 30
0.0
 41
1.8
 42
1.8
 43
1.8
 50
180.0
  0
INSERT
  5
82F
330
762
100
AcDbEntity
  8
COTATION-JACOBDELAFON
 62
     0
100
AcDbBlockReference
  2
_OBLIQUE
 10
35.0
 20
63.73567364089144
 30
0.0
 41
1.8
 42
1.8
 43
1.8
  0
MTEXT
  5
830
330
762
100
AcDbEntity
  8
COTATION-JACOBDELAFON
 62
     0
100
AcDbMText
 10
-0.0000000000000034
 20
66.16739260405651
 30
0.0
 40
3.0
 41
0.0
 71
     5
 72
     1
  1
\A1;70
  7
JACOB-DELAFON
1001
ACAD
1000
MTEXTBEGIN
1070
    73
1070
     1
1070
    44
1040
1.0
1070
    74
1070
     0
1000
MTEXTEND
  0
POINT
  5
831
330
762
100
AcDbEntity
  8
DEFPOINTS
 62
     0
100
AcDbPoint
 10
-35.0
 20
54.5
 30
0.0
  0
POINT
  5
832
330
762
100
AcDbEntity
  8
DEFPOINTS
 62
     0
100
AcDbPoint
 10
35.0
 20
54.50000000000017
 30
0.0
  0
POINT
  5
833
330
762
100
AcDbEntity
  8
DEFPOINTS
 62
     0
100
AcDbPoint
 10
35.0
 20
63.73567364089144
 30
0.0
  0
ENDBLK
  5
76D
330
762
100
AcDbEntity
  8
0
100
AcDbBlockEnd
  0
ENDSEC
  0
SECTION
  2
ENTITIES
  0
LINE
  5
75
330
18
100
AcDbEntity
  8
0
100
AcDbLine
 10
-20.54488427299952
 20
0.0
 30
0.0
 11
-17.45511572700002
 21
0.0
 31
0.0
  0
LINE
  5
76
330
18
100
AcDbEntity
  8
0
100
AcDbLine
 10
0.0000000000000497
 20
54.5
 30
0.0
 11
35.0
 21
54.5
 31
0.0
  0
LINE
  5
78
330
18
100
AcDbEntity
  8
0
100
AcDbLine
 10
35.0
 20
54.50000000000017
 30
0.0
 11
34.99999999999994
 21
52.89999999999998
 31
0.0
  0
LINE
  5
7A
330
18
100
AcDbEntity
  8
0
100
AcDbLine
 10
28.43640026317784
 20
52.89999999999992
 30
0.0
 11
21.52173865356876
 21
22.55357573332696
 31
0.0
  0
LINE
  5
7B
330
18
100
AcDbEntity
  8
0
100
AcDbLine
 10
0.0000000000002203
 20
14.73680576936038
 30
0.0
 11
13.91304406957567
 21
14.73680576936033
 31
0.0
  0
LINE
  5
7C
330
18
100
AcDbEntity
  8
0
100
AcDbLine
 10
4.173914072927566
 20
14.73680576936033
 30
0.0
 11
3.04347906200558
 21
11.91408333040624
 31
0.0
  0
LINE
  5
7D
330
18
100
AcDbEntity
  8
0
100
AcDbLine
 10
3.04347906200558
 20
11.91408333040624
 30
0.0
 11
0.0000000000002203
 21
11.91408333040629
 31
0.0
  0
SPLINE
  5
8B
330
18
100
AcDbEntity
  8
0
100
AcDbSpline
210
0.0
220
0.0
230
1.0
 70
     8
 71
     3
 72
    11
 73
     7
 74
     5
 42
0.0000000001
 43
0.0000000001
 44
0.0000000001
 40
0.0
 40
0.0
 40
0.0
 40
0.0
 40
2.971231845229384
 40
7.571437415930544
 40
10.05840534777523
 40
11.38649858861918
 40
11.38649858861918
 40
11.38649858861918
 40
11.38649858861918
 10
21.52173865356854
 20
22.55357573332702
 30
0.0
 10
21.24412487218104
 20
21.57315089571452
 30
0.0
 10
20.53669593998578
 20
19.07478466726768
 30
0.0
 10
17.58004604238587
 20
17.2058963019033
 30
0.0
 10
15.65120132758432
 20
14.98053646340894
 30
0.0
 10
14.36188046846181
 20
14.79974323172791
 30
0.0
 10
13.91304406957572
 20
14.73680576936038
 30
0.0
 11
21.52173865356854
 21
22.55357573332702
 31
0.0
 11
20.45509971382494
 21
19.78040064864018
 31
0.0
 11
17.15217474279136
 21
16.57843595045363
 31
0.0
 11
15.20927553322751
 21
15.02596947561431
 31
0.0
 11
13.91304406957572
 21
14.73680576936038
 31
0.0
  0
LINE
  5
8C
330
18
100
AcDbEntity
  8
0
100
AcDbLine
 10
-0.0000000000000639
 20
54.5
 30
0.0
 11
-35.0
 21
54.49999999999971
 31
0.0
  0
LINE
  5
8E
330
18
100
AcDbEntity
  8
0
100
AcDbLine
 10
-28.43640026317789
 20
52.90000000000009
 30
0.0
 11
-21.52173865356866
 21
22.55357573332696
 31
0.0
  0
LINE
  5
90
330
18
100
AcDbEntity
  8
0
100
AcDbLine
 10
-17.29249600657686
 20
3.677065025945637
 30
0.0
 11
-15.66947730801399
 21
12.11385844265123
 31
0.0
  0
LINE
  5
91
330
18
100
AcDbEntity
  8
0
100
AcDbLine
 10
-17.62091088207102
 20
12.3574969614624
 30
0.0
 11
-18.67476209466343
 21
4.853255930806426
 31
0.0
  0
LWPOLYLINE
  5
92
330
18
100
AcDbEntity
  8
0
100
AcDbPolyline
 90
        4
 70
     0
 43
0.0
 10
-17.45511572700002
 20
-0.0000000000000568
 10
-17.45511572700002
 20
1.093498313251075
 10
-20.54488427299952
 20
1.093498313251075
 10
-20.54488427299952
 20
-0.0000000000000568
  0
LINE
  5
93
330
18
100
AcDbEntity
  8
0
100
AcDbLine
 10
-18.67476209466343
 20
4.853255930806426
 30
0.0
 11
-20.62619566872098
 21
4.853255930806426
 31
0.0
  0
LINE
  5
94
330
18
100
AcDbEntity
  8
0
100
AcDbLine
 10
-20.62619566872098
 20
4.853255930806426
 30
0.0
 11
-20.62619566872098
 21
3.472635928321892
 31
0.0
  0
LWPOLYLINE
  5
95
330
18
100
AcDbEntity
  8
0
100
AcDbPolyline
 90
        2
 70
     0
 43
0.0
 10
-18.02428321297099
 20
1.093498313251075
 10
-18.02428321297099
 20
2.068054117716769
  0
LWPOLYLINE
  5
96
330
18
100
AcDbEntity
  8
0
100
AcDbPolyline
 90
        2
 70
     0
 43
0.0
 10
-20.05702818274994
 20
2.068054117716769
 10
-20.05702818274994
 20
1.093498313251075
  0
LWPOLYLINE
  5
97
330
18
100
AcDbEntity
  8
0
100
AcDbPolyline
 90
        4
 70
     1
 43
0.0
 10
-17.29249600657681
 20
3.692312639012698
 10
-20.62619566872104
 20
3.692312639012584
 10
-20.62619566872104
 20
2.068054117716769
 10
-17.29249600657681
 20
2.068054117716883
  0
LINE
  5
98
330
18
100
AcDbEntity
  8
0
100
AcDbLine
 10
0.0000000000000497
 20
14.73680576936038
 30
0.0
 11
-13.91304406957545
 21
14.73680576936027
 31
0.0
  0
LINE
  5
99
330
18
100
AcDbEntity
  8
0
100
AcDbLine
 10
-4.173914072927292
 20
14.73680576936033
 30
0.0
 11
-3.043479062005307
 21
11.91408333040624
 31
0.0
  0
LINE
  5
9A
330
18
100
AcDbEntity
  8
0
100
AcDbLine
 10
-3.043479062005307
 20
11.91408333040624
 30
0.0
 11
0.0000000000000497
 21
11.91408333040629
 31
0.0
  0
LWPOLYLINE
  5
9B
330
18
100
AcDbEntity
  8
0
100
AcDbPolyline
 90
        3
 70
     0
 43
0.0
 10
-16.72650395525374
 20
16.16671872491366
 10
-16.72650395525374
 20
14.70316842445078
 10
-15.75078870373545
 20
14.70316842445078
  0
LWPOLYLINE
  5
9C
330
18
100
AcDbEntity
  8
0
100
AcDbPolyline
 90
        4
 70
     0
 43
0.0
 10
-15.75078870373545
 20
15.32230680417905
 10
-15.75078870373545
 20
12.26678150711751
 10
-14.20590289522579
 20
12.26678150711751
 10
-14.20590289522579
 20
14.7789823763054
  0
LINE
  5
9D
330
18
100
AcDbEntity
  8
0
100
AcDbLine
 10
-16.7265039552538
 20
15.02801978286572
 30
0.0
 11
-17.62091088207102
 21
15.02801978286567
 31
0.0
  0
LINE
  5
9E
330
18
100
AcDbEntity
  8
0
100
AcDbLine
 10
-15.66947730801399
 20
12.11385844265123
 30
0.0
 11
-15.66947730801399
 21
12.26678150711751
 31
0.0
  0
LINE
  5
9F
330
18
100
AcDbEntity
  8
0
100
AcDbLine
 10
-17.62091088207102
 20
17.00033598468491
 30
0.0
 11
-17.62091088207102
 21
12.3574969614624
 31
0.0
  0
SPLINE
  5
A0
330
18
100
AcDbEntity
  8
0
100
AcDbSpline
210
0.0
220
0.0
230
1.0
 70
     8
 71
     3
 72
    11
 73
     7
 74
     5
 42
0.0000000001
 43
0.0000000001
 44
0.0000000001
 40
0.0
 40
0.0
 40
0.0
 40
0.0
 40
2.971231845229384
 40
7.571437415930951
 40
10.05840534777546
 40
11.38649858861976
 40
11.38649858861976
 40
11.38649858861976
 40
11.38649858861976
 10
-21.52173865356878
 20
22.55357573332702
 30
0.0
 10
-21.24412487218129
 20
21.57315089571451
 30
0.0
 10
-20.53669593998602
 20
19.0747846672675
 30
0.0
 10
-17.58004604238571
 20
17.2058963019034
 30
0.0
 10
-15.65120132758419
 20
14.98053646340875
 30
0.0
 10
-14.36188046846161
 20
14.7997432317277
 30
0.0
 10
-13.91304406957539
 20
14.73680576936016
 30
0.0
 11
-21.52173865356878
 21
22.55357573332702
 31
0.0
 11
-20.45509971382517
 21
19.78040064864018
 31
0.0
 11
-17.15217474279115
 21
16.57843595045352
 31
0.0
 11
-15.20927553322753
 21
15.0259694756142
 31
0.0
 11
-13.91304406957539
 21
14.73680576936016
 31
0.0
  0
LINE
  5
A1
330
18
100
AcDbEntity
  8
0
100
AcDbLine
 10
-35.0
 20
54.5
 30
0.0
 11
-34.99999999999992
 21
52.90000000000003
 31
0.0
  0
DIMENSION
  5
754
330
18
100
AcDbEntity
  8
COTATION-JACOBDELAFON
100
AcDbDimension
  2
*D1
 10
-43.66274654285422
 20
0.0000000000000023
 30
0.0
 11
-46.08832635185832
 21
27.24999999999985
 31
0.0
 70
    32
  3
COTATION-JACOB-DELAFON
100
AcDbAlignedDimension
 13
-35.0
 23
54.49999999999971
 33
0.0
 14
-35.625
 24
0.0
 34
0.0
 50
90.0
100
AcDbRotatedDimension
  0
DIMENSION
  5
761
330
18
100
AcDbEntity
  8
COTATION-JACOBDELAFON
100
AcDbDimension
  2
*D2
 10
35.0
 20
63.73567364089144
 30
0.0
 11
-0.0000000000000034
 21
66.16739260405651
 31
0.0
 70
    32
  3
COTATION-JACOB-DELAFON
100
AcDbAlignedDimension
 13
-35.0
 23
54.5
 33
0.0
 14
35.0
 24
54.50000000000017
 34
0.0
100
AcDbRotatedDimension
  0
LINE
  5
76F
330
18
100
AcDbEntity
  8
0
100
AcDbLine
 10
-34.99999999999992
 20
52.90000000000003
 30
0.0
 11
34.99999999999994
 21
52.89999999999998
 31
0.0
  0
LINE
  5
7B2
330
18
100
AcDbEntity
  8
0
100
AcDbLine
 10
17.29249600657731
 20
3.677065025945637
 30
0.0
 11
15.66947730801444
 21
12.11385844265123
 31
0.0
  0
LINE
  5
7B3
330
18
100
AcDbEntity
  8
0
100
AcDbLine
 10
17.62091088207147
 20
12.3574969614624
 30
0.0
 11
18.67476209466388
 21
4.853255930806426
 31
0.0
  0
LWPOLYLINE
  5
7B4
330
18
100
AcDbEntity
  8
0
100
AcDbPolyline
 90
        2
 70
     0
 43
0.0
 10
18.02428321297144
 20
1.093498313251075
 10
18.02428321297144
 20
2.068054117716769
  0
LWPOLYLINE
  5
7B5
330
18
100
AcDbEntity
  8
0
100
AcDbPolyline
 90
        2
 70
     0
 43
0.0
 10
20.05702818275039
 20
2.068054117716769
 10
20.05702818275039
 20
1.093498313251075
  0
LWPOLYLINE
  5
7B6
330
18
100
AcDbEntity
  8
0
100
AcDbPolyline
 90
        4
 70
     0
 43
0.0
 10
17.45511572700046
 20
-0.0000000000000568
 10
17.45511572700046
 20
1.093498313251075
 10
20.54488427299997
 20
1.093498313251075
 10
20.54488427299997
 20
-0.0000000000000568
  0
LINE
  5
7B7
330
18
100
AcDbEntity
  8
0
100
AcDbLine
 10
18.67476209466388
 20
4.853255930806426
 30
0.0
 11
20.62619566872143
 21
4.853255930806426
 31
0.0
  0
LINE
  5
7B8
330
18
100
AcDbEntity
  8
0
100
AcDbLine
 10
20.62619566872143
 20
4.853255930806426
 30
0.0
 11
20.62619566872143
 21
3.472635928321892
 31
0.0
  0
LWPOLYLINE
  5
7B9
330
18
100
AcDbEntity
  8
0
100
AcDbPolyline
 90
        4
 70
     1
 43
0.0
 10
17.29249600657726
 20
3.692312639012698
 10
20.62619566872148
 20
3.692312639012584
 10
20.62619566872148
 20
2.068054117716769
 10
17.29249600657726
 20
2.068054117716883
  0
LWPOLYLINE
  5
7BA
330
18
100
AcDbEntity
  8
0
100
AcDbPolyline
 90
        4
 70
     0
 43
0.0
 10
15.7507887037359
 20
15.32230680417905
 10
15.7507887037359
 20
12.26678150711751
 10
14.20590289522623
 20
12.26678150711751
 10
14.20590289522623
 20
14.7789823763054
  0
LWPOLYLINE
  5
7BB
330
18
100
AcDbEntity
  8
0
100
AcDbPolyline
 90
        3
 70
     0
 43
0.0
 10
16.72650395525419
 20
16.16671872491366
 10
16.72650395525419
 20
14.70316842445078
 10
15.7507887037359
 20
14.70316842445078
  0
LINE
  5
7BC
330
18
100
AcDbEntity
  8
0
100
AcDbLine
 10
17.62091088207147
 20
17.00033598468491
 30
0.0
 11
17.62091088207147
 21
12.3574969614624
 31
0.0
  0
LINE
  5
7BD
330
18
100
AcDbEntity
  8
0
100
AcDbLine
 10
15.66947730801444
 20
12.11385844265123
 30
0.0
 11
15.66947730801444
 21
12.26678150711751
 31
0.0
  0
LINE
  5
7BE
330
18
100
AcDbEntity
  8
0
100
AcDbLine
 10
16.72650395525425
 20
15.02801978286572
 30
0.0
 11
17.62091088207147
 21
15.02801978286567
 31
0.0
  0
LINE
  5
824
330
18
100
AcDbEntity
  8
0
100
AcDbLine
 10
17.45511572700046
 20
0.0
 30
0.0
 11
20.54488427299997
 21
0.0
 31
0.0
  0
ENDSEC
  0
SECTION
  2
OBJECTS
  0
DICTIONARY
  5
C
330
0
100
AcDbDictionary
  3
ACAD_GROUP
350
D
  3
ACAD_IMAGE_DICT
350
21
  3
ACAD_IMAGE_VARS
350
20
  3
ACAD_LAYOUT
350
34C
  3
ACAD_MLINESTYLE
350
1B
  3
ACAD_PLOTSETTINGS
350
34D
  3
ACAD_PLOTSTYLENAME
350
34A
  3
ACDBHEADERROUNDTRIPXREC
350
884
  3
ACDBVARIABLEDICTIONARY
350
353
  0
DICTIONARY
  5
8A7
330
18
100
AcDbDictionary
280
     1
  3
ACAD_LAYOUTSELFREF
360
8A8
  0
DICTIONARY
  5
8A5
330
15
100
AcDbDictionary
280
     1
  3
ACAD_LAYOUTSELFREF
360
8A6
  0
DICTIONARY
  5
D
102
{ACAD_REACTORS
330
C
102
}
330
C
100
AcDbDictionary
  0
DICTIONARY
  5
21
102
{ACAD_REACTORS
330
C
102
}
330
C
100
AcDbDictionary
  0
RASTERVARIABLES
  5
20
102
{ACAD_REACTORS
330
C
102
}
330
C
100
AcDbRasterVariables
 90
        0
 70
     1
 71
     1
 72
     0
  0
DICTIONARY
  5
34C
102
{ACAD_REACTORS
330
C
102
}
330
C
100
AcDbDictionary
  0
DICTIONARY
  5
1B
102
{ACAD_REACTORS
330
C
102
}
330
C
100
AcDbDictionary
  3
STANDARD
350
1C
  0
DICTIONARY
  5
34D
102
{ACAD_REACTORS
330
C
102
}
330
C
100
AcDbDictionary
  0
ACDBDICTIONARYWDFLT
  5
34A
102
{ACAD_REACTORS
330
C
102
}
330
C
100
AcDbDictionary
281
     1
  3
Normal
350
34B
100
AcDbDictionaryWithDefault
340
34B
  0
DICTIONARY
  5
884
102
{ACAD_REACTORS
330
C
102
}
330
C
100
AcDbDictionary
  3
CEPSNTYPE
350
88E
  3
DIMSTYLEDATA
350
892
  3
FINGERPRINTGUID
350
88F
  3
HYPERLINKBASE
350
887
  3
INSUNITS
350
88D
  3
LAYOUTDICT
350
889
  3
LWETCUNION
350
88C
  3
PLOTSETDICT
350
88A
  3
PLOTSTYLNAMDICT
350
88B
  3
PSVPSCALE
350
891
  3
PUCSBASE
350
895
  3
PUCSORGBACK
350
89B
  3
PUCSORGBOTTOM
350
897
  3
PUCSORGFRONT
350
89A
  3
PUCSORGLEFT
350
898
  3
PUCSORGRIGHT
350
899
  3
PUCSORGTOP
350
896
  3
PUCSORTHOREF
350
893
  3
PUCSORTHOVIEW
350
894
  3
STYLESHEET
350
888
  3
TSTACKALIGN
350
885
  3
TSTACKSIZE
350
886
  3
UCSBASE
350
89E
  3
UCSORGBACK
350
8A4
  3
UCSORGBOTTOM
350
8A0
  3
UCSORGFRONT
350
8A3
  3
UCSORGLEFT
350
8A1
  3
UCSORGRIGHT
350
8A2
  3
UCSORGTOP
350
89F
  3
UCSORTHOREF
350
89C
  3
UCSORTHOVIEW
350
89D
  3
VERSIONGUID
350
890
  0
DICTIONARY
  5
353
102
{ACAD_REACTORS
330
C
102
}
330
C
100
AcDbDictionary
  3
DIMASSOC
350
354
  0
XRECORD
  5
8A8
102
{ACAD_REACTORS
330
8A7
102
}
330
8A7
100
AcDbXrecord
340
18
  0
XRECORD
  5
8A6
102
{ACAD_REACTORS
330
8A5
102
}
330
8A5
100
AcDbXrecord
340
15
  0
MLINESTYLE
  5
1C
102
{ACAD_REACTORS
330
1B
102
}
330
1B
100
AcDbMlineStyle
  2
STANDARD
 70
     0
  3

 62
   256
 51
90.0
 52
90.0
 71
     2
 49
0.5
 62
   256
  6
BYLAYER
 49
-0.5
 62
   256
  6
BYLAYER
  0
ACDBPLACEHOLDER
  5
34B
102
{ACAD_REACTORS
330
34A
102
}
330
34A
100
AcDbPlaceHolder
280
     0
  0
XRECORD
  5
88E
102
{ACAD_REACTORS
330
884
102
}
330
884
100
AcDbXrecord
 90
        0
  0
XRECORD
  5
892
102
{ACAD_REACTORS
330
884
102
}
330
884
100
AcDbXrecord
1000
DSTYLE
1002
{
1070
    79
 70
     3
1070
   279
 70
     2
1070
   342
340
4BB
1002
}
  0
XRECORD
  5
88F
102
{ACAD_REACTORS
330
884
102
}
330
884
100
AcDbXrecord
  1
{09FD3E7F-EBD2-4D58-A3C7-0BF60499D6DD}
  0
XRECORD
  5
887
102
{ACAD_REACTORS
330
884
102
}
330
884
100
AcDbXrecord
  1

  0
XRECORD
  5
88D
102
{ACAD_REACTORS
330
884
102
}
330
884
100
AcDbXrecord
 90
        0
  0
XRECORD
  5
889
102
{ACAD_REACTORS
330
884
102
}
330
884
100
AcDbXrecord
340
34C
  0
XRECORD
  5
88C
102
{ACAD_REACTORS
330
884
102
}
330
884
100
AcDbXrecord
 90
    14877
  0
XRECORD
  5
88A
102
{ACAD_REACTORS
330
884
102
}
330
884
100
AcDbXrecord
340
34D
  0
XRECORD
  5
88B
102
{ACAD_REACTORS
330
884
102
}
330
884
100
AcDbXrecord
340
34A
  0
XRECORD
  5
891
102
{ACAD_REACTORS
330
884
102
}
330
884
100
AcDbXrecord
 40
0.0
  0
XRECORD
  5
895
102
{ACAD_REACTORS
330
884
102
}
330
884
100
AcDbXrecord
340
0
  0
XRECORD
  5
89B
102
{ACAD_REACTORS
330
884
102
}
330
884
100
AcDbXrecord
 10
0.0
 20
0.0
 30
0.0
  0
XRECORD
  5
897
102
{ACAD_REACTORS
330
884
102
}
330
884
100
AcDbXrecord
 10
0.0
 20
0.0
 30
0.0
  0
XRECORD
  5
89A
102
{ACAD_REACTORS
330
884
102
}
330
884
100
AcDbXrecord
 10
0.0
 20
0.0
 30
0.0
  0
XRECORD
  5
898
102
{ACAD_REACTORS
330
884
102
}
330
884
100
AcDbXrecord
 10
0.0
 20
0.0
 30
0.0
  0
XRECORD
  5
899
102
{ACAD_REACTORS
330
884
102
}
330
884
100
AcDbXrecord
 10
0.0
 20
0.0
 30
0.0
  0
XRECORD
  5
896
102
{ACAD_REACTORS
330
884
102
}
330
884
100
AcDbXrecord
 10
0.0
 20
0.0
 30
0.0
  0
XRECORD
  5
893
102
{ACAD_REACTORS
330
884
102
}
330
884
100
AcDbXrecord
340
0
  0
XRECORD
  5
894
102
{ACAD_REACTORS
330
884
102
}
330
884
100
AcDbXrecord
 70
     0
  0
XRECORD
  5
888
102
{ACAD_REACTORS
330
884
102
}
330
884
100
AcDbXrecord
  1

  0
XRECORD
  5
885
102
{ACAD_REACTORS
330
884
102
}
330
884
100
AcDbXrecord
 90
        1
  0
XRECORD
  5
886
102
{ACAD_REACTORS
330
884
102
}
330
884
100
AcDbXrecord
 90
       70
  0
XRECORD
  5
89E
102
{ACAD_REACTORS
330
884
102
}
330
884
100
AcDbXrecord
340
0
  0
XRECORD
  5
8A4
102
{ACAD_REACTORS
330
884
102
}
330
884
100
AcDbXrecord
 10
0.0
 20
0.0
 30
0.0
  0
XRECORD
  5
8A0
102
{ACAD_REACTORS
330
884
102
}
330
884
100
AcDbXrecord
 10
0.0
 20
0.0
 30
0.0
  0
XRECORD
  5
8A3
102
{ACAD_REACTORS
330
884
102
}
330
884
100
AcDbXrecord
 10
0.0
 20
0.0
 30
0.0
  0
XRECORD
  5
8A1
102
{ACAD_REACTORS
330
884
102
}
330
884
100
AcDbXrecord
 10
0.0
 20
0.0
 30
0.0
  0
XRECORD
  5
8A2
102
{ACAD_REACTORS
330
884
102
}
330
884
100
AcDbXrecord
 10
0.0
 20
0.0
 30
0.0
  0
XRECORD
  5
89F
102
{ACAD_REACTORS
330
884
102
}
330
884
100
AcDbXrecord
 10
0.0
 20
0.0
 30
0.0
  0
XRECORD
  5
89C
102
{ACAD_REACTORS
330
884
102
}
330
884
100
AcDbXrecord
340
0
  0
XRECORD
  5
89D
102
{ACAD_REACTORS
330
884
102
}
330
884
100
AcDbXrecord
 70
     0
  0
XRECORD
  5
890
102
{ACAD_REACTORS
330
884
102
}
330
884
100
AcDbXrecord
  1
{35CEC974-38C5-49EA-B7BF-044D4F4A9544}
  0
DICTIONARYVAR
  5
354
102
{ACAD_REACTORS
330
353
102
}
330
353
100
DictionaryVariables
280
     0
  1
1
  0
ENDSEC
  0
EOF
