  0
SECTION
  2
HEADER
  9
$ACADVER
  1
AC1014
  9
$ACADMAINTVER
 70
     9
  9
$DWGCODEPAGE
  3
ANSI_1252
  9
$INSBASE
 10
0.0
 20
0.0
 30
0.0
  9
$EXTMIN
 10
-0.8999999999999994
 20
-43.39999999999999
 30
0.0
  9
$EXTMAX
 10
190.8361937349722
 20
57.70410855685991
 30
0.0
  9
$LIMMIN
 10
0.0
 20
0.0
  9
$LIMMAX
 10
420.0
 20
297.0
  9
$ORTHOMODE
 70
     1
  9
$REGENMODE
 70
     1
  9
$FILLMODE
 70
     1
  9
$QTEXTMODE
 70
     0
  9
$MIRRTEXT
 70
     1
  9
$DRAGMODE
 70
     2
  9
$LTSCALE
 40
1.0
  9
$OSMODE
 70
   167
  9
$ATTMODE
 70
     1
  9
$TEXTSIZE
 40
2.5
  9
$TRACEWID
 40
1.0
  9
$TEXTSTYLE
  7
STANDARD
  9
$CLAYER
  8
0
  9
$CELTYPE
  6
BYLAYER
  9
$CECOLOR
 62
   256
  9
$CELTSCALE
 40
1.0
  9
$DELOBJ
 70
     1
  9
$DISPSILH
 70
     0
  9
$DIMSCALE
 40
1.0
  9
$DIMASZ
 40
1.8
  9
$DIMEXO
 40
0.625
  9
$DIMDLI
 40
3.799999999999999
  9
$DIMRND
 40
0.0
  9
$DIMDLE
 40
0.0
  9
$DIMEXE
 40
1.8
  9
$DIMTP
 40
0.0
  9
$DIMTM
 40
0.0
  9
$DIMTXT
 40
3.0
  9
$DIMCEN
 40
0.9
  9
$DIMTSZ
 40
0.0
  9
$DIMTOL
 70
     0
  9
$DIMLIM
 70
     0
  9
$DIMTIH
 70
     0
  9
$DIMTOH
 70
     0
  9
$DIMSE1
 70
     0
  9
$DIMSE2
 70
     0
  9
$DIMTAD
 70
     1
  9
$DIMZIN
 70
    12
  9
$DIMBLK
  1
OBLIQUE
  9
$DIMASO
 70
     1
  9
$DIMSHO
 70
     1
  9
$DIMPOST
  1

  9
$DIMAPOST
  1

  9
$DIMALT
 70
     0
  9
$DIMALTD
 70
     2
  9
$DIMALTF
 40
25.4
  9
$DIMLFAC
 40
1.0
  9
$DIMTOFL
 70
     0
  9
$DIMTVP
 40
0.0
  9
$DIMTIX
 70
     0
  9
$DIMSOXD
 70
     0
  9
$DIMSAH
 70
     0
  9
$DIMBLK1
  1

  9
$DIMBLK2
  1

  9
$DIMSTYLE
  2
COTATION-JACOB-DELAFON
  9
$DIMCLRD
 70
     0
  9
$DIMCLRE
 70
     0
  9
$DIMCLRT
 70
     0
  9
$DIMTFAC
 40
1.0
  9
$DIMGAP
 40
0.9
  9
$DIMJUST
 70
     0
  9
$DIMSD1
 70
     0
  9
$DIMSD2
 70
     0
  9
$DIMTOLJ
 70
     1
  9
$DIMTZIN
 70
     0
  9
$DIMALTZ
 70
     0
  9
$DIMALTTZ
 70
     0
  9
$DIMFIT
 70
     5
  9
$DIMUPT
 70
     0
  9
$DIMUNIT
 70
     2
  9
$DIMDEC
 70
     2
  9
$DIMTDEC
 70
     2
  9
$DIMALTU
 70
     2
  9
$DIMALTTD
 70
     2
  9
$DIMTXSTY
  7
JACOB-DELAFON
  9
$DIMAUNIT
 70
     0
  9
$LUNITS
 70
     2
  9
$LUPREC
 70
     4
  9
$SKETCHINC
 40
1.0
  9
$FILLETRAD
 40
10.0
  9
$AUNITS
 70
     0
  9
$AUPREC
 70
     0
  9
$MENU
  1
.
  9
$ELEVATION
 40
0.0
  9
$PELEVATION
 40
0.0
  9
$THICKNESS
 40
0.0
  9
$LIMCHECK
 70
     0
  9
$BLIPMODE
 70
     0
  9
$CHAMFERA
 40
10.0
  9
$CHAMFERB
 40
10.0
  9
$CHAMFERC
 40
20.0
  9
$CHAMFERD
 40
0.0
  9
$SKPOLY
 70
     0
  9
$TDCREATE
 40
2451204.814370833
  9
$TDUPDATE
 40
2452285.668286122
  9
$TDINDWG
 40
0.1706661458
  9
$TDUSRTIMER
 40
0.1706661458
  9
$USRTIMER
 70
     1
  9
$ANGBASE
 50
0.0
  9
$ANGDIR
 70
     0
  9
$PDMODE
 70
     0
  9
$PDSIZE
 40
0.0
  9
$PLINEWID
 40
0.0
  9
$COORDS
 70
     0
  9
$SPLFRAME
 70
     0
  9
$SPLINETYPE
 70
     6
  9
$SPLINESEGS
 70
     8
  9
$ATTDIA
 70
     0
  9
$ATTREQ
 70
     1
  9
$HANDLING
 70
 22529
  9
$HANDSEED
  5
710
  9
$SURFTAB1
 70
     6
  9
$SURFTAB2
 70
     6
  9
$SURFTYPE
 70
     6
  9
$SURFU
 70
     6
  9
$SURFV
 70
     6
  9
$UCSNAME
  2

  9
$UCSORG
 10
0.0
 20
0.0
 30
0.0
  9
$UCSXDIR
 10
1.0
 20
0.0
 30
0.0
  9
$UCSYDIR
 10
0.0
 20
1.0
 30
0.0
  9
$PUCSNAME
  2

  9
$PUCSORG
 10
0.0
 20
0.0
 30
0.0
  9
$PUCSXDIR
 10
1.0
 20
0.0
 30
0.0
  9
$PUCSYDIR
 10
0.0
 20
1.0
 30
0.0
  9
$USERI1
 70
     0
  9
$USERI2
 70
     0
  9
$USERI3
 70
     0
  9
$USERI4
 70
     0
  9
$USERI5
 70
     0
  9
$USERR1
 40
0.0
  9
$USERR2
 40
0.0
  9
$USERR3
 40
0.0
  9
$USERR4
 40
0.0
  9
$USERR5
 40
0.0
  9
$WORLDVIEW
 70
     1
  9
$SHADEDGE
 70
     3
  9
$SHADEDIF
 70
    70
  9
$TILEMODE
 70
     1
  9
$MAXACTVP
 70
    48
  9
$PINSBASE
 10
0.0
 20
0.0
 30
0.0
  9
$PLIMCHECK
 70
     0
  9
$PEXTMIN
 10
1.000000000000000E+20
 20
1.000000000000000E+20
 30
1.000000000000000E+20
  9
$PEXTMAX
 10
-1.000000000000000E+20
 20
-1.000000000000000E+20
 30
-1.000000000000000E+20
  9
$PLIMMIN
 10
0.0
 20
0.0
  9
$PLIMMAX
 10
420.0
 20
297.0
  9
$UNITMODE
 70
     0
  9
$VISRETAIN
 70
     1
  9
$PLINEGEN
 70
     0
  9
$PSLTSCALE
 70
     1
  9
$TREEDEPTH
 70
  3020
  9
$PICKSTYLE
 70
     1
  9
$CMLSTYLE
  2
STANDARD
  9
$CMLJUST
 70
     0
  9
$CMLSCALE
 40
20.0
  9
$PROXYGRAPHICS
 70
     1
  9
$MEASUREMENT
 70
     1
  0
ENDSEC
  0
SECTION
  2
CLASSES
  0
CLASS
  1
LWPOLYLINE
  2
AcDbPolyline
  3
AutoCAD 2000
 90
        0
280
     0
281
     1
  0
CLASS
  1
RASTERVARIABLES
  2
AcDbRasterVariables
  3
ISM
 90
        0
280
     0
281
     0
  0
CLASS
  1
IMAGEDEF
  2
AcDbRasterImageDef
  3
ISM
 90
        0
280
     0
281
     0
  0
CLASS
  1
IMAGEDEF_REACTOR
  2
AcDbRasterImageDefReactor
  3
ISM
 90
        1
280
     0
281
     0
  0
CLASS
  1
IMAGE
  2
AcDbRasterImage
  3
ISM
 90
      127
280
     0
281
     1
  0
CLASS
  1
ACDBDICTIONARYWDFLT
  2
AcDbDictionaryWithDefault
  3
AutoCAD 2000
 90
        0
280
     0
281
     0
  0
CLASS
  1
ACDBPLACEHOLDER
  2
AcDbPlaceHolder
  3
AutoCAD 2000
 90
        0
280
     0
281
     0
  0
CLASS
  1
LAYOUT
  2
AcDbLayout
  3
AutoCAD 2000
 90
        0
280
     0
281
     0
  0
CLASS
  1
DICTIONARYVAR
  2
AcDbDictionaryVar
  3
AutoCAD 2000
 90
        0
280
     0
281
     0
  0
CLASS
  1
LONG_TRANSACTION
  2
AcDbLongTransaction
  3
AutoCAD 2000
 90
        0
280
     0
281
     0
  0
CLASS
  1
LWPOLYLINE
  2
AcDbPolyline
  3
AutoCAD 2000
 90
        0
280
     0
281
     1
  0
CLASS
  1
HATCH
  2
AcDbHatch
  3
AutoCAD 2000
 90
        0
280
     0
281
     1
  0
CLASS
  1
XRECORD
  2
AcDbXrecord
  3
AutoCAD 2000
 90
        0
280
     0
281
     0
  0
ENDSEC
  0
SECTION
  2
TABLES
  0
TABLE
  2
VPORT
  5
8
330
0
100
AcDbSymbolTable
 70
     3
  0
VPORT
  5
6EA
330
8
100
AcDbSymbolTableRecord
100
AcDbViewportTableRecord
  2
*ACTIVE
 70
     0
 10
0.0
 20
0.0
 11
1.0
 21
1.0
 12
94.96753444156956
 22
8.465734478547034
 13
0.0
 23
0.0
 14
10.0
 24
10.0
 15
10.0
 25
10.0
 16
0.0
 26
0.0
 36
1.0
 17
0.0
 27
0.0
 37
0.0
 40
157.2408158971436
 41
1.828516377649325
 42
50.0
 43
0.0
 44
0.0
 50
0.0
 51
0.0
 71
     0
 72
   100
 73
     1
 74
     1
 75
     0
 76
     0
 77
     0
 78
     0
  0
ENDTAB
  0
TABLE
  2
LTYPE
  5
5
330
0
100
AcDbSymbolTable
 70
     1
  0
LTYPE
  5
12
330
5
100
AcDbSymbolTableRecord
100
AcDbLinetypeTableRecord
  2
BYBLOCK
 70
     0
  3

 72
    65
 73
     0
 40
0.0
  0
LTYPE
  5
13
330
5
100
AcDbSymbolTableRecord
100
AcDbLinetypeTableRecord
  2
BYLAYER
 70
     0
  3

 72
    65
 73
     0
 40
0.0
  0
LTYPE
  5
14
330
5
100
AcDbSymbolTableRecord
100
AcDbLinetypeTableRecord
  2
CONTINUOUS
 70
     0
  3
Solid line
 72
    65
 73
     0
 40
0.0
  0
ENDTAB
  0
TABLE
  2
LAYER
  5
2
330
0
100
AcDbSymbolTable
 70
     3
  0
LAYER
  5
E
330
2
100
AcDbSymbolTableRecord
100
AcDbLayerTableRecord
  2
0
 70
     0
 62
   255
  6
CONTINUOUS
  0
LAYER
  5
270
330
2
100
AcDbSymbolTableRecord
100
AcDbLayerTableRecord
  2
DEFPOINTS
 70
     0
 62
     7
  6
CONTINUOUS
  0
LAYER
  5
4AD
330
2
100
AcDbSymbolTableRecord
100
AcDbLayerTableRecord
  2
COTATION-JACOBDELAFON
 70
     0
 62
     8
  6
CONTINUOUS
  0
ENDTAB
  0
TABLE
  2
STYLE
  5
3
330
0
100
AcDbSymbolTable
 70
     2
  0
STYLE
  5
F
330
3
100
AcDbSymbolTableRecord
100
AcDbTextStyleTableRecord
  2
STANDARD
 70
     0
 40
0.0
 41
1.0
 50
0.0
 71
     0
 42
2.5
  3
txt
  4

  0
STYLE
  5
4AE
330
3
100
AcDbSymbolTableRecord
100
AcDbTextStyleTableRecord
  2
JACOB-DELAFON
 70
     0
 40
0.0
 41
1.0
 50
0.0
 71
     0
 42
2.5
  3
ARIAL.TTF
  4

1001
ACAD
1000
Arial
1071
       34
  0
ENDTAB
  0
TABLE
  2
VIEW
  5
6
330
0
100
AcDbSymbolTable
 70
     0
  0
ENDTAB
  0
TABLE
  2
UCS
  5
7
330
0
100
AcDbSymbolTable
 70
     0
  0
ENDTAB
  0
TABLE
  2
APPID
  5
9
330
0
100
AcDbSymbolTable
 70
     2
  0
APPID
  5
10
330
9
100
AcDbSymbolTableRecord
100
AcDbRegAppTableRecord
  2
ACAD
 70
     0
  0
APPID
  5
4B0
330
9
100
AcDbSymbolTableRecord
100
AcDbRegAppTableRecord
  2
PE_URL
 70
     0
  0
ENDTAB
  0
TABLE
  2
DIMSTYLE
  5
A
330
0
100
AcDbSymbolTable
 70
     2
  0
DIMSTYLE
105
1D
330
A
100
AcDbSymbolTableRecord
100
AcDbDimStyleTableRecord
  2
STANDARD
 70
     0
  3

  4

  5

  6

  7

 40
1.0
 41
0.18
 42
0.0625
 43
0.38
 44
0.18
 45
0.0
 46
0.0
 47
0.0
 48
0.0
140
0.18
141
0.09
142
0.0
143
25.4
144
1.0
145
0.0
146
1.0
147
0.09
 71
     0
 72
     0
 73
     1
 74
     1
 75
     0
 76
     0
 77
     0
 78
     0
170
     0
171
     2
172
     0
173
     0
174
     0
175
     0
176
     0
177
     0
178
     0
270
     2
271
     4
272
     4
273
     2
274
     2
340
F
275
     0
280
     0
281
     0
282
     0
283
     1
284
     0
285
     0
286
     0
287
     3
288
     0
  0
DIMSTYLE
105
4AF
102
{ACAD_REACTORS
330
5A0
330
5AD
102
}
330
A
100
AcDbSymbolTableRecord
100
AcDbDimStyleTableRecord
  2
COTATION-JACOB-DELAFON
 70
     0
  3

  4

  5
OBLIQUE
  6

  7

 40
1.0
 41
1.8
 42
0.625
 43
3.799999999999999
 44
1.8
 45
0.0
 46
0.0
 47
0.0
 48
0.0
140
3.0
141
0.9
142
0.0
143
25.4
144
1.0
145
0.0
146
1.0
147
0.9
 71
     0
 72
     0
 73
     0
 74
     0
 75
     0
 76
     0
 77
     1
 78
    12
170
     0
171
     2
172
     0
173
     0
174
     0
175
     0
176
     0
177
     0
178
     0
270
     2
271
     2
272
     2
273
     2
274
     2
340
4AE
275
     0
280
     0
281
     0
282
     0
283
     1
284
     0
285
     0
286
     0
287
     5
288
     0
  0
ENDTAB
  0
TABLE
  2
BLOCK_RECORD
  5
1
330
0
100
AcDbSymbolTable
 70
     3
  0
BLOCK_RECORD
  5
18
102
{ACAD_XDICTIONARY
360
70E
102
}
330
1
100
AcDbSymbolTableRecord
100
AcDbBlockTableRecord
  2
*MODEL_SPACE
  0
BLOCK_RECORD
  5
15
102
{ACAD_XDICTIONARY
360
70C
102
}
330
1
100
AcDbSymbolTableRecord
100
AcDbBlockTableRecord
  2
*PAPER_SPACE
  0
BLOCK_RECORD
  5
491
330
1
100
AcDbSymbolTableRecord
100
AcDbBlockTableRecord
  2
_OBLIQUE
  0
BLOCK_RECORD
  5
5A1
330
1
100
AcDbSymbolTableRecord
100
AcDbBlockTableRecord
  2
*D1
  0
BLOCK_RECORD
  5
5AE
330
1
100
AcDbSymbolTableRecord
100
AcDbBlockTableRecord
  2
*D2
  0
ENDTAB
  0
ENDSEC
  0
SECTION
  2
BLOCKS
  0
BLOCK
  5
19
330
18
100
AcDbEntity
  8
0
100
AcDbBlockBegin
  2
*MODEL_SPACE
 70
     0
 10
0.0
 20
0.0
 30
0.0
  3
*MODEL_SPACE
  1

  0
ENDBLK
  5
1A
330
18
100
AcDbEntity
  8
0
100
AcDbBlockEnd
  0
BLOCK
  5
16
330
15
100
AcDbEntity
 67
     1
  8
0
100
AcDbBlockBegin
  2
*PAPER_SPACE
 70
     0
 10
0.0
 20
0.0
 30
0.0
  3
*PAPER_SPACE
  1

  0
ENDBLK
  5
17
330
15
100
AcDbEntity
 67
     1
  8
0
100
AcDbBlockEnd
  0
BLOCK
  5
493
330
491
100
AcDbEntity
  8
0
100
AcDbBlockBegin
  2
_OBLIQUE
 70
     0
 10
0.0
 20
0.0
 30
0.0
  3
_OBLIQUE
  1

  0
LINE
  5
492
330
491
100
AcDbEntity
  8
0
  6
BYBLOCK
 62
     0
100
AcDbLine
 10
-0.5
 20
-0.5
 30
0.0
 11
0.5
 21
0.5
 31
0.0
  0
ENDBLK
  5
494
330
491
100
AcDbEntity
  8
0
100
AcDbBlockEnd
  0
BLOCK
  5
5AB
330
5A1
100
AcDbEntity
  8
0
100
AcDbBlockBegin
  2
*D1
 70
     1
 10
0.0
 20
0.0
 30
0.0
  3
*D1
  1

  0
LINE
  5
692
330
5A1
100
AcDbEntity
  8
COTATION-JACOBDELAFON
 62
     0
100
AcDbLine
 10
180.0
 20
43.125
 30
0.0
 11
180.0
 21
54.75281251320371
 31
0.0
  0
LINE
  5
693
330
5A1
100
AcDbEntity
  8
COTATION-JACOBDELAFON
 62
     0
100
AcDbLine
 10
0.0
 20
43.125
 30
0.0
 11
0.0000000000000008
 21
54.75281251320371
 31
0.0
  0
LINE
  5
694
330
5A1
100
AcDbEntity
  8
COTATION-JACOBDELAFON
 62
     0
100
AcDbLine
 10
180.0
 20
52.95281251320371
 30
0.0
 11
0.0000000000000006
 21
52.95281251320371
 31
0.0
  0
INSERT
  5
695
330
5A1
100
AcDbEntity
  8
COTATION-JACOBDELAFON
 62
     0
100
AcDbBlockReference
  2
_OBLIQUE
 10
180.0
 20
52.95281251320371
 30
0.0
 41
1.8
 42
1.8
 43
1.8
  0
INSERT
  5
696
330
5A1
100
AcDbEntity
  8
COTATION-JACOBDELAFON
 62
     0
100
AcDbBlockReference
  2
_OBLIQUE
 10
0.0000000000000006
 20
52.95281251320371
 30
0.0
 41
1.8
 42
1.8
 43
1.8
 50
180.0
  0
MTEXT
  5
697
330
5A1
100
AcDbEntity
  8
COTATION-JACOBDELAFON
 62
     0
100
AcDbMText
 10
90.0
 20
55.38453147636879
 30
0.0
 40
3.0
 41
0.0
 71
     5
 72
     1
  1
\A1;180
  7
JACOB-DELAFON
1001
ACAD
1000
MTEXTBEGIN
1070
    73
1070
     1
1070
    44
1040
1.0
1070
    74
1070
     0
1000
MTEXTEND
  0
POINT
  5
698
330
5A1
100
AcDbEntity
  8
DEFPOINTS
 62
     0
100
AcDbPoint
 10
180.0
 20
42.5
 30
0.0
  0
POINT
  5
699
330
5A1
100
AcDbEntity
  8
DEFPOINTS
 62
     0
100
AcDbPoint
 10
0.0
 20
42.5
 30
0.0
  0
POINT
  5
69A
330
5A1
100
AcDbEntity
  8
DEFPOINTS
 62
     0
100
AcDbPoint
 10
0.0000000000000006
 20
52.95281251320371
 30
0.0
  0
ENDBLK
  5
5AC
330
5A1
100
AcDbEntity
  8
0
100
AcDbBlockEnd
  0
BLOCK
  5
5B8
330
5AE
100
AcDbEntity
  8
0
100
AcDbBlockBegin
  2
*D2
 70
     1
 10
0.0
 20
0.0
 30
0.0
  3
*D2
  1

  0
LINE
  5
69B
330
5AE
100
AcDbEntity
  8
COTATION-JACOBDELAFON
 62
     0
100
AcDbLine
 10
180.625
 20
42.5
 30
0.0
 11
190.8361937349722
 21
42.5
 31
0.0
  0
LINE
  5
69C
330
5AE
100
AcDbEntity
  8
COTATION-JACOBDELAFON
 62
     0
100
AcDbLine
 10
180.625
 20
-42.5
 30
0.0
 11
190.8361937349722
 21
-42.5
 31
0.0
  0
LINE
  5
69D
330
5AE
100
AcDbEntity
  8
COTATION-JACOBDELAFON
 62
     0
100
AcDbLine
 10
189.0361937349722
 20
42.5
 30
0.0
 11
189.0361937349722
 21
-42.5
 31
0.0
  0
INSERT
  5
69E
330
5AE
100
AcDbEntity
  8
COTATION-JACOBDELAFON
 62
     0
100
AcDbBlockReference
  2
_OBLIQUE
 10
189.0361937349722
 20
42.5
 30
0.0
 41
1.8
 42
1.8
 43
1.8
 50
90.0
  0
INSERT
  5
69F
330
5AE
100
AcDbEntity
  8
COTATION-JACOBDELAFON
 62
     0
100
AcDbBlockReference
  2
_OBLIQUE
 10
189.0361937349722
 20
-42.5
 30
0.0
 41
1.8
 42
1.8
 43
1.8
 50
270.0
  0
MTEXT
  5
6A0
330
5AE
100
AcDbEntity
  8
COTATION-JACOBDELAFON
 62
     0
100
AcDbMText
 10
186.6044747718071
 20
0.0000000000000314
 30
0.0
 40
3.0
 41
0.0
 71
     5
 72
     1
  1
\A1;85
  7
JACOB-DELAFON
 11
0.0000000000000001
 21
1.0
 31
0.0
1001
ACAD
1000
MTEXTBEGIN
1070
    73
1070
     1
1070
    44
1040
1.0
1070
    74
1070
     0
1000
MTEXTEND
  0
POINT
  5
6A1
330
5AE
100
AcDbEntity
  8
DEFPOINTS
 62
     0
100
AcDbPoint
 10
180.0
 20
42.5
 30
0.0
  0
POINT
  5
6A2
330
5AE
100
AcDbEntity
  8
DEFPOINTS
 62
     0
100
AcDbPoint
 10
180.0
 20
-42.5
 30
0.0
  0
POINT
  5
6A3
330
5AE
100
AcDbEntity
  8
DEFPOINTS
 62
     0
100
AcDbPoint
 10
189.0361937349722
 20
-42.5
 30
0.0
  0
ENDBLK
  5
5B9
330
5AE
100
AcDbEntity
  8
0
100
AcDbBlockEnd
  0
ENDSEC
  0
SECTION
  2
ENTITIES
  0
SPLINE
  5
24A
330
18
100
AcDbEntity
  8
0
100
AcDbSpline
210
0.0
220
0.0
230
1.0
 70
     8
 71
     3
 72
    14
 73
    10
 74
     0
 42
0.0000000001
 43
0.0000000001
 40
1.792049978285959
 40
1.792049978285959
 40
1.792049978285959
 40
1.792049978285959
 40
4.79357964866207
 40
11.36757747202056
 40
13.96549176484355
 40
15.82622375223103
 40
19.03743788295755
 40
23.56479417446801
 40
27.58328531157524
 40
27.58328531157524
 40
27.58328531157524
 40
27.58328531157524
 10
175.3895260683616
 20
-0.0000000000000142
 30
0.0
 10
175.3181229693369
 20
2.436260133285955
 30
0.0
 10
174.5305066143022
 20
10.23003734178821
 30
0.0
 10
174.7377459067233
 20
20.31227470909276
 30
0.0
 10
171.0351706192396
 20
28.69169038658792
 30
0.0
 10
166.0185116218167
 20
32.9951597786203
 30
0.0
 10
157.7165888889492
 20
32.03400093246462
 30
0.0
 10
148.4137203130503
 20
33.75930233733884
 30
0.0
 10
141.4515989323817
 20
34.02937188502539
 30
0.0
 10
138.1744417542601
 20
34.14468820854742
 30
0.0
  0
SPLINE
  5
24B
330
18
100
AcDbEntity
  8
0
100
AcDbSpline
210
0.0
220
0.0
230
1.0
 70
     8
 71
     3
 72
    13
 73
     9
 74
     0
 42
0.0000000001
 43
0.0000000001
 40
1.784534210856077
 40
1.784534210856077
 40
1.784534210856077
 40
1.784534210856077
 40
4.791374990086865
 40
8.867167413858926
 40
12.28479315512394
 40
13.85587447502989
 40
15.48073147689809
 40
16.50860187564317
 40
16.50860187564317
 40
16.50860187564317
 40
16.50860187564317
 10
166.432840812866
 20
-0.0000000000000142
 30
0.0
 10
166.4562771693803
 20
2.448180281889122
 30
0.0
 10
166.4991159428334
 20
8.213798238465571
 30
0.0
 10
165.8266105923943
 20
16.69684903118262
 30
0.0
 10
164.8746611650238
 20
24.13869511087192
 30
0.0
 10
162.0305389355934
 20
28.87071359924347
 30
0.0
 10
158.7781719559556
 20
30.60568466933581
 30
0.0
 10
156.5353102065491
 20
30.40991650333014
 30
0.0
 10
155.7599389746397
 20
30.72299123962297
 30
0.0
  0
SPLINE
  5
24C
330
18
100
AcDbEntity
  8
0
100
AcDbSpline
210
0.0
220
0.0
230
1.0
 70
     8
 71
     3
 72
    22
 73
    18
 74
     0
 42
0.0000000001
 43
0.0000000001
 40
0.9180135720971563
 40
0.9180135720971563
 40
0.9180135720971563
 40
0.9180135720971563
 40
4.068008128176244
 40
7.868137383628142
 40
9.622871437145965
 40
11.26652386594539
 40
12.92381766389692
 40
15.54443566820766
 40
20.63225580735259
 40
33.13375493889482
 40
40.69837496448685
 40
48.99569367446961
 40
55.26160136505608
 40
57.03000034124748
 40
59.17573465763744
 40
61.71191018261987
 40
68.94165298461827
 40
68.94165298461827
 40
68.94165298461827
 40
68.94165298461827
 10
142.4466965738958
 20
0.0
 30
0.0
 10
142.6067755489056
 20
2.553142959609573
 30
0.0
 10
142.7219591762912
 20
8.194572156945525
 30
0.0
 10
142.3912632796125
 20
15.40209242158864
 30
0.0
 10
140.0560213054341
 20
20.82964310839436
 30
0.0
 10
137.1610204932302
 20
24.01510807536097
 30
0.0
 10
132.2367795426763
 20
25.06501758129902
 30
0.0
 10
124.6894137512157
 20
23.8779833594087
 30
0.0
 10
108.1952796385352
 20
24.80927596462858
 30
0.0
 10
87.75934338786942
 20
23.86621803197282
 30
0.0
 10
64.68777772747791
 20
25.21916525495369
 30
0.0
 10
46.74169391860681
 20
25.47203437583603
 30
0.0
 10
33.41400443981064
 20
27.80461399655108
 30
0.0
 10
25.25490203280043
 20
26.61812634405897
 30
0.0
 10
20.08831687372099
 20
24.32158895055893
 30
0.0
 10
17.14393042743239
 20
14.38400299833175
 30
0.0
 10
17.07450313207789
 20
6.547094684185864
 30
0.0
 10
17.27921705998284
 20
0.6944526982861277
 30
0.0
  0
SPLINE
  5
24D
330
18
100
AcDbEntity
  8
0
100
AcDbSpline
210
0.0
220
0.0
230
1.0
 70
     8
 71
     3
 72
    12
 73
     8
 74
     0
 42
0.0000000001
 43
0.0000000001
 40
0.0
 40
0.0
 40
0.0
 40
0.0
 40
1.954416822632142
 40
3.385827505666141
 40
9.101404218478508
 40
18.01143672977906
 40
20.07750498207575
 40
20.07750498207575
 40
20.07750498207575
 40
20.07750498207575
 10
144.0523840510054
 20
25.05335777532981
 30
0.0
 10
143.6737586067287
 20
26.59757186652548
 30
0.0
 10
141.2652214433497
 20
28.60527489761135
 30
0.0
 10
134.5184821263814
 20
31.43245391513757
 30
0.0
 10
121.0570136689688
 20
31.52658114130555
 30
0.0
 10
107.7744678926808
 20
33.70334356762713
 30
0.0
 10
98.82871151137294
 20
34.09719267541673
 30
0.0
 10
97.14282928335656
 20
34.14721194308431
 30
0.0
  0
SPLINE
  5
24E
330
18
100
AcDbEntity
  8
0
100
AcDbSpline
210
0.0
220
0.0
230
1.0
 70
     8
 71
     3
 72
    16
 73
    12
 74
     0
 42
0.0000000001
 43
0.0000000001
 40
0.2362820156256843
 40
0.2362820156256843
 40
0.2362820156256843
 40
0.2362820156256843
 40
1.224358563157152
 40
2.502024758892879
 40
2.844114196038004
 40
3.409856319926415
 40
6.067963796682374
 40
6.245182922569176
 40
6.581184763110368
 40
7.265916946465317
 40
8.997645406193104
 40
8.997645406193104
 40
8.997645406193104
 40
8.997645406193104
 10
97.5684384412645
 20
36.65124969377469
 30
0.0
 10
97.38228512289163
 20
35.20936920107563
 30
0.0
 10
96.99761652291625
 20
33.40946178344823
 30
0.0
 10
96.40228193368518
 20
31.351919311894
 30
0.0
 10
95.32369791234287
 20
29.86699488715869
 30
0.0
 10
92.35215400914114
 20
29.13273983740769
 30
0.0
 10
89.67759901678972
 20
29.24864204464173
 30
0.0
 10
87.03925114444103
 20
29.68023340342175
 30
0.0
 10
86.52212528893569
 20
30.67431056406478
 30
0.0
 10
87.02451548875973
 20
32.91364729208332
 30
0.0
 10
87.72703120717153
 20
34.73694528009888
 30
0.0
 10
88.13041612724829
 20
36.88433441355796
 30
0.0
  0
SPLINE
  5
24F
330
18
100
AcDbEntity
  8
0
100
AcDbSpline
210
0.0
220
0.0
230
1.0
 70
     8
 71
     3
 72
    22
 73
    18
 74
     0
 42
0.0000000001
 43
0.0000000001
 40
24.00826839880123
 40
24.00826839880123
 40
24.00826839880123
 40
24.00826839880123
 40
25.13586300713596
 40
33.85904679981379
 40
41.73221266323796
 40
47.38505869038623
 40
49.72467587866559
 40
50.13787950460632
 40
51.39276420650993
 40
54.06821274700322
 40
61.6062008059239
 40
71.66271166103084
 40
83.88124333259153
 40
93.76614969516273
 40
95.80127775082083
 40
96.84825404539921
 40
98.93463118366145
 40
98.93463118366145
 40
98.93463118366145
 40
98.93463118366145
 10
87.53671974531329
 20
34.2579107211932
 30
0.0
 10
86.62334365721973
 20
34.26010929928669
 30
0.0
 10
78.66603774798978
 20
34.27916741301579
 30
0.0
 10
64.81806546853755
 20
34.59340789456662
 30
0.0
 10
44.35135546631346
 20
35.04797553929704
 30
0.0
 10
36.66349081564283
 20
34.0553449652363
 30
0.0
 10
23.04001787595859
 20
34.38465065764189
 30
0.0
 10
26.48176335516194
 20
32.72304144955795
 30
0.0
 10
29.81819572772758
 20
32.35781744675485
 30
0.0
 10
39.30549018570917
 20
31.89402905345814
 30
0.0
 10
55.56720724378596
 20
30.01066253491846
 30
0.0
 10
79.83757401006505
 20
28.38504156696323
 30
0.0
 10
105.9253019353356
 20
27.29691087244698
 30
0.0
 10
125.6744552103666
 20
27.60904815397408
 30
0.0
 10
136.1146357951708
 20
27.49715868733805
 30
0.0
 10
140.4554386568274
 20
27.62637186841773
 30
0.0
 10
142.3937273683641
 20
25.41350622375229
 30
0.0
 10
144.0523840510054
 20
25.05335777532981
 30
0.0
  0
SPLINE
  5
252
330
18
100
AcDbEntity
  8
0
100
AcDbSpline
210
0.0
220
0.0
230
1.0
 70
     8
 71
     3
 72
     8
 73
     4
 74
     0
 42
0.0000000001
 43
0.0000000001
 40
90.81929636751571
 40
90.81929636751571
 40
90.81929636751571
 40
90.81929636751571
 40
91.13295609767906
 40
91.13295609767906
 40
91.13295609767906
 40
91.13295609767906
 10
11.31896588117405
 20
-0.0000000000002842
 30
0.0
 10
11.32046006253847
 20
0.2535129152816467
 30
0.0
 10
11.32260249800566
 20
0.5070582277532623
 30
0.0
 10
11.32541796563623
 20
0.7606498243955429
 30
0.0
  0
CIRCLE
  5
259
330
18
100
AcDbEntity
  8
0
100
AcDbCircle
 10
30.41546546072811
 20
0.0
 30
0.0
 40
3.764119141645255
  0
ELLIPSE
  5
25A
330
18
100
AcDbEntity
  8
0
100
AcDbEllipse
 10
14.50006179332433
 20
-0.4817100368886429
 30
0.0
 11
0.0
 21
-2.809719144467551
 31
0.0
210
0.0
220
0.0
230
-0.9999999999999998
 40
0.5149461966295205
 41
0.0
 42
6.283185307179586
  0
LINE
  5
460
330
18
100
AcDbEntity
  8
0
100
AcDbLine
 10
180.0
 20
42.5
 30
0.0
 11
0.0
 21
42.5
 31
0.0
  0
LINE
  5
461
330
18
100
AcDbEntity
  8
0
100
AcDbLine
 10
0.0
 20
42.5
 30
0.0
 11
0.0
 21
-42.5
 31
0.0
  0
LINE
  5
462
330
18
100
AcDbEntity
  8
0
100
AcDbLine
 10
0.0
 20
-42.5
 30
0.0
 11
180.0
 21
-42.5
 31
0.0
  0
LINE
  5
463
330
18
100
AcDbEntity
  8
0
100
AcDbLine
 10
180.0
 20
-42.5
 30
0.0
 11
180.0
 21
42.5
 31
0.0
  0
DIMENSION
  5
5A0
330
18
100
AcDbEntity
  8
COTATION-JACOBDELAFON
100
AcDbDimension
  2
*D1
 10
0.0000000000000006
 20
52.95281251320371
 30
0.0
 11
90.0
 21
55.38453147636879
 31
0.0
 70
    32
  3
COTATION-JACOB-DELAFON
100
AcDbAlignedDimension
 13
180.0
 23
42.5
 33
0.0
 14
0.0
 24
42.5
 34
0.0
 50
180.0
100
AcDbRotatedDimension
  0
DIMENSION
  5
5AD
330
18
100
AcDbEntity
  8
COTATION-JACOBDELAFON
100
AcDbDimension
  2
*D2
 10
189.0361937349722
 20
-42.5
 30
0.0
 11
186.6044747718071
 21
0.0000000000000314
 31
0.0
 70
    32
  3
COTATION-JACOB-DELAFON
100
AcDbAlignedDimension
 13
180.0
 23
42.5
 33
0.0
 14
180.0
 24
-42.5
 34
0.0
 50
90.0
100
AcDbRotatedDimension
  0
SPLINE
  5
5E9
330
18
100
AcDbEntity
  8
0
100
AcDbSpline
210
0.0
220
0.0
230
1.0
 70
     8
 71
     3
 72
     8
 73
     4
 74
     0
 42
0.0000000001
 43
0.0000000001
 40
68.65532664989856
 40
68.65532664989856
 40
68.65532664989856
 40
68.65532664989856
 40
68.94165298461827
 40
68.94165298461827
 40
68.94165298461827
 40
68.94165298461827
 10
17.24071353079222
 20
0.0
 30
0.0
 10
17.25310226823188
 20
0.2314233705224922
 30
0.0
 10
17.26595797364495
 20
0.462902551725577
 30
0.0
 10
17.27921705998267
 20
0.6944526982859572
 30
0.0
  0
ARC
  5
5EA
330
18
100
AcDbEntity
  8
0
100
AcDbCircle
 10
77.04785159199315
 20
-634.4733109065377
 30
0.0
 40
671.4547164852964
100
AcDbArc
 50
84.7029962038378
 51
93.51205112669161
  0
SPLINE
  5
5F1
330
18
100
AcDbEntity
  8
0
100
AcDbSpline
210
0.0
220
0.0
230
1.0
 70
     8
 71
     3
 72
    13
 73
     9
 74
     0
 42
0.0000000001
 43
0.0000000001
 40
68.60413438747094
 40
68.60413438747094
 40
68.60413438747094
 40
68.60413438747094
 40
74.76344115554443
 40
76.38862343713083
 40
78.13814562477027
 40
79.50835389150523
 40
83.21023870799784
 40
91.13295609767906
 40
91.13295609767906
 40
91.13295609767906
 40
91.13295609767906
 10
35.91555780823535
 20
35.72037057549208
 30
0.0
 10
30.15922976074216
 20
35.53392116051369
 30
0.0
 10
23.29400819143404
 20
35.2398348435462
 30
0.0
 10
18.87160751364644
 20
35.06358279060869
 30
0.0
 10
16.05664577864638
 20
32.07802945002486
 30
0.0
 10
13.03314459865265
 20
27.41509856386234
 30
0.0
 10
12.13031150838776
 20
16.50718337058442
 30
0.0
 10
11.39673995217947
 20
7.16610656695569
 30
0.0
 10
11.3254179656364
 20
0.7606498243954576
 30
0.0
  0
ARC
  5
5F2
330
18
100
AcDbEntity
  8
0
100
AcDbCircle
 10
77.04785159199204
 20
634.4733109065566
 30
0.0
 40
671.4547164853152
100
AcDbArc
 50
266.4879488733085
 51
275.2970037961621
  0
SPLINE
  5
5F3
330
18
100
AcDbEntity
  8
0
100
AcDbSpline
210
0.0
220
0.0
230
1.0
 70
     8
 71
     3
 72
    22
 73
    18
 74
     0
 42
0.0000000001
 43
0.0000000001
 40
0.9180135720971563
 40
0.9180135720971563
 40
0.9180135720971563
 40
0.9180135720971563
 40
4.068008128176244
 40
7.868137383628142
 40
9.622871437145965
 40
11.26652386594539
 40
12.92381766389692
 40
15.54443566820766
 40
20.63225580735259
 40
33.13375493889482
 40
40.69837496448685
 40
48.99569367446961
 40
55.26160136505608
 40
57.03000034124748
 40
59.17573465763744
 40
61.71191018261987
 40
68.94165298461827
 40
68.94165298461827
 40
68.94165298461827
 40
68.94165298461827
 10
142.4466965738958
 20
0.0
 30
0.0
 10
142.6067755489056
 20
-2.553142959609573
 30
0.0
 10
142.7219591762912
 20
-8.194572156945525
 30
0.0
 10
142.3912632796125
 20
-15.40209242158864
 30
0.0
 10
140.0560213054341
 20
-20.82964310839436
 30
0.0
 10
137.1610204932302
 20
-24.01510807536097
 30
0.0
 10
132.2367795426763
 20
-25.06501758129902
 30
0.0
 10
124.6894137512157
 20
-23.8779833594087
 30
0.0
 10
108.1952796385352
 20
-24.80927596462858
 30
0.0
 10
87.75934338786942
 20
-23.86621803197282
 30
0.0
 10
64.68777772747791
 20
-25.21916525495369
 30
0.0
 10
46.74169391860681
 20
-25.47203437583603
 30
0.0
 10
33.41400443981064
 20
-27.80461399655108
 30
0.0
 10
25.25490203280043
 20
-26.61812634405897
 30
0.0
 10
20.08831687372099
 20
-24.32158895055893
 30
0.0
 10
17.14393042743239
 20
-14.38400299833175
 30
0.0
 10
17.07450313207789
 20
-6.547094684185864
 30
0.0
 10
17.27921705998284
 20
-0.6944526982861277
 30
0.0
  0
SPLINE
  5
5F4
330
18
100
AcDbEntity
  8
0
100
AcDbSpline
210
0.0
220
0.0
230
1.0
 70
     8
 71
     3
 72
    22
 73
    18
 74
     0
 42
0.0000000001
 43
0.0000000001
 40
24.00826839880123
 40
24.00826839880123
 40
24.00826839880123
 40
24.00826839880123
 40
25.13586300713596
 40
33.85904679981379
 40
41.73221266323796
 40
47.38505869038623
 40
49.72467587866559
 40
50.13787950460632
 40
51.39276420650993
 40
54.06821274700322
 40
61.6062008059239
 40
71.66271166103084
 40
83.88124333259153
 40
93.76614969516273
 40
95.80127775082083
 40
96.84825404539921
 40
98.93463118366145
 40
98.93463118366145
 40
98.93463118366145
 40
98.93463118366145
 10
87.53671974531329
 20
-34.2579107211932
 30
0.0
 10
86.62334365721973
 20
-34.26010929928669
 30
0.0
 10
78.66603774798978
 20
-34.27916741301579
 30
0.0
 10
64.81806546853755
 20
-34.59340789456662
 30
0.0
 10
44.35135546631346
 20
-35.04797553929704
 30
0.0
 10
36.66349081564283
 20
-34.0553449652363
 30
0.0
 10
23.04001787595859
 20
-34.38465065764189
 30
0.0
 10
26.48176335516194
 20
-32.72304144955795
 30
0.0
 10
29.81819572772758
 20
-32.35781744675485
 30
0.0
 10
39.30549018570917
 20
-31.89402905345814
 30
0.0
 10
55.56720724378596
 20
-30.01066253491846
 30
0.0
 10
79.83757401006505
 20
-28.38504156696323
 30
0.0
 10
105.9253019353356
 20
-27.29691087244698
 30
0.0
 10
125.6744552103666
 20
-27.60904815397408
 30
0.0
 10
136.1146357951708
 20
-27.49715868733805
 30
0.0
 10
140.4554386568274
 20
-27.62637186841773
 30
0.0
 10
142.3937273683641
 20
-25.41350622375229
 30
0.0
 10
144.0523840510054
 20
-25.05335777532981
 30
0.0
  0
SPLINE
  5
5F6
330
18
100
AcDbEntity
  8
0
100
AcDbSpline
210
0.0
220
0.0
230
1.0
 70
     8
 71
     3
 72
    13
 73
     9
 74
     0
 42
0.0000000001
 43
0.0000000001
 40
1.784534210856077
 40
1.784534210856077
 40
1.784534210856077
 40
1.784534210856077
 40
4.791374990086865
 40
8.867167413858926
 40
12.28479315512394
 40
13.85587447502989
 40
15.48073147689809
 40
16.50860187564317
 40
16.50860187564317
 40
16.50860187564317
 40
16.50860187564317
 10
166.432840812866
 20
0.0000000000000142
 30
0.0
 10
166.4562771693803
 20
-2.448180281889122
 30
0.0
 10
166.4991159428334
 20
-8.213798238465571
 30
0.0
 10
165.8266105923943
 20
-16.69684903118262
 30
0.0
 10
164.8746611650238
 20
-24.13869511087192
 30
0.0
 10
162.0305389355934
 20
-28.87071359924347
 30
0.0
 10
158.7781719559556
 20
-30.60568466933581
 30
0.0
 10
156.5353102065491
 20
-30.40991650333014
 30
0.0
 10
155.7599389746397
 20
-30.72299123962297
 30
0.0
  0
SPLINE
  5
5F7
330
18
100
AcDbEntity
  8
0
100
AcDbSpline
210
0.0
220
0.0
230
1.0
 70
     8
 71
     3
 72
    12
 73
     8
 74
     0
 42
0.0000000001
 43
0.0000000001
 40
0.0
 40
0.0
 40
0.0
 40
0.0
 40
1.954416822632142
 40
3.385827505666141
 40
9.101404218478508
 40
18.01143672977906
 40
20.07750498207575
 40
20.07750498207575
 40
20.07750498207575
 40
20.07750498207575
 10
144.0523840510054
 20
-25.05335777532981
 30
0.0
 10
143.6737586067287
 20
-26.59757186652548
 30
0.0
 10
141.2652214433497
 20
-28.60527489761135
 30
0.0
 10
134.5184821263814
 20
-31.43245391513757
 30
0.0
 10
121.0570136689688
 20
-31.52658114130555
 30
0.0
 10
107.7744678926808
 20
-33.70334356762713
 30
0.0
 10
98.82871151137294
 20
-34.09719267541673
 30
0.0
 10
97.14282928335656
 20
-34.14721194308431
 30
0.0
  0
SPLINE
  5
5F8
330
18
100
AcDbEntity
  8
0
100
AcDbSpline
210
0.0
220
0.0
230
1.0
 70
     8
 71
     3
 72
    16
 73
    12
 74
     0
 42
0.0000000001
 43
0.0000000001
 40
0.2362820156256843
 40
0.2362820156256843
 40
0.2362820156256843
 40
0.2362820156256843
 40
1.224358563157152
 40
2.502024758892879
 40
2.844114196038004
 40
3.409856319926415
 40
6.067963796682374
 40
6.245182922569176
 40
6.581184763110368
 40
7.265916946465317
 40
8.997645406193104
 40
8.997645406193104
 40
8.997645406193104
 40
8.997645406193104
 10
97.5684384412645
 20
-36.65124969377469
 30
0.0
 10
97.38228512289163
 20
-35.20936920107563
 30
0.0
 10
96.99761652291625
 20
-33.40946178344823
 30
0.0
 10
96.40228193368518
 20
-31.351919311894
 30
0.0
 10
95.32369791234287
 20
-29.86699488715869
 30
0.0
 10
92.35215400914114
 20
-29.13273983740769
 30
0.0
 10
89.67759901678972
 20
-29.24864204464173
 30
0.0
 10
87.03925114444103
 20
-29.68023340342175
 30
0.0
 10
86.52212528893569
 20
-30.67431056406478
 30
0.0
 10
87.02451548875973
 20
-32.91364729208332
 30
0.0
 10
87.72703120717153
 20
-34.73694528009888
 30
0.0
 10
88.13041612724829
 20
-36.88433441355796
 30
0.0
  0
SPLINE
  5
5F9
330
18
100
AcDbEntity
  8
0
100
AcDbSpline
210
0.0
220
0.0
230
1.0
 70
     8
 71
     3
 72
     8
 73
     4
 74
     0
 42
0.0000000001
 43
0.0000000001
 40
90.81929636751571
 40
90.81929636751571
 40
90.81929636751571
 40
90.81929636751571
 40
91.13295609767906
 40
91.13295609767906
 40
91.13295609767906
 40
91.13295609767906
 10
11.31896588117405
 20
0.0000000000002842
 30
0.0
 10
11.32046006253847
 20
-0.2535129152816467
 30
0.0
 10
11.32260249800566
 20
-0.5070582277532623
 30
0.0
 10
11.32541796563623
 20
-0.7606498243955429
 30
0.0
  0
SPLINE
  5
5FA
330
18
100
AcDbEntity
  8
0
100
AcDbSpline
210
0.0
220
0.0
230
1.0
 70
     8
 71
     3
 72
     8
 73
     4
 74
     0
 42
0.0000000001
 43
0.0000000001
 40
68.65532664989856
 40
68.65532664989856
 40
68.65532664989856
 40
68.65532664989856
 40
68.94165298461827
 40
68.94165298461827
 40
68.94165298461827
 40
68.94165298461827
 10
17.24071353079222
 20
0.0
 30
0.0
 10
17.25310226823188
 20
-0.2314233705224922
 30
0.0
 10
17.26595797364495
 20
-0.462902551725577
 30
0.0
 10
17.27921705998267
 20
-0.6944526982859572
 30
0.0
  0
SPLINE
  5
5FB
330
18
100
AcDbEntity
  8
0
100
AcDbSpline
210
0.0
220
0.0
230
1.0
 70
     8
 71
     3
 72
    13
 73
     9
 74
     0
 42
0.0000000001
 43
0.0000000001
 40
68.60413438747094
 40
68.60413438747094
 40
68.60413438747094
 40
68.60413438747094
 40
74.76344115554443
 40
76.38862343713083
 40
78.13814562477027
 40
79.50835389150523
 40
83.21023870799784
 40
91.13295609767906
 40
91.13295609767906
 40
91.13295609767906
 40
91.13295609767906
 10
35.91555780823535
 20
-35.72037057549208
 30
0.0
 10
30.15922976074216
 20
-35.53392116051369
 30
0.0
 10
23.29400819143404
 20
-35.2398348435462
 30
0.0
 10
18.87160751364644
 20
-35.06358279060869
 30
0.0
 10
16.05664577864638
 20
-32.07802945002486
 30
0.0
 10
13.03314459865265
 20
-27.41509856386234
 30
0.0
 10
12.13031150838776
 20
-16.50718337058442
 30
0.0
 10
11.39673995217947
 20
-7.16610656695569
 30
0.0
 10
11.3254179656364
 20
-0.7606498243954576
 30
0.0
  0
SPLINE
  5
5FC
330
18
100
AcDbEntity
  8
0
100
AcDbSpline
210
0.0
220
0.0
230
1.0
 70
     8
 71
     3
 72
    14
 73
    10
 74
     0
 42
0.0000000001
 43
0.0000000001
 40
1.792049978285959
 40
1.792049978285959
 40
1.792049978285959
 40
1.792049978285959
 40
4.79357964866207
 40
11.36757747202056
 40
13.96549176484355
 40
15.82622375223103
 40
19.03743788295755
 40
23.56479417446801
 40
27.58328531157524
 40
27.58328531157524
 40
27.58328531157524
 40
27.58328531157524
 10
175.3895260683616
 20
0.0000000000000142
 30
0.0
 10
175.3181229693369
 20
-2.436260133285955
 30
0.0
 10
174.5305066143022
 20
-10.23003734178821
 30
0.0
 10
174.7377459067233
 20
-20.31227470909276
 30
0.0
 10
171.0351706192396
 20
-28.69169038658792
 30
0.0
 10
166.0185116218167
 20
-32.9951597786203
 30
0.0
 10
157.7165888889492
 20
-32.03400093246462
 30
0.0
 10
148.4137203130503
 20
-33.75930233733884
 30
0.0
 10
141.4515989323817
 20
-34.02937188502539
 30
0.0
 10
138.1744417542601
 20
-34.14468820854742
 30
0.0
  0
ENDSEC
  0
SECTION
  2
OBJECTS
  0
DICTIONARY
  5
C
330
0
100
AcDbDictionary
  3
ACAD_GROUP
350
D
  3
ACAD_IMAGE_DICT
350
48
  3
ACAD_IMAGE_VARS
350
47
  3
ACAD_LAYOUT
350
488
  3
ACAD_MLINESTYLE
350
1B
  3
ACAD_PLOTSETTINGS
350
489
  3
ACAD_PLOTSTYLENAME
350
486
  3
ACDBHEADERROUNDTRIPXREC
350
6EB
  3
ACDBVARIABLEDICTIONARY
350
48F
  0
DICTIONARY
  5
70E
330
18
100
AcDbDictionary
280
     1
  3
ACAD_LAYOUTSELFREF
360
70F
  0
DICTIONARY
  5
70C
330
15
100
AcDbDictionary
280
     1
  3
ACAD_LAYOUTSELFREF
360
70D
  0
DICTIONARY
  5
D
102
{ACAD_REACTORS
330
C
102
}
330
C
100
AcDbDictionary
  0
DICTIONARY
  5
48
102
{ACAD_REACTORS
330
C
102
}
330
C
100
AcDbDictionary
  0
RASTERVARIABLES
  5
47
102
{ACAD_REACTORS
330
C
102
}
330
C
100
AcDbRasterVariables
 90
        0
 70
     1
 71
     1
 72
     0
  0
DICTIONARY
  5
488
102
{ACAD_REACTORS
330
C
102
}
330
C
100
AcDbDictionary
  0
DICTIONARY
  5
1B
102
{ACAD_REACTORS
330
C
102
}
330
C
100
AcDbDictionary
  3
STANDARD
350
1C
  0
DICTIONARY
  5
489
102
{ACAD_REACTORS
330
C
102
}
330
C
100
AcDbDictionary
  0
ACDBDICTIONARYWDFLT
  5
486
102
{ACAD_REACTORS
330
C
102
}
330
C
100
AcDbDictionary
281
     1
  3
Normal
350
487
100
AcDbDictionaryWithDefault
340
487
  0
DICTIONARY
  5
6EB
102
{ACAD_REACTORS
330
C
102
}
330
C
100
AcDbDictionary
  3
CEPSNTYPE
350
6F5
  3
DIMSTYLEDATA
350
6F9
  3
FINGERPRINTGUID
350
6F6
  3
HYPERLINKBASE
350
6EE
  3
INSUNITS
350
6F4
  3
LAYOUTDICT
350
6F0
  3
LWETCUNION
350
6F3
  3
PLOTSETDICT
350
6F1
  3
PLOTSTYLNAMDICT
350
6F2
  3
PSVPSCALE
350
6F8
  3
PUCSBASE
350
6FC
  3
PUCSORGBACK
350
702
  3
PUCSORGBOTTOM
350
6FE
  3
PUCSORGFRONT
350
701
  3
PUCSORGLEFT
350
6FF
  3
PUCSORGRIGHT
350
700
  3
PUCSORGTOP
350
6FD
  3
PUCSORTHOREF
350
6FA
  3
PUCSORTHOVIEW
350
6FB
  3
STYLESHEET
350
6EF
  3
TSTACKALIGN
350
6EC
  3
TSTACKSIZE
350
6ED
  3
UCSBASE
350
705
  3
UCSORGBACK
350
70B
  3
UCSORGBOTTOM
350
707
  3
UCSORGFRONT
350
70A
  3
UCSORGLEFT
350
708
  3
UCSORGRIGHT
350
709
  3
UCSORGTOP
350
706
  3
UCSORTHOREF
350
703
  3
UCSORTHOVIEW
350
704
  3
VERSIONGUID
350
6F7
  0
DICTIONARY
  5
48F
102
{ACAD_REACTORS
330
C
102
}
330
C
100
AcDbDictionary
  3
DIMASSOC
350
490
  0
XRECORD
  5
70F
102
{ACAD_REACTORS
330
70E
102
}
330
70E
100
AcDbXrecord
340
18
  0
XRECORD
  5
70D
102
{ACAD_REACTORS
330
70C
102
}
330
70C
100
AcDbXrecord
340
15
  0
MLINESTYLE
  5
1C
102
{ACAD_REACTORS
330
1B
102
}
330
1B
100
AcDbMlineStyle
  2
STANDARD
 70
     0
  3

 62
   256
 51
90.0
 52
90.0
 71
     2
 49
0.5
 62
   256
  6
BYLAYER
 49
-0.5
 62
   256
  6
BYLAYER
  0
ACDBPLACEHOLDER
  5
487
102
{ACAD_REACTORS
330
486
102
}
330
486
100
AcDbPlaceHolder
280
     0
  0
XRECORD
  5
6F5
102
{ACAD_REACTORS
330
6EB
102
}
330
6EB
100
AcDbXrecord
 90
        0
  0
XRECORD
  5
6F9
102
{ACAD_REACTORS
330
6EB
102
}
330
6EB
100
AcDbXrecord
1000
DSTYLE
1002
{
1070
    79
 70
     3
1070
   279
 70
     2
1070
   342
340
491
1002
}
  0
XRECORD
  5
6F6
102
{ACAD_REACTORS
330
6EB
102
}
330
6EB
100
AcDbXrecord
  1
{8C0D10A8-382B-40E5-800D-97D890504C19}
  0
XRECORD
  5
6EE
102
{ACAD_REACTORS
330
6EB
102
}
330
6EB
100
AcDbXrecord
  1

  0
XRECORD
  5
6F4
102
{ACAD_REACTORS
330
6EB
102
}
330
6EB
100
AcDbXrecord
 90
        0
  0
XRECORD
  5
6F0
102
{ACAD_REACTORS
330
6EB
102
}
330
6EB
100
AcDbXrecord
340
488
  0
XRECORD
  5
6F3
102
{ACAD_REACTORS
330
6EB
102
}
330
6EB
100
AcDbXrecord
 90
    14877
  0
XRECORD
  5
6F1
102
{ACAD_REACTORS
330
6EB
102
}
330
6EB
100
AcDbXrecord
340
489
  0
XRECORD
  5
6F2
102
{ACAD_REACTORS
330
6EB
102
}
330
6EB
100
AcDbXrecord
340
486
  0
XRECORD
  5
6F8
102
{ACAD_REACTORS
330
6EB
102
}
330
6EB
100
AcDbXrecord
 40
0.0
  0
XRECORD
  5
6FC
102
{ACAD_REACTORS
330
6EB
102
}
330
6EB
100
AcDbXrecord
340
0
  0
XRECORD
  5
702
102
{ACAD_REACTORS
330
6EB
102
}
330
6EB
100
AcDbXrecord
 10
0.0
 20
0.0
 30
0.0
  0
XRECORD
  5
6FE
102
{ACAD_REACTORS
330
6EB
102
}
330
6EB
100
AcDbXrecord
 10
0.0
 20
0.0
 30
0.0
  0
XRECORD
  5
701
102
{ACAD_REACTORS
330
6EB
102
}
330
6EB
100
AcDbXrecord
 10
0.0
 20
0.0
 30
0.0
  0
XRECORD
  5
6FF
102
{ACAD_REACTORS
330
6EB
102
}
330
6EB
100
AcDbXrecord
 10
0.0
 20
0.0
 30
0.0
  0
XRECORD
  5
700
102
{ACAD_REACTORS
330
6EB
102
}
330
6EB
100
AcDbXrecord
 10
0.0
 20
0.0
 30
0.0
  0
XRECORD
  5
6FD
102
{ACAD_REACTORS
330
6EB
102
}
330
6EB
100
AcDbXrecord
 10
0.0
 20
0.0
 30
0.0
  0
XRECORD
  5
6FA
102
{ACAD_REACTORS
330
6EB
102
}
330
6EB
100
AcDbXrecord
340
0
  0
XRECORD
  5
6FB
102
{ACAD_REACTORS
330
6EB
102
}
330
6EB
100
AcDbXrecord
 70
     0
  0
XRECORD
  5
6EF
102
{ACAD_REACTORS
330
6EB
102
}
330
6EB
100
AcDbXrecord
  1
monochrome.ctb
  0
XRECORD
  5
6EC
102
{ACAD_REACTORS
330
6EB
102
}
330
6EB
100
AcDbXrecord
 90
        1
  0
XRECORD
  5
6ED
102
{ACAD_REACTORS
330
6EB
102
}
330
6EB
100
AcDbXrecord
 90
       70
  0
XRECORD
  5
705
102
{ACAD_REACTORS
330
6EB
102
}
330
6EB
100
AcDbXrecord
340
0
  0
XRECORD
  5
70B
102
{ACAD_REACTORS
330
6EB
102
}
330
6EB
100
AcDbXrecord
 10
0.0
 20
0.0
 30
0.0
  0
XRECORD
  5
707
102
{ACAD_REACTORS
330
6EB
102
}
330
6EB
100
AcDbXrecord
 10
0.0
 20
0.0
 30
0.0
  0
XRECORD
  5
70A
102
{ACAD_REACTORS
330
6EB
102
}
330
6EB
100
AcDbXrecord
 10
0.0
 20
0.0
 30
0.0
  0
XRECORD
  5
708
102
{ACAD_REACTORS
330
6EB
102
}
330
6EB
100
AcDbXrecord
 10
0.0
 20
0.0
 30
0.0
  0
XRECORD
  5
709
102
{ACAD_REACTORS
330
6EB
102
}
330
6EB
100
AcDbXrecord
 10
0.0
 20
0.0
 30
0.0
  0
XRECORD
  5
706
102
{ACAD_REACTORS
330
6EB
102
}
330
6EB
100
AcDbXrecord
 10
0.0
 20
0.0
 30
0.0
  0
XRECORD
  5
703
102
{ACAD_REACTORS
330
6EB
102
}
330
6EB
100
AcDbXrecord
340
0
  0
XRECORD
  5
704
102
{ACAD_REACTORS
330
6EB
102
}
330
6EB
100
AcDbXrecord
 70
     0
  0
XRECORD
  5
6F7
102
{ACAD_REACTORS
330
6EB
102
}
330
6EB
100
AcDbXrecord
  1
{B2E0980D-EE15-495D-8AF3-A91323A783BD}
  0
DICTIONARYVAR
  5
490
102
{ACAD_REACTORS
330
48F
102
}
330
48F
100
DictionaryVariables
280
     0
  1
1
  0
ENDSEC
  0
EOF
