  0
SECTION
  2
HEADER
  9
$ACADVER
  1
AC1014
  9
$ACADMAINTVER
 70
     9
  9
$DWGCODEPAGE
  3
ANSI_1252
  9
$INSBASE
 10
0.0
 20
0.0
 30
0.0
  9
$EXTMIN
 10
-0.8999999999999852
 20
-0.8999999999999943
 30
0.0
  9
$EXTMAX
 10
180.0296756537775
 20
72.201434449616
 30
0.0
  9
$LIMMIN
 10
0.0
 20
0.0
  9
$LIMMAX
 10
420.0
 20
297.0
  9
$ORTHOMODE
 70
     1
  9
$REGENMODE
 70
     1
  9
$FILLMODE
 70
     1
  9
$QTEXTMODE
 70
     0
  9
$MIRRTEXT
 70
     1
  9
$DRAGMODE
 70
     2
  9
$LTSCALE
 40
1.0
  9
$OSMODE
 70
   167
  9
$ATTMODE
 70
     1
  9
$TEXTSIZE
 40
2.5
  9
$TRACEWID
 40
1.0
  9
$TEXTSTYLE
  7
STANDARD
  9
$CLAYER
  8
0
  9
$CELTYPE
  6
BYLAYER
  9
$CECOLOR
 62
   256
  9
$CELTSCALE
 40
1.0
  9
$DELOBJ
 70
     1
  9
$DISPSILH
 70
     0
  9
$DIMSCALE
 40
1.0
  9
$DIMASZ
 40
1.8
  9
$DIMEXO
 40
0.625
  9
$DIMDLI
 40
3.799999999999999
  9
$DIMRND
 40
0.0
  9
$DIMDLE
 40
0.0
  9
$DIMEXE
 40
1.8
  9
$DIMTP
 40
0.0
  9
$DIMTM
 40
0.0
  9
$DIMTXT
 40
3.0
  9
$DIMCEN
 40
0.9
  9
$DIMTSZ
 40
0.0
  9
$DIMTOL
 70
     0
  9
$DIMLIM
 70
     0
  9
$DIMTIH
 70
     0
  9
$DIMTOH
 70
     0
  9
$DIMSE1
 70
     0
  9
$DIMSE2
 70
     0
  9
$DIMTAD
 70
     1
  9
$DIMZIN
 70
    12
  9
$DIMBLK
  1
OBLIQUE
  9
$DIMASO
 70
     1
  9
$DIMSHO
 70
     1
  9
$DIMPOST
  1

  9
$DIMAPOST
  1

  9
$DIMALT
 70
     0
  9
$DIMALTD
 70
     2
  9
$DIMALTF
 40
25.4
  9
$DIMLFAC
 40
1.0
  9
$DIMTOFL
 70
     0
  9
$DIMTVP
 40
0.0
  9
$DIMTIX
 70
     0
  9
$DIMSOXD
 70
     0
  9
$DIMSAH
 70
     0
  9
$DIMBLK1
  1

  9
$DIMBLK2
  1

  9
$DIMSTYLE
  2
COTATION-JACOB-DELAFON
  9
$DIMCLRD
 70
     0
  9
$DIMCLRE
 70
     0
  9
$DIMCLRT
 70
     0
  9
$DIMTFAC
 40
1.0
  9
$DIMGAP
 40
0.9
  9
$DIMJUST
 70
     0
  9
$DIMSD1
 70
     0
  9
$DIMSD2
 70
     0
  9
$DIMTOLJ
 70
     1
  9
$DIMTZIN
 70
     0
  9
$DIMALTZ
 70
     0
  9
$DIMALTTZ
 70
     0
  9
$DIMFIT
 70
     5
  9
$DIMUPT
 70
     0
  9
$DIMUNIT
 70
     2
  9
$DIMDEC
 70
     2
  9
$DIMTDEC
 70
     2
  9
$DIMALTU
 70
     2
  9
$DIMALTTD
 70
     2
  9
$DIMTXSTY
  7
JACOB-DELAFON
  9
$DIMAUNIT
 70
     0
  9
$LUNITS
 70
     2
  9
$LUPREC
 70
     4
  9
$SKETCHINC
 40
1.0
  9
$FILLETRAD
 40
10.0
  9
$AUNITS
 70
     0
  9
$AUPREC
 70
     0
  9
$MENU
  1
.
  9
$ELEVATION
 40
0.0
  9
$PELEVATION
 40
0.0
  9
$THICKNESS
 40
0.0
  9
$LIMCHECK
 70
     0
  9
$BLIPMODE
 70
     0
  9
$CHAMFERA
 40
10.0
  9
$CHAMFERB
 40
10.0
  9
$CHAMFERC
 40
20.0
  9
$CHAMFERD
 40
0.0
  9
$SKPOLY
 70
     0
  9
$TDCREATE
 40
2451204.814370833
  9
$TDUPDATE
 40
2452285.672304050
  9
$TDINDWG
 40
0.1678320718
  9
$TDUSRTIMER
 40
0.1678320718
  9
$USRTIMER
 70
     1
  9
$ANGBASE
 50
0.0
  9
$ANGDIR
 70
     0
  9
$PDMODE
 70
     0
  9
$PDSIZE
 40
0.0
  9
$PLINEWID
 40
0.0
  9
$COORDS
 70
     0
  9
$SPLFRAME
 70
     0
  9
$SPLINETYPE
 70
     6
  9
$SPLINESEGS
 70
     8
  9
$ATTDIA
 70
     0
  9
$ATTREQ
 70
     1
  9
$HANDLING
 70
 22529
  9
$HANDSEED
  5
8C0
  9
$SURFTAB1
 70
     6
  9
$SURFTAB2
 70
     6
  9
$SURFTYPE
 70
     6
  9
$SURFU
 70
     6
  9
$SURFV
 70
     6
  9
$UCSNAME
  2

  9
$UCSORG
 10
0.0
 20
0.0
 30
0.0
  9
$UCSXDIR
 10
1.0
 20
0.0
 30
0.0
  9
$UCSYDIR
 10
0.0
 20
1.0
 30
0.0
  9
$PUCSNAME
  2

  9
$PUCSORG
 10
0.0
 20
0.0
 30
0.0
  9
$PUCSXDIR
 10
1.0
 20
0.0
 30
0.0
  9
$PUCSYDIR
 10
0.0
 20
1.0
 30
0.0
  9
$USERI1
 70
     0
  9
$USERI2
 70
     0
  9
$USERI3
 70
     0
  9
$USERI4
 70
     0
  9
$USERI5
 70
     0
  9
$USERR1
 40
0.0
  9
$USERR2
 40
0.0
  9
$USERR3
 40
0.0
  9
$USERR4
 40
0.0
  9
$USERR5
 40
0.0
  9
$WORLDVIEW
 70
     1
  9
$SHADEDGE
 70
     3
  9
$SHADEDIF
 70
    70
  9
$TILEMODE
 70
     1
  9
$MAXACTVP
 70
    48
  9
$PINSBASE
 10
0.0
 20
0.0
 30
0.0
  9
$PLIMCHECK
 70
     0
  9
$PEXTMIN
 10
1.000000000000000E+20
 20
1.000000000000000E+20
 30
1.000000000000000E+20
  9
$PEXTMAX
 10
-1.000000000000000E+20
 20
-1.000000000000000E+20
 30
-1.000000000000000E+20
  9
$PLIMMIN
 10
0.0
 20
0.0
  9
$PLIMMAX
 10
420.0
 20
297.0
  9
$UNITMODE
 70
     0
  9
$VISRETAIN
 70
     1
  9
$PLINEGEN
 70
     0
  9
$PSLTSCALE
 70
     1
  9
$TREEDEPTH
 70
  3020
  9
$PICKSTYLE
 70
     1
  9
$CMLSTYLE
  2
STANDARD
  9
$CMLJUST
 70
     0
  9
$CMLSCALE
 40
20.0
  9
$PROXYGRAPHICS
 70
     1
  9
$MEASUREMENT
 70
     1
  0
ENDSEC
  0
SECTION
  2
CLASSES
  0
CLASS
  1
LWPOLYLINE
  2
AcDbPolyline
  3
AutoCAD 2000
 90
        0
280
     0
281
     1
  0
CLASS
  1
RASTERVARIABLES
  2
AcDbRasterVariables
  3
ISM
 90
        0
280
     0
281
     0
  0
CLASS
  1
IMAGEDEF
  2
AcDbRasterImageDef
  3
ISM
 90
        0
280
     0
281
     0
  0
CLASS
  1
IMAGEDEF_REACTOR
  2
AcDbRasterImageDefReactor
  3
ISM
 90
        1
280
     0
281
     0
  0
CLASS
  1
IMAGE
  2
AcDbRasterImage
  3
ISM
 90
      127
280
     0
281
     1
  0
CLASS
  1
ACDBDICTIONARYWDFLT
  2
AcDbDictionaryWithDefault
  3
AutoCAD 2000
 90
        0
280
     0
281
     0
  0
CLASS
  1
ACDBPLACEHOLDER
  2
AcDbPlaceHolder
  3
AutoCAD 2000
 90
        0
280
     0
281
     0
  0
CLASS
  1
LAYOUT
  2
AcDbLayout
  3
AutoCAD 2000
 90
        0
280
     0
281
     0
  0
CLASS
  1
DICTIONARYVAR
  2
AcDbDictionaryVar
  3
AutoCAD 2000
 90
        0
280
     0
281
     0
  0
CLASS
  1
LONG_TRANSACTION
  2
AcDbLongTransaction
  3
AutoCAD 2000
 90
        0
280
     0
281
     0
  0
CLASS
  1
LWPOLYLINE
  2
AcDbPolyline
  3
AutoCAD 2000
 90
        0
280
     0
281
     1
  0
CLASS
  1
HATCH
  2
AcDbHatch
  3
AutoCAD 2000
 90
        0
280
     0
281
     1
  0
CLASS
  1
XRECORD
  2
AcDbXrecord
  3
AutoCAD 2000
 90
        0
280
     0
281
     0
  0
ENDSEC
  0
SECTION
  2
TABLES
  0
TABLE
  2
VPORT
  5
8
330
0
100
AcDbSymbolTable
 70
     3
  0
VPORT
  5
89A
330
8
100
AcDbSymbolTableRecord
100
AcDbViewportTableRecord
  2
*ACTIVE
 70
     0
 10
0.0
 20
0.0
 11
1.0
 21
1.0
 12
89.56616204961312
 22
36.89917744140508
 13
0.0
 23
0.0
 14
10.0
 24
10.0
 15
10.0
 25
10.0
 16
0.0
 26
0.0
 36
1.0
 17
0.0
 27
0.0
 37
0.0
 40
99.6070160657808
 41
1.828516377649325
 42
50.0
 43
0.0
 44
0.0
 50
0.0
 51
0.0
 71
     0
 72
   100
 73
     1
 74
     1
 75
     0
 76
     0
 77
     0
 78
     0
  0
ENDTAB
  0
TABLE
  2
LTYPE
  5
5
330
0
100
AcDbSymbolTable
 70
     1
  0
LTYPE
  5
12
330
5
100
AcDbSymbolTableRecord
100
AcDbLinetypeTableRecord
  2
BYBLOCK
 70
     0
  3

 72
    65
 73
     0
 40
0.0
  0
LTYPE
  5
13
330
5
100
AcDbSymbolTableRecord
100
AcDbLinetypeTableRecord
  2
BYLAYER
 70
     0
  3

 72
    65
 73
     0
 40
0.0
  0
LTYPE
  5
14
330
5
100
AcDbSymbolTableRecord
100
AcDbLinetypeTableRecord
  2
CONTINUOUS
 70
     0
  3
Solid line
 72
    65
 73
     0
 40
0.0
  0
ENDTAB
  0
TABLE
  2
LAYER
  5
2
330
0
100
AcDbSymbolTable
 70
     3
  0
LAYER
  5
E
330
2
100
AcDbSymbolTableRecord
100
AcDbLayerTableRecord
  2
0
 70
     0
 62
   255
  6
CONTINUOUS
  0
LAYER
  5
270
330
2
100
AcDbSymbolTableRecord
100
AcDbLayerTableRecord
  2
DEFPOINTS
 70
     0
 62
     7
  6
CONTINUOUS
  0
LAYER
  5
4AD
330
2
100
AcDbSymbolTableRecord
100
AcDbLayerTableRecord
  2
COTATION-JACOBDELAFON
 70
     0
 62
     8
  6
CONTINUOUS
  0
ENDTAB
  0
TABLE
  2
STYLE
  5
3
330
0
100
AcDbSymbolTable
 70
     2
  0
STYLE
  5
F
330
3
100
AcDbSymbolTableRecord
100
AcDbTextStyleTableRecord
  2
STANDARD
 70
     0
 40
0.0
 41
1.0
 50
0.0
 71
     0
 42
2.5
  3
txt
  4

  0
STYLE
  5
4AE
330
3
100
AcDbSymbolTableRecord
100
AcDbTextStyleTableRecord
  2
JACOB-DELAFON
 70
     0
 40
0.0
 41
1.0
 50
0.0
 71
     0
 42
2.5
  3
ARIAL.TTF
  4

1001
ACAD
1000
Arial
1071
       34
  0
ENDTAB
  0
TABLE
  2
VIEW
  5
6
330
0
100
AcDbSymbolTable
 70
     0
  0
ENDTAB
  0
TABLE
  2
UCS
  5
7
330
0
100
AcDbSymbolTable
 70
     0
  0
ENDTAB
  0
TABLE
  2
APPID
  5
9
330
0
100
AcDbSymbolTable
 70
     2
  0
APPID
  5
10
330
9
100
AcDbSymbolTableRecord
100
AcDbRegAppTableRecord
  2
ACAD
 70
     0
  0
APPID
  5
4B0
330
9
100
AcDbSymbolTableRecord
100
AcDbRegAppTableRecord
  2
PE_URL
 70
     0
  0
ENDTAB
  0
TABLE
  2
DIMSTYLE
  5
A
330
0
100
AcDbSymbolTable
 70
     2
  0
DIMSTYLE
105
1D
330
A
100
AcDbSymbolTableRecord
100
AcDbDimStyleTableRecord
  2
STANDARD
 70
     0
  3

  4

  5

  6

  7

 40
1.0
 41
0.18
 42
0.0625
 43
0.38
 44
0.18
 45
0.0
 46
0.0
 47
0.0
 48
0.0
140
0.18
141
0.09
142
0.0
143
25.4
144
1.0
145
0.0
146
1.0
147
0.09
 71
     0
 72
     0
 73
     1
 74
     1
 75
     0
 76
     0
 77
     0
 78
     0
170
     0
171
     2
172
     0
173
     0
174
     0
175
     0
176
     0
177
     0
178
     0
270
     2
271
     4
272
     4
273
     2
274
     2
340
F
275
     0
280
     0
281
     0
282
     0
283
     1
284
     0
285
     0
286
     0
287
     3
288
     0
  0
DIMSTYLE
105
4AF
102
{ACAD_REACTORS
330
642
330
648
102
}
330
A
100
AcDbSymbolTableRecord
100
AcDbDimStyleTableRecord
  2
COTATION-JACOB-DELAFON
 70
     0
  3

  4

  5
OBLIQUE
  6

  7

 40
1.0
 41
1.8
 42
0.625
 43
3.799999999999999
 44
1.8
 45
0.0
 46
0.0
 47
0.0
 48
0.0
140
3.0
141
0.9
142
0.0
143
25.4
144
1.0
145
0.0
146
1.0
147
0.9
 71
     0
 72
     0
 73
     0
 74
     0
 75
     0
 76
     0
 77
     1
 78
    12
170
     0
171
     2
172
     0
173
     0
174
     0
175
     0
176
     0
177
     0
178
     0
270
     2
271
     2
272
     2
273
     2
274
     2
340
4AE
275
     0
280
     0
281
     0
282
     0
283
     1
284
     0
285
     0
286
     0
287
     5
288
     0
  0
ENDTAB
  0
TABLE
  2
BLOCK_RECORD
  5
1
330
0
100
AcDbSymbolTable
 70
     3
  0
BLOCK_RECORD
  5
18
102
{ACAD_XDICTIONARY
360
8BE
102
}
330
1
100
AcDbSymbolTableRecord
100
AcDbBlockTableRecord
  2
*MODEL_SPACE
  0
BLOCK_RECORD
  5
15
102
{ACAD_XDICTIONARY
360
8BC
102
}
330
1
100
AcDbSymbolTableRecord
100
AcDbBlockTableRecord
  2
*PAPER_SPACE
  0
BLOCK_RECORD
  5
491
330
1
100
AcDbSymbolTableRecord
100
AcDbBlockTableRecord
  2
_OBLIQUE
  0
BLOCK_RECORD
  5
65F
330
1
100
AcDbSymbolTableRecord
100
AcDbBlockTableRecord
  2
*D1
  0
BLOCK_RECORD
  5
66B
330
1
100
AcDbSymbolTableRecord
100
AcDbBlockTableRecord
  2
*D2
  0
ENDTAB
  0
ENDSEC
  0
SECTION
  2
BLOCKS
  0
BLOCK
  5
19
330
18
100
AcDbEntity
  8
0
100
AcDbBlockBegin
  2
*MODEL_SPACE
 70
     0
 10
0.0
 20
0.0
 30
0.0
  3
*MODEL_SPACE
  1

  0
ENDBLK
  5
1A
330
18
100
AcDbEntity
  8
0
100
AcDbBlockEnd
  0
BLOCK
  5
16
330
15
100
AcDbEntity
 67
     1
  8
0
100
AcDbBlockBegin
  2
*PAPER_SPACE
 70
     0
 10
0.0
 20
0.0
 30
0.0
  3
*PAPER_SPACE
  1

  0
ENDBLK
  5
17
330
15
100
AcDbEntity
 67
     1
  8
0
100
AcDbBlockEnd
  0
BLOCK
  5
493
330
491
100
AcDbEntity
  8
0
100
AcDbBlockBegin
  2
_OBLIQUE
 70
     0
 10
0.0
 20
0.0
 30
0.0
  3
_OBLIQUE
  1

  0
LINE
  5
492
330
491
100
AcDbEntity
  8
0
  6
BYBLOCK
 62
     0
100
AcDbLine
 10
-0.5
 20
-0.5
 30
0.0
 11
0.5
 21
0.5
 31
0.0
  0
ENDBLK
  5
494
330
491
100
AcDbEntity
  8
0
100
AcDbBlockEnd
  0
BLOCK
  5
669
330
65F
100
AcDbEntity
  8
0
100
AcDbBlockBegin
  2
*D1
 70
     1
 10
0.0
 20
0.0
 30
0.0
  3
*D1
  1

  0
LINE
  5
83B
330
65F
100
AcDbEntity
  8
COTATION-JACOBDELAFON
 62
     0
100
AcDbLine
 10
169.9999999999999
 20
55.99726543675835
 30
0.0
 11
169.9999999999999
 21
69.25013840595979
 31
0.0
  0
LINE
  5
83C
330
65F
100
AcDbEntity
  8
COTATION-JACOBDELAFON
 62
     0
100
AcDbLine
 10
0.0000000000000142
 20
57.99726543675834
 30
0.0
 11
0.0000000000000149
 21
69.25013840595979
 31
0.0
  0
LINE
  5
83D
330
65F
100
AcDbEntity
  8
COTATION-JACOBDELAFON
 62
     0
100
AcDbLine
 10
169.9999999999999
 20
67.45013840595979
 30
0.0
 11
0.0000000000000148
 21
67.45013840595979
 31
0.0
  0
INSERT
  5
83E
330
65F
100
AcDbEntity
  8
COTATION-JACOBDELAFON
 62
     0
100
AcDbBlockReference
  2
_OBLIQUE
 10
169.9999999999999
 20
67.45013840595979
 30
0.0
 41
1.8
 42
1.8
 43
1.8
  0
INSERT
  5
83F
330
65F
100
AcDbEntity
  8
COTATION-JACOBDELAFON
 62
     0
100
AcDbBlockReference
  2
_OBLIQUE
 10
0.0000000000000148
 20
67.45013840595979
 30
0.0
 41
1.8
 42
1.8
 43
1.8
 50
180.0
  0
MTEXT
  5
840
330
65F
100
AcDbEntity
  8
COTATION-JACOBDELAFON
 62
     0
100
AcDbMText
 10
84.99999999999998
 20
69.88185736912488
 30
0.0
 40
3.0
 41
0.0
 71
     5
 72
     1
  1
\A1;170
  7
JACOB-DELAFON
1001
ACAD
1000
MTEXTBEGIN
1070
    73
1070
     1
1070
    44
1040
1.0
1070
    74
1070
     0
1000
MTEXTEND
  0
POINT
  5
841
330
65F
100
AcDbEntity
  8
DEFPOINTS
 62
     0
100
AcDbPoint
 10
169.9999999999999
 20
55.37226543675835
 30
0.0
  0
POINT
  5
842
330
65F
100
AcDbEntity
  8
DEFPOINTS
 62
     0
100
AcDbPoint
 10
0.0000000000000142
 20
57.37226543675834
 30
0.0
  0
POINT
  5
843
330
65F
100
AcDbEntity
  8
DEFPOINTS
 62
     0
100
AcDbPoint
 10
0.0000000000000148
 20
67.45013840595979
 30
0.0
  0
ENDBLK
  5
66A
330
65F
100
AcDbEntity
  8
0
100
AcDbBlockEnd
  0
BLOCK
  5
675
330
66B
100
AcDbEntity
  8
0
100
AcDbBlockBegin
  2
*D2
 70
     1
 10
0.0
 20
0.0
 30
0.0
  3
*D2
  1

  0
LINE
  5
856
330
66B
100
AcDbEntity
  8
COTATION-JACOBDELAFON
 62
     0
100
AcDbLine
 10
170.359527117726
 20
57.99726543675836
 30
0.0
 11
180.0296756537775
 21
57.99726543675835
 31
0.0
  0
LINE
  5
857
330
66B
100
AcDbEntity
  8
COTATION-JACOBDELAFON
 62
     0
100
AcDbLine
 10
115.3046250725177
 20
0.0000000000000237
 30
0.0
 11
180.0296756537775
 21
0.0000000000000054
 31
0.0
  0
LINE
  5
858
330
66B
100
AcDbEntity
  8
COTATION-JACOBDELAFON
 62
     0
100
AcDbLine
 10
178.2296756537775
 20
57.99726543675835
 30
0.0
 11
178.2296756537775
 21
0.0000000000000059
 31
0.0
  0
INSERT
  5
859
330
66B
100
AcDbEntity
  8
COTATION-JACOBDELAFON
 62
     0
100
AcDbBlockReference
  2
_OBLIQUE
 10
178.2296756537775
 20
57.99726543675835
 30
0.0
 41
1.8
 42
1.8
 43
1.8
 50
90.0
  0
INSERT
  5
85A
330
66B
100
AcDbEntity
  8
COTATION-JACOBDELAFON
 62
     0
100
AcDbBlockReference
  2
_OBLIQUE
 10
178.2296756537775
 20
0.0000000000000059
 30
0.0
 41
1.8
 42
1.8
 43
1.8
 50
270.0
  0
MTEXT
  5
85B
330
66B
100
AcDbEntity
  8
COTATION-JACOBDELAFON
 62
     0
100
AcDbMText
 10
175.7979566906124
 20
28.9986327183792
 30
0.0
 40
3.0
 41
0.0
 71
     5
 72
     1
  1
\A1;58
  7
JACOB-DELAFON
 11
0.0000000000000001
 21
1.0
 31
0.0
1001
ACAD
1000
MTEXTBEGIN
1070
    73
1070
     1
1070
    44
1040
1.0
1070
    74
1070
     0
1000
MTEXTEND
  0
POINT
  5
85C
330
66B
100
AcDbEntity
  8
DEFPOINTS
 62
     0
100
AcDbPoint
 10
169.734527117726
 20
57.99726543675836
 30
0.0
  0
POINT
  5
85D
330
66B
100
AcDbEntity
  8
DEFPOINTS
 62
     0
100
AcDbPoint
 10
114.6796250725177
 20
0.0000000000000239
 30
0.0
  0
POINT
  5
85E
330
66B
100
AcDbEntity
  8
DEFPOINTS
 62
     0
100
AcDbPoint
 10
178.2296756537775
 20
0.0000000000000059
 30
0.0
  0
ENDBLK
  5
676
330
66B
100
AcDbEntity
  8
0
100
AcDbBlockEnd
  0
ENDSEC
  0
SECTION
  2
ENTITIES
  0
LINE
  5
641
330
18
100
AcDbEntity
  8
0
100
AcDbLine
 10
169.9999999999999
 20
55.99726543675835
 30
0.0
 11
0.3777979270051759
 21
55.99726543675835
 31
0.0
  0
DIMENSION
  5
642
330
18
100
AcDbEntity
  8
COTATION-JACOBDELAFON
100
AcDbDimension
  2
*D1
 10
0.0000000000000148
 20
67.45013840595979
 30
0.0
 11
84.99999999999998
 21
69.88185736912488
 31
0.0
 70
    32
  3
COTATION-JACOB-DELAFON
100
AcDbAlignedDimension
 13
169.9999999999999
 23
55.37226543675835
 33
0.0
 14
0.0000000000000142
 24
57.37226543675834
 34
0.0
 50
180.0
100
AcDbRotatedDimension
  0
LINE
  5
643
330
18
100
AcDbEntity
  8
0
100
AcDbLine
 10
169.734527117726
 20
57.99726543675834
 30
0.0
 11
0.0000000000000142
 21
57.99726543675834
 31
0.0
  0
LINE
  5
644
330
18
100
AcDbEntity
  8
0
100
AcDbLine
 10
113.5685049524624
 20
16.38811361122228
 30
0.0
 11
19.0754229062001
 21
15.08085934506464
 31
0.0
  0
LINE
  5
645
330
18
100
AcDbEntity
  8
0
100
AcDbLine
 10
116.7044581232627
 20
0.0000000000000247
 30
0.0
 11
112.6547920217728
 21
0.0000000000000231
 31
0.0
  0
DIMENSION
  5
648
330
18
100
AcDbEntity
  8
COTATION-JACOBDELAFON
100
AcDbDimension
  2
*D2
 10
178.2296756537775
 20
0.0000000000000059
 30
0.0
 11
175.7979566906124
 21
28.9986327183792
 31
0.0
 70
    32
  3
COTATION-JACOB-DELAFON
100
AcDbAlignedDimension
 13
169.734527117726
 23
57.99726543675836
 33
0.0
 14
114.6796250725177
 24
0.0000000000000239
 34
0.0
 50
90.0
100
AcDbRotatedDimension
  0
LINE
  5
649
330
18
100
AcDbEntity
  8
0
100
AcDbLine
 10
112.8225994239861
 20
16.37660549937272
 30
0.0
 11
113.2151503556475
 21
4.299202453850489
 31
0.0
  0
LINE
  5
64A
330
18
100
AcDbEntity
  8
0
100
AcDbLine
 10
116.7792400241001
 20
16.68831231512428
 30
0.0
 11
116.3765577090223
 21
4.299202453850432
 31
0.0
  0
LINE
  5
64B
330
18
100
AcDbEntity
  8
0
100
AcDbLine
 10
113.2151503556475
 20
4.299202453850489
 30
0.0
 11
116.3765577090223
 21
4.299202453850432
 31
0.0
  0
LWPOLYLINE
  5
64C
330
18
100
AcDbEntity
  8
0
100
AcDbPolyline
 90
        4
 70
     0
 43
0.0
 10
116.7044581232627
 20
0.0000000000000248
 10
116.7044581232627
 20
3.308530707178966
 10
112.6547920217727
 20
3.308530707178966
 10
112.6547920217728
 20
0.000000000000023
  0
LWPOLYLINE
  5
64D
330
18
100
AcDbEntity
  8
0
100
AcDbPolyline
 90
        2
 70
     0
 43
0.0
 10
115.8779957169477
 20
3.308530707179023
 10
115.8779957169477
 20
4.299202453850432
  0
LWPOLYLINE
  5
64E
330
18
100
AcDbEntity
  8
0
100
AcDbPolyline
 90
        2
 70
     0
 43
0.0
 10
113.4812544280877
 20
4.290735221541729
 10
113.4812544280878
 20
3.308530707179023
  0
SPLINE
  5
64F
330
18
100
AcDbEntity
  8
0
100
AcDbSpline
210
0.0
220
0.0
230
1.0
 70
     8
 71
     3
 72
    16
 73
    12
 74
     0
 42
0.0000000001
 43
0.0000000001
 40
0.0
 40
0.0
 40
0.0
 40
0.0
 40
1.480687580501405
 40
3.539211976648467
 40
6.048874004101887
 40
10.04533253121696
 40
13.86609103517722
 40
18.20336852676847
 40
18.71962672371326
 40
19.39329721205103
 40
21.06085217746751
 40
21.06085217746751
 40
21.06085217746751
 40
21.06085217746751
 10
113.5685049524624
 20
16.38811361122234
 30
0.0
 10
116.8736448867894
 20
16.61631490533088
 30
0.0
 10
119.3019055645792
 20
17.01888276269014
 30
0.0
 10
123.8495660494355
 20
21.34085464572931
 30
0.0
 10
127.1259073811885
 20
27.82227825764111
 30
0.0
 10
133.8606578775625
 20
33.56808369678052
 30
0.0
 10
140.4129220974355
 20
41.50002293888198
 30
0.0
 10
144.2411606586021
 20
47.62835272259591
 30
0.0
 10
144.9334766786456
 20
52.70364282735815
 30
0.0
 10
147.6528124721032
 20
53.20075844852992
 30
0.0
 10
149.3142160469824
 20
54.16564229550742
 30
0.0
 10
151.5762161637879
 20
55.99726543675835
 30
0.0
  0
LINE
  5
651
330
18
100
AcDbEntity
  8
0
100
AcDbLine
 10
166.4420015197149
 20
57.99726543675836
 30
0.0
 11
169.734527117726
 21
57.99726543675836
 31
0.0
  0
LINE
  5
652
330
18
100
AcDbEntity
  8
0
100
AcDbLine
 10
169.734527117726
 20
57.99726543675836
 30
0.0
 11
169.9999999999999
 21
55.99726543675835
 31
0.0
  0
LINE
  5
653
330
18
100
AcDbEntity
  8
0
100
AcDbLine
 10
43.72944600307109
 20
15.15632649438161
 30
0.0
 11
43.37655770902235
 21
4.299202453850376
 31
0.0
  0
LINE
  5
654
330
18
100
AcDbEntity
  8
0
100
AcDbLine
 10
39.86420035626442
 20
15.09669202656835
 30
0.0
 11
40.21515035564751
 21
4.299202453850432
 31
0.0
  0
LWPOLYLINE
  5
655
330
18
100
AcDbEntity
  8
0
100
AcDbPolyline
 90
        4
 70
     0
 43
0.0
 10
43.70445812326273
 20
-0.0000000000000041
 10
43.70445812326273
 20
3.308530707178909
 10
39.65479202177279
 20
3.308530707178909
 10
39.65479202177279
 20
-0.0000000000000059
  0
LINE
  5
656
330
18
100
AcDbEntity
  8
0
100
AcDbLine
 10
40.21515035564751
 20
4.299202453850432
 30
0.0
 11
43.37655770902235
 21
4.299202453850376
 31
0.0
  0
LWPOLYLINE
  5
657
330
18
100
AcDbEntity
  8
0
100
AcDbPolyline
 90
        2
 70
     0
 43
0.0
 10
42.87799571694775
 20
3.308530707178966
 10
42.87799571694775
 20
4.299202453850376
  0
LWPOLYLINE
  5
658
330
18
100
AcDbEntity
  8
0
100
AcDbPolyline
 90
        2
 70
     0
 43
0.0
 10
40.48125442808777
 20
4.290735221541672
 10
40.48125442808784
 20
3.308530707178966
  0
LINE
  5
659
330
18
100
AcDbEntity
  8
0
100
AcDbLine
 10
6.977297380940555
 20
55.99726543675835
 30
0.0
 11
11.53241770646614
 21
24.33205948516028
 31
0.0
  0
LINE
  5
65A
330
18
100
AcDbEntity
  8
0
100
AcDbLine
 10
22.85196027821182
 20
12.8127316508396
 30
0.0
 11
20.73262748505327
 21
14.35620008859158
 31
0.0
  0
LINE
  5
65B
330
18
100
AcDbEntity
  8
0
100
AcDbLine
 10
30.38905182274724
 20
15.08710958350517
 30
0.0
 11
28.24398484254224
 21
12.8856439712649
 31
0.0
  0
LINE
  5
65C
330
18
100
AcDbEntity
  8
0
100
AcDbLine
 10
28.24398484254224
 20
12.88564397126496
 30
0.0
 11
22.85196027821182
 21
12.8127316508396
 31
0.0
  0
SPLINE
  5
65D
330
18
100
AcDbEntity
  8
0
100
AcDbSpline
210
0.0
220
0.0
230
1.0
 70
     8
 71
     3
 72
    11
 73
     7
 74
     5
 42
0.0000000001
 43
0.0000000001
 44
0.0000000001
 12
-0.7665480245706742
 22
0.6421869868089804
 32
0.0
 13
-0.1496025837029006
 23
0.9887462095752461
 33
0.0
 40
0.0
 40
0.0
 40
0.0
 40
0.0
 40
2.959457797989105
 40
7.056473153868177
 40
12.21957173200696
 40
14.37652946168848
 40
14.37652946168848
 40
14.37652946168848
 40
14.37652946168848
 10
20.73262748505327
 20
14.35620008859152
 30
0.0
 10
19.97643864210366
 20
14.98970851721785
 30
0.0
 10
17.37917889101186
 20
15.15212948862962
 30
0.0
 10
14.54117317983113
 20
18.21199002473711
 30
0.0
 10
11.66374673142349
 20
21.09957143302957
 30
0.0
 10
11.63997985623224
 20
23.62116489201479
 30
0.0
 10
11.53241770646614
 20
24.33205948516033
 30
0.0
 11
20.73262748505327
 21
14.35620008859152
 31
0.0
 11
17.96645094716727
 21
15.40817813937375
 31
0.0
 11
14.75292166161641
 21
17.9495880546011
 31
0.0
 11
11.81210645180975
 21
22.19331198875946
 31
0.0
 11
11.53241770646614
 21
24.33205948516033
 31
0.0
  0
LINE
  5
65E
330
18
100
AcDbEntity
  8
0
100
AcDbLine
 10
-0.0000000000000142
 20
57.99726543675834
 30
0.0
 11
0.3777979270051759
 21
55.99726543675829
 31
0.0
  0
LINE
  5
802
330
18
100
AcDbEntity
  8
0
100
AcDbLine
 10
43.70445812326273
 20
-0.0000000000000043
 30
0.0
 11
39.65479202177279
 21
-0.0000000000000059
 31
0.0
  0
ENDSEC
  0
SECTION
  2
OBJECTS
  0
DICTIONARY
  5
C
330
0
100
AcDbDictionary
  3
ACAD_GROUP
350
D
  3
ACAD_IMAGE_DICT
350
48
  3
ACAD_IMAGE_VARS
350
47
  3
ACAD_LAYOUT
350
488
  3
ACAD_MLINESTYLE
350
1B
  3
ACAD_PLOTSETTINGS
350
489
  3
ACAD_PLOTSTYLENAME
350
486
  3
ACDBHEADERROUNDTRIPXREC
350
89B
  3
ACDBVARIABLEDICTIONARY
350
48F
  0
DICTIONARY
  5
8BE
330
18
100
AcDbDictionary
280
     1
  3
ACAD_LAYOUTSELFREF
360
8BF
  0
DICTIONARY
  5
8BC
330
15
100
AcDbDictionary
280
     1
  3
ACAD_LAYOUTSELFREF
360
8BD
  0
DICTIONARY
  5
D
102
{ACAD_REACTORS
330
C
102
}
330
C
100
AcDbDictionary
  0
DICTIONARY
  5
48
102
{ACAD_REACTORS
330
C
102
}
330
C
100
AcDbDictionary
  0
RASTERVARIABLES
  5
47
102
{ACAD_REACTORS
330
C
102
}
330
C
100
AcDbRasterVariables
 90
        0
 70
     1
 71
     1
 72
     0
  0
DICTIONARY
  5
488
102
{ACAD_REACTORS
330
C
102
}
330
C
100
AcDbDictionary
  0
DICTIONARY
  5
1B
102
{ACAD_REACTORS
330
C
102
}
330
C
100
AcDbDictionary
  3
STANDARD
350
1C
  0
DICTIONARY
  5
489
102
{ACAD_REACTORS
330
C
102
}
330
C
100
AcDbDictionary
  0
ACDBDICTIONARYWDFLT
  5
486
102
{ACAD_REACTORS
330
C
102
}
330
C
100
AcDbDictionary
281
     1
  3
Normal
350
487
100
AcDbDictionaryWithDefault
340
487
  0
DICTIONARY
  5
89B
102
{ACAD_REACTORS
330
C
102
}
330
C
100
AcDbDictionary
  3
CEPSNTYPE
350
8A5
  3
DIMSTYLEDATA
350
8A9
  3
FINGERPRINTGUID
350
8A6
  3
HYPERLINKBASE
350
89E
  3
INSUNITS
350
8A4
  3
LAYOUTDICT
350
8A0
  3
LWETCUNION
350
8A3
  3
PLOTSETDICT
350
8A1
  3
PLOTSTYLNAMDICT
350
8A2
  3
PSVPSCALE
350
8A8
  3
PUCSBASE
350
8AC
  3
PUCSORGBACK
350
8B2
  3
PUCSORGBOTTOM
350
8AE
  3
PUCSORGFRONT
350
8B1
  3
PUCSORGLEFT
350
8AF
  3
PUCSORGRIGHT
350
8B0
  3
PUCSORGTOP
350
8AD
  3
PUCSORTHOREF
350
8AA
  3
PUCSORTHOVIEW
350
8AB
  3
STYLESHEET
350
89F
  3
TSTACKALIGN
350
89C
  3
TSTACKSIZE
350
89D
  3
UCSBASE
350
8B5
  3
UCSORGBACK
350
8BB
  3
UCSORGBOTTOM
350
8B7
  3
UCSORGFRONT
350
8BA
  3
UCSORGLEFT
350
8B8
  3
UCSORGRIGHT
350
8B9
  3
UCSORGTOP
350
8B6
  3
UCSORTHOREF
350
8B3
  3
UCSORTHOVIEW
350
8B4
  3
VERSIONGUID
350
8A7
  0
DICTIONARY
  5
48F
102
{ACAD_REACTORS
330
C
102
}
330
C
100
AcDbDictionary
  3
DIMASSOC
350
490
  0
XRECORD
  5
8BF
102
{ACAD_REACTORS
330
8BE
102
}
330
8BE
100
AcDbXrecord
340
18
  0
XRECORD
  5
8BD
102
{ACAD_REACTORS
330
8BC
102
}
330
8BC
100
AcDbXrecord
340
15
  0
MLINESTYLE
  5
1C
102
{ACAD_REACTORS
330
1B
102
}
330
1B
100
AcDbMlineStyle
  2
STANDARD
 70
     0
  3

 62
   256
 51
90.0
 52
90.0
 71
     2
 49
0.5
 62
   256
  6
BYLAYER
 49
-0.5
 62
   256
  6
BYLAYER
  0
ACDBPLACEHOLDER
  5
487
102
{ACAD_REACTORS
330
486
102
}
330
486
100
AcDbPlaceHolder
280
     0
  0
XRECORD
  5
8A5
102
{ACAD_REACTORS
330
89B
102
}
330
89B
100
AcDbXrecord
 90
        0
  0
XRECORD
  5
8A9
102
{ACAD_REACTORS
330
89B
102
}
330
89B
100
AcDbXrecord
1000
DSTYLE
1002
{
1070
    79
 70
     3
1070
   279
 70
     2
1070
   342
340
491
1002
}
  0
XRECORD
  5
8A6
102
{ACAD_REACTORS
330
89B
102
}
330
89B
100
AcDbXrecord
  1
{8C0D10A8-382B-40E5-800D-97D890504C19}
  0
XRECORD
  5
89E
102
{ACAD_REACTORS
330
89B
102
}
330
89B
100
AcDbXrecord
  1

  0
XRECORD
  5
8A4
102
{ACAD_REACTORS
330
89B
102
}
330
89B
100
AcDbXrecord
 90
        0
  0
XRECORD
  5
8A0
102
{ACAD_REACTORS
330
89B
102
}
330
89B
100
AcDbXrecord
340
488
  0
XRECORD
  5
8A3
102
{ACAD_REACTORS
330
89B
102
}
330
89B
100
AcDbXrecord
 90
    14877
  0
XRECORD
  5
8A1
102
{ACAD_REACTORS
330
89B
102
}
330
89B
100
AcDbXrecord
340
489
  0
XRECORD
  5
8A2
102
{ACAD_REACTORS
330
89B
102
}
330
89B
100
AcDbXrecord
340
486
  0
XRECORD
  5
8A8
102
{ACAD_REACTORS
330
89B
102
}
330
89B
100
AcDbXrecord
 40
0.0
  0
XRECORD
  5
8AC
102
{ACAD_REACTORS
330
89B
102
}
330
89B
100
AcDbXrecord
340
0
  0
XRECORD
  5
8B2
102
{ACAD_REACTORS
330
89B
102
}
330
89B
100
AcDbXrecord
 10
0.0
 20
0.0
 30
0.0
  0
XRECORD
  5
8AE
102
{ACAD_REACTORS
330
89B
102
}
330
89B
100
AcDbXrecord
 10
0.0
 20
0.0
 30
0.0
  0
XRECORD
  5
8B1
102
{ACAD_REACTORS
330
89B
102
}
330
89B
100
AcDbXrecord
 10
0.0
 20
0.0
 30
0.0
  0
XRECORD
  5
8AF
102
{ACAD_REACTORS
330
89B
102
}
330
89B
100
AcDbXrecord
 10
0.0
 20
0.0
 30
0.0
  0
XRECORD
  5
8B0
102
{ACAD_REACTORS
330
89B
102
}
330
89B
100
AcDbXrecord
 10
0.0
 20
0.0
 30
0.0
  0
XRECORD
  5
8AD
102
{ACAD_REACTORS
330
89B
102
}
330
89B
100
AcDbXrecord
 10
0.0
 20
0.0
 30
0.0
  0
XRECORD
  5
8AA
102
{ACAD_REACTORS
330
89B
102
}
330
89B
100
AcDbXrecord
340
0
  0
XRECORD
  5
8AB
102
{ACAD_REACTORS
330
89B
102
}
330
89B
100
AcDbXrecord
 70
     0
  0
XRECORD
  5
89F
102
{ACAD_REACTORS
330
89B
102
}
330
89B
100
AcDbXrecord
  1

  0
XRECORD
  5
89C
102
{ACAD_REACTORS
330
89B
102
}
330
89B
100
AcDbXrecord
 90
        1
  0
XRECORD
  5
89D
102
{ACAD_REACTORS
330
89B
102
}
330
89B
100
AcDbXrecord
 90
       70
  0
XRECORD
  5
8B5
102
{ACAD_REACTORS
330
89B
102
}
330
89B
100
AcDbXrecord
340
0
  0
XRECORD
  5
8BB
102
{ACAD_REACTORS
330
89B
102
}
330
89B
100
AcDbXrecord
 10
0.0
 20
0.0
 30
0.0
  0
XRECORD
  5
8B7
102
{ACAD_REACTORS
330
89B
102
}
330
89B
100
AcDbXrecord
 10
0.0
 20
0.0
 30
0.0
  0
XRECORD
  5
8BA
102
{ACAD_REACTORS
330
89B
102
}
330
89B
100
AcDbXrecord
 10
0.0
 20
0.0
 30
0.0
  0
XRECORD
  5
8B8
102
{ACAD_REACTORS
330
89B
102
}
330
89B
100
AcDbXrecord
 10
0.0
 20
0.0
 30
0.0
  0
XRECORD
  5
8B9
102
{ACAD_REACTORS
330
89B
102
}
330
89B
100
AcDbXrecord
 10
0.0
 20
0.0
 30
0.0
  0
XRECORD
  5
8B6
102
{ACAD_REACTORS
330
89B
102
}
330
89B
100
AcDbXrecord
 10
0.0
 20
0.0
 30
0.0
  0
XRECORD
  5
8B3
102
{ACAD_REACTORS
330
89B
102
}
330
89B
100
AcDbXrecord
340
0
  0
XRECORD
  5
8B4
102
{ACAD_REACTORS
330
89B
102
}
330
89B
100
AcDbXrecord
 70
     0
  0
XRECORD
  5
8A7
102
{ACAD_REACTORS
330
89B
102
}
330
89B
100
AcDbXrecord
  1
{2538C55A-8DA1-4D5B-ABCE-6E436C4C1519}
  0
DICTIONARYVAR
  5
490
102
{ACAD_REACTORS
330
48F
102
}
330
48F
100
DictionaryVariables
280
     0
  1
1
  0
ENDSEC
  0
EOF
