  0
SECTION
  2
HEADER
  9
$ACADVER
  1
AC1014
  9
$ACADMAINTVER
 70
     9
  9
$DWGCODEPAGE
  3
ANSI_1252
  9
$INSBASE
 10
0.0
 20
0.0
 30
0.0
  9
$EXTMIN
 10
-0.9296394069095867
 20
-38.40511483034629
 30
-0.0000000000112498
  9
$EXTMAX
 10
169.8494371411018
 20
51.54567161529269
 30
0.0000000000002956
  9
$LIMMIN
 10
0.0
 20
0.0
  9
$LIMMAX
 10
420.0
 20
297.0
  9
$ORTHOMODE
 70
     1
  9
$REGENMODE
 70
     1
  9
$FILLMODE
 70
     1
  9
$QTEXTMODE
 70
     0
  9
$MIRRTEXT
 70
     1
  9
$DRAGMODE
 70
     2
  9
$LTSCALE
 40
1.0
  9
$OSMODE
 70
   167
  9
$ATTMODE
 70
     1
  9
$TEXTSIZE
 40
2.5
  9
$TRACEWID
 40
1.0
  9
$TEXTSTYLE
  7
STANDARD
  9
$CLAYER
  8
0
  9
$CELTYPE
  6
BYLAYER
  9
$CECOLOR
 62
   256
  9
$CELTSCALE
 40
1.0
  9
$DELOBJ
 70
     1
  9
$DISPSILH
 70
     0
  9
$DIMSCALE
 40
1.0
  9
$DIMASZ
 40
1.8
  9
$DIMEXO
 40
0.625
  9
$DIMDLI
 40
3.799999999999999
  9
$DIMRND
 40
0.0
  9
$DIMDLE
 40
0.0
  9
$DIMEXE
 40
1.8
  9
$DIMTP
 40
0.0
  9
$DIMTM
 40
0.0
  9
$DIMTXT
 40
3.0
  9
$DIMCEN
 40
0.9
  9
$DIMTSZ
 40
0.0
  9
$DIMTOL
 70
     0
  9
$DIMLIM
 70
     0
  9
$DIMTIH
 70
     0
  9
$DIMTOH
 70
     0
  9
$DIMSE1
 70
     0
  9
$DIMSE2
 70
     0
  9
$DIMTAD
 70
     1
  9
$DIMZIN
 70
    12
  9
$DIMBLK
  1
OBLIQUE
  9
$DIMASO
 70
     1
  9
$DIMSHO
 70
     1
  9
$DIMPOST
  1

  9
$DIMAPOST
  1

  9
$DIMALT
 70
     0
  9
$DIMALTD
 70
     2
  9
$DIMALTF
 40
25.4
  9
$DIMLFAC
 40
1.0
  9
$DIMTOFL
 70
     0
  9
$DIMTVP
 40
0.0
  9
$DIMTIX
 70
     0
  9
$DIMSOXD
 70
     0
  9
$DIMSAH
 70
     0
  9
$DIMBLK1
  1

  9
$DIMBLK2
  1

  9
$DIMSTYLE
  2
COTATION-JACOB-DELAFON
  9
$DIMCLRD
 70
     0
  9
$DIMCLRE
 70
     0
  9
$DIMCLRT
 70
     0
  9
$DIMTFAC
 40
1.0
  9
$DIMGAP
 40
0.9
  9
$DIMJUST
 70
     0
  9
$DIMSD1
 70
     0
  9
$DIMSD2
 70
     0
  9
$DIMTOLJ
 70
     1
  9
$DIMTZIN
 70
     0
  9
$DIMALTZ
 70
     0
  9
$DIMALTTZ
 70
     0
  9
$DIMFIT
 70
     5
  9
$DIMUPT
 70
     0
  9
$DIMUNIT
 70
     2
  9
$DIMDEC
 70
     2
  9
$DIMTDEC
 70
     2
  9
$DIMALTU
 70
     2
  9
$DIMALTTD
 70
     2
  9
$DIMTXSTY
  7
JACOB-DELAFON
  9
$DIMAUNIT
 70
     0
  9
$LUNITS
 70
     2
  9
$LUPREC
 70
     4
  9
$SKETCHINC
 40
1.0
  9
$FILLETRAD
 40
0.0
  9
$AUNITS
 70
     0
  9
$AUPREC
 70
     0
  9
$MENU
  1
.
  9
$ELEVATION
 40
0.0
  9
$PELEVATION
 40
0.0
  9
$THICKNESS
 40
0.0
  9
$LIMCHECK
 70
     0
  9
$BLIPMODE
 70
     0
  9
$CHAMFERA
 40
10.0
  9
$CHAMFERB
 40
10.0
  9
$CHAMFERC
 40
20.0
  9
$CHAMFERD
 40
0.0
  9
$SKPOLY
 70
     0
  9
$TDCREATE
 40
2451204.814370833
  9
$TDUPDATE
 40
2452285.708745578
  9
$TDINDWG
 40
0.1535169329
  9
$TDUSRTIMER
 40
0.1535169329
  9
$USRTIMER
 70
     1
  9
$ANGBASE
 50
0.0
  9
$ANGDIR
 70
     0
  9
$PDMODE
 70
     0
  9
$PDSIZE
 40
0.0
  9
$PLINEWID
 40
0.0
  9
$COORDS
 70
     0
  9
$SPLFRAME
 70
     0
  9
$SPLINETYPE
 70
     6
  9
$SPLINESEGS
 70
     8
  9
$ATTDIA
 70
     0
  9
$ATTREQ
 70
     1
  9
$HANDLING
 70
 22529
  9
$HANDSEED
  5
733
  9
$SURFTAB1
 70
     6
  9
$SURFTAB2
 70
     6
  9
$SURFTYPE
 70
     6
  9
$SURFU
 70
     6
  9
$SURFV
 70
     6
  9
$UCSNAME
  2

  9
$UCSORG
 10
0.0
 20
0.0
 30
0.0
  9
$UCSXDIR
 10
1.0
 20
0.0
 30
0.0
  9
$UCSYDIR
 10
0.0
 20
1.0
 30
0.0
  9
$PUCSNAME
  2

  9
$PUCSORG
 10
0.0
 20
0.0
 30
0.0
  9
$PUCSXDIR
 10
1.0
 20
0.0
 30
0.0
  9
$PUCSYDIR
 10
0.0
 20
1.0
 30
0.0
  9
$USERI1
 70
     0
  9
$USERI2
 70
     0
  9
$USERI3
 70
     0
  9
$USERI4
 70
     0
  9
$USERI5
 70
     0
  9
$USERR1
 40
0.0
  9
$USERR2
 40
0.0
  9
$USERR3
 40
0.0
  9
$USERR4
 40
0.0
  9
$USERR5
 40
0.0
  9
$WORLDVIEW
 70
     1
  9
$SHADEDGE
 70
     3
  9
$SHADEDIF
 70
    70
  9
$TILEMODE
 70
     1
  9
$MAXACTVP
 70
    48
  9
$PINSBASE
 10
0.0
 20
0.0
 30
0.0
  9
$PLIMCHECK
 70
     0
  9
$PEXTMIN
 10
1.000000000000000E+20
 20
1.000000000000000E+20
 30
1.000000000000000E+20
  9
$PEXTMAX
 10
-1.000000000000000E+20
 20
-1.000000000000000E+20
 30
-1.000000000000000E+20
  9
$PLIMMIN
 10
0.0
 20
0.0
  9
$PLIMMAX
 10
420.0
 20
297.0
  9
$UNITMODE
 70
     0
  9
$VISRETAIN
 70
     1
  9
$PLINEGEN
 70
     0
  9
$PSLTSCALE
 70
     1
  9
$TREEDEPTH
 70
  3020
  9
$PICKSTYLE
 70
     1
  9
$CMLSTYLE
  2
STANDARD
  9
$CMLJUST
 70
     0
  9
$CMLSCALE
 40
20.0
  9
$PROXYGRAPHICS
 70
     1
  9
$MEASUREMENT
 70
     1
  0
ENDSEC
  0
SECTION
  2
CLASSES
  0
CLASS
  1
LWPOLYLINE
  2
AcDbPolyline
  3
AutoCAD 2000
 90
        0
280
     0
281
     1
  0
CLASS
  1
RASTERVARIABLES
  2
AcDbRasterVariables
  3
ISM
 90
        0
280
     0
281
     0
  0
CLASS
  1
IMAGEDEF
  2
AcDbRasterImageDef
  3
ISM
 90
        0
280
     0
281
     0
  0
CLASS
  1
IMAGEDEF_REACTOR
  2
AcDbRasterImageDefReactor
  3
ISM
 90
        1
280
     0
281
     0
  0
CLASS
  1
IMAGE
  2
AcDbRasterImage
  3
ISM
 90
      127
280
     0
281
     1
  0
CLASS
  1
ACDBDICTIONARYWDFLT
  2
AcDbDictionaryWithDefault
  3
AutoCAD 2000
 90
        0
280
     0
281
     0
  0
CLASS
  1
ACDBPLACEHOLDER
  2
AcDbPlaceHolder
  3
AutoCAD 2000
 90
        0
280
     0
281
     0
  0
CLASS
  1
LAYOUT
  2
AcDbLayout
  3
AutoCAD 2000
 90
        0
280
     0
281
     0
  0
CLASS
  1
DICTIONARYVAR
  2
AcDbDictionaryVar
  3
AutoCAD 2000
 90
        0
280
     0
281
     0
  0
CLASS
  1
LONG_TRANSACTION
  2
AcDbLongTransaction
  3
AutoCAD 2000
 90
        0
280
     0
281
     0
  0
CLASS
  1
LWPOLYLINE
  2
AcDbPolyline
  3
AutoCAD 2000
 90
        0
280
     0
281
     1
  0
CLASS
  1
HATCH
  2
AcDbHatch
  3
AutoCAD 2000
 90
        0
280
     0
281
     1
  0
CLASS
  1
XRECORD
  2
AcDbXrecord
  3
AutoCAD 2000
 90
        0
280
     0
281
     0
  0
ENDSEC
  0
SECTION
  2
TABLES
  0
TABLE
  2
VPORT
  5
8
330
0
100
AcDbSymbolTable
 70
     3
  0
VPORT
  5
70D
330
8
100
AcDbSymbolTableRecord
100
AcDbViewportTableRecord
  2
*ACTIVE
 70
     0
 10
0.0
 20
0.0
 11
1.0
 21
1.0
 12
84.45989886709611
 22
6.570278392473198
 13
0.0
 23
0.0
 14
10.0
 24
10.0
 15
10.0
 25
10.0
 16
0.0
 26
0.0
 36
1.0
 17
0.0
 27
0.0
 37
0.0
 40
290.2502537975159
 41
0.6004098360655738
 42
50.0
 43
0.0
 44
0.0
 50
0.0
 51
0.0
 71
     0
 72
   100
 73
     1
 74
     1
 75
     0
 76
     0
 77
     0
 78
     0
  0
ENDTAB
  0
TABLE
  2
LTYPE
  5
5
330
0
100
AcDbSymbolTable
 70
     1
  0
LTYPE
  5
12
330
5
100
AcDbSymbolTableRecord
100
AcDbLinetypeTableRecord
  2
BYBLOCK
 70
     0
  3

 72
    65
 73
     0
 40
0.0
  0
LTYPE
  5
13
330
5
100
AcDbSymbolTableRecord
100
AcDbLinetypeTableRecord
  2
BYLAYER
 70
     0
  3

 72
    65
 73
     0
 40
0.0
  0
LTYPE
  5
14
330
5
100
AcDbSymbolTableRecord
100
AcDbLinetypeTableRecord
  2
CONTINUOUS
 70
     0
  3
Solid line
 72
    65
 73
     0
 40
0.0
  0
ENDTAB
  0
TABLE
  2
LAYER
  5
2
330
0
100
AcDbSymbolTable
 70
     3
  0
LAYER
  5
E
330
2
100
AcDbSymbolTableRecord
100
AcDbLayerTableRecord
  2
0
 70
     0
 62
   255
  6
CONTINUOUS
  0
LAYER
  5
270
330
2
100
AcDbSymbolTableRecord
100
AcDbLayerTableRecord
  2
DEFPOINTS
 70
     0
 62
     7
  6
CONTINUOUS
  0
LAYER
  5
4AD
330
2
100
AcDbSymbolTableRecord
100
AcDbLayerTableRecord
  2
COTATION-JACOBDELAFON
 70
     0
 62
     8
  6
CONTINUOUS
  0
ENDTAB
  0
TABLE
  2
STYLE
  5
3
330
0
100
AcDbSymbolTable
 70
     2
  0
STYLE
  5
F
330
3
100
AcDbSymbolTableRecord
100
AcDbTextStyleTableRecord
  2
STANDARD
 70
     0
 40
0.0
 41
1.0
 50
0.0
 71
     0
 42
2.5
  3
txt
  4

  0
STYLE
  5
4AE
330
3
100
AcDbSymbolTableRecord
100
AcDbTextStyleTableRecord
  2
JACOB-DELAFON
 70
     0
 40
0.0
 41
1.0
 50
0.0
 71
     0
 42
2.5
  3
ARIAL.TTF
  4

1001
ACAD
1000
Arial
1071
       34
  0
ENDTAB
  0
TABLE
  2
VIEW
  5
6
330
0
100
AcDbSymbolTable
 70
     0
  0
ENDTAB
  0
TABLE
  2
UCS
  5
7
330
0
100
AcDbSymbolTable
 70
     0
  0
ENDTAB
  0
TABLE
  2
APPID
  5
9
330
0
100
AcDbSymbolTable
 70
     2
  0
APPID
  5
10
330
9
100
AcDbSymbolTableRecord
100
AcDbRegAppTableRecord
  2
ACAD
 70
     0
  0
APPID
  5
4B0
330
9
100
AcDbSymbolTableRecord
100
AcDbRegAppTableRecord
  2
PE_URL
 70
     0
  0
ENDTAB
  0
TABLE
  2
DIMSTYLE
  5
A
330
0
100
AcDbSymbolTable
 70
     2
  0
DIMSTYLE
105
1D
330
A
100
AcDbSymbolTableRecord
100
AcDbDimStyleTableRecord
  2
STANDARD
 70
     0
  3

  4

  5

  6

  7

 40
1.0
 41
0.18
 42
0.0625
 43
0.38
 44
0.18
 45
0.0
 46
0.0
 47
0.0
 48
0.0
140
0.18
141
0.09
142
0.0
143
25.4
144
1.0
145
0.0
146
1.0
147
0.09
 71
     0
 72
     0
 73
     1
 74
     1
 75
     0
 76
     0
 77
     0
 78
     0
170
     0
171
     2
172
     0
173
     0
174
     0
175
     0
176
     0
177
     0
178
     0
270
     2
271
     4
272
     4
273
     2
274
     2
340
F
275
     0
280
     0
281
     0
282
     0
283
     1
284
     0
285
     0
286
     0
287
     3
288
     0
  0
DIMSTYLE
105
4AF
102
{ACAD_REACTORS
330
5A0
330
5AD
102
}
330
A
100
AcDbSymbolTableRecord
100
AcDbDimStyleTableRecord
  2
COTATION-JACOB-DELAFON
 70
     0
  3

  4

  5
OBLIQUE
  6

  7

 40
1.0
 41
1.8
 42
0.625
 43
3.799999999999999
 44
1.8
 45
0.0
 46
0.0
 47
0.0
 48
0.0
140
3.0
141
0.9
142
0.0
143
25.4
144
1.0
145
0.0
146
1.0
147
0.9
 71
     0
 72
     0
 73
     0
 74
     0
 75
     0
 76
     0
 77
     1
 78
    12
170
     0
171
     2
172
     0
173
     0
174
     0
175
     0
176
     0
177
     0
178
     0
270
     2
271
     2
272
     2
273
     2
274
     2
340
4AE
275
     0
280
     0
281
     0
282
     0
283
     1
284
     0
285
     0
286
     0
287
     5
288
     0
  0
ENDTAB
  0
TABLE
  2
BLOCK_RECORD
  5
1
330
0
100
AcDbSymbolTable
 70
     3
  0
BLOCK_RECORD
  5
18
102
{ACAD_XDICTIONARY
360
731
102
}
330
1
100
AcDbSymbolTableRecord
100
AcDbBlockTableRecord
  2
*MODEL_SPACE
  0
BLOCK_RECORD
  5
15
102
{ACAD_XDICTIONARY
360
72F
102
}
330
1
100
AcDbSymbolTableRecord
100
AcDbBlockTableRecord
  2
*PAPER_SPACE
  0
BLOCK_RECORD
  5
491
330
1
100
AcDbSymbolTableRecord
100
AcDbBlockTableRecord
  2
_OBLIQUE
  0
BLOCK_RECORD
  5
5A1
330
1
100
AcDbSymbolTableRecord
100
AcDbBlockTableRecord
  2
*D1
  0
BLOCK_RECORD
  5
5AE
330
1
100
AcDbSymbolTableRecord
100
AcDbBlockTableRecord
  2
*D2
  0
ENDTAB
  0
ENDSEC
  0
SECTION
  2
BLOCKS
  0
BLOCK
  5
19
330
18
100
AcDbEntity
  8
0
100
AcDbBlockBegin
  2
*MODEL_SPACE
 70
     0
 10
0.0
 20
0.0
 30
0.0
  3
*MODEL_SPACE
  1

  0
ENDBLK
  5
1A
330
18
100
AcDbEntity
  8
0
100
AcDbBlockEnd
  0
BLOCK
  5
16
330
15
100
AcDbEntity
 67
     1
  8
0
100
AcDbBlockBegin
  2
*PAPER_SPACE
 70
     0
 10
0.0
 20
0.0
 30
0.0
  3
*PAPER_SPACE
  1

  0
ENDBLK
  5
17
330
15
100
AcDbEntity
 67
     1
  8
0
100
AcDbBlockEnd
  0
BLOCK
  5
493
330
491
100
AcDbEntity
  8
0
100
AcDbBlockBegin
  2
_OBLIQUE
 70
     0
 10
0.0
 20
0.0
 30
0.0
  3
_OBLIQUE
  1

  0
LINE
  5
492
330
491
100
AcDbEntity
  8
0
  6
BYBLOCK
 62
     0
100
AcDbLine
 10
-0.5
 20
-0.5
 30
0.0
 11
0.5
 21
0.5
 31
0.0
  0
ENDBLK
  5
494
330
491
100
AcDbEntity
  8
0
100
AcDbBlockEnd
  0
BLOCK
  5
5AB
330
5A1
100
AcDbEntity
  8
0
100
AcDbBlockBegin
  2
*D1
 70
     1
 10
0.0
 20
0.0
 30
0.0
  3
*D1
  1

  0
LINE
  5
6C0
330
5A1
100
AcDbEntity
  8
COTATION-JACOBDELAFON
 62
     0
100
AcDbLine
 10
160.0
 20
38.125
 30
0.0
 11
160.0
 21
48.59138890062552
 31
0.0
  0
LINE
  5
6C1
330
5A1
100
AcDbEntity
  8
COTATION-JACOBDELAFON
 62
     0
100
AcDbLine
 10
0.0
 20
38.125
 30
0.0
 11
0.0000000000000007
 21
48.59138890062552
 31
0.0
  0
LINE
  5
6C2
330
5A1
100
AcDbEntity
  8
COTATION-JACOBDELAFON
 62
     0
100
AcDbLine
 10
160.0
 20
46.79138890062552
 30
0.0
 11
0.0000000000000006
 21
46.79138890062552
 31
0.0
  0
INSERT
  5
6C3
330
5A1
100
AcDbEntity
  8
COTATION-JACOBDELAFON
 62
     0
100
AcDbBlockReference
  2
_OBLIQUE
 10
160.0
 20
46.79138890062552
 30
0.0
 41
1.8
 42
1.8
 43
1.8
  0
INSERT
  5
6C4
330
5A1
100
AcDbEntity
  8
COTATION-JACOBDELAFON
 62
     0
100
AcDbBlockReference
  2
_OBLIQUE
 10
0.0000000000000006
 20
46.79138890062552
 30
0.0
 41
1.8
 42
1.8
 43
1.8
 50
180.0
  0
MTEXT
  5
6C5
330
5A1
100
AcDbEntity
  8
COTATION-JACOBDELAFON
 62
     0
100
AcDbMText
 10
80.00000000000001
 20
49.2231078637906
 30
0.0
 40
3.0
 41
0.0
 71
     5
 72
     1
  1
\A1;160
  7
JACOB-DELAFON
1001
ACAD
1000
MTEXTBEGIN
1070
    73
1070
     1
1070
    44
1040
1.0
1070
    74
1070
     0
1000
MTEXTEND
  0
POINT
  5
6C6
330
5A1
100
AcDbEntity
  8
DEFPOINTS
 62
     0
100
AcDbPoint
 10
160.0
 20
37.5
 30
0.0
  0
POINT
  5
6C7
330
5A1
100
AcDbEntity
  8
DEFPOINTS
 62
     0
100
AcDbPoint
 10
0.0
 20
37.5
 30
0.0
  0
POINT
  5
6C8
330
5A1
100
AcDbEntity
  8
DEFPOINTS
 62
     0
100
AcDbPoint
 10
0.0000000000000006
 20
46.79138890062552
 30
0.0
  0
ENDBLK
  5
5AC
330
5A1
100
AcDbEntity
  8
0
100
AcDbBlockEnd
  0
BLOCK
  5
5B8
330
5AE
100
AcDbEntity
  8
0
100
AcDbBlockBegin
  2
*D2
 70
     1
 10
0.0
 20
0.0
 30
0.0
  3
*D2
  1

  0
LINE
  5
6C9
330
5AE
100
AcDbEntity
  8
COTATION-JACOBDELAFON
 62
     0
100
AcDbLine
 10
160.625
 20
37.5
 30
0.0
 11
169.8321722088642
 21
37.5
 31
0.0
  0
LINE
  5
6CA
330
5AE
100
AcDbEntity
  8
COTATION-JACOBDELAFON
 62
     0
100
AcDbLine
 10
160.625
 20
-37.5
 30
0.0
 11
169.8321722088642
 21
-37.5
 31
0.0
  0
LINE
  5
6CB
330
5AE
100
AcDbEntity
  8
COTATION-JACOBDELAFON
 62
     0
100
AcDbLine
 10
168.0321722088642
 20
37.5
 30
0.0
 11
168.0321722088642
 21
-37.5
 31
0.0
  0
INSERT
  5
6CC
330
5AE
100
AcDbEntity
  8
COTATION-JACOBDELAFON
 62
     0
100
AcDbBlockReference
  2
_OBLIQUE
 10
168.0321722088642
 20
37.5
 30
0.0
 41
1.8
 42
1.8
 43
1.8
 50
90.0
  0
INSERT
  5
6CD
330
5AE
100
AcDbEntity
  8
COTATION-JACOBDELAFON
 62
     0
100
AcDbBlockReference
  2
_OBLIQUE
 10
168.0321722088642
 20
-37.5
 30
0.0
 41
1.8
 42
1.8
 43
1.8
 50
270.0
  0
MTEXT
  5
6CE
330
5AE
100
AcDbEntity
  8
COTATION-JACOBDELAFON
 62
     0
100
AcDbMText
 10
165.6065923998601
 20
0.0000000000000255
 30
0.0
 40
3.0
 41
0.0
 71
     5
 72
     1
  1
\A1;75
  7
JACOB-DELAFON
 11
0.0000000000000001
 21
1.0
 31
0.0
1001
ACAD
1000
MTEXTBEGIN
1070
    73
1070
     1
1070
    44
1040
1.0
1070
    74
1070
     0
1000
MTEXTEND
  0
POINT
  5
6CF
330
5AE
100
AcDbEntity
  8
DEFPOINTS
 62
     0
100
AcDbPoint
 10
160.0
 20
37.5
 30
0.0
  0
POINT
  5
6D0
330
5AE
100
AcDbEntity
  8
DEFPOINTS
 62
     0
100
AcDbPoint
 10
160.0
 20
-37.5
 30
0.0
  0
POINT
  5
6D1
330
5AE
100
AcDbEntity
  8
DEFPOINTS
 62
     0
100
AcDbPoint
 10
168.0321722088642
 20
-37.5
 30
0.0
  0
ENDBLK
  5
5B9
330
5AE
100
AcDbEntity
  8
0
100
AcDbBlockEnd
  0
ENDSEC
  0
SECTION
  2
ENTITIES
  0
CIRCLE
  5
259
330
18
100
AcDbEntity
  8
0
100
AcDbCircle
 10
27.97466629293924
 20
0.0000000000000036
 30
0.0
 40
3.34588368146245
  0
ELLIPSE
  5
25A
330
18
100
AcDbEntity
  8
0
100
AcDbEllipse
 10
13.82764081080256
 20
-0.4281866994565675
 30
0.0
 11
0.0
 21
-2.497528128415603
 31
0.0
210
0.0
220
0.0
230
-1.0
 40
0.5149461966295205
 41
0.0
 42
6.283185307179586
  0
LINE
  5
461
330
18
100
AcDbEntity
  8
0
100
AcDbLine
 10
0.0
 20
37.5
 30
0.0
 11
0.0
 21
-37.5
 31
0.0
  0
LINE
  5
462
330
18
100
AcDbEntity
  8
0
100
AcDbLine
 10
0.0
 20
-37.5
 30
0.0
 11
160.0
 21
-37.5
 31
0.0
  0
LINE
  5
463
330
18
100
AcDbEntity
  8
0
100
AcDbLine
 10
160.0
 20
-37.5
 30
0.0
 11
160.0
 21
37.5
 31
0.0
  0
DIMENSION
  5
5A0
330
18
100
AcDbEntity
  8
COTATION-JACOBDELAFON
100
AcDbDimension
  2
*D1
 10
0.0000000000000006
 20
46.79138890062552
 30
0.0
 11
80.00000000000001
 21
49.2231078637906
 31
0.0
 70
    32
  3
COTATION-JACOB-DELAFON
100
AcDbAlignedDimension
 13
160.0
 23
37.5
 33
0.0
 14
0.0
 24
37.5
 34
0.0
 50
180.0
100
AcDbRotatedDimension
  0
DIMENSION
  5
5AD
330
18
100
AcDbEntity
  8
COTATION-JACOBDELAFON
100
AcDbDimension
  2
*D2
 10
168.0321722088642
 20
-37.5
 30
0.0
 11
165.6065923998601
 21
0.0000000000000255
 31
0.0
 70
    32
  3
COTATION-JACOB-DELAFON
100
AcDbAlignedDimension
 13
160.0
 23
37.5
 33
0.0
 14
160.0
 24
-37.5
 34
0.0
 50
90.0
100
AcDbRotatedDimension
  0
ARC
  5
5F2
330
18
100
AcDbEntity
  8
0
100
AcDbCircle
 10
62.32806018229209
 20
527.505155602666
 30
0.0
 40
560.0322245325713
100
AcDbArc
 50
266.9841612675344
 51
276.1876017553309
  0
SPLINE
  5
5F3
330
18
100
AcDbEntity
  8
0
100
AcDbSpline
210
0.0
220
0.0
230
1.0
 70
     8
 71
     3
 72
    22
 73
    18
 74
     0
 42
0.0000000001
 43
0.0000000001
 40
0.9180135720971563
 40
0.9180135720971563
 40
0.9180135720971563
 40
0.9180135720971563
 40
4.068008128176244
 40
7.868137383628142
 40
9.622871437145965
 40
11.26652386594539
 40
12.92381766389692
 40
15.54443566820766
 40
20.63225580735259
 40
33.13375493889482
 40
40.69837496448685
 40
48.99569367446961
 40
55.26160136505608
 40
57.03000034124748
 40
59.17573465763744
 40
61.71191018261987
 40
68.94165298461827
 40
68.94165298461827
 40
68.94165298461827
 40
68.94165298461827
 10
127.694047378932
 20
0.0000000000000044
 30
0.0
 10
127.7002752602082
 20
-2.269460408541839
 30
0.0
 10
127.8026607067731
 20
-7.284064139507131
 30
0.0
 10
127.5087087986143
 20
-13.6907488191899
 30
0.0
 10
125.4329381549001
 20
-18.51523831857277
 30
0.0
 10
122.8596040996078
 20
-21.34676273365419
 30
0.0
 10
118.4825010324488
 20
-22.28001562782135
 30
0.0
 10
111.7737314400393
 20
-21.22487409725218
 30
0.0
 10
97.11227889543449
 20
-22.05268974633651
 30
0.0
 10
78.94700222817597
 20
-21.21441602842028
 30
0.0
 10
58.43894386338352
 20
-22.41703578218106
 30
0.0
 10
42.48686936660921
 20
-22.64180833407647
 30
0.0
 10
30.64003427434593
 20
-24.71521244137874
 30
0.0
 10
23.38749880144797
 20
-23.66055675027464
 30
0.0
 10
18.79497866004402
 20
-21.6191901782746
 30
0.0
 10
16.17774626334306
 20
-12.78578044296155
 30
0.0
 10
16.11603311191683
 20
-5.81963971927632
 30
0.0
 10
16.29800104783234
 20
-0.6172912873654424
 30
0.0
  0
SPLINE
  5
5F4
330
18
100
AcDbEntity
  8
0
100
AcDbSpline
210
0.0
220
0.0
230
1.0
 70
     8
 71
     3
 72
    22
 73
    18
 74
     0
 42
0.0000000001
 43
0.0000000001
 40
24.00826839880123
 40
24.00826839880123
 40
24.00826839880123
 40
24.00826839880123
 40
25.13586300713596
 40
33.85904679981379
 40
41.73221266323796
 40
47.38505869038623
 40
49.72467587866559
 40
50.13787950460632
 40
51.39276420650993
 40
54.06821274700322
 40
61.6062008059239
 40
71.66271166103084
 40
83.88124333259153
 40
93.76614969516273
 40
95.80127775082083
 40
96.84825404539921
 40
98.93463118366145
 40
98.93463118366145
 40
98.93463118366145
 40
98.93463118366145
 10
78.74911454590386
 20
-30.45147619661618
 30
0.0
 10
77.93722468982069
 20
-30.45343048825484
 30
0.0
 10
70.86406388161629
 20
-30.47037103379182
 30
0.0
 10
58.55475518876987
 20
-30.74969590628144
 30
0.0
 10
40.36212407568179
 20
-31.1537560349307
 30
0.0
 10
33.52846660841899
 20
-30.27141774687671
 30
0.0
 10
21.41871288425523
 20
-30.56413391790391
 30
0.0
 10
24.47804219910264
 20
-29.08714795516262
 30
0.0
 10
27.44375986360543
 20
-28.76250439711542
 30
0.0
 10
35.87691049292242
 20
-28.35024804751835
 30
0.0
 10
50.33177010010177
 20
-26.67614447548308
 30
0.0
 10
71.90542944790543
 20
-25.23114805952288
 30
0.0
 10
95.09452093703485
 20
-24.26392077550843
 30
0.0
 10
112.6493238481735
 20
-24.54137613686585
 30
0.0
 10
121.9294843679994
 20
-24.44191883318938
 30
0.0
 10
125.7879758005831
 20
-24.55677499414909
 30
0.0
 10
127.5108990997268
 20
-22.58978331000204
 30
0.0
 10
128.985260595408
 20
-22.26965135584872
 30
0.0
  0
SPLINE
  5
5F7
330
18
100
AcDbEntity
  8
0
100
AcDbSpline
210
0.0
220
0.0
230
1.0
 70
     8
 71
     3
 72
    12
 73
     8
 74
     0
 42
0.0000000001
 43
0.0000000001
 40
0.0
 40
0.0
 40
0.0
 40
0.0
 40
1.954416822632142
 40
3.385827505666141
 40
9.101404218478508
 40
18.01143672977906
 40
20.07750498207575
 40
20.07750498207575
 40
20.07750498207575
 40
20.07750498207575
 10
128.985260595408
 20
-22.26965135584872
 30
0.0
 10
128.6487046449398
 20
-23.64228610357821
 30
0.0
 10
126.5077827219363
 20
-25.42691102009898
 30
0.0
 10
120.5106811068533
 20
-27.93995903567784
 30
0.0
 10
108.5449313669309
 20
-28.02362768116049
 30
0.0
 10
96.73822401023057
 20
-29.95852761566856
 30
0.0
 10
88.78644056017911
 20
-30.30861571148154
 30
0.0
 10
87.2878785797201
 20
-30.35307728274161
 30
0.0
  0
SPLINE
  5
5F8
330
18
100
AcDbEntity
  8
0
100
AcDbSpline
210
0.0
220
0.0
230
1.0
 70
     8
 71
     3
 72
    16
 73
    12
 74
     0
 42
0.0000000001
 43
0.0000000001
 40
0.2362820156256843
 40
0.2362820156256843
 40
0.2362820156256843
 40
0.2362820156256843
 40
1.224358563157152
 40
2.502024758892879
 40
2.844114196038004
 40
3.409856319926415
 40
6.067963796682374
 40
6.245182922569176
 40
6.581184763110368
 40
7.265916946465317
 40
8.997645406193104
 40
8.997645406193104
 40
8.997645406193104
 40
8.997645406193104
 10
87.66619783119383
 20
-32.10073490891243
 30
0.0
 10
87.5007282148624
 20
-30.8190633598466
 30
0.0
 10
87.15880057043982
 20
-29.21914565528891
 30
0.0
 10
86.6296142689011
 20
-27.39021901390737
 30
0.0
 10
85.67087291659683
 20
-26.07028619192043
 30
0.0
 10
83.02950055819529
 20
-25.41761503658621
 30
0.0
 10
80.6521183427718
 20
-25.52063922079423
 30
0.0
 10
78.30692023401741
 20
-25.90427598415426
 30
0.0
 10
77.84725280690155
 20
-26.78790012694806
 30
0.0
 10
78.29382187341181
 20
-28.77842166296455
 30
0.0
 10
78.91828028977785
 20
-30.39913098564504
 30
0.0
 10
79.27684466317941
 20
-32.30792132649756
 30
0.0
  0
SPLINE
  5
5F9
330
18
100
AcDbEntity
  8
0
100
AcDbSpline
210
0.0
220
0.0
230
1.0
 70
     8
 71
     3
 72
     8
 73
     4
 74
     0
 42
0.0000000001
 43
0.0000000001
 40
90.81929636751571
 40
90.81929636751571
 40
90.81929636751571
 40
90.81929636751571
 40
91.13295609767906
 40
91.13295609767906
 40
91.13295609767906
 40
91.13295609767906
 10
11.0000000000023
 20
0.0000000000002567
 30
0.0
 10
11.00132816121512
 20
-0.225344813583682
 30
0.0
 10
11.00323254829706
 20
-0.450718424669562
 30
0.0
 10
11.00573518619091
 20
-0.6761331772404784
 30
0.0
  0
SPLINE
  5
5FA
330
18
100
AcDbEntity
  8
0
100
AcDbSpline
210
0.0
220
0.0
230
1.0
 70
     8
 71
     3
 72
     8
 73
     4
 74
     0
 42
0.0000000001
 43
0.0000000001
 40
68.65532664989856
 40
68.65532664989856
 40
68.65532664989856
 40
68.65532664989856
 40
68.94165298461827
 40
68.94165298461827
 40
68.94165298461827
 40
68.94165298461827
 10
16.26377568855178
 20
0.0000000000000044
 30
0.0
 10
16.27478789960926
 20
-0.2057096626866555
 30
0.0
 10
16.28621519330977
 20
-0.411468934867175
 30
0.0
 10
16.2980010478322
 20
-0.6172912873652905
 30
0.0
  0
SPLINE
  5
5FB
330
18
100
AcDbEntity
  8
0
100
AcDbSpline
210
0.0
220
0.0
230
1.0
 70
     8
 71
     3
 72
    13
 73
     9
 74
     0
 42
0.0000000001
 43
0.0000000001
 40
68.60413438747094
 40
68.60413438747094
 40
68.60413438747094
 40
68.60413438747094
 40
74.76344115554443
 40
76.38862343713083
 40
78.13814562477027
 40
79.50835389150523
 40
83.21023870799784
 40
91.13295609767906
 40
91.13295609767906
 40
91.13295609767906
 40
91.13295609767906
 10
32.86363726850123
 20
-31.75144051154852
 30
0.0
 10
27.74690122628507
 20
-31.5857076982344
 30
0.0
 10
21.64448205356674
 20
-31.32429763870774
 30
0.0
 10
17.71345922886664
 20
-31.16762914720772
 30
0.0
 10
15.21127101997771
 20
-28.51380395557765
 30
0.0
 10
12.52371441553884
 20
-24.36897650121097
 30
0.0
 10
11.72119611308116
 20
-14.67305188496393
 30
0.0
 10
11.06913250756267
 20
-6.36987250396061
 30
0.0
 10
11.00573518619106
 20
-0.676133177240402
 30
0.0
  0
SPLINE
  5
5FC
330
18
100
AcDbEntity
  8
0
100
AcDbSpline
210
0.0
220
0.0
230
1.0
 70
     8
 71
     3
 72
    14
 73
    10
 74
     0
 42
0.0000000001
 43
0.0000000001
 40
2.104336148762017
 40
2.104336148762017
 40
2.104336148762017
 40
2.104336148762017
 40
4.79357964866207
 40
11.36757747202056
 40
13.96549176484355
 40
15.82622375223103
 40
19.03743788295755
 40
23.56479417446801
 40
24.11081704926598
 40
24.11081704926598
 40
24.11081704926598
 40
24.11081704926598
 10
148.1811283606973
 20
0.0000000000000053
 30
0.0
 10
148.0974996424332
 20
-1.941432821151388
 30
0.0
 10
147.4468879597833
 20
-8.647135885988593
 30
0.0
 10
147.6263750425126
 20
-17.37922211973094
 30
0.0
 10
144.3351970091937
 20
-24.82759161083776
 30
0.0
 10
139.87594456704
 20
-28.65289773708877
 30
0.0
 10
132.49645769338
 20
-27.79853431828371
 30
0.0
 10
126.6695684370374
 20
-28.87918381236119
 30
0.0
 10
123.0385524870666
 20
-29.23269310253586
 30
0.0
 10
122.6471289331604
 20
-29.26848959754367
 30
0.0
  0
LINE
  5
61D
330
18
100
AcDbEntity
  8
0
100
AcDbLine
 10
160.0
 20
37.5
 30
0.0
 11
0.0
 21
37.5
 31
0.0
  0
SPLINE
  5
683
330
18
100
AcDbEntity
  8
0
100
AcDbSpline
210
0.0
220
0.0
230
1.0
 70
     8
 71
     3
 72
    22
 73
    18
 74
     0
 42
0.0000000001
 43
0.0000000001
 40
0.9180135720971563
 40
0.9180135720971563
 40
0.9180135720971563
 40
0.9180135720971563
 40
4.068008128176244
 40
7.868137383628142
 40
9.622871437145965
 40
11.26652386594539
 40
12.92381766389692
 40
15.54443566820766
 40
20.63225580735259
 40
33.13375493889482
 40
40.69837496448685
 40
48.99569367446961
 40
55.26160136505608
 40
57.03000034124748
 40
59.17573465763744
 40
61.71191018261987
 40
68.94165298461827
 40
68.94165298461827
 40
68.94165298461827
 40
68.94165298461827
 10
127.694047378932
 20
0.0000000000000027
 30
0.0
 10
127.7002752602082
 20
2.269460408541846
 30
0.0
 10
127.8026607067731
 20
7.284064139507137
 30
0.0
 10
127.5087087986143
 20
13.69074881918991
 30
0.0
 10
125.4329381549001
 20
18.51523831857277
 30
0.0
 10
122.8596040996078
 20
21.3467627336542
 30
0.0
 10
118.4825010324488
 20
22.28001562782135
 30
0.0
 10
111.7737314400393
 20
21.22487409725218
 30
0.0
 10
97.11227889543449
 20
22.05268974633652
 30
0.0
 10
78.94700222817597
 20
21.21441602842029
 30
0.0
 10
58.43894386338352
 20
22.41703578218106
 30
0.0
 10
42.48686936660921
 20
22.64180833407647
 30
0.0
 10
30.64003427434593
 20
24.71521244137875
 30
0.0
 10
23.38749880144797
 20
23.66055675027465
 30
0.0
 10
18.79497866004402
 20
21.61919017827461
 30
0.0
 10
16.17774626334306
 20
12.78578044296156
 30
0.0
 10
16.11603311191683
 20
5.819639719276327
 30
0.0
 10
16.26377568855178
 20
0.0000000000000044
 30
0.0
  0
SPLINE
  5
684
330
18
100
AcDbEntity
  8
0
100
AcDbSpline
210
0.0
220
0.0
230
1.0
 70
     8
 71
     3
 72
    12
 73
     8
 74
     0
 42
0.0000000001
 43
0.0000000001
 40
0.0
 40
0.0
 40
0.0
 40
0.0
 40
1.954416822632142
 40
3.385827505666141
 40
9.101404218478508
 40
18.01143672977906
 40
20.07750498207575
 40
20.07750498207575
 40
20.07750498207575
 40
20.07750498207575
 10
128.985260595408
 20
22.26965135584873
 30
0.0
 10
128.6487046449398
 20
23.64228610357821
 30
0.0
 10
126.5077827219363
 20
25.42691102009898
 30
0.0
 10
120.5106811068533
 20
27.93995903567784
 30
0.0
 10
108.5449313669309
 20
28.0236276811605
 30
0.0
 10
96.73822401023057
 20
29.95852761566856
 30
0.0
 10
88.78644056017911
 20
30.30861571148155
 30
0.0
 10
87.2878785797201
 20
30.35307728274162
 30
0.0
  0
SPLINE
  5
685
330
18
100
AcDbEntity
  8
0
100
AcDbSpline
210
0.0
220
0.0
230
1.0
 70
     8
 71
     3
 72
    22
 73
    18
 74
     0
 42
0.0000000001
 43
0.0000000001
 40
24.00826839880123
 40
24.00826839880123
 40
24.00826839880123
 40
24.00826839880123
 40
25.13586300713596
 40
33.85904679981379
 40
41.73221266323796
 40
47.38505869038623
 40
49.72467587866559
 40
50.13787950460632
 40
51.39276420650993
 40
54.06821274700322
 40
61.6062008059239
 40
71.66271166103084
 40
83.88124333259153
 40
93.76614969516273
 40
95.80127775082083
 40
96.84825404539921
 40
98.93463118366145
 40
98.93463118366145
 40
98.93463118366145
 40
98.93463118366145
 10
78.74911454590386
 20
30.45147619661618
 30
0.0
 10
77.93722468982069
 20
30.45343048825485
 30
0.0
 10
70.86406388161629
 20
30.47037103379183
 30
0.0
 10
58.55475518876987
 20
30.74969590628144
 30
0.0
 10
40.36212407568179
 20
31.15375603493071
 30
0.0
 10
33.52846660841899
 20
30.27141774687672
 30
0.0
 10
21.41871288425523
 20
30.56413391790392
 30
0.0
 10
24.47804219910264
 20
29.08714795516264
 30
0.0
 10
27.44375986360543
 20
28.76250439711543
 30
0.0
 10
35.87691049292242
 20
28.35024804751835
 30
0.0
 10
50.33177010010177
 20
26.67614447548309
 30
0.0
 10
71.90542944790543
 20
25.23114805952288
 30
0.0
 10
95.09452093703485
 20
24.26392077550844
 30
0.0
 10
112.6493238481735
 20
24.54137613686586
 30
0.0
 10
121.9294843679994
 20
24.44191883318939
 30
0.0
 10
125.7879758005831
 20
24.5567749941491
 30
0.0
 10
127.5108990997268
 20
22.58978331000204
 30
0.0
 10
128.985260595408
 20
22.26965135584873
 30
0.0
  0
SPLINE
  5
686
330
18
100
AcDbEntity
  8
0
100
AcDbSpline
210
0.0
220
0.0
230
1.0
 70
     8
 71
     3
 72
    14
 73
    10
 74
     0
 42
0.0000000001
 43
0.0000000001
 40
2.104336148762017
 40
2.104336148762017
 40
2.104336148762017
 40
2.104336148762017
 40
4.79357964866207
 40
11.36757747202056
 40
13.96549176484355
 40
15.82622375223103
 40
19.03743788295755
 40
23.56479417446801
 40
24.11081704926598
 40
24.11081704926598
 40
24.11081704926598
 40
24.11081704926598
 10
148.1811283606973
 20
0.0000000000000018
 30
0.0
 10
148.0974996424332
 20
1.941432821151395
 30
0.0
 10
147.4468879597833
 20
8.6471358859886
 30
0.0
 10
147.6263750425126
 20
17.37922211973095
 30
0.0
 10
144.3351970091937
 20
24.82759161083777
 30
0.0
 10
139.87594456704
 20
28.65289773708877
 30
0.0
 10
132.49645769338
 20
27.79853431828371
 30
0.0
 10
126.6695684370374
 20
28.87918381236119
 30
0.0
 10
123.0385524870666
 20
29.23269310253586
 30
0.0
 10
122.6471289331604
 20
29.26848959754368
 30
0.0
  0
SPLINE
  5
687
330
18
100
AcDbEntity
  8
0
100
AcDbSpline
210
0.0
220
0.0
230
1.0
 70
     8
 71
     3
 72
    13
 73
     9
 74
     0
 42
0.0000000001
 43
0.0000000001
 40
68.60413438747094
 40
68.60413438747094
 40
68.60413438747094
 40
68.60413438747094
 40
74.76344115554443
 40
76.38862343713083
 40
78.13814562477027
 40
79.50835389150523
 40
83.21023870799784
 40
91.13295609767906
 40
91.13295609767906
 40
91.13295609767906
 40
91.13295609767906
 10
32.86363726850123
 20
31.75144051154852
 30
0.0
 10
27.74690122628507
 20
31.5857076982344
 30
0.0
 10
21.64448205356674
 20
31.32429763870775
 30
0.0
 10
17.71345922886664
 20
31.16762914720773
 30
0.0
 10
15.21127101997771
 20
28.51380395557766
 30
0.0
 10
12.52371441553884
 20
24.36897650121098
 30
0.0
 10
11.72119611308116
 20
14.67305188496394
 30
0.0
 10
11.06913250756267
 20
6.369872503960618
 30
0.0
 10
11.00573518619106
 20
0.6761331772404091
 30
0.0
  0
SPLINE
  5
688
330
18
100
AcDbEntity
  8
0
100
AcDbSpline
210
0.0
220
0.0
230
1.0
 70
     8
 71
     3
 72
    16
 73
    12
 74
     0
 42
0.0000000001
 43
0.0000000001
 40
0.2362820156256843
 40
0.2362820156256843
 40
0.2362820156256843
 40
0.2362820156256843
 40
1.224358563157152
 40
2.502024758892879
 40
2.844114196038004
 40
3.409856319926415
 40
6.067963796682374
 40
6.245182922569176
 40
6.581184763110368
 40
7.265916946465317
 40
8.997645406193104
 40
8.997645406193104
 40
8.997645406193104
 40
8.997645406193104
 10
87.66619783119383
 20
32.10073490891243
 30
0.0
 10
87.5007282148624
 20
30.8190633598466
 30
0.0
 10
87.15880057043982
 20
29.21914565528892
 30
0.0
 10
86.6296142689011
 20
27.39021901390739
 30
0.0
 10
85.67087291659683
 20
26.07028619192044
 30
0.0
 10
83.02950055819529
 20
25.41761503658622
 30
0.0
 10
80.6521183427718
 20
25.52063922079424
 30
0.0
 10
78.30692023401741
 20
25.90427598415427
 30
0.0
 10
77.84725280690155
 20
26.78790012694807
 30
0.0
 10
78.29382187341181
 20
28.77842166296455
 30
0.0
 10
78.91828028977785
 20
30.39913098564504
 30
0.0
 10
79.27684466317941
 20
32.30792132649756
 30
0.0
  0
SPLINE
  5
689
330
18
100
AcDbEntity
  8
0
100
AcDbSpline
210
0.0
220
0.0
230
1.0
 70
     8
 71
     3
 72
     8
 73
     4
 74
     0
 42
0.0000000001
 43
0.0000000001
 40
90.81929636751571
 40
90.81929636751571
 40
90.81929636751571
 40
90.81929636751571
 40
91.13295609767906
 40
91.13295609767906
 40
91.13295609767906
 40
91.13295609767906
 10
11.0000000000023
 20
-0.0000000000002496
 30
0.0
 10
11.00132816121512
 20
0.2253448135836891
 30
0.0
 10
11.00323254829706
 20
0.4507184246695691
 30
0.0
 10
11.00573518619091
 20
0.6761331772404855
 30
0.0
  0
ARC
  5
68A
330
18
100
AcDbEntity
  8
0
100
AcDbCircle
 10
62.32806018229209
 20
-527.5051556026659
 30
0.0
 40
560.0322245325713
100
AcDbArc
 50
83.81239824466907
 51
93.01583873246555
  0
ENDSEC
  0
SECTION
  2
OBJECTS
  0
DICTIONARY
  5
C
330
0
100
AcDbDictionary
  3
ACAD_GROUP
350
D
  3
ACAD_IMAGE_DICT
350
48
  3
ACAD_IMAGE_VARS
350
47
  3
ACAD_LAYOUT
350
488
  3
ACAD_MLINESTYLE
350
1B
  3
ACAD_PLOTSETTINGS
350
489
  3
ACAD_PLOTSTYLENAME
350
486
  3
ACDBHEADERROUNDTRIPXREC
350
70E
  3
ACDBVARIABLEDICTIONARY
350
48F
  0
DICTIONARY
  5
731
330
18
100
AcDbDictionary
280
     1
  3
ACAD_LAYOUTSELFREF
360
732
  0
DICTIONARY
  5
72F
330
15
100
AcDbDictionary
280
     1
  3
ACAD_LAYOUTSELFREF
360
730
  0
DICTIONARY
  5
D
102
{ACAD_REACTORS
330
C
102
}
330
C
100
AcDbDictionary
  0
DICTIONARY
  5
48
102
{ACAD_REACTORS
330
C
102
}
330
C
100
AcDbDictionary
  0
RASTERVARIABLES
  5
47
102
{ACAD_REACTORS
330
C
102
}
330
C
100
AcDbRasterVariables
 90
        0
 70
     1
 71
     1
 72
     0
  0
DICTIONARY
  5
488
102
{ACAD_REACTORS
330
C
102
}
330
C
100
AcDbDictionary
  0
DICTIONARY
  5
1B
102
{ACAD_REACTORS
330
C
102
}
330
C
100
AcDbDictionary
  3
STANDARD
350
1C
  0
DICTIONARY
  5
489
102
{ACAD_REACTORS
330
C
102
}
330
C
100
AcDbDictionary
  0
ACDBDICTIONARYWDFLT
  5
486
102
{ACAD_REACTORS
330
C
102
}
330
C
100
AcDbDictionary
281
     1
  3
Normal
350
487
100
AcDbDictionaryWithDefault
340
487
  0
DICTIONARY
  5
70E
102
{ACAD_REACTORS
330
C
102
}
330
C
100
AcDbDictionary
  3
CEPSNTYPE
350
718
  3
DIMSTYLEDATA
350
71C
  3
FINGERPRINTGUID
350
719
  3
HYPERLINKBASE
350
711
  3
INSUNITS
350
717
  3
LAYOUTDICT
350
713
  3
LWETCUNION
350
716
  3
PLOTSETDICT
350
714
  3
PLOTSTYLNAMDICT
350
715
  3
PSVPSCALE
350
71B
  3
PUCSBASE
350
71F
  3
PUCSORGBACK
350
725
  3
PUCSORGBOTTOM
350
721
  3
PUCSORGFRONT
350
724
  3
PUCSORGLEFT
350
722
  3
PUCSORGRIGHT
350
723
  3
PUCSORGTOP
350
720
  3
PUCSORTHOREF
350
71D
  3
PUCSORTHOVIEW
350
71E
  3
STYLESHEET
350
712
  3
TSTACKALIGN
350
70F
  3
TSTACKSIZE
350
710
  3
UCSBASE
350
728
  3
UCSORGBACK
350
72E
  3
UCSORGBOTTOM
350
72A
  3
UCSORGFRONT
350
72D
  3
UCSORGLEFT
350
72B
  3
UCSORGRIGHT
350
72C
  3
UCSORGTOP
350
729
  3
UCSORTHOREF
350
726
  3
UCSORTHOVIEW
350
727
  3
VERSIONGUID
350
71A
  0
DICTIONARY
  5
48F
102
{ACAD_REACTORS
330
C
102
}
330
C
100
AcDbDictionary
  3
DIMASSOC
350
490
  0
XRECORD
  5
732
102
{ACAD_REACTORS
330
731
102
}
330
731
100
AcDbXrecord
340
18
  0
XRECORD
  5
730
102
{ACAD_REACTORS
330
72F
102
}
330
72F
100
AcDbXrecord
340
15
  0
MLINESTYLE
  5
1C
102
{ACAD_REACTORS
330
1B
102
}
330
1B
100
AcDbMlineStyle
  2
STANDARD
 70
     0
  3

 62
   256
 51
90.0
 52
90.0
 71
     2
 49
0.5
 62
   256
  6
BYLAYER
 49
-0.5
 62
   256
  6
BYLAYER
  0
ACDBPLACEHOLDER
  5
487
102
{ACAD_REACTORS
330
486
102
}
330
486
100
AcDbPlaceHolder
280
     0
  0
XRECORD
  5
718
102
{ACAD_REACTORS
330
70E
102
}
330
70E
100
AcDbXrecord
 90
        0
  0
XRECORD
  5
71C
102
{ACAD_REACTORS
330
70E
102
}
330
70E
100
AcDbXrecord
1000
DSTYLE
1002
{
1070
    79
 70
     3
1070
   279
 70
     2
1070
   342
340
491
1002
}
  0
XRECORD
  5
719
102
{ACAD_REACTORS
330
70E
102
}
330
70E
100
AcDbXrecord
  1
{8C0D10A8-382B-40E5-800D-97D890504C19}
  0
XRECORD
  5
711
102
{ACAD_REACTORS
330
70E
102
}
330
70E
100
AcDbXrecord
  1

  0
XRECORD
  5
717
102
{ACAD_REACTORS
330
70E
102
}
330
70E
100
AcDbXrecord
 90
        0
  0
XRECORD
  5
713
102
{ACAD_REACTORS
330
70E
102
}
330
70E
100
AcDbXrecord
340
488
  0
XRECORD
  5
716
102
{ACAD_REACTORS
330
70E
102
}
330
70E
100
AcDbXrecord
 90
    14877
  0
XRECORD
  5
714
102
{ACAD_REACTORS
330
70E
102
}
330
70E
100
AcDbXrecord
340
489
  0
XRECORD
  5
715
102
{ACAD_REACTORS
330
70E
102
}
330
70E
100
AcDbXrecord
340
486
  0
XRECORD
  5
71B
102
{ACAD_REACTORS
330
70E
102
}
330
70E
100
AcDbXrecord
 40
0.0
  0
XRECORD
  5
71F
102
{ACAD_REACTORS
330
70E
102
}
330
70E
100
AcDbXrecord
340
0
  0
XRECORD
  5
725
102
{ACAD_REACTORS
330
70E
102
}
330
70E
100
AcDbXrecord
 10
0.0
 20
0.0
 30
0.0
  0
XRECORD
  5
721
102
{ACAD_REACTORS
330
70E
102
}
330
70E
100
AcDbXrecord
 10
0.0
 20
0.0
 30
0.0
  0
XRECORD
  5
724
102
{ACAD_REACTORS
330
70E
102
}
330
70E
100
AcDbXrecord
 10
0.0
 20
0.0
 30
0.0
  0
XRECORD
  5
722
102
{ACAD_REACTORS
330
70E
102
}
330
70E
100
AcDbXrecord
 10
0.0
 20
0.0
 30
0.0
  0
XRECORD
  5
723
102
{ACAD_REACTORS
330
70E
102
}
330
70E
100
AcDbXrecord
 10
0.0
 20
0.0
 30
0.0
  0
XRECORD
  5
720
102
{ACAD_REACTORS
330
70E
102
}
330
70E
100
AcDbXrecord
 10
0.0
 20
0.0
 30
0.0
  0
XRECORD
  5
71D
102
{ACAD_REACTORS
330
70E
102
}
330
70E
100
AcDbXrecord
340
0
  0
XRECORD
  5
71E
102
{ACAD_REACTORS
330
70E
102
}
330
70E
100
AcDbXrecord
 70
     0
  0
XRECORD
  5
712
102
{ACAD_REACTORS
330
70E
102
}
330
70E
100
AcDbXrecord
  1

  0
XRECORD
  5
70F
102
{ACAD_REACTORS
330
70E
102
}
330
70E
100
AcDbXrecord
 90
        1
  0
XRECORD
  5
710
102
{ACAD_REACTORS
330
70E
102
}
330
70E
100
AcDbXrecord
 90
       70
  0
XRECORD
  5
728
102
{ACAD_REACTORS
330
70E
102
}
330
70E
100
AcDbXrecord
340
0
  0
XRECORD
  5
72E
102
{ACAD_REACTORS
330
70E
102
}
330
70E
100
AcDbXrecord
 10
0.0
 20
0.0
 30
0.0
  0
XRECORD
  5
72A
102
{ACAD_REACTORS
330
70E
102
}
330
70E
100
AcDbXrecord
 10
0.0
 20
0.0
 30
0.0
  0
XRECORD
  5
72D
102
{ACAD_REACTORS
330
70E
102
}
330
70E
100
AcDbXrecord
 10
0.0
 20
0.0
 30
0.0
  0
XRECORD
  5
72B
102
{ACAD_REACTORS
330
70E
102
}
330
70E
100
AcDbXrecord
 10
0.0
 20
0.0
 30
0.0
  0
XRECORD
  5
72C
102
{ACAD_REACTORS
330
70E
102
}
330
70E
100
AcDbXrecord
 10
0.0
 20
0.0
 30
0.0
  0
XRECORD
  5
729
102
{ACAD_REACTORS
330
70E
102
}
330
70E
100
AcDbXrecord
 10
0.0
 20
0.0
 30
0.0
  0
XRECORD
  5
726
102
{ACAD_REACTORS
330
70E
102
}
330
70E
100
AcDbXrecord
340
0
  0
XRECORD
  5
727
102
{ACAD_REACTORS
330
70E
102
}
330
70E
100
AcDbXrecord
 70
     0
  0
XRECORD
  5
71A
102
{ACAD_REACTORS
330
70E
102
}
330
70E
100
AcDbXrecord
  1
{86BC3233-7CF5-4D66-B92C-1AEDEBCDF840}
  0
DICTIONARYVAR
  5
490
102
{ACAD_REACTORS
330
48F
102
}
330
48F
100
DictionaryVariables
280
     0
  1
1
  0
ENDSEC
  0
EOF
