  0
SECTION
  2
HEADER
  9
$ACADVER
  1
AC1014
  9
$ACADMAINTVER
 70
     9
  9
$DWGCODEPAGE
  3
ANSI_1252
  9
$INSBASE
 10
0.0
 20
0.0
 30
0.0
  9
$EXTMIN
 10
-0.9180217547211668
 20
-0.9272041543194973
 30
-0.000000000000013
  9
$EXTMAX
 10
170.049016393047
 20
72.81242695566607
 30
0.0000000000000023
  9
$LIMMIN
 10
0.0
 20
0.0
  9
$LIMMAX
 10
420.0
 20
297.0
  9
$ORTHOMODE
 70
     1
  9
$REGENMODE
 70
     1
  9
$FILLMODE
 70
     1
  9
$QTEXTMODE
 70
     0
  9
$MIRRTEXT
 70
     1
  9
$DRAGMODE
 70
     2
  9
$LTSCALE
 40
1.0
  9
$OSMODE
 70
   167
  9
$ATTMODE
 70
     1
  9
$TEXTSIZE
 40
2.5
  9
$TRACEWID
 40
1.0
  9
$TEXTSTYLE
  7
STANDARD
  9
$CLAYER
  8
0
  9
$CELTYPE
  6
BYLAYER
  9
$CECOLOR
 62
   256
  9
$CELTSCALE
 40
1.0
  9
$DELOBJ
 70
     1
  9
$DISPSILH
 70
     0
  9
$DIMSCALE
 40
1.0
  9
$DIMASZ
 40
1.8
  9
$DIMEXO
 40
0.625
  9
$DIMDLI
 40
3.799999999999999
  9
$DIMRND
 40
0.0
  9
$DIMDLE
 40
0.0
  9
$DIMEXE
 40
1.8
  9
$DIMTP
 40
0.0
  9
$DIMTM
 40
0.0
  9
$DIMTXT
 40
3.0
  9
$DIMCEN
 40
0.9
  9
$DIMTSZ
 40
0.0
  9
$DIMTOL
 70
     0
  9
$DIMLIM
 70
     0
  9
$DIMTIH
 70
     0
  9
$DIMTOH
 70
     0
  9
$DIMSE1
 70
     0
  9
$DIMSE2
 70
     0
  9
$DIMTAD
 70
     1
  9
$DIMZIN
 70
    12
  9
$DIMBLK
  1
OBLIQUE
  9
$DIMASO
 70
     1
  9
$DIMSHO
 70
     1
  9
$DIMPOST
  1

  9
$DIMAPOST
  1

  9
$DIMALT
 70
     0
  9
$DIMALTD
 70
     2
  9
$DIMALTF
 40
25.4
  9
$DIMLFAC
 40
1.0
  9
$DIMTOFL
 70
     0
  9
$DIMTVP
 40
0.0
  9
$DIMTIX
 70
     0
  9
$DIMSOXD
 70
     0
  9
$DIMSAH
 70
     0
  9
$DIMBLK1
  1

  9
$DIMBLK2
  1

  9
$DIMSTYLE
  2
COTATION-JACOB-DELAFON
  9
$DIMCLRD
 70
     0
  9
$DIMCLRE
 70
     0
  9
$DIMCLRT
 70
     0
  9
$DIMTFAC
 40
1.0
  9
$DIMGAP
 40
0.9
  9
$DIMJUST
 70
     0
  9
$DIMSD1
 70
     0
  9
$DIMSD2
 70
     0
  9
$DIMTOLJ
 70
     1
  9
$DIMTZIN
 70
     0
  9
$DIMALTZ
 70
     0
  9
$DIMALTTZ
 70
     0
  9
$DIMFIT
 70
     5
  9
$DIMUPT
 70
     0
  9
$DIMUNIT
 70
     2
  9
$DIMDEC
 70
     2
  9
$DIMTDEC
 70
     2
  9
$DIMALTU
 70
     2
  9
$DIMALTTD
 70
     2
  9
$DIMTXSTY
  7
JACOB-DELAFON
  9
$DIMAUNIT
 70
     0
  9
$LUNITS
 70
     2
  9
$LUPREC
 70
     4
  9
$SKETCHINC
 40
1.0
  9
$FILLETRAD
 40
0.0
  9
$AUNITS
 70
     0
  9
$AUPREC
 70
     0
  9
$MENU
  1
.
  9
$ELEVATION
 40
0.0
  9
$PELEVATION
 40
0.0
  9
$THICKNESS
 40
0.0
  9
$LIMCHECK
 70
     0
  9
$BLIPMODE
 70
     0
  9
$CHAMFERA
 40
10.0
  9
$CHAMFERB
 40
10.0
  9
$CHAMFERC
 40
20.0
  9
$CHAMFERD
 40
0.0
  9
$SKPOLY
 70
     0
  9
$TDCREATE
 40
2451204.814370833
  9
$TDUPDATE
 40
2452285.707326516
  9
$TDINDWG
 40
0.2175389583
  9
$TDUSRTIMER
 40
0.2175389583
  9
$USRTIMER
 70
     1
  9
$ANGBASE
 50
0.0
  9
$ANGDIR
 70
     0
  9
$PDMODE
 70
     0
  9
$PDSIZE
 40
0.0
  9
$PLINEWID
 40
0.0
  9
$COORDS
 70
     0
  9
$SPLFRAME
 70
     0
  9
$SPLINETYPE
 70
     6
  9
$SPLINESEGS
 70
     8
  9
$ATTDIA
 70
     0
  9
$ATTREQ
 70
     1
  9
$HANDLING
 70
 22529
  9
$HANDSEED
  5
897
  9
$SURFTAB1
 70
     6
  9
$SURFTAB2
 70
     6
  9
$SURFTYPE
 70
     6
  9
$SURFU
 70
     6
  9
$SURFV
 70
     6
  9
$UCSNAME
  2

  9
$UCSORG
 10
0.0
 20
0.0
 30
0.0
  9
$UCSXDIR
 10
1.0
 20
0.0
 30
0.0
  9
$UCSYDIR
 10
0.0
 20
1.0
 30
0.0
  9
$PUCSNAME
  2

  9
$PUCSORG
 10
0.0
 20
0.0
 30
0.0
  9
$PUCSXDIR
 10
1.0
 20
0.0
 30
0.0
  9
$PUCSYDIR
 10
0.0
 20
1.0
 30
0.0
  9
$USERI1
 70
     0
  9
$USERI2
 70
     0
  9
$USERI3
 70
     0
  9
$USERI4
 70
     0
  9
$USERI5
 70
     0
  9
$USERR1
 40
0.0
  9
$USERR2
 40
0.0
  9
$USERR3
 40
0.0
  9
$USERR4
 40
0.0
  9
$USERR5
 40
0.0
  9
$WORLDVIEW
 70
     1
  9
$SHADEDGE
 70
     3
  9
$SHADEDIF
 70
    70
  9
$TILEMODE
 70
     1
  9
$MAXACTVP
 70
    48
  9
$PINSBASE
 10
0.0
 20
0.0
 30
0.0
  9
$PLIMCHECK
 70
     0
  9
$PEXTMIN
 10
1.000000000000000E+20
 20
1.000000000000000E+20
 30
1.000000000000000E+20
  9
$PEXTMAX
 10
-1.000000000000000E+20
 20
-1.000000000000000E+20
 30
-1.000000000000000E+20
  9
$PLIMMIN
 10
0.0
 20
0.0
  9
$PLIMMAX
 10
420.0
 20
297.0
  9
$UNITMODE
 70
     0
  9
$VISRETAIN
 70
     1
  9
$PLINEGEN
 70
     0
  9
$PSLTSCALE
 70
     1
  9
$TREEDEPTH
 70
  3020
  9
$PICKSTYLE
 70
     1
  9
$CMLSTYLE
  2
STANDARD
  9
$CMLJUST
 70
     0
  9
$CMLSCALE
 40
20.0
  9
$PROXYGRAPHICS
 70
     1
  9
$MEASUREMENT
 70
     1
  0
ENDSEC
  0
SECTION
  2
CLASSES
  0
CLASS
  1
LWPOLYLINE
  2
AcDbPolyline
  3
AutoCAD 2000
 90
        0
280
     0
281
     1
  0
CLASS
  1
RASTERVARIABLES
  2
AcDbRasterVariables
  3
ISM
 90
        0
280
     0
281
     0
  0
CLASS
  1
IMAGEDEF
  2
AcDbRasterImageDef
  3
ISM
 90
        0
280
     0
281
     0
  0
CLASS
  1
IMAGEDEF_REACTOR
  2
AcDbRasterImageDefReactor
  3
ISM
 90
        1
280
     0
281
     0
  0
CLASS
  1
IMAGE
  2
AcDbRasterImage
  3
ISM
 90
      127
280
     0
281
     1
  0
CLASS
  1
ACDBDICTIONARYWDFLT
  2
AcDbDictionaryWithDefault
  3
AutoCAD 2000
 90
        0
280
     0
281
     0
  0
CLASS
  1
ACDBPLACEHOLDER
  2
AcDbPlaceHolder
  3
AutoCAD 2000
 90
        0
280
     0
281
     0
  0
CLASS
  1
LAYOUT
  2
AcDbLayout
  3
AutoCAD 2000
 90
        0
280
     0
281
     0
  0
CLASS
  1
DICTIONARYVAR
  2
AcDbDictionaryVar
  3
AutoCAD 2000
 90
        0
280
     0
281
     0
  0
CLASS
  1
LONG_TRANSACTION
  2
AcDbLongTransaction
  3
AutoCAD 2000
 90
        0
280
     0
281
     0
  0
CLASS
  1
LWPOLYLINE
  2
AcDbPolyline
  3
AutoCAD 2000
 90
        0
280
     0
281
     1
  0
CLASS
  1
HATCH
  2
AcDbHatch
  3
AutoCAD 2000
 90
        0
280
     0
281
     1
  0
CLASS
  1
XRECORD
  2
AcDbXrecord
  3
AutoCAD 2000
 90
        0
280
     0
281
     0
  0
ENDSEC
  0
SECTION
  2
TABLES
  0
TABLE
  2
VPORT
  5
8
330
0
100
AcDbSymbolTable
 70
     3
  0
VPORT
  5
871
330
8
100
AcDbSymbolTableRecord
100
AcDbViewportTableRecord
  2
*ACTIVE
 70
     0
 10
0.0
 20
0.0
 11
1.0
 21
1.0
 12
84.56549731916295
 22
35.94261140067328
 13
0.0
 23
0.0
 14
10.0
 24
10.0
 15
10.0
 25
10.0
 16
0.0
 26
0.0
 36
1.0
 17
0.0
 27
0.0
 37
0.0
 40
290.5697068776962
 41
0.6004098360655738
 42
50.0
 43
0.0
 44
0.0
 50
0.0
 51
0.0
 71
     0
 72
   100
 73
     1
 74
     1
 75
     0
 76
     0
 77
     0
 78
     0
  0
ENDTAB
  0
TABLE
  2
LTYPE
  5
5
330
0
100
AcDbSymbolTable
 70
     1
  0
LTYPE
  5
12
330
5
100
AcDbSymbolTableRecord
100
AcDbLinetypeTableRecord
  2
BYBLOCK
 70
     0
  3

 72
    65
 73
     0
 40
0.0
  0
LTYPE
  5
13
330
5
100
AcDbSymbolTableRecord
100
AcDbLinetypeTableRecord
  2
BYLAYER
 70
     0
  3

 72
    65
 73
     0
 40
0.0
  0
LTYPE
  5
14
330
5
100
AcDbSymbolTableRecord
100
AcDbLinetypeTableRecord
  2
CONTINUOUS
 70
     0
  3
Solid line
 72
    65
 73
     0
 40
0.0
  0
ENDTAB
  0
TABLE
  2
LAYER
  5
2
330
0
100
AcDbSymbolTable
 70
     3
  0
LAYER
  5
E
330
2
100
AcDbSymbolTableRecord
100
AcDbLayerTableRecord
  2
0
 70
     0
 62
   255
  6
CONTINUOUS
  0
LAYER
  5
270
330
2
100
AcDbSymbolTableRecord
100
AcDbLayerTableRecord
  2
DEFPOINTS
 70
     0
 62
     7
  6
CONTINUOUS
  0
LAYER
  5
4AD
330
2
100
AcDbSymbolTableRecord
100
AcDbLayerTableRecord
  2
COTATION-JACOBDELAFON
 70
     0
 62
     8
  6
CONTINUOUS
  0
ENDTAB
  0
TABLE
  2
STYLE
  5
3
330
0
100
AcDbSymbolTable
 70
     2
  0
STYLE
  5
F
330
3
100
AcDbSymbolTableRecord
100
AcDbTextStyleTableRecord
  2
STANDARD
 70
     0
 40
0.0
 41
1.0
 50
0.0
 71
     0
 42
2.5
  3
txt
  4

  0
STYLE
  5
4AE
330
3
100
AcDbSymbolTableRecord
100
AcDbTextStyleTableRecord
  2
JACOB-DELAFON
 70
     0
 40
0.0
 41
1.0
 50
0.0
 71
     0
 42
2.5
  3
ARIAL.TTF
  4

1001
ACAD
1000
Arial
1071
       34
  0
ENDTAB
  0
TABLE
  2
VIEW
  5
6
330
0
100
AcDbSymbolTable
 70
     0
  0
ENDTAB
  0
TABLE
  2
UCS
  5
7
330
0
100
AcDbSymbolTable
 70
     0
  0
ENDTAB
  0
TABLE
  2
APPID
  5
9
330
0
100
AcDbSymbolTable
 70
     2
  0
APPID
  5
10
330
9
100
AcDbSymbolTableRecord
100
AcDbRegAppTableRecord
  2
ACAD
 70
     0
  0
APPID
  5
4B0
330
9
100
AcDbSymbolTableRecord
100
AcDbRegAppTableRecord
  2
PE_URL
 70
     0
  0
ENDTAB
  0
TABLE
  2
DIMSTYLE
  5
A
330
0
100
AcDbSymbolTable
 70
     2
  0
DIMSTYLE
105
1D
330
A
100
AcDbSymbolTableRecord
100
AcDbDimStyleTableRecord
  2
STANDARD
 70
     0
  3

  4

  5

  6

  7

 40
1.0
 41
0.18
 42
0.0625
 43
0.38
 44
0.18
 45
0.0
 46
0.0
 47
0.0
 48
0.0
140
0.18
141
0.09
142
0.0
143
25.4
144
1.0
145
0.0
146
1.0
147
0.09
 71
     0
 72
     0
 73
     1
 74
     1
 75
     0
 76
     0
 77
     0
 78
     0
170
     0
171
     2
172
     0
173
     0
174
     0
175
     0
176
     0
177
     0
178
     0
270
     2
271
     4
272
     4
273
     2
274
     2
340
F
275
     0
280
     0
281
     0
282
     0
283
     1
284
     0
285
     0
286
     0
287
     3
288
     0
  0
DIMSTYLE
105
4AF
102
{ACAD_REACTORS
330
642
330
648
102
}
330
A
100
AcDbSymbolTableRecord
100
AcDbDimStyleTableRecord
  2
COTATION-JACOB-DELAFON
 70
     0
  3

  4

  5
OBLIQUE
  6

  7

 40
1.0
 41
1.8
 42
0.625
 43
3.799999999999999
 44
1.8
 45
0.0
 46
0.0
 47
0.0
 48
0.0
140
3.0
141
0.9
142
0.0
143
25.4
144
1.0
145
0.0
146
1.0
147
0.9
 71
     0
 72
     0
 73
     0
 74
     0
 75
     0
 76
     0
 77
     1
 78
    12
170
     0
171
     2
172
     0
173
     0
174
     0
175
     0
176
     0
177
     0
178
     0
270
     2
271
     2
272
     2
273
     2
274
     2
340
4AE
275
     0
280
     0
281
     0
282
     0
283
     1
284
     0
285
     0
286
     0
287
     5
288
     0
  0
ENDTAB
  0
TABLE
  2
BLOCK_RECORD
  5
1
330
0
100
AcDbSymbolTable
 70
     3
  0
BLOCK_RECORD
  5
18
102
{ACAD_XDICTIONARY
360
895
102
}
330
1
100
AcDbSymbolTableRecord
100
AcDbBlockTableRecord
  2
*MODEL_SPACE
  0
BLOCK_RECORD
  5
15
102
{ACAD_XDICTIONARY
360
893
102
}
330
1
100
AcDbSymbolTableRecord
100
AcDbBlockTableRecord
  2
*PAPER_SPACE
  0
BLOCK_RECORD
  5
491
330
1
100
AcDbSymbolTableRecord
100
AcDbBlockTableRecord
  2
_OBLIQUE
  0
BLOCK_RECORD
  5
65F
330
1
100
AcDbSymbolTableRecord
100
AcDbBlockTableRecord
  2
*D1
  0
BLOCK_RECORD
  5
66B
330
1
100
AcDbSymbolTableRecord
100
AcDbBlockTableRecord
  2
*D2
  0
ENDTAB
  0
ENDSEC
  0
SECTION
  2
BLOCKS
  0
BLOCK
  5
19
330
18
100
AcDbEntity
  8
0
100
AcDbBlockBegin
  2
*MODEL_SPACE
 70
     0
 10
0.0
 20
0.0
 30
0.0
  3
*MODEL_SPACE
  1

  0
ENDBLK
  5
1A
330
18
100
AcDbEntity
  8
0
100
AcDbBlockEnd
  0
BLOCK
  5
16
330
15
100
AcDbEntity
 67
     1
  8
0
100
AcDbBlockBegin
  2
*PAPER_SPACE
 70
     0
 10
0.0
 20
0.0
 30
0.0
  3
*PAPER_SPACE
  1

  0
ENDBLK
  5
17
330
15
100
AcDbEntity
 67
     1
  8
0
100
AcDbBlockEnd
  0
BLOCK
  5
493
330
491
100
AcDbEntity
  8
0
100
AcDbBlockBegin
  2
_OBLIQUE
 70
     0
 10
0.0
 20
0.0
 30
0.0
  3
_OBLIQUE
  1

  0
LINE
  5
492
330
491
100
AcDbEntity
  8
0
  6
BYBLOCK
 62
     0
100
AcDbLine
 10
-0.5
 20
-0.5
 30
0.0
 11
0.5
 21
0.5
 31
0.0
  0
ENDBLK
  5
494
330
491
100
AcDbEntity
  8
0
100
AcDbBlockEnd
  0
BLOCK
  5
669
330
65F
100
AcDbEntity
  8
0
100
AcDbBlockBegin
  2
*D1
 70
     1
 10
0.0
 20
0.0
 30
0.0
  3
*D1
  1

  0
LINE
  5
80F
330
65F
100
AcDbEntity
  8
COTATION-JACOBDELAFON
 62
     0
100
AcDbLine
 10
160.0010812171525
 20
56.5951876027201
 30
0.0
 11
160.0010812171525
 21
69.84806057192155
 31
0.0
  0
LINE
  5
810
330
65F
100
AcDbEntity
  8
COTATION-JACOBDELAFON
 62
     0
100
AcDbLine
 10
0.0000000000000125
 20
58.59518760272011
 30
0.0
 11
0.0000000000000132
 21
69.84806057192155
 31
0.0
  0
LINE
  5
811
330
65F
100
AcDbEntity
  8
COTATION-JACOBDELAFON
 62
     0
100
AcDbLine
 10
160.0010812171525
 20
68.04806057192156
 30
0.0
 11
0.0000000000000131
 21
68.04806057192156
 31
0.0
  0
INSERT
  5
812
330
65F
100
AcDbEntity
  8
COTATION-JACOBDELAFON
 62
     0
100
AcDbBlockReference
  2
_OBLIQUE
 10
160.0010812171525
 20
68.04806057192156
 30
0.0
 41
1.8
 42
1.8
 43
1.8
  0
INSERT
  5
813
330
65F
100
AcDbEntity
  8
COTATION-JACOBDELAFON
 62
     0
100
AcDbBlockReference
  2
_OBLIQUE
 10
0.0000000000000131
 20
68.04806057192156
 30
0.0
 41
1.8
 42
1.8
 43
1.8
 50
180.0
  0
MTEXT
  5
814
330
65F
100
AcDbEntity
  8
COTATION-JACOBDELAFON
 62
     0
100
AcDbMText
 10
80.0005406085763
 20
70.47977953508663
 30
0.0
 40
3.0
 41
0.0
 71
     5
 72
     1
  1
\A1;160
  7
JACOB-DELAFON
1001
ACAD
1000
MTEXTBEGIN
1070
    73
1070
     1
1070
    44
1040
1.0
1070
    74
1070
     0
1000
MTEXTEND
  0
POINT
  5
815
330
65F
100
AcDbEntity
  8
DEFPOINTS
 62
     0
100
AcDbPoint
 10
160.0010812171525
 20
55.9701876027201
 30
0.0
  0
POINT
  5
816
330
65F
100
AcDbEntity
  8
DEFPOINTS
 62
     0
100
AcDbPoint
 10
0.0000000000000124
 20
57.97018760272011
 30
0.0
  0
POINT
  5
817
330
65F
100
AcDbEntity
  8
DEFPOINTS
 62
     0
100
AcDbPoint
 10
0.0000000000000131
 20
68.04806057192156
 30
0.0
  0
ENDBLK
  5
66A
330
65F
100
AcDbEntity
  8
0
100
AcDbBlockEnd
  0
BLOCK
  5
675
330
66B
100
AcDbEntity
  8
0
100
AcDbBlockBegin
  2
*D2
 70
     1
 10
0.0
 20
0.0
 30
0.0
  3
*D2
  1

  0
LINE
  5
82D
330
66B
100
AcDbEntity
  8
COTATION-JACOBDELAFON
 62
     0
100
AcDbLine
 10
160.6260812171526
 20
57.97018760272011
 30
0.0
 11
170.0370947426957
 21
57.97018760272011
 31
0.0
  0
LINE
  5
82E
330
66B
100
AcDbEntity
  8
COTATION-JACOBDELAFON
 62
     0
100
AcDbLine
 10
153.0895401372821
 20
-0.0270778340382025
 30
0.0
 11
170.0370947426957
 21
-0.0270778340382073
 31
0.0
  0
LINE
  5
82F
330
66B
100
AcDbEntity
  8
COTATION-JACOBDELAFON
 62
     0
100
AcDbLine
 10
168.2370947426957
 20
57.97018760272011
 30
0.0
 11
168.2370947426957
 21
-0.0270778340382068
 31
0.0
  0
INSERT
  5
830
330
66B
100
AcDbEntity
  8
COTATION-JACOBDELAFON
 62
     0
100
AcDbBlockReference
  2
_OBLIQUE
 10
168.2370947426957
 20
57.97018760272011
 30
0.0
 41
1.8
 42
1.8
 43
1.8
 50
90.0
  0
INSERT
  5
831
330
66B
100
AcDbEntity
  8
COTATION-JACOBDELAFON
 62
     0
100
AcDbBlockReference
  2
_OBLIQUE
 10
168.2370947426957
 20
-0.0270778340382068
 30
0.0
 41
1.8
 42
1.8
 43
1.8
 50
270.0
  0
MTEXT
  5
832
330
66B
100
AcDbEntity
  8
COTATION-JACOBDELAFON
 62
     0
100
AcDbMText
 10
165.8053757795306
 20
28.97155488434098
 30
0.0
 40
3.0
 41
0.0
 71
     5
 72
     1
  1
\A1;58
  7
JACOB-DELAFON
 11
0.0000000000000001
 21
1.0
 31
0.0
1001
ACAD
1000
MTEXTBEGIN
1070
    73
1070
     1
1070
    44
1040
1.0
1070
    74
1070
     0
1000
MTEXTEND
  0
POINT
  5
833
330
66B
100
AcDbEntity
  8
DEFPOINTS
 62
     0
100
AcDbPoint
 10
160.0010812171525
 20
57.97018760272011
 30
0.0
  0
POINT
  5
834
330
66B
100
AcDbEntity
  8
DEFPOINTS
 62
     0
100
AcDbPoint
 10
152.4645401372821
 20
-0.0270778340382023
 30
0.0
  0
POINT
  5
835
330
66B
100
AcDbEntity
  8
DEFPOINTS
 62
     0
100
AcDbPoint
 10
168.2370947426957
 20
-0.0270778340382068
 30
0.0
  0
ENDBLK
  5
676
330
66B
100
AcDbEntity
  8
0
100
AcDbBlockEnd
  0
ENDSEC
  0
SECTION
  2
ENTITIES
  0
LINE
  5
641
330
18
100
AcDbEntity
  8
0
100
AcDbLine
 10
160.0010812171525
 20
55.9701876027201
 30
0.0
 11
0.0000000000000123
 21
55.9701876027201
 31
0.0
  0
DIMENSION
  5
642
330
18
100
AcDbEntity
  8
COTATION-JACOBDELAFON
100
AcDbDimension
  2
*D1
 10
0.0000000000000131
 20
68.04806057192156
 30
0.0
 11
80.0005406085763
 21
70.47977953508663
 31
0.0
 70
    32
  3
COTATION-JACOB-DELAFON
100
AcDbAlignedDimension
 13
160.0010812171525
 23
55.9701876027201
 33
0.0
 14
0.0000000000000124
 24
57.97018760272011
 34
0.0
 50
180.0
100
AcDbRotatedDimension
  0
LINE
  5
643
330
18
100
AcDbEntity
  8
0
100
AcDbLine
 10
160.0010812171525
 20
57.97018760272011
 30
0.0
 11
0.0000000000000124
 21
57.97018760272011
 31
0.0
  0
LINE
  5
644
330
18
100
AcDbEntity
  8
0
100
AcDbLine
 10
106.169586169615
 20
16.3610357771841
 30
0.0
 11
19.54296287370591
 21
14.92189077151079
 31
0.0
  0
DIMENSION
  5
648
330
18
100
AcDbEntity
  8
COTATION-JACOBDELAFON
100
AcDbDimension
  2
*D2
 10
168.2370947426957
 20
-0.0270778340382068
 30
0.0
 11
165.8053757795306
 21
28.97155488434098
 31
0.0
 70
    32
  3
COTATION-JACOB-DELAFON
100
AcDbAlignedDimension
 13
160.0010812171525
 23
57.97018760272011
 33
0.0
 14
152.4645401372821
 24
-0.0270778340382023
 34
0.0
 50
90.0
100
AcDbRotatedDimension
  0
LINE
  5
649
330
18
100
AcDbEntity
  8
0
100
AcDbLine
 10
102.7074516813216
 20
16.34952766533448
 30
0.0
 11
103.100002612983
 21
4.272124619812252
 31
0.0
  0
LINE
  5
64A
330
18
100
AcDbEntity
  8
0
100
AcDbLine
 10
106.6554511341255
 20
16.39537695682032
 30
0.0
 11
106.2614099663578
 21
4.272124619812196
 31
0.0
  0
LINE
  5
64B
330
18
100
AcDbEntity
  8
0
100
AcDbLine
 10
103.100002612983
 20
4.272124619812252
 30
0.0
 11
106.2614099663578
 21
4.272124619812196
 31
0.0
  0
LWPOLYLINE
  5
64C
330
18
100
AcDbEntity
  8
0
100
AcDbPolyline
 90
        4
 70
     0
 43
0.0
 10
106.5893103805982
 20
0.0000000000000639
 10
106.5893103805982
 20
3.281452873140729
 10
102.5396442791083
 20
3.281452873140729
 10
102.5396442791083
 20
0.0547606096532221
  0
LWPOLYLINE
  5
64D
330
18
100
AcDbEntity
  8
0
100
AcDbPolyline
 90
        2
 70
     0
 43
0.0
 10
105.7628479742832
 20
3.281452873140786
 10
105.7628479742832
 20
4.272124619812196
  0
LWPOLYLINE
  5
64E
330
18
100
AcDbEntity
  8
0
100
AcDbPolyline
 90
        2
 70
     0
 43
0.0
 10
103.3661066854232
 20
4.263657387503492
 10
103.3661066854233
 20
3.281452873140786
  0
SPLINE
  5
64F
330
18
100
AcDbEntity
  8
0
100
AcDbSpline
210
0.0
220
0.0
230
1.0
 70
     8
 71
     3
 72
    16
 73
    12
 74
     0
 42
0.0000000001
 43
0.0000000001
 40
0.0
 40
0.0
 40
0.0
 40
0.0
 40
1.480687580501405
 40
3.539211976648467
 40
6.048874004101887
 40
10.04533253121696
 40
13.86609103517722
 40
18.20336852676847
 40
18.71962672371326
 40
19.39329721205103
 40
21.06085217746751
 40
21.06085217746751
 40
21.06085217746751
 40
21.06085217746751
 10
106.169586169615
 20
16.3610357771841
 30
0.0
 10
109.4747261039421
 20
16.58923707129265
 30
0.0
 10
111.9029867817318
 20
16.99180492865191
 30
0.0
 10
116.4506472665882
 20
21.31377681169107
 30
0.0
 10
119.7269885983412
 20
27.79520042360287
 30
0.0
 10
126.4617390947151
 20
33.54100586274229
 30
0.0
 10
133.0140033145882
 20
41.47294510484375
 30
0.0
 10
136.8422418757548
 20
47.60127488855768
 30
0.0
 10
137.5345578957982
 20
52.67656499331992
 30
0.0
 10
140.2538936892558
 20
53.17368061449168
 30
0.0
 10
141.9152972641351
 20
54.13856446146918
 30
0.0
 10
144.1772973809405
 20
55.9701876027201
 30
0.0
  0
LINE
  5
652
330
18
100
AcDbEntity
  8
0
100
AcDbLine
 10
160.0010812171525
 20
57.97018760272011
 30
0.0
 11
160.0010812171525
 21
55.9701876027201
 31
0.0
  0
LINE
  5
653
330
18
100
AcDbEntity
  8
0
100
AcDbLine
 10
43.73052722022374
 20
15.12924866034337
 30
0.0
 11
43.37763892617501
 21
4.272124619812139
 31
0.0
  0
LINE
  5
654
330
18
100
AcDbEntity
  8
0
100
AcDbLine
 10
39.86528157341707
 20
15.06961419253011
 30
0.0
 11
40.21623157280017
 21
4.272124619812196
 31
0.0
  0
LWPOLYLINE
  5
655
330
18
100
AcDbEntity
  8
0
100
AcDbPolyline
 90
        4
 70
     0
 43
0.0
 10
43.7055393404154
 20
0.0000000000000071
 10
43.7055393404154
 20
3.281452873140672
 10
39.65587323892545
 20
3.281452873140672
 10
39.65587323892545
 20
0.0547606096531652
  0
LINE
  5
656
330
18
100
AcDbEntity
  8
0
100
AcDbLine
 10
40.21623157280017
 20
4.272124619812196
 30
0.0
 11
43.37763892617501
 21
4.272124619812139
 31
0.0
  0
LWPOLYLINE
  5
657
330
18
100
AcDbEntity
  8
0
100
AcDbPolyline
 90
        2
 70
     0
 43
0.0
 10
42.87907693410041
 20
3.281452873140729
 10
42.87907693410041
 20
4.272124619812139
  0
LWPOLYLINE
  5
658
330
18
100
AcDbEntity
  8
0
100
AcDbPolyline
 90
        2
 70
     0
 43
0.0
 10
40.48233564524044
 20
4.263657387503435
 10
40.48233564524049
 20
3.281452873140729
  0
LINE
  5
659
330
18
100
AcDbEntity
  8
0
100
AcDbLine
 10
6.977297380940582
 20
55.9701876027201
 30
0.0
 11
11.53241770646617
 21
24.30498165112204
 31
0.0
  0
LINE
  5
65A
330
18
100
AcDbEntity
  8
0
100
AcDbLine
 10
22.85196027821184
 20
12.78565381680136
 30
0.0
 11
20.73262748505329
 21
14.32912225455334
 31
0.0
  0
LINE
  5
65B
330
18
100
AcDbEntity
  8
0
100
AcDbLine
 10
30.38905182274727
 20
15.06003174946693
 30
0.0
 11
28.24398484254227
 21
12.85856613722666
 31
0.0
  0
LINE
  5
65C
330
18
100
AcDbEntity
  8
0
100
AcDbLine
 10
28.24398484254227
 20
12.85856613722672
 30
0.0
 11
22.85196027821184
 21
12.78565381680136
 31
0.0
  0
SPLINE
  5
65D
330
18
100
AcDbEntity
  8
0
100
AcDbSpline
210
0.0
220
0.0
230
1.0
 70
     8
 71
     3
 72
    11
 73
     7
 74
     5
 42
0.0000000001
 43
0.0000000001
 44
0.0000000001
 12
-0.7665480245706739
 22
0.6421869868089802
 32
0.0
 13
-0.1496025837029006
 23
0.9887462095752461
 33
0.0
 40
0.0
 40
0.0
 40
0.0
 40
0.0
 40
2.959457797989105
 40
7.056473153868179
 40
12.21957173200696
 40
14.37652946168848
 40
14.37652946168848
 40
14.37652946168848
 40
14.37652946168848
 10
20.73262748505329
 20
14.32912225455329
 30
0.0
 10
19.97643864210369
 20
14.96263068317961
 30
0.0
 10
17.3791788910119
 20
15.12505165459138
 30
0.0
 10
14.54117317983115
 20
18.18491219069888
 30
0.0
 10
11.66374673142352
 20
21.07249359899133
 30
0.0
 10
11.63997985623227
 20
23.59408705797655
 30
0.0
 10
11.53241770646617
 20
24.3049816511221
 30
0.0
 11
20.73262748505329
 21
14.32912225455329
 31
0.0
 11
17.9664509471673
 21
15.38110030533551
 31
0.0
 11
14.75292166161644
 21
17.92251022056286
 31
0.0
 11
11.81210645180978
 21
22.16623415472123
 31
0.0
 11
11.53241770646617
 21
24.3049816511221
 31
0.0
  0
LINE
  5
65E
330
18
100
AcDbEntity
  8
0
100
AcDbLine
 10
0.0000000000000124
 20
57.97018760272011
 30
0.0
 11
0.0000000000000123
 21
55.9701876027201
 31
0.0
  0
LINE
  5
7F0
330
18
100
AcDbEntity
  8
0
100
AcDbLine
 10
106.5893103805982
 20
0.0000000000000639
 30
0.0
 11
102.5396442791083
 21
0.0547606096532221
 31
0.0
  0
LINE
  5
7F1
330
18
100
AcDbEntity
  8
0
100
AcDbLine
 10
43.7055393404154
 20
0.0000000000000071
 30
0.0
 11
39.65587323892545
 21
0.0000000000000071
 31
0.0
  0
ENDSEC
  0
SECTION
  2
OBJECTS
  0
DICTIONARY
  5
C
330
0
100
AcDbDictionary
  3
ACAD_GROUP
350
D
  3
ACAD_IMAGE_DICT
350
48
  3
ACAD_IMAGE_VARS
350
47
  3
ACAD_LAYOUT
350
488
  3
ACAD_MLINESTYLE
350
1B
  3
ACAD_PLOTSETTINGS
350
489
  3
ACAD_PLOTSTYLENAME
350
486
  3
ACDBHEADERROUNDTRIPXREC
350
872
  3
ACDBVARIABLEDICTIONARY
350
48F
  0
DICTIONARY
  5
895
330
18
100
AcDbDictionary
280
     1
  3
ACAD_LAYOUTSELFREF
360
896
  0
DICTIONARY
  5
893
330
15
100
AcDbDictionary
280
     1
  3
ACAD_LAYOUTSELFREF
360
894
  0
DICTIONARY
  5
D
102
{ACAD_REACTORS
330
C
102
}
330
C
100
AcDbDictionary
  0
DICTIONARY
  5
48
102
{ACAD_REACTORS
330
C
102
}
330
C
100
AcDbDictionary
  0
RASTERVARIABLES
  5
47
102
{ACAD_REACTORS
330
C
102
}
330
C
100
AcDbRasterVariables
 90
        0
 70
     1
 71
     1
 72
     0
  0
DICTIONARY
  5
488
102
{ACAD_REACTORS
330
C
102
}
330
C
100
AcDbDictionary
  0
DICTIONARY
  5
1B
102
{ACAD_REACTORS
330
C
102
}
330
C
100
AcDbDictionary
  3
STANDARD
350
1C
  0
DICTIONARY
  5
489
102
{ACAD_REACTORS
330
C
102
}
330
C
100
AcDbDictionary
  0
ACDBDICTIONARYWDFLT
  5
486
102
{ACAD_REACTORS
330
C
102
}
330
C
100
AcDbDictionary
281
     1
  3
Normal
350
487
100
AcDbDictionaryWithDefault
340
487
  0
DICTIONARY
  5
872
102
{ACAD_REACTORS
330
C
102
}
330
C
100
AcDbDictionary
  3
CEPSNTYPE
350
87C
  3
DIMSTYLEDATA
350
880
  3
FINGERPRINTGUID
350
87D
  3
HYPERLINKBASE
350
875
  3
INSUNITS
350
87B
  3
LAYOUTDICT
350
877
  3
LWETCUNION
350
87A
  3
PLOTSETDICT
350
878
  3
PLOTSTYLNAMDICT
350
879
  3
PSVPSCALE
350
87F
  3
PUCSBASE
350
883
  3
PUCSORGBACK
350
889
  3
PUCSORGBOTTOM
350
885
  3
PUCSORGFRONT
350
888
  3
PUCSORGLEFT
350
886
  3
PUCSORGRIGHT
350
887
  3
PUCSORGTOP
350
884
  3
PUCSORTHOREF
350
881
  3
PUCSORTHOVIEW
350
882
  3
STYLESHEET
350
876
  3
TSTACKALIGN
350
873
  3
TSTACKSIZE
350
874
  3
UCSBASE
350
88C
  3
UCSORGBACK
350
892
  3
UCSORGBOTTOM
350
88E
  3
UCSORGFRONT
350
891
  3
UCSORGLEFT
350
88F
  3
UCSORGRIGHT
350
890
  3
UCSORGTOP
350
88D
  3
UCSORTHOREF
350
88A
  3
UCSORTHOVIEW
350
88B
  3
VERSIONGUID
350
87E
  0
DICTIONARY
  5
48F
102
{ACAD_REACTORS
330
C
102
}
330
C
100
AcDbDictionary
  3
DIMASSOC
350
490
  0
XRECORD
  5
896
102
{ACAD_REACTORS
330
895
102
}
330
895
100
AcDbXrecord
340
18
  0
XRECORD
  5
894
102
{ACAD_REACTORS
330
893
102
}
330
893
100
AcDbXrecord
340
15
  0
MLINESTYLE
  5
1C
102
{ACAD_REACTORS
330
1B
102
}
330
1B
100
AcDbMlineStyle
  2
STANDARD
 70
     0
  3

 62
   256
 51
90.0
 52
90.0
 71
     2
 49
0.5
 62
   256
  6
BYLAYER
 49
-0.5
 62
   256
  6
BYLAYER
  0
ACDBPLACEHOLDER
  5
487
102
{ACAD_REACTORS
330
486
102
}
330
486
100
AcDbPlaceHolder
280
     0
  0
XRECORD
  5
87C
102
{ACAD_REACTORS
330
872
102
}
330
872
100
AcDbXrecord
 90
        0
  0
XRECORD
  5
880
102
{ACAD_REACTORS
330
872
102
}
330
872
100
AcDbXrecord
1000
DSTYLE
1002
{
1070
    79
 70
     3
1070
   279
 70
     2
1070
   342
340
491
1002
}
  0
XRECORD
  5
87D
102
{ACAD_REACTORS
330
872
102
}
330
872
100
AcDbXrecord
  1
{8C0D10A8-382B-40E5-800D-97D890504C19}
  0
XRECORD
  5
875
102
{ACAD_REACTORS
330
872
102
}
330
872
100
AcDbXrecord
  1

  0
XRECORD
  5
87B
102
{ACAD_REACTORS
330
872
102
}
330
872
100
AcDbXrecord
 90
        0
  0
XRECORD
  5
877
102
{ACAD_REACTORS
330
872
102
}
330
872
100
AcDbXrecord
340
488
  0
XRECORD
  5
87A
102
{ACAD_REACTORS
330
872
102
}
330
872
100
AcDbXrecord
 90
    14877
  0
XRECORD
  5
878
102
{ACAD_REACTORS
330
872
102
}
330
872
100
AcDbXrecord
340
489
  0
XRECORD
  5
879
102
{ACAD_REACTORS
330
872
102
}
330
872
100
AcDbXrecord
340
486
  0
XRECORD
  5
87F
102
{ACAD_REACTORS
330
872
102
}
330
872
100
AcDbXrecord
 40
0.0
  0
XRECORD
  5
883
102
{ACAD_REACTORS
330
872
102
}
330
872
100
AcDbXrecord
340
0
  0
XRECORD
  5
889
102
{ACAD_REACTORS
330
872
102
}
330
872
100
AcDbXrecord
 10
0.0
 20
0.0
 30
0.0
  0
XRECORD
  5
885
102
{ACAD_REACTORS
330
872
102
}
330
872
100
AcDbXrecord
 10
0.0
 20
0.0
 30
0.0
  0
XRECORD
  5
888
102
{ACAD_REACTORS
330
872
102
}
330
872
100
AcDbXrecord
 10
0.0
 20
0.0
 30
0.0
  0
XRECORD
  5
886
102
{ACAD_REACTORS
330
872
102
}
330
872
100
AcDbXrecord
 10
0.0
 20
0.0
 30
0.0
  0
XRECORD
  5
887
102
{ACAD_REACTORS
330
872
102
}
330
872
100
AcDbXrecord
 10
0.0
 20
0.0
 30
0.0
  0
XRECORD
  5
884
102
{ACAD_REACTORS
330
872
102
}
330
872
100
AcDbXrecord
 10
0.0
 20
0.0
 30
0.0
  0
XRECORD
  5
881
102
{ACAD_REACTORS
330
872
102
}
330
872
100
AcDbXrecord
340
0
  0
XRECORD
  5
882
102
{ACAD_REACTORS
330
872
102
}
330
872
100
AcDbXrecord
 70
     0
  0
XRECORD
  5
876
102
{ACAD_REACTORS
330
872
102
}
330
872
100
AcDbXrecord
  1

  0
XRECORD
  5
873
102
{ACAD_REACTORS
330
872
102
}
330
872
100
AcDbXrecord
 90
        1
  0
XRECORD
  5
874
102
{ACAD_REACTORS
330
872
102
}
330
872
100
AcDbXrecord
 90
       70
  0
XRECORD
  5
88C
102
{ACAD_REACTORS
330
872
102
}
330
872
100
AcDbXrecord
340
0
  0
XRECORD
  5
892
102
{ACAD_REACTORS
330
872
102
}
330
872
100
AcDbXrecord
 10
0.0
 20
0.0
 30
0.0
  0
XRECORD
  5
88E
102
{ACAD_REACTORS
330
872
102
}
330
872
100
AcDbXrecord
 10
0.0
 20
0.0
 30
0.0
  0
XRECORD
  5
891
102
{ACAD_REACTORS
330
872
102
}
330
872
100
AcDbXrecord
 10
0.0
 20
0.0
 30
0.0
  0
XRECORD
  5
88F
102
{ACAD_REACTORS
330
872
102
}
330
872
100
AcDbXrecord
 10
0.0
 20
0.0
 30
0.0
  0
XRECORD
  5
890
102
{ACAD_REACTORS
330
872
102
}
330
872
100
AcDbXrecord
 10
0.0
 20
0.0
 30
0.0
  0
XRECORD
  5
88D
102
{ACAD_REACTORS
330
872
102
}
330
872
100
AcDbXrecord
 10
0.0
 20
0.0
 30
0.0
  0
XRECORD
  5
88A
102
{ACAD_REACTORS
330
872
102
}
330
872
100
AcDbXrecord
340
0
  0
XRECORD
  5
88B
102
{ACAD_REACTORS
330
872
102
}
330
872
100
AcDbXrecord
 70
     0
  0
XRECORD
  5
87E
102
{ACAD_REACTORS
330
872
102
}
330
872
100
AcDbXrecord
  1
{12D36F3C-2FFE-4FA1-8ACE-73B5C3E74BC8}
  0
DICTIONARYVAR
  5
490
102
{ACAD_REACTORS
330
48F
102
}
330
48F
100
DictionaryVariables
280
     0
  1
1
  0
ENDSEC
  0
EOF
