  0
SECTION
  2
HEADER
  9
$ACADVER
  1
AC1014
  9
$ACADMAINTVER
 70
     9
  9
$DWGCODEPAGE
  3
ANSI_1252
  9
$INSBASE
 10
0.0
 20
0.0
 30
0.0
  9
$EXTMIN
 10
-53.10556927936556
 20
-0.9000628005046564
 30
-0.000000000000013
  9
$EXTMAX
 10
38.42878641226082
 20
71.44638087368765
 30
0.0000000000000023
  9
$LIMMIN
 10
0.0
 20
0.0
  9
$LIMMAX
 10
420.0
 20
297.0
  9
$ORTHOMODE
 70
     1
  9
$REGENMODE
 70
     1
  9
$FILLMODE
 70
     1
  9
$QTEXTMODE
 70
     0
  9
$MIRRTEXT
 70
     1
  9
$DRAGMODE
 70
     2
  9
$LTSCALE
 40
1.0
  9
$OSMODE
 70
   167
  9
$ATTMODE
 70
     1
  9
$TEXTSIZE
 40
2.5
  9
$TRACEWID
 40
1.0
  9
$TEXTSTYLE
  7
STANDARD
  9
$CLAYER
  8
0
  9
$CELTYPE
  6
BYLAYER
  9
$CECOLOR
 62
   256
  9
$CELTSCALE
 40
1.0
  9
$DELOBJ
 70
     1
  9
$DISPSILH
 70
     0
  9
$DIMSCALE
 40
1.0
  9
$DIMASZ
 40
1.8
  9
$DIMEXO
 40
0.625
  9
$DIMDLI
 40
3.799999999999999
  9
$DIMRND
 40
0.0
  9
$DIMDLE
 40
0.0
  9
$DIMEXE
 40
1.8
  9
$DIMTP
 40
0.0
  9
$DIMTM
 40
0.0
  9
$DIMTXT
 40
3.0
  9
$DIMCEN
 40
0.9
  9
$DIMTSZ
 40
0.0
  9
$DIMTOL
 70
     0
  9
$DIMLIM
 70
     0
  9
$DIMTIH
 70
     0
  9
$DIMTOH
 70
     0
  9
$DIMSE1
 70
     0
  9
$DIMSE2
 70
     0
  9
$DIMTAD
 70
     1
  9
$DIMZIN
 70
    12
  9
$DIMBLK
  1
OBLIQUE
  9
$DIMASO
 70
     1
  9
$DIMSHO
 70
     1
  9
$DIMPOST
  1

  9
$DIMAPOST
  1

  9
$DIMALT
 70
     0
  9
$DIMALTD
 70
     2
  9
$DIMALTF
 40
25.4
  9
$DIMLFAC
 40
1.0
  9
$DIMTOFL
 70
     0
  9
$DIMTVP
 40
0.0
  9
$DIMTIX
 70
     0
  9
$DIMSOXD
 70
     0
  9
$DIMSAH
 70
     0
  9
$DIMBLK1
  1

  9
$DIMBLK2
  1

  9
$DIMSTYLE
  2
COTATION-JACOB-DELAFON
  9
$DIMCLRD
 70
     0
  9
$DIMCLRE
 70
     0
  9
$DIMCLRT
 70
     0
  9
$DIMTFAC
 40
1.0
  9
$DIMGAP
 40
0.9
  9
$DIMJUST
 70
     0
  9
$DIMSD1
 70
     0
  9
$DIMSD2
 70
     0
  9
$DIMTOLJ
 70
     1
  9
$DIMTZIN
 70
     0
  9
$DIMALTZ
 70
     0
  9
$DIMALTTZ
 70
     0
  9
$DIMFIT
 70
     5
  9
$DIMUPT
 70
     0
  9
$DIMUNIT
 70
     2
  9
$DIMDEC
 70
     2
  9
$DIMTDEC
 70
     2
  9
$DIMALTU
 70
     2
  9
$DIMALTTD
 70
     2
  9
$DIMTXSTY
  7
JACOB-DELAFON
  9
$DIMAUNIT
 70
     0
  9
$LUNITS
 70
     2
  9
$LUPREC
 70
     4
  9
$SKETCHINC
 40
1.0
  9
$FILLETRAD
 40
0.0
  9
$AUNITS
 70
     0
  9
$AUPREC
 70
     0
  9
$MENU
  1
.
  9
$ELEVATION
 40
0.0
  9
$PELEVATION
 40
0.0
  9
$THICKNESS
 40
0.0
  9
$LIMCHECK
 70
     0
  9
$BLIPMODE
 70
     0
  9
$CHAMFERA
 40
10.0
  9
$CHAMFERB
 40
10.0
  9
$CHAMFERC
 40
20.0
  9
$CHAMFERD
 40
0.0
  9
$SKPOLY
 70
     0
  9
$TDCREATE
 40
2451211.735678009
  9
$TDUPDATE
 40
2452285.707983252
  9
$TDINDWG
 40
0.0430752083
  9
$TDUSRTIMER
 40
0.0430752083
  9
$USRTIMER
 70
     1
  9
$ANGBASE
 50
0.0
  9
$ANGDIR
 70
     0
  9
$PDMODE
 70
     0
  9
$PDSIZE
 40
0.0
  9
$PLINEWID
 40
0.0
  9
$COORDS
 70
     0
  9
$SPLFRAME
 70
     0
  9
$SPLINETYPE
 70
     6
  9
$SPLINESEGS
 70
     8
  9
$ATTDIA
 70
     0
  9
$ATTREQ
 70
     1
  9
$HANDLING
 70
 22529
  9
$HANDSEED
  5
899
  9
$SURFTAB1
 70
     6
  9
$SURFTAB2
 70
     6
  9
$SURFTYPE
 70
     6
  9
$SURFU
 70
     6
  9
$SURFV
 70
     6
  9
$UCSNAME
  2

  9
$UCSORG
 10
0.0
 20
0.0
 30
0.0
  9
$UCSXDIR
 10
1.0
 20
0.0
 30
0.0
  9
$UCSYDIR
 10
0.0
 20
1.0
 30
0.0
  9
$PUCSNAME
  2

  9
$PUCSORG
 10
0.0
 20
0.0
 30
0.0
  9
$PUCSXDIR
 10
1.0
 20
0.0
 30
0.0
  9
$PUCSYDIR
 10
0.0
 20
1.0
 30
0.0
  9
$USERI1
 70
     0
  9
$USERI2
 70
     0
  9
$USERI3
 70
     0
  9
$USERI4
 70
     0
  9
$USERI5
 70
     0
  9
$USERR1
 40
0.0
  9
$USERR2
 40
0.0
  9
$USERR3
 40
0.0
  9
$USERR4
 40
0.0
  9
$USERR5
 40
0.0
  9
$WORLDVIEW
 70
     1
  9
$SHADEDGE
 70
     3
  9
$SHADEDIF
 70
    70
  9
$TILEMODE
 70
     1
  9
$MAXACTVP
 70
    48
  9
$PINSBASE
 10
0.0
 20
0.0
 30
0.0
  9
$PLIMCHECK
 70
     0
  9
$PEXTMIN
 10
1.000000000000000E+20
 20
1.000000000000000E+20
 30
1.000000000000000E+20
  9
$PEXTMAX
 10
-1.000000000000000E+20
 20
-1.000000000000000E+20
 30
-1.000000000000000E+20
  9
$PLIMMIN
 10
0.0
 20
0.0
  9
$PLIMMAX
 10
420.0
 20
297.0
  9
$UNITMODE
 70
     0
  9
$VISRETAIN
 70
     1
  9
$PLINEGEN
 70
     0
  9
$PSLTSCALE
 70
     1
  9
$TREEDEPTH
 70
  3020
  9
$PICKSTYLE
 70
     1
  9
$CMLSTYLE
  2
STANDARD
  9
$CMLJUST
 70
     0
  9
$CMLSCALE
 40
20.0
  9
$PROXYGRAPHICS
 70
     1
  9
$MEASUREMENT
 70
     1
  0
ENDSEC
  0
SECTION
  2
CLASSES
  0
CLASS
  1
LWPOLYLINE
  2
AcDbPolyline
  3
AutoCAD 2000
 90
        0
280
     0
281
     1
  0
CLASS
  1
ACDBDICTIONARYWDFLT
  2
AcDbDictionaryWithDefault
  3
AutoCAD 2000
 90
        0
280
     0
281
     0
  0
CLASS
  1
ACDBPLACEHOLDER
  2
AcDbPlaceHolder
  3
AutoCAD 2000
 90
        0
280
     0
281
     0
  0
CLASS
  1
LAYOUT
  2
AcDbLayout
  3
AutoCAD 2000
 90
        0
280
     0
281
     0
  0
CLASS
  1
DICTIONARYVAR
  2
AcDbDictionaryVar
  3
AutoCAD 2000
 90
        0
280
     0
281
     0
  0
CLASS
  1
RASTERVARIABLES
  2
AcDbRasterVariables
  3
ISM
 90
        0
280
     0
281
     0
  0
CLASS
  1
IMAGEDEF
  2
AcDbRasterImageDef
  3
ISM
 90
        0
280
     0
281
     0
  0
CLASS
  1
IMAGEDEF_REACTOR
  2
AcDbRasterImageDefReactor
  3
ISM
 90
        1
280
     0
281
     0
  0
CLASS
  1
IMAGE
  2
AcDbRasterImage
  3
ISM
 90
      127
280
     0
281
     1
  0
CLASS
  1
LONG_TRANSACTION
  2
AcDbLongTransaction
  3
AutoCAD 2000
 90
        0
280
     0
281
     0
  0
CLASS
  1
LWPOLYLINE
  2
AcDbPolyline
  3
AutoCAD 2000
 90
        0
280
     0
281
     1
  0
CLASS
  1
HATCH
  2
AcDbHatch
  3
AutoCAD 2000
 90
        0
280
     0
281
     1
  0
CLASS
  1
XRECORD
  2
AcDbXrecord
  3
AutoCAD 2000
 90
        0
280
     0
281
     0
  0
ENDSEC
  0
SECTION
  2
TABLES
  0
TABLE
  2
VPORT
  5
8
330
0
100
AcDbSymbolTable
 70
     3
  0
VPORT
  5
873
330
8
100
AcDbSymbolTableRecord
100
AcDbViewportTableRecord
  2
*ACTIVE
 70
     0
 10
0.0
 20
0.0
 11
1.0
 21
1.0
 12
-7.338391433552374
 22
35.27315903659149
 13
0.0
 23
0.0
 14
10.0
 24
10.0
 15
10.0
 25
10.0
 16
0.0
 26
0.0
 36
1.0
 17
0.0
 27
0.0
 37
0.0
 40
155.5686475633189
 41
0.6004098360655738
 42
50.0
 43
0.0
 44
0.0
 50
0.0
 51
0.0
 71
     0
 72
   100
 73
     1
 74
     1
 75
     0
 76
     0
 77
     0
 78
     0
  0
ENDTAB
  0
TABLE
  2
LTYPE
  5
5
330
0
100
AcDbSymbolTable
 70
     1
  0
LTYPE
  5
12
330
5
100
AcDbSymbolTableRecord
100
AcDbLinetypeTableRecord
  2
BYBLOCK
 70
     0
  3

 72
    65
 73
     0
 40
0.0
  0
LTYPE
  5
13
330
5
100
AcDbSymbolTableRecord
100
AcDbLinetypeTableRecord
  2
BYLAYER
 70
     0
  3

 72
    65
 73
     0
 40
0.0
  0
LTYPE
  5
14
330
5
100
AcDbSymbolTableRecord
100
AcDbLinetypeTableRecord
  2
CONTINUOUS
 70
     0
  3
Solid line
 72
    65
 73
     0
 40
0.0
  0
ENDTAB
  0
TABLE
  2
LAYER
  5
2
330
0
100
AcDbSymbolTable
 70
     4
  0
LAYER
  5
E
330
2
100
AcDbSymbolTableRecord
100
AcDbLayerTableRecord
  2
0
 70
     0
 62
     7
  6
CONTINUOUS
  0
LAYER
  5
12A
330
2
100
AcDbSymbolTableRecord
100
AcDbLayerTableRecord
  2
CAPA1
 70
     0
 62
     7
  6
CONTINUOUS
  0
LAYER
  5
12C
330
2
100
AcDbSymbolTableRecord
100
AcDbLayerTableRecord
  2
DEFPOINTS
 70
     0
 62
     7
  6
CONTINUOUS
  0
LAYER
  5
1E8
330
2
100
AcDbSymbolTableRecord
100
AcDbLayerTableRecord
  2
COTATION-JACOBDELAFON
 70
     0
 62
     8
  6
CONTINUOUS
  0
ENDTAB
  0
TABLE
  2
STYLE
  5
3
330
0
100
AcDbSymbolTable
 70
     2
  0
STYLE
  5
F
330
3
100
AcDbSymbolTableRecord
100
AcDbTextStyleTableRecord
  2
STANDARD
 70
     0
 40
0.0
 41
1.0
 50
0.0
 71
     0
 42
2.5
  3
txt
  4

  0
STYLE
  5
1E9
330
3
100
AcDbSymbolTableRecord
100
AcDbTextStyleTableRecord
  2
JACOB-DELAFON
 70
     0
 40
0.0
 41
1.0
 50
0.0
 71
     0
 42
2.5
  3
ARIAL.TTF
  4

1001
ACAD
1000
Arial
1071
       34
  0
ENDTAB
  0
TABLE
  2
VIEW
  5
6
330
0
100
AcDbSymbolTable
 70
     0
  0
ENDTAB
  0
TABLE
  2
UCS
  5
7
330
0
100
AcDbSymbolTable
 70
     0
  0
ENDTAB
  0
TABLE
  2
APPID
  5
9
330
0
100
AcDbSymbolTable
 70
     2
  0
APPID
  5
10
330
9
100
AcDbSymbolTableRecord
100
AcDbRegAppTableRecord
  2
ACAD
 70
     0
  0
APPID
  5
1EB
330
9
100
AcDbSymbolTableRecord
100
AcDbRegAppTableRecord
  2
PE_URL
 70
     0
  0
ENDTAB
  0
TABLE
  2
DIMSTYLE
  5
A
330
0
100
AcDbSymbolTable
 70
     2
  0
DIMSTYLE
105
1D
330
A
100
AcDbSymbolTableRecord
100
AcDbDimStyleTableRecord
  2
STANDARD
 70
     0
  3

  4

  5

  6

  7

 40
1.0
 41
0.18
 42
0.0625
 43
0.38
 44
0.18
 45
0.0
 46
0.0
 47
0.0
 48
0.0
140
0.18
141
0.09
142
0.0
143
25.4
144
1.0
145
0.0
146
1.0
147
0.09
 71
     0
 72
     0
 73
     1
 74
     1
 75
     0
 76
     0
 77
     0
 78
     0
170
     0
171
     2
172
     0
173
     0
174
     0
175
     0
176
     0
177
     0
178
     0
270
     2
271
     4
272
     4
273
     2
274
     2
340
F
275
     0
280
     0
281
     0
282
     0
283
     1
284
     0
285
     0
286
     0
287
     3
288
     0
  0
DIMSTYLE
105
1EA
102
{ACAD_REACTORS
330
685
330
6B1
102
}
330
A
100
AcDbSymbolTableRecord
100
AcDbDimStyleTableRecord
  2
COTATION-JACOB-DELAFON
 70
     0
  3

  4

  5
OBLIQUE
  6

  7

 40
1.0
 41
1.8
 42
0.625
 43
3.799999999999999
 44
1.8
 45
0.0
 46
0.0
 47
0.0
 48
0.0
140
3.0
141
0.9
142
0.0
143
25.4
144
1.0
145
0.0
146
1.0
147
0.9
 71
     0
 72
     0
 73
     0
 74
     0
 75
     0
 76
     0
 77
     1
 78
    12
170
     0
171
     2
172
     0
173
     0
174
     0
175
     0
176
     0
177
     0
178
     0
270
     2
271
     2
272
     2
273
     2
274
     2
340
1E9
275
     0
280
     0
281
     0
282
     0
283
     1
284
     0
285
     0
286
     0
287
     5
288
     0
  0
ENDTAB
  0
TABLE
  2
BLOCK_RECORD
  5
1
330
0
100
AcDbSymbolTable
 70
     3
  0
BLOCK_RECORD
  5
18
102
{ACAD_XDICTIONARY
360
897
102
}
330
1
100
AcDbSymbolTableRecord
100
AcDbBlockTableRecord
  2
*MODEL_SPACE
  0
BLOCK_RECORD
  5
15
102
{ACAD_XDICTIONARY
360
895
102
}
330
1
100
AcDbSymbolTableRecord
100
AcDbBlockTableRecord
  2
*PAPER_SPACE
  0
BLOCK_RECORD
  5
1CC
330
1
100
AcDbSymbolTableRecord
100
AcDbBlockTableRecord
  2
_OBLIQUE
  0
BLOCK_RECORD
  5
686
330
1
100
AcDbSymbolTableRecord
100
AcDbBlockTableRecord
  2
*D1
  0
BLOCK_RECORD
  5
6B2
330
1
100
AcDbSymbolTableRecord
100
AcDbBlockTableRecord
  2
*D2
  0
ENDTAB
  0
ENDSEC
  0
SECTION
  2
BLOCKS
  0
BLOCK
  5
19
330
18
100
AcDbEntity
  8
0
100
AcDbBlockBegin
  2
*MODEL_SPACE
 70
     0
 10
0.0
 20
0.0
 30
0.0
  3
*MODEL_SPACE
  1

  0
ENDBLK
  5
1A
330
18
100
AcDbEntity
  8
0
100
AcDbBlockEnd
  0
BLOCK
  5
16
330
15
100
AcDbEntity
 67
     1
  8
0
100
AcDbBlockBegin
  2
*PAPER_SPACE
 70
     0
 10
0.0
 20
0.0
 30
0.0
  3
*PAPER_SPACE
  1

  0
ENDBLK
  5
17
330
15
100
AcDbEntity
 67
     1
  8
0
100
AcDbBlockEnd
  0
BLOCK
  5
1CE
330
1CC
100
AcDbEntity
  8
0
100
AcDbBlockBegin
  2
_OBLIQUE
 70
     0
 10
0.0
 20
0.0
 30
0.0
  3
_OBLIQUE
  1

  0
LINE
  5
1CD
330
1CC
100
AcDbEntity
  8
0
  6
BYBLOCK
 62
     0
100
AcDbLine
 10
-0.5
 20
-0.5
 30
0.0
 11
0.5
 21
0.5
 31
0.0
  0
ENDBLK
  5
1CF
330
1CC
100
AcDbEntity
  8
0
100
AcDbBlockEnd
  0
BLOCK
  5
690
330
686
100
AcDbEntity
  8
0
 62
     1
100
AcDbBlockBegin
  2
*D1
 70
     1
 10
0.0
 20
0.0
 30
0.0
  3
*D1
  1

  0
LINE
  5
825
330
686
100
AcDbEntity
  8
COTATION-JACOBDELAFON
 62
     0
100
AcDbLine
 10
-37.49997602679549
 20
57.99666826723504
 30
0.0
 11
-50.1350309026565
 21
57.99666826723504
 31
0.0
  0
LINE
  5
826
330
686
100
AcDbEntity
  8
COTATION-JACOBDELAFON
 62
     0
100
AcDbLine
 10
-33.96619173135168
 20
0.0000542881385003
 30
0.0
 11
-50.13503090265652
 21
0.0000542881385049
 31
0.0
  0
LINE
  5
827
330
686
100
AcDbEntity
  8
COTATION-JACOBDELAFON
 62
     0
100
AcDbLine
 10
-48.33503090265651
 20
57.99666826723504
 30
0.0
 11
-48.33503090265653
 21
0.0000542881385044
 31
0.0
  0
INSERT
  5
828
330
686
100
AcDbEntity
  8
COTATION-JACOBDELAFON
 62
     0
100
AcDbBlockReference
  2
_OBLIQUE
 10
-48.33503090265651
 20
57.99666826723504
 30
0.0
 41
1.8
 42
1.8
 43
1.8
 50
90.0
  0
INSERT
  5
829
330
686
100
AcDbEntity
  8
COTATION-JACOBDELAFON
 62
     0
100
AcDbBlockReference
  2
_OBLIQUE
 10
-48.33503090265653
 20
0.0000542881385044
 30
0.0
 41
1.8
 42
1.8
 43
1.8
 50
270.0
  0
MTEXT
  5
82A
330
686
100
AcDbEntity
  8
COTATION-JACOBDELAFON
 62
     0
100
AcDbMText
 10
-50.7667498658216
 20
28.99836127768676
 30
0.0
 40
3.0
 41
0.0
 71
     5
 72
     1
  1
\A1;58
  7
JACOB-DELAFON
 11
0.0000000000000001
 21
1.0
 31
0.0
1001
ACAD
1000
MTEXTBEGIN
1070
    73
1070
     1
1070
    44
1040
1.0
1070
    74
1070
     0
1000
MTEXTEND
  0
POINT
  5
82B
330
686
100
AcDbEntity
  8
DEFPOINTS
 62
     0
100
AcDbPoint
 10
-36.87497602679549
 20
57.99666826723504
 30
0.0
  0
POINT
  5
82C
330
686
100
AcDbEntity
  8
DEFPOINTS
 62
     0
100
AcDbPoint
 10
-33.34119173135168
 20
0.0000542881385002
 30
0.0
  0
POINT
  5
82D
330
686
100
AcDbEntity
  8
DEFPOINTS
 62
     0
100
AcDbPoint
 10
-48.33503090265653
 20
0.0000542881385044
 30
0.0
  0
ENDBLK
  5
691
330
686
100
AcDbEntity
  8
0
 62
     1
100
AcDbBlockEnd
  0
BLOCK
  5
6BC
330
6B2
100
AcDbEntity
  8
0
 62
     1
100
AcDbBlockBegin
  2
*D2
 70
     1
 10
0.0
 20
0.0
 30
0.0
  3
*D2
  1

  0
LINE
  5
81C
330
6B2
100
AcDbEntity
  8
COTATION-JACOBDELAFON
 62
     0
100
AcDbLine
 10
-37.49997335422485
 20
58.6216320751427
 30
0.0
 11
-37.49997335422485
 21
68.48038460838033
 31
0.0
  0
LINE
  5
81D
330
6B2
100
AcDbEntity
  8
COTATION-JACOBDELAFON
 62
     0
100
AcDbLine
 10
37.49997602679549
 20
58.62221114856316
 30
0.0
 11
37.49997602679549
 21
68.48038460838033
 31
0.0
  0
LINE
  5
81E
330
6B2
100
AcDbEntity
  8
COTATION-JACOBDELAFON
 62
     0
100
AcDbLine
 10
-37.49997335422485
 20
66.68038460838033
 30
0.0
 11
37.49997602679549
 21
66.68038460838033
 31
0.0
  0
INSERT
  5
81F
330
6B2
100
AcDbEntity
  8
COTATION-JACOBDELAFON
 62
     0
100
AcDbBlockReference
  2
_OBLIQUE
 10
-37.49997335422485
 20
66.68038460838033
 30
0.0
 41
1.8
 42
1.8
 43
1.8
 50
180.0
  0
INSERT
  5
820
330
6B2
100
AcDbEntity
  8
COTATION-JACOBDELAFON
 62
     0
100
AcDbBlockReference
  2
_OBLIQUE
 10
37.49997602679549
 20
66.68038460838033
 30
0.0
 41
1.8
 42
1.8
 43
1.8
  0
MTEXT
  5
821
330
6B2
100
AcDbEntity
  8
COTATION-JACOBDELAFON
 62
     0
100
AcDbMText
 10
0.000001336285319
 20
69.10596441738443
 30
0.0
 40
3.0
 41
0.0
 71
     5
 72
     1
  1
\A1;75
  7
JACOB-DELAFON
1001
ACAD
1000
MTEXTBEGIN
1070
    73
1070
     1
1070
    44
1040
1.0
1070
    74
1070
     0
1000
MTEXTEND
  0
POINT
  5
822
330
6B2
100
AcDbEntity
  8
DEFPOINTS
 62
     0
100
AcDbPoint
 10
-37.49997335422485
 20
57.9966320751427
 30
0.0
  0
POINT
  5
823
330
6B2
100
AcDbEntity
  8
DEFPOINTS
 62
     0
100
AcDbPoint
 10
37.49997602679549
 20
57.99721114856316
 30
0.0
  0
POINT
  5
824
330
6B2
100
AcDbEntity
  8
DEFPOINTS
 62
     0
100
AcDbPoint
 10
37.49997602679549
 20
66.68038460838033
 30
0.0
  0
ENDBLK
  5
6BD
330
6B2
100
AcDbEntity
  8
0
 62
     1
100
AcDbBlockEnd
  0
ENDSEC
  0
SECTION
  2
ENTITIES
  0
LINE
  5
29A
330
18
100
AcDbEntity
  8
CAPA1
100
AcDbLine
 10
-28.97277382739357
 20
44.00981526783517
 30
0.0
 11
-25.86565392467016
 21
24.57072110538604
 31
0.0
  0
LINE
  5
29F
330
18
100
AcDbEntity
  8
CAPA1
100
AcDbLine
 10
-34.60525691855547
 20
55.99665302832281
 30
0.0
 11
-33.35498003526967
 21
49.00292059751023
 31
0.0
  0
LINE
  5
2A0
330
18
100
AcDbEntity
  8
CAPA1
100
AcDbLine
 10
-37.49997602679549
 20
57.99666826723504
 30
0.0
 11
-37.49997335422485
 21
55.9966693362633
 31
0.0
  0
LINE
  5
2A1
330
18
100
AcDbEntity
  8
CAPA1
100
AcDbLine
 10
-33.35498003526967
 20
49.00292059751023
 30
0.0
 11
-28.97277382739357
 21
44.00981526783517
 31
0.0
  0
LINE
  5
2A2
330
18
100
AcDbEntity
  8
CAPA1
100
AcDbLine
 10
28.98514453577409
 20
43.99494662165722
 30
0.0
 11
25.86951869589549
 21
24.55721394594769
 31
0.0
  0
SPLINE
  5
2A4
330
18
100
AcDbEntity
  8
CAPA1
100
AcDbSpline
210
0.0
220
0.0
230
1.0
 70
     8
 71
     3
 72
    11
 73
     7
 74
     0
 42
0.0000000001
 43
0.0000000001
 40
0.0
 40
0.0
 40
0.0
 40
0.0
 40
1.493886633928278
 40
4.725951495779938
 40
6.59020995850752
 40
12.17637832916011
 40
12.17637832916011
 40
12.17637832916011
 40
12.17637832916011
 10
25.86951869589549
 20
24.55721394594769
 30
0.0
 10
25.52136985097499
 20
23.38464687991592
 30
0.0
 10
24.10434241941104
 20
19.81856285736341
 30
0.0
 10
19.75479811060333
 20
15.41787028170216
 30
0.0
 10
10.76620774714369
 20
15.78606883771949
 30
0.0
 10
4.712355943042695
 20
15.66339055014615
 30
0.0
 10
0.166940917895829
 20
15.63303774124305
 30
0.0
  0
SPLINE
  5
2A5
330
18
100
AcDbEntity
  8
CAPA1
100
AcDbSpline
210
0.0
220
0.0
230
1.0
 70
     8
 71
     3
 72
    10
 73
     6
 74
     0
 42
0.0000000001
 43
0.0000000001
 40
0.0
 40
0.0
 40
0.0
 40
0.0
 40
1.419415496880952
 40
4.720441333205157
 40
6.21765505662079
 40
6.21765505662079
 40
6.21765505662079
 40
6.21765505662079
 10
-20.41946467496702
 20
15.171562137237
 30
0.0
 10
-19.18824996892876
 20
14.87686876659802
 30
0.0
 10
-15.3354102385322
 20
14.36914065565247
 30
0.0
 10
-10.26083625847661
 20
13.97954586935769
 30
0.0
 10
-6.328758636563474
 20
14.05877031005481
 30
0.0
 10
-5.101484119023339
 20
14.0915103460948
 30
0.0
  0
LINE
  5
2A6
330
18
100
AcDbEntity
  8
CAPA1
100
AcDbLine
 10
-18.11134311381433
 20
11.82782655576466
 30
0.0
 11
-19.71356471166867
 21
5.477102683128919
 31
0.0
  0
LINE
  5
2A7
330
18
100
AcDbEntity
  8
CAPA1
100
AcDbLine
 10
-20.98754353402088
 20
7.036062802909611
 30
0.0
 11
-19.5400926521718
 21
11.99650651470079
 31
0.0
  0
LINE
  5
2A8
330
18
100
AcDbEntity
  8
CAPA1
100
AcDbLine
 10
-23.91040654739256
 20
5.377899175785728
 30
0.0
 11
-23.74290883320488
 21
6.900050563980244
 31
0.0
  0
LINE
  5
2A9
330
18
100
AcDbEntity
  8
CAPA1
100
AcDbLine
 10
-23.74290883320488
 20
6.900050563980244
 30
0.0
 11
-20.98754353402088
 21
7.036062802909611
 31
0.0
  0
LINE
  5
2AF
330
18
100
AcDbEntity
  8
CAPA1
100
AcDbLine
 10
-19.5400926521718
 20
11.99650651470079
 30
0.0
 11
-19.84224863578472
 21
13.13174998660594
 31
0.0
  0
LINE
  5
2B1
330
18
100
AcDbEntity
  8
CAPA1
100
AcDbLine
 10
-18.99800505639589
 20
14.8948721186191
 30
0.0
 11
-18.11134311381433
 21
11.82782655576466
 31
0.0
  0
LINE
  5
2B2
330
18
100
AcDbEntity
  8
CAPA1
100
AcDbLine
 10
-19.84224863578472
 20
13.13174998660594
 30
0.0
 11
-20.99389037211917
 21
17.20151355429353
 31
0.0
  0
LWPOLYLINE
  5
2B5
330
18
100
AcDbEntity
  8
CAPA1
100
AcDbPolyline
 90
        3
 70
     0
 43
0.0
 10
-18.41208248404742
 20
12.86811181754495
 10
-16.98616063686537
 20
12.88934666253595
 10
-17.01173978994691
 20
14.60698920840298
  0
SPLINE
  5
2B6
330
18
100
AcDbEntity
  8
CAPA1
100
AcDbSpline
210
0.0
220
0.0
230
1.0
 70
     8
 71
     3
 72
    11
 73
     7
 74
     0
 42
0.0000000001
 43
0.0000000001
 40
0.250964505271603
 40
0.250964505271603
 40
0.250964505271603
 40
0.250964505271603
 40
0.5914484696365498
 40
1.304800928159023
 40
2.079862982334065
 40
2.747345845086312
 40
2.747345845086312
 40
2.747345845086312
 40
2.747345845086312
 10
5.101086222992009
 20
14.09147836676304
 30
0.0
 10
5.060450611491276
 20
13.81230894217674
 30
0.0
 10
4.914794276185787
 20
12.95675634707385
 30
0.0
 10
3.52889447688355
 20
11.88653797940168
 30
0.0
 10
1.732493709851922
 20
12.15523403997633
 30
0.0
 10
0.5454896090735418
 20
12.09554499745235
 30
0.0
 10
-0.0007983755403131
 20
12.08288207418849
 30
0.0
  0
SPLINE
  5
2B7
330
18
100
AcDbEntity
  8
CAPA1
100
AcDbSpline
210
0.0
220
0.0
230
1.0
 70
     8
 71
     3
 72
    11
 73
     7
 74
     0
 42
0.0000000001
 43
0.0000000001
 40
0.2518590029959797
 40
0.2518590029959797
 40
0.2518590029959797
 40
0.2518590029959797
 40
0.5914484696365498
 40
1.304800928159023
 40
2.079862982334065
 40
2.747345845086312
 40
2.747345845086312
 40
2.747345845086312
 40
2.747345845086312
 10
-5.101484119027674
 20
14.09151034610383
 30
0.0
 10
-5.061043007168564
 20
13.81307117319948
 30
0.0
 10
-4.91533056137424
 20
12.95838351691701
 30
0.0
 10
-3.530576807046287
 20
11.88808253496262
 30
0.0
 10
-1.734058634931585
 20
12.1559924937593
 30
0.0
 10
-0.547080766760729
 20
12.09578404306665
 30
0.0
 10
-0.0007983755399721
 20
12.08288207418843
 30
0.0
  0
LINE
  5
2CB
330
18
100
AcDbEntity
  8
CAPA1
100
AcDbLine
 10
33.36874284804444
 20
48.98613406377762
 30
0.0
 11
28.98514453577409
 21
43.99494662165722
 31
0.0
  0
LINE
  5
2CC
330
18
100
AcDbEntity
  8
CAPA1
100
AcDbLine
 10
34.62528944129001
 20
55.99722653247925
 30
0.0
 11
33.36874284804444
 21
48.98613406377762
 31
0.0
  0
LINE
  5
2CD
330
18
100
AcDbEntity
  8
CAPA1
100
AcDbLine
 10
37.49997602679549
 20
57.99721114856316
 30
0.0
 11
37.49997602679549
 21
55.9972101221649
 31
0.0
  0
LINE
  5
680
330
18
100
AcDbEntity
  8
CAPA1
100
AcDbLine
 10
-24.21065003062355
 20
0.0
 30
0.0
 11
-18.8226579796113
 21
0.0
 31
0.0
  0
LINE
  5
684
330
18
100
AcDbEntity
  8
CAPA1
100
AcDbLine
 10
-37.49997602679549
 20
57.99666826723504
 30
0.0
 11
37.49997602679549
 21
57.99721114856316
 31
0.0
  0
DIMENSION
  5
685
330
18
100
AcDbEntity
  8
COTATION-JACOBDELAFON
100
AcDbDimension
  2
*D1
 10
-48.33503090265653
 20
0.0000542881385044
 30
0.0
 11
-50.7667498658216
 21
28.99836127768676
 31
0.0
 70
    32
  3
COTATION-JACOB-DELAFON
100
AcDbAlignedDimension
 13
-36.87497602679549
 23
57.99666826723504
 33
0.0
 14
-33.34119173135168
 24
0.0000542881385002
 34
0.0
 50
90.0
100
AcDbRotatedDimension
  0
DIMENSION
  5
6B1
330
18
100
AcDbEntity
  8
COTATION-JACOBDELAFON
100
AcDbDimension
  2
*D2
 10
37.49997602679549
 20
66.68038460838033
 30
0.0
 11
0.000001336285319
 21
69.10596441738443
 31
0.0
 70
    32
  3
COTATION-JACOB-DELAFON
100
AcDbAlignedDimension
 13
-37.49997335422485
 23
57.9966320751427
 33
0.0
 14
37.49997602679549
 24
57.99721114856316
 34
0.0
100
AcDbRotatedDimension
  0
LWPOLYLINE
  5
738
330
18
100
AcDbEntity
  8
0
100
AcDbPolyline
 90
        4
 70
     1
 43
0.0
 10
-24.21065003062355
 20
0.0
 10
-18.8226579796113
 20
0.0
 10
-18.8226579796113
 20
2.129414047995339
 10
-24.21065003062355
 20
2.129414047995339
  0
LWPOLYLINE
  5
739
330
18
100
AcDbEntity
  8
0
100
AcDbPolyline
 90
        4
 70
     1
 43
0.0
 10
-22.8161237353619
 20
2.129414047995339
 10
-20.47405548173602
 20
2.129414047995339
 10
-20.47405548173602
 20
4.490612325530833
 10
-22.8161237353619
 20
4.490612325530833
  0
LWPOLYLINE
  5
73A
330
18
100
AcDbEntity
  8
0
100
AcDbPolyline
 90
        4
 70
     1
 43
0.0
 10
-19.71356471166867
 20
4.490612325530833
 10
-23.62663697969625
 20
4.490612325530833
 10
-23.62663697969625
 20
5.477102683128919
 10
-19.71356471166867
 20
5.477102683128919
  0
LINE
  5
73B
330
18
100
AcDbEntity
  8
0
100
AcDbLine
 10
-23.91040654739256
 20
5.377899175785728
 30
0.0
 11
-23.62663697969625
 21
5.377899175785728
 31
0.0
  0
LWPOLYLINE
  5
73C
330
18
100
AcDbEntity
  8
0
100
AcDbPolyline
 90
        4
 70
     1
 43
0.0
 10
22.81452698428208
 20
2.129414047995339
 10
20.4724587306562
 20
2.129414047995339
 10
20.4724587306562
 20
4.490612325530833
 10
22.81452698428208
 20
4.490612325530833
  0
LWPOLYLINE
  5
73D
330
18
100
AcDbEntity
  8
0
100
AcDbPolyline
 90
        4
 70
     1
 43
0.0
 10
24.20905327954372
 20
0.0
 10
18.82106122853147
 20
0.0
 10
18.82106122853147
 20
2.129414047995339
 10
24.20905327954372
 20
2.129414047995339
  0
LINE
  5
73E
330
18
100
AcDbEntity
  8
CAPA1
100
AcDbLine
 10
18.99640830531606
 20
14.8948721186191
 30
0.0
 11
18.10974636273451
 21
11.82782655576466
 31
0.0
  0
LINE
  5
73F
330
18
100
AcDbEntity
  8
CAPA1
100
AcDbLine
 10
19.53849590109197
 20
11.99650651470079
 30
0.0
 11
19.84065188470489
 21
13.13174998660594
 31
0.0
  0
LINE
  5
740
330
18
100
AcDbEntity
  8
CAPA1
100
AcDbLine
 10
18.10974636273451
 20
11.82782655576466
 30
0.0
 11
19.71196796058885
 21
5.477102683128919
 31
0.0
  0
LINE
  5
741
330
18
100
AcDbEntity
  8
CAPA1
100
AcDbLine
 10
20.98594678294105
 20
7.036062802909611
 30
0.0
 11
19.53849590109197
 21
11.99650651470079
 31
0.0
  0
LINE
  5
742
330
18
100
AcDbEntity
  8
0
100
AcDbLine
 10
23.90880979631273
 20
5.377899175785728
 30
0.0
 11
23.62504022861642
 21
5.377899175785728
 31
0.0
  0
LWPOLYLINE
  5
743
330
18
100
AcDbEntity
  8
0
100
AcDbPolyline
 90
        4
 70
     1
 43
0.0
 10
19.71196796058885
 20
4.490612325530833
 10
23.62504022861642
 20
4.490612325530833
 10
23.62504022861642
 20
5.477102683128919
 10
19.71196796058885
 20
5.477102683128919
  0
LINE
  5
744
330
18
100
AcDbEntity
  8
CAPA1
100
AcDbLine
 10
23.74131208212506
 20
6.900050563980244
 30
0.0
 11
20.98594678294105
 21
7.036062802909611
 31
0.0
  0
LINE
  5
745
330
18
100
AcDbEntity
  8
CAPA1
100
AcDbLine
 10
23.90880979631273
 20
5.377899175785728
 30
0.0
 11
23.74131208212506
 21
6.900050563980244
 31
0.0
  0
LINE
  5
746
330
18
100
AcDbEntity
  8
CAPA1
100
AcDbLine
 10
19.84065188470489
 20
13.13174998660594
 30
0.0
 11
20.99198432589545
 21
17.20042054240573
 31
0.0
  0
LWPOLYLINE
  5
747
330
18
100
AcDbEntity
  8
CAPA1
100
AcDbPolyline
 90
        3
 70
     0
 43
0.0
 10
18.4104857329676
 20
12.86811181754495
 10
16.98456388578554
 20
12.88934666253595
 10
17.01014303886708
 20
14.60698920840298
  0
LINE
  5
774
330
18
100
AcDbEntity
  8
CAPA1
100
AcDbLine
 10
-37.49997335422485
 20
55.9966693362633
 30
0.0
 11
37.49997602679549
 21
55.9972101221649
 31
0.0
  0
SPLINE
  5
7AA
330
18
100
AcDbEntity
  8
CAPA1
100
AcDbSpline
210
0.0
220
0.0
230
1.0
 70
     8
 71
     3
 72
    10
 73
     6
 74
     0
 42
0.0000000001
 43
0.0000000001
 40
0.0
 40
0.0
 40
0.0
 40
0.0
 40
1.419415496880952
 40
4.720441333205157
 40
6.217167542116668
 40
6.217167542116668
 40
6.217167542116668
 40
6.217167542116668
 10
20.41786792388708
 20
15.171562137237
 30
0.0
 10
19.18665321784883
 20
14.87686876659802
 30
0.0
 10
15.33381348745226
 20
14.36914065565247
 30
0.0
 10
10.25963739508826
 20
13.97957641674369
 30
0.0
 10
6.327960905396018
 20
14.05875421512867
 30
0.0
 10
5.101086222987895
 20
14.09147836675475
 30
0.0
  0
LINE
  5
7AB
330
18
100
AcDbEntity
  8
0
100
AcDbLine
 10
-5.101484119027674
 20
14.09151034610383
 30
0.0
 11
5.101086222992009
 21
14.09147836676304
 31
0.0
  0
SPLINE
  5
7AD
330
18
100
AcDbEntity
  8
CAPA1
100
AcDbSpline
210
0.0
220
0.0
230
1.0
 70
     8
 71
     3
 72
    11
 73
     7
 74
     0
 42
0.0000000001
 43
0.0000000001
 40
0.0
 40
0.0
 40
0.0
 40
0.0
 40
1.493886633928278
 40
4.725951495779938
 40
6.59020995850752
 40
12.17637832916011
 40
12.17637832916011
 40
12.17637832916011
 40
12.17637832916011
 10
-25.86991659193115
 20
24.55721394594769
 30
0.0
 10
-25.52176774701065
 20
23.38464687991592
 30
0.0
 10
-24.1047403154467
 20
19.81856285736341
 30
0.0
 10
-19.75519600663899
 20
15.41787028170216
 30
0.0
 10
-10.76660564317935
 20
15.78606883771949
 30
0.0
 10
-4.712753839078359
 20
15.66339055014615
 30
0.0
 10
-0.1673388139314937
 20
15.63303774124305
 30
0.0
  0
LINE
  5
7AE
330
18
100
AcDbEntity
  8
0
100
AcDbLine
 10
-0.1673388139314937
 20
15.63303774124305
 30
0.0
 11
0.166940917895829
 21
15.63303774124305
 31
0.0
  0
LINE
  5
7E6
330
18
100
AcDbEntity
  8
CAPA1
100
AcDbLine
 10
18.82106122853148
 20
0.0
 30
0.0
 11
24.20905327954372
 21
0.0
 31
0.0
  0
ENDSEC
  0
SECTION
  2
OBJECTS
  0
DICTIONARY
  5
C
330
0
100
AcDbDictionary
  3
ACAD_GROUP
350
D
  3
ACAD_IMAGE_DICT
350
24B
  3
ACAD_IMAGE_VARS
350
24C
  3
ACAD_LAYOUT
350
1C2
  3
ACAD_MLINESTYLE
350
1B
  3
ACAD_PLOTSETTINGS
350
1C3
  3
ACAD_PLOTSTYLENAME
350
1C0
  3
ACDBHEADERROUNDTRIPXREC
350
874
  3
ACDBVARIABLEDICTIONARY
350
1C9
  0
DICTIONARY
  5
897
330
18
100
AcDbDictionary
280
     1
  3
ACAD_LAYOUTSELFREF
360
898
  0
DICTIONARY
  5
895
330
15
100
AcDbDictionary
280
     1
  3
ACAD_LAYOUTSELFREF
360
896
  0
DICTIONARY
  5
D
102
{ACAD_REACTORS
330
C
102
}
330
C
100
AcDbDictionary
  0
DICTIONARY
  5
24B
102
{ACAD_REACTORS
330
C
102
}
330
C
100
AcDbDictionary
  0
RASTERVARIABLES
  5
24C
102
{ACAD_REACTORS
330
C
102
}
330
C
100
AcDbRasterVariables
 90
        0
 70
     1
 71
     1
 72
     0
  0
DICTIONARY
  5
1C2
102
{ACAD_REACTORS
330
C
102
}
330
C
100
AcDbDictionary
  0
DICTIONARY
  5
1B
102
{ACAD_REACTORS
330
C
102
}
330
C
100
AcDbDictionary
  3
STANDARD
350
1C
  0
DICTIONARY
  5
1C3
102
{ACAD_REACTORS
330
C
102
}
330
C
100
AcDbDictionary
  0
ACDBDICTIONARYWDFLT
  5
1C0
102
{ACAD_REACTORS
330
C
102
}
330
C
100
AcDbDictionary
281
     1
  3
Normal
350
1C1
100
AcDbDictionaryWithDefault
340
1C1
  0
DICTIONARY
  5
874
102
{ACAD_REACTORS
330
C
102
}
330
C
100
AcDbDictionary
  3
CEPSNTYPE
350
87E
  3
DIMSTYLEDATA
350
882
  3
FINGERPRINTGUID
350
87F
  3
HYPERLINKBASE
350
877
  3
INSUNITS
350
87D
  3
LAYOUTDICT
350
879
  3
LWETCUNION
350
87C
  3
PLOTSETDICT
350
87A
  3
PLOTSTYLNAMDICT
350
87B
  3
PSVPSCALE
350
881
  3
PUCSBASE
350
885
  3
PUCSORGBACK
350
88B
  3
PUCSORGBOTTOM
350
887
  3
PUCSORGFRONT
350
88A
  3
PUCSORGLEFT
350
888
  3
PUCSORGRIGHT
350
889
  3
PUCSORGTOP
350
886
  3
PUCSORTHOREF
350
883
  3
PUCSORTHOVIEW
350
884
  3
STYLESHEET
350
878
  3
TSTACKALIGN
350
875
  3
TSTACKSIZE
350
876
  3
UCSBASE
350
88E
  3
UCSORGBACK
350
894
  3
UCSORGBOTTOM
350
890
  3
UCSORGFRONT
350
893
  3
UCSORGLEFT
350
891
  3
UCSORGRIGHT
350
892
  3
UCSORGTOP
350
88F
  3
UCSORTHOREF
350
88C
  3
UCSORTHOVIEW
350
88D
  3
VERSIONGUID
350
880
  0
DICTIONARY
  5
1C9
102
{ACAD_REACTORS
330
C
102
}
330
C
100
AcDbDictionary
  3
DIMASSOC
350
1CA
  0
XRECORD
  5
898
102
{ACAD_REACTORS
330
897
102
}
330
897
100
AcDbXrecord
340
18
  0
XRECORD
  5
896
102
{ACAD_REACTORS
330
895
102
}
330
895
100
AcDbXrecord
340
15
  0
MLINESTYLE
  5
1C
102
{ACAD_REACTORS
330
1B
102
}
330
1B
100
AcDbMlineStyle
  2
STANDARD
 70
     0
  3

 62
   256
 51
90.0
 52
90.0
 71
     2
 49
0.5
 62
   256
  6
BYLAYER
 49
-0.5
 62
   256
  6
BYLAYER
  0
ACDBPLACEHOLDER
  5
1C1
102
{ACAD_REACTORS
330
1C0
102
}
330
1C0
100
AcDbPlaceHolder
280
     0
  0
XRECORD
  5
87E
102
{ACAD_REACTORS
330
874
102
}
330
874
100
AcDbXrecord
 90
        0
  0
XRECORD
  5
882
102
{ACAD_REACTORS
330
874
102
}
330
874
100
AcDbXrecord
1000
DSTYLE
1002
{
1070
    79
 70
     3
1070
   279
 70
     2
1070
   342
340
1CC
1002
}
  0
XRECORD
  5
87F
102
{ACAD_REACTORS
330
874
102
}
330
874
100
AcDbXrecord
  1
{BD8D0C0B-ACA1-485E-A2EA-361CD57FA353}
  0
XRECORD
  5
877
102
{ACAD_REACTORS
330
874
102
}
330
874
100
AcDbXrecord
  1

  0
XRECORD
  5
87D
102
{ACAD_REACTORS
330
874
102
}
330
874
100
AcDbXrecord
 90
        0
  0
XRECORD
  5
879
102
{ACAD_REACTORS
330
874
102
}
330
874
100
AcDbXrecord
340
1C2
  0
XRECORD
  5
87C
102
{ACAD_REACTORS
330
874
102
}
330
874
100
AcDbXrecord
 90
    14877
  0
XRECORD
  5
87A
102
{ACAD_REACTORS
330
874
102
}
330
874
100
AcDbXrecord
340
1C3
  0
XRECORD
  5
87B
102
{ACAD_REACTORS
330
874
102
}
330
874
100
AcDbXrecord
340
1C0
  0
XRECORD
  5
881
102
{ACAD_REACTORS
330
874
102
}
330
874
100
AcDbXrecord
 40
0.0
  0
XRECORD
  5
885
102
{ACAD_REACTORS
330
874
102
}
330
874
100
AcDbXrecord
340
0
  0
XRECORD
  5
88B
102
{ACAD_REACTORS
330
874
102
}
330
874
100
AcDbXrecord
 10
0.0
 20
0.0
 30
0.0
  0
XRECORD
  5
887
102
{ACAD_REACTORS
330
874
102
}
330
874
100
AcDbXrecord
 10
0.0
 20
0.0
 30
0.0
  0
XRECORD
  5
88A
102
{ACAD_REACTORS
330
874
102
}
330
874
100
AcDbXrecord
 10
0.0
 20
0.0
 30
0.0
  0
XRECORD
  5
888
102
{ACAD_REACTORS
330
874
102
}
330
874
100
AcDbXrecord
 10
0.0
 20
0.0
 30
0.0
  0
XRECORD
  5
889
102
{ACAD_REACTORS
330
874
102
}
330
874
100
AcDbXrecord
 10
0.0
 20
0.0
 30
0.0
  0
XRECORD
  5
886
102
{ACAD_REACTORS
330
874
102
}
330
874
100
AcDbXrecord
 10
0.0
 20
0.0
 30
0.0
  0
XRECORD
  5
883
102
{ACAD_REACTORS
330
874
102
}
330
874
100
AcDbXrecord
340
0
  0
XRECORD
  5
884
102
{ACAD_REACTORS
330
874
102
}
330
874
100
AcDbXrecord
 70
     0
  0
XRECORD
  5
878
102
{ACAD_REACTORS
330
874
102
}
330
874
100
AcDbXrecord
  1

  0
XRECORD
  5
875
102
{ACAD_REACTORS
330
874
102
}
330
874
100
AcDbXrecord
 90
        1
  0
XRECORD
  5
876
102
{ACAD_REACTORS
330
874
102
}
330
874
100
AcDbXrecord
 90
       70
  0
XRECORD
  5
88E
102
{ACAD_REACTORS
330
874
102
}
330
874
100
AcDbXrecord
340
0
  0
XRECORD
  5
894
102
{ACAD_REACTORS
330
874
102
}
330
874
100
AcDbXrecord
 10
0.0
 20
0.0
 30
0.0
  0
XRECORD
  5
890
102
{ACAD_REACTORS
330
874
102
}
330
874
100
AcDbXrecord
 10
0.0
 20
0.0
 30
0.0
  0
XRECORD
  5
893
102
{ACAD_REACTORS
330
874
102
}
330
874
100
AcDbXrecord
 10
0.0
 20
0.0
 30
0.0
  0
XRECORD
  5
891
102
{ACAD_REACTORS
330
874
102
}
330
874
100
AcDbXrecord
 10
0.0
 20
0.0
 30
0.0
  0
XRECORD
  5
892
102
{ACAD_REACTORS
330
874
102
}
330
874
100
AcDbXrecord
 10
0.0
 20
0.0
 30
0.0
  0
XRECORD
  5
88F
102
{ACAD_REACTORS
330
874
102
}
330
874
100
AcDbXrecord
 10
0.0
 20
0.0
 30
0.0
  0
XRECORD
  5
88C
102
{ACAD_REACTORS
330
874
102
}
330
874
100
AcDbXrecord
340
0
  0
XRECORD
  5
88D
102
{ACAD_REACTORS
330
874
102
}
330
874
100
AcDbXrecord
 70
     0
  0
XRECORD
  5
880
102
{ACAD_REACTORS
330
874
102
}
330
874
100
AcDbXrecord
  1
{8C0FED08-FB4F-4CFA-8079-D11B14E3787E}
  0
DICTIONARYVAR
  5
1CA
102
{ACAD_REACTORS
330
1C9
102
}
330
1C9
100
DictionaryVariables
280
     0
  1
1
  0
ENDSEC
  0
EOF
