  0
SECTION
  2
HEADER
  9
$ACADVER
  1
AC1009
  9
$INSBASE
 10
0.0
 20
0.0
 30
0.0
  9
$EXTMIN
 10
-12.22504737779551
 20
-25.522986947879922
 30
0.0
  9
$EXTMAX
 10
85.024288172119896
 20
32.233309034998918
 30
0.0
  9
$LIMMIN
 10
0.0
 20
0.0
  9
$LIMMAX
 10
420.0
 20
297.0
  9
$ORTHOMODE
 70
     0
  9
$REGENMODE
 70
     1
  9
$FILLMODE
 70
     1
  9
$QTEXTMODE
 70
     0
  9
$MIRRTEXT
 70
     1
  9
$DRAGMODE
 70
     2
  9
$LTSCALE
 40
1.0
  9
$OSMODE
 70
     1
  9
$ATTMODE
 70
     1
  9
$TEXTSIZE
 40
2.5
  9
$TRACEWID
 40
1.0
  9
$TEXTSTYLE
  7
STANDARD
  9
$CLAYER
  8
0
  9
$CELTYPE
  6
BYLAYER
  9
$CECOLOR
 62
   256
  9
$DIMSCALE
 40
1.0
  9
$DIMASZ
 40
1.8
  9
$DIMEXO
 40
0.625
  9
$DIMDLI
 40
3.7999999999999989
  9
$DIMRND
 40
0.0
  9
$DIMDLE
 40
0.0
  9
$DIMEXE
 40
1.8
  9
$DIMTP
 40
0.0
  9
$DIMTM
 40
0.0
  9
$DIMTXT
 40
3.0
  9
$DIMCEN
 40
0.9
  9
$DIMTSZ
 40
0.0
  9
$DIMTOL
 70
     0
  9
$DIMLIM
 70
     0
  9
$DIMTIH
 70
     0
  9
$DIMTOH
 70
     0
  9
$DIMSE1
 70
     0
  9
$DIMSE2
 70
     0
  9
$DIMTAD
 70
     1
  9
$DIMZIN
 70
    12
  9
$DIMBLK
  1
OBLIQUE
  9
$DIMASO
 70
     1
  9
$DIMSHO
 70
     1
  9
$DIMPOST
  1

  9
$DIMAPOST
  1

  9
$DIMALT
 70
     0
  9
$DIMALTD
 70
     2
  9
$DIMALTF
 40
25.399999999999999
  9
$DIMLFAC
 40
1.0
  9
$DIMTOFL
 70
     0
  9
$DIMTVP
 40
0.0
  9
$DIMTIX
 70
     0
  9
$DIMSOXD
 70
     0
  9
$DIMSAH
 70
     0
  9
$DIMBLK1
  1

  9
$DIMBLK2
  1

  9
$DIMSTYLE
  2
COTATION-JACOB-DELAFON
  9
$DIMCLRD
 70
     0
  9
$DIMCLRE
 70
     0
  9
$DIMCLRT
 70
     0
  9
$DIMTFAC
 40
1.0
  9
$DIMGAP
 40
0.9
  9
$LUNITS
 70
     2
  9
$LUPREC
 70
     4
  9
$SKETCHINC
 40
1.0
  9
$FILLETRAD
 40
10.0
  9
$AUNITS
 70
     0
  9
$AUPREC
 70
     2
  9
$MENU
  1
.
  9
$ELEVATION
 40
0.0
  9
$PELEVATION
 40
0.0
  9
$THICKNESS
 40
0.0
  9
$LIMCHECK
 70
     0
  9
$BLIPMODE
 70
     0
  9
$CHAMFERA
 40
10.0
  9
$CHAMFERB
 40
10.0
  9
$SKPOLY
 70
     0
  9
$TDCREATE
 40
2451211.752960416
  9
$TDUPDATE
 40
2453076.7440450341
  9
$TDINDWG
 40
0.0207768287
  9
$TDUSRTIMER
 40
0.0207768287
  9
$USRTIMER
 70
     1
  9
$ANGBASE
 50
0.0
  9
$ANGDIR
 70
     0
  9
$PDMODE
 70
     0
  9
$PDSIZE
 40
0.0
  9
$PLINEWID
 40
0.0
  9
$COORDS
 70
     1
  9
$SPLFRAME
 70
     0
  9
$SPLINETYPE
 70
     6
  9
$SPLINESEGS
 70
     8
  9
$ATTDIA
 70
     1
  9
$ATTREQ
 70
     1
  9
$HANDLING
 70
 22529
  9
$HANDSEED
  5
7BA
  9
$SURFTAB1
 70
     6
  9
$SURFTAB2
 70
     6
  9
$SURFTYPE
 70
     6
  9
$SURFU
 70
     6
  9
$SURFV
 70
     6
  9
$UCSNAME
  2

  9
$UCSORG
 10
0.0
 20
0.0
 30
0.0
  9
$UCSXDIR
 10
1.0
 20
0.0
 30
0.0
  9
$UCSYDIR
 10
0.0
 20
1.0
 30
0.0
  9
$PUCSNAME
  2

  9
$PUCSORG
 10
0.0
 20
0.0
 30
0.0
  9
$PUCSXDIR
 10
1.0
 20
0.0
 30
0.0
  9
$PUCSYDIR
 10
0.0
 20
1.0
 30
0.0
  9
$USERI1
 70
     0
  9
$USERI2
 70
     0
  9
$USERI3
 70
     0
  9
$USERI4
 70
     0
  9
$USERI5
 70
     0
  9
$USERR1
 40
0.0
  9
$USERR2
 40
0.0
  9
$USERR3
 40
0.0
  9
$USERR4
 40
0.0
  9
$USERR5
 40
0.0
  9
$WORLDVIEW
 70
     1
  9
$SHADEDGE
 70
     3
  9
$SHADEDIF
 70
    70
  9
$TILEMODE
 70
     1
  9
$MAXACTVP
 70
    48
  9
$PLIMCHECK
 70
     0
  9
$PEXTMIN
 10
1.0000000000000000E+020
 20
1.0000000000000000E+020
 30
1.0000000000000000E+020
  9
$PEXTMAX
 10
-1.0000000000000000E+020
 20
-1.0000000000000000E+020
 30
-1.0000000000000000E+020
  9
$PLIMMIN
 10
0.0
 20
0.0
  9
$PLIMMAX
 10
420.0
 20
297.0
  9
$UNITMODE
 70
     0
  9
$VISRETAIN
 70
     1
  9
$PLINEGEN
 70
     0
  9
$PSLTSCALE
 70
     1
  0
ENDSEC
  0
SECTION
  2
TABLES
  0
TABLE
  2
VPORT
 70
     2
  0
VPORT
  2
*ACTIVE
 70
     0
 10
0.0
 20
0.0
 11
1.0
 21
1.0
 12
40.642174431528979
 22
3.35526205302375
 13
0.0
 23
0.0
 14
10.0
 24
10.0
 15
10.0
 25
10.0
 16
0.0
 26
0.0
 36
1.0
 17
0.0
 27
0.0
 37
0.0
 40
58.481678823556642
 41
1.928853754940711
 42
50.0
 43
0.0
 44
0.0
 50
0.0
 51
0.0
 71
     0
 72
   100
 73
     1
 74
     1
 75
     0
 76
     0
 77
     0
 78
     0
  0
ENDTAB
  0
TABLE
  2
LTYPE
 70
     1
  0
LTYPE
  2
CONTINUOUS
 70
     0
  3
Solid line
 72
    65
 73
     0
 40
0.0
  0
ENDTAB
  0
TABLE
  2
LAYER
 70
     3
  0
LAYER
  2
0
 70
     0
 62
     7
  6
CONTINUOUS
  0
LAYER
  2
DEFPOINTS
 70
     0
 62
     7
  6
CONTINUOUS
  0
LAYER
  2
COTATION-JACOBDELAFON
 70
     0
 62
     8
  6
CONTINUOUS
  0
ENDTAB
  0
TABLE
  2
STYLE
 70
     2
  0
STYLE
  2
STANDARD
 70
     0
 40
0.0
 41
1.0
 50
0.0
 71
     0
 42
2.5
  3
txt
  4

  0
STYLE
  2
JACOB-DELAFON
 70
     0
 40
0.0
 41
1.0
 50
0.0
 71
     0
 42
2.5
  3
txt
  4

  0
ENDTAB
  0
TABLE
  2
VIEW
 70
     0
  0
ENDTAB
  0
TABLE
  2
UCS
 70
     0
  0
ENDTAB
  0
TABLE
  2
APPID
 70
     9
  0
APPID
  2
ACAD
 70
     0
  0
APPID
  2
PE_URL
 70
     0
  0
APPID
  2
ADCADD_ZZ
 70
     0
  0
APPID
  2
SDSK_PMN
 70
     0
  0
APPID
  2
ACAECLAYERSTANDARD
 70
     0
  0
APPID
  2
AECBASE
 70
     0
  0
APPID
  2
AEC_DWGVARSSETUP_DATA
 70
     0
  0
APPID
  2
AEC_DISPREPCONFIG_DATA
 70
     0
  0
APPID
  2
AEC_DISPREPSET_DATA
 70
     0
  0
ENDTAB
  0
TABLE
  2
DIMSTYLE
 70
     2
  0
DIMSTYLE
  2
STANDARD
 70
     0
  3

  4

  5

  6

  7

 40
1.0
 41
0.18
 42
0.0625
 43
0.38
 44
0.18
 45
0.0
 46
0.0
 47
0.0
 48
0.0
140
0.18
141
0.09
142
0.0
143
25.399999999999999
144
1.0
145
0.0
146
1.0
147
0.09
 71
     0
 72
     0
 73
     1
 74
     1
 75
     0
 76
     0
 77
     0
 78
     0
170
     0
171
     2
172
     0
173
     0
174
     0
175
     0
176
     0
177
     0
178
     0
  0
DIMSTYLE
  2
COTATION-JACOB-DELAFON
 70
     0
  3

  4

  5
OBLIQUE
  6

  7

 40
1.0
 41
1.8
 42
0.625
 43
3.7999999999999989
 44
1.8
 45
0.0
 46
0.0
 47
0.0
 48
0.0
140
3.0
141
0.9
142
0.0
143
25.399999999999999
144
1.0
145
0.0
146
1.0
147
0.9
 71
     0
 72
     0
 73
     0
 74
     0
 75
     0
 76
     0
 77
     1
 78
    12
170
     0
171
     2
172
     0
173
     0
174
     0
175
     0
176
     0
177
     0
178
     0
  0
ENDTAB
  0
ENDSEC
  0
SECTION
  2
BLOCKS
  0
BLOCK
  8
0
  2
$MODEL_SPACE
 70
     0
 10
0.0
 20
0.0
 30
0.0
  3
$MODEL_SPACE
  1

  0
ENDBLK
  5
1A
  8
0
  0
BLOCK
 67
     1
  8
0
  2
$PAPER_SPACE
 70
     0
 10
0.0
 20
0.0
 30
0.0
  3
$PAPER_SPACE
  1

  0
ENDBLK
  5
17
 67
     1
  8
0
  0
BLOCK
  8
0
  2
_OBLIQUE
 70
     0
 10
0.0
 20
0.0
 30
0.0
  3
_OBLIQUE
  1

  0
LINE
  5
1F1
  8
0
  6
BYBLOCK
 62
     0
 10
-0.5
 20
-0.5
 30
0.0
 11
0.5
 21
0.5
 31
0.0
  0
ENDBLK
  5
1F3
  8
0
  0
BLOCK
  8
0
  2
*D1
 70
     1
 10
0.0
 20
0.0
 30
0.0
  3
*D1
  1

  0
LINE
  5
5EC
  8
COTATION-JACOBDELAFON
 62
     0
 10
0.000053988332045
 20
0.6233256236164109
 30
0.0
 11
0.0000539883320467
 21
29.282012991342711
 31
0.0
  0
LINE
  5
5ED
  8
COTATION-JACOBDELAFON
 62
     0
 10
81.000000000000028
 20
0.6250000000004561
 30
0.0
 11
81.000000000000028
 21
29.282012991342711
 31
0.0
  0
LINE
  5
5EE
  8
COTATION-JACOBDELAFON
 62
     0
 10
0.0000539883320466
 20
27.48201299134271
 30
0.0
 11
81.000000000000028
 21
27.48201299134271
 31
0.0
  0
INSERT
  5
5EF
  8
COTATION-JACOBDELAFON
 62
     0
  2
_OBLIQUE
 10
0.0000539883320466
 20
27.48201299134271
 30
0.0
 41
1.8
 42
1.8
 43
1.8
 50
180.0
  0
INSERT
  5
5F0
  8
COTATION-JACOBDELAFON
 62
     0
  2
_OBLIQUE
 10
81.000000000000028
 20
27.48201299134271
 30
0.0
 41
1.8
 42
1.8
 43
1.8
  0
TEXT
  5
5F1
  8
0
 62
     0
 10
38.468990159241059
 20
28.439311763511881
 30
0.0
 40
3.0
  1
81
  7
JACOB-DELAFON
  0
POINT
  5
5F2
  8
DEFPOINTS
 62
     0
 10
0.000053988332045
 20
-0.0016743763835891
 30
0.0
  0
POINT
  5
5F3
  8
DEFPOINTS
 62
     0
 10
81.000000000000028
 20
0.0000000000004561
 30
0.0
  0
POINT
  5
5F4
  8
DEFPOINTS
 62
     0
 10
81.000000000000028
 20
27.48201299134271
 30
0.0
  0
ENDBLK
  5
539
  8
0
  0
BLOCK
  8
0
  2
*D2
 70
     1
 10
0.0
 20
0.0
 30
0.0
  3
*D2
  1

  0
LINE
  5
5F5
  8
COTATION-JACOBDELAFON
 62
     0
 10
40.150370447627857
 20
22.499999999997129
 30
0.0
 11
-9.2798904883002837
 21
22.49999999999714
 31
0.0
  0
LINE
  5
5F6
  8
COTATION-JACOBDELAFON
 62
     0
 10
40.150370447627488
 20
-22.499999999999869
 30
0.0
 11
-9.2798904883002944
 21
-22.499999999999851
 31
0.0
  0
LINE
  5
5F7
  8
COTATION-JACOBDELAFON
 62
     0
 10
-7.4798904883002839
 20
22.49999999999714
 30
0.0
 11
-7.4798904883002946
 21
-22.499999999999851
 31
0.0
  0
INSERT
  5
5F8
  8
COTATION-JACOBDELAFON
 62
     0
  2
_OBLIQUE
 10
-7.4798904883002839
 20
22.49999999999714
 30
0.0
 41
1.8
 42
1.8
 43
1.8
 50
90.0
  0
INSERT
  5
5F9
  8
COTATION-JACOBDELAFON
 62
     0
  2
_OBLIQUE
 10
-7.4798904883002946
 20
-22.499999999999851
 30
0.0
 41
1.8
 42
1.8
 43
1.8
 50
270.0
  0
TEXT
  5
5FA
  8
0
 62
     0
 10
-8.4310501063084757
 20
-2.2735334242851208
 30
0.0
 40
3.0
  1
45
 50
90.0
  7
JACOB-DELAFON
  0
POINT
  5
5FB
  8
DEFPOINTS
 62
     0
 10
40.775370447627857
 20
22.499999999997129
 30
0.0
  0
POINT
  5
5FC
  8
DEFPOINTS
 62
     0
 10
40.775370447627488
 20
-22.499999999999869
 30
0.0
  0
POINT
  5
5FD
  8
DEFPOINTS
 62
     0
 10
-7.4798904883002946
 20
-22.499999999999851
 30
0.0
  0
ENDBLK
  5
57F
  8
0
  0
BLOCK
  8
0
  2
ADCADD_ZZ
 70
     0
 10
0.0
 20
0.0
 30
0.0
  3
ADCADD_ZZ
  1

  0
ENDBLK
  5
657
  8
0
  0
ENDSEC
  0
SECTION
  2
ENTITIES
  0
ARC
  5
281
  8
0
 10
27.719407997121149
 20
0.0825937231912817
 30
0.0
 40
14.8732184398177
 50
180.31817565880451
 51
250.11258679258839
  0
ARC
  5
284
  8
0
 10
22.74227070226155
 20
-0.1059184161360336
 30
0.0
 40
17.471860941225039
 50
179.65265775582611
 51
264.59169136986623
  0
LINE
  5
286
  8
0
 10
20.434971011485882
 20
-22.499999999999702
 30
0.0
 11
61.115769883765473
 21
-22.50000000000005
 31
0.0
  0
ARC
  5
29A
  8
0
 10
27.719407997121149
 20
-0.0825937231910232
 30
0.0
 40
14.8732184398177
 50
109.8874132074198
 51
179.68182434119461
  0
ARC
  5
52A
  8
0
 10
58.63224201089119
 20
-0.3808526220432769
 30
0.0
 40
22.371000115753841
 50
281.5810549015651
 51
0.9754727977720415
  0
DIMENSION
  5
52D
  8
COTATION-JACOBDELAFON
  2
*D1
 10
81.000000000000028
 20
27.48201299134271
 30
0.0
 11
40.500026994166028
 21
29.913731954507782
 31
0.0
 70
     0
 13
0.000053988332045
 23
-0.0016743763835891
 33
0.0
 14
81.000000000000028
 24
0.0000000000004561
 34
0.0
  0
ARC
  5
53A
  8
0
 10
23.627680164530538
 20
0.7610091907654364
 30
0.0
 40
23.639932422614478
 50
181.84476623986399
 51
256.4631472477754
  0
ARC
  5
56C
  8
0
 10
20.43497101148597
 20
-12.49999999999968
 30
0.0
 40
10.0
 50
256.46314724777528
 51
269.99999999999937
  0
ARC
  5
56D
  8
0
 10
61.115769883765552
 20
-12.50000000000005
 30
0.0
 40
10.0
 50
269.99999999999937
 51
281.5810549015651
  0
ARC
  5
56E
  8
0
 10
58.632242010891218
 20
0.3808526220387605
 30
0.0
 40
22.371000115753841
 50
359.02452720222232
 51
78.418945098429276
  0
LINE
  5
56F
  8
0
 10
20.43497101148807
 20
22.49999999999892
 30
0.0
 11
61.115769883767648
 21
22.49999999999531
 31
0.0
  0
ARC
  5
570
  8
0
 10
23.62768016453046
 20
-0.7610091907665422
 30
0.0
 40
23.639932422614478
 50
103.53685275221891
 51
178.1552337601303
  0
ARC
  5
571
  8
0
 10
20.434971011487189
 20
12.49999999999889
 30
0.0
 40
10.0
 50
89.999999999994927
 51
103.536852752219
  0
ARC
  5
572
  8
0
 10
61.115769883766767
 20
12.49999999999531
 30
0.0
 40
10.0
 50
78.418945098429219
 51
89.999999999994927
  0
DIMENSION
  5
573
  8
COTATION-JACOBDELAFON
  2
*D2
 10
-7.4798904883002946
 20
-22.499999999999851
 30
0.0
 11
-9.9054702973043831
 21
-0.0000000000013564
 31
0.0
 70
     0
 13
40.775370447627857
 23
22.499999999997129
 33
0.0
 14
40.775370447627488
 24
-22.499999999999869
 34
0.0
 50
90.0
  0
CIRCLE
  5
580
  8
0
 10
20.758800186939961
 20
0.0000000000000013
 30
0.0
 40
2.5
  0
CIRCLE
  5
582
  8
0
 10
20.758800186939961
 20
0.0000000000000013
 30
0.0
 40
1.5
  0
ARC
  5
586
  8
0
 10
57.558470192993269
 20
-0.1059184161359767
 30
0.0
 40
17.471860941225181
 50
275.40830863013429
 51
0.3473422441736595
  0
LINE
  5
588
  8
0
 10
21.095500954120642
 20
-17.499999999999979
 30
0.0
 11
59.205239941134352
 21
-17.5
 31
0.0
  0
ARC
  5
58A
  8
0
 10
22.74227070226155
 20
0.1059184161360362
 30
0.0
 40
17.471860941225039
 50
95.408308630133789
 51
180.3473422441738
  0
LINE
  5
58B
  8
0
 10
21.095500954120642
 20
17.499999999999972
 30
0.0
 11
59.205239941134352
 21
17.5
 31
0.0
  0
ARC
  5
58C
  8
0
 10
57.558470192993269
 20
0.1059184161359794
 30
0.0
 40
17.471860941225181
 50
359.65265775582628
 51
84.591691369865714
  0
LINE
  5
5B1
  8
0
 10
26.06167076512466
 20
-14.49999999999997
 30
0.0
 11
42.633455353129499
 21
-14.49999999999997
 31
0.0
  0
LINE
  5
5B2
  8
0
 10
26.061670765123999
 20
14.49999999999997
 30
0.0
 11
42.633455353129143
 21
14.499999999999799
 31
0.0
  0
ARC
  5
5B5
  8
0
 10
26.06167076512466
 20
-4.4999999999999689
 30
0.0
 40
10.0
 50
250.11258679258839
 51
270.0
  0
ARC
  5
5B6
  8
0
 10
26.061670765123999
 20
4.4999999999999734
 30
0.0
 40
10.0
 50
90.0
 51
109.8874132074198
  0
ARC
  5
5B8
  8
0
 10
57.547502709137518
 20
-0.0825937231910232
 30
0.0
 40
14.8732184398177
 50
0.3181756588053871
 51
70.112586792580174
  0
LINE
  5
5B9
  8
0
 10
59.205239941134657
 20
14.49999999999997
 30
0.0
 11
42.633455353129527
 21
14.499999999999799
 31
0.0
  0
ARC
  5
5BA
  8
0
 10
59.205239941134657
 20
4.4999999999999734
 30
0.0
 40
10.0
 50
70.112586792580132
 51
90.0
  0
LINE
  5
5BB
  8
0
 10
59.20523994113401
 20
-14.49999999999997
 30
0.0
 11
42.633455353129158
 21
-14.49999999999997
 31
0.0
  0
ARC
  5
5BC
  8
0
 10
59.20523994113401
 20
-4.4999999999999689
 30
0.0
 40
10.0
 50
270.0
 51
289.88741320741161
  0
ARC
  5
5BD
  8
0
 10
57.547502709137518
 20
0.0825937231912817
 30
0.0
 40
14.8732184398177
 50
289.88741320741161
 51
359.68182434119541
  0
INSERT
  5
658
 67
     1
  8
0
  2
ADCADD_ZZ
 10
0.0
 20
0.0
 30
0.0
1001
ADCADD_ZZ
1070
   205
1070
    14
1070
   209
1070
     1
1070
   231
1070
     0
1070
   235
1070
     0
1070
   236
1070
     4
1070
   237
1070
     2
1070
   238
1070
     4
1070
   239
1070
     3
1070
   240
1070
     0
1070
   241
1070
  4096
1070
   242
1070
     3
1070
   244
1070
     0
1070
   245
1070
     1
1070
   303
1040
0.1
1070
   304
1040
50.0
1070
   305
1040
1.0
1070
   306
1040
0.25
1070
   337
1040
0.0
1070
   338
1040
3.2808399999999991
1070
   339
1040
1.587499999999999
1070
   340
1040
100.0
1070
   341
1040
50.0
1070
   342
1040
1.0
1070
   530
1010
0.0
1020
0.0
1030
0.0
1070
   531
1010
0.0
1020
0.0
1030
0.0
1070
   107
1000

1070
   108
1000
Architectural Desktop
1070
   135
1000
5MM
1070
   136
1000
m
1070
   137
1000
'
1001
SDSK_PMN
1070
   100
1000
ACADARCH
1070
   300
1040
2453076.7440689462
  0
ENDSEC
  0
EOF
