  0
SECTION
  2
HEADER
  9
$ACADVER
  1
AC1009
  9
$INSBASE
 10
0.0000000000000142
 20
0.0
 30
0.0
  9
$EXTMIN
 10
-14.12797135729231
 20
-0.9000000000000012
 30
0.0
  9
$EXTMAX
 10
81.899999999999935
 20
40.378891973916851
 30
0.0
  9
$LIMMIN
 10
0.0
 20
0.0
  9
$LIMMAX
 10
420.0
 20
297.0
  9
$ORTHOMODE
 70
     1
  9
$REGENMODE
 70
     1
  9
$FILLMODE
 70
     1
  9
$QTEXTMODE
 70
     0
  9
$MIRRTEXT
 70
     1
  9
$DRAGMODE
 70
     2
  9
$LTSCALE
 40
1.0
  9
$OSMODE
 70
     1
  9
$ATTMODE
 70
     1
  9
$TEXTSIZE
 40
2.5
  9
$TRACEWID
 40
1.0
  9
$TEXTSTYLE
  7
STANDARD
  9
$CLAYER
  8
0
  9
$CELTYPE
  6
BYLAYER
  9
$CECOLOR
 62
   256
  9
$DIMSCALE
 40
1.0
  9
$DIMASZ
 40
1.8
  9
$DIMEXO
 40
0.625
  9
$DIMDLI
 40
3.7999999999999989
  9
$DIMRND
 40
0.0
  9
$DIMDLE
 40
0.0
  9
$DIMEXE
 40
1.8
  9
$DIMTP
 40
0.0
  9
$DIMTM
 40
0.0
  9
$DIMTXT
 40
3.0
  9
$DIMCEN
 40
0.9
  9
$DIMTSZ
 40
0.0
  9
$DIMTOL
 70
     0
  9
$DIMLIM
 70
     0
  9
$DIMTIH
 70
     0
  9
$DIMTOH
 70
     0
  9
$DIMSE1
 70
     0
  9
$DIMSE2
 70
     0
  9
$DIMTAD
 70
     1
  9
$DIMZIN
 70
    12
  9
$DIMBLK
  1
OBLIQUE
  9
$DIMASO
 70
     1
  9
$DIMSHO
 70
     1
  9
$DIMPOST
  1

  9
$DIMAPOST
  1

  9
$DIMALT
 70
     0
  9
$DIMALTD
 70
     2
  9
$DIMALTF
 40
25.399999999999999
  9
$DIMLFAC
 40
1.0
  9
$DIMTOFL
 70
     0
  9
$DIMTVP
 40
0.0
  9
$DIMTIX
 70
     0
  9
$DIMSOXD
 70
     0
  9
$DIMSAH
 70
     0
  9
$DIMBLK1
  1

  9
$DIMBLK2
  1

  9
$DIMSTYLE
  2
COTATION-JACOB-DELAFON
  9
$DIMCLRD
 70
     0
  9
$DIMCLRE
 70
     0
  9
$DIMCLRT
 70
     0
  9
$DIMTFAC
 40
1.0
  9
$DIMGAP
 40
0.9
  9
$LUNITS
 70
     2
  9
$LUPREC
 70
     4
  9
$SKETCHINC
 40
1.0
  9
$FILLETRAD
 40
10.0
  9
$AUNITS
 70
     0
  9
$AUPREC
 70
     2
  9
$MENU
  1
.
  9
$ELEVATION
 40
0.0
  9
$PELEVATION
 40
0.0
  9
$THICKNESS
 40
0.0
  9
$LIMCHECK
 70
     0
  9
$BLIPMODE
 70
     0
  9
$CHAMFERA
 40
10.0
  9
$CHAMFERB
 40
10.0
  9
$SKPOLY
 70
     0
  9
$TDCREATE
 40
2451211.752960416
  9
$TDUPDATE
 40
2453076.7441866891
  9
$TDINDWG
 40
0.0303134722
  9
$TDUSRTIMER
 40
0.0303134722
  9
$USRTIMER
 70
     1
  9
$ANGBASE
 50
0.0
  9
$ANGDIR
 70
     0
  9
$PDMODE
 70
     0
  9
$PDSIZE
 40
0.0
  9
$PLINEWID
 40
0.0
  9
$COORDS
 70
     1
  9
$SPLFRAME
 70
     0
  9
$SPLINETYPE
 70
     6
  9
$SPLINESEGS
 70
     8
  9
$ATTDIA
 70
     1
  9
$ATTREQ
 70
     1
  9
$HANDLING
 70
 22529
  9
$HANDSEED
  5
869
  9
$SURFTAB1
 70
     6
  9
$SURFTAB2
 70
     6
  9
$SURFTYPE
 70
     6
  9
$SURFU
 70
     6
  9
$SURFV
 70
     6
  9
$UCSNAME
  2

  9
$UCSORG
 10
0.0
 20
0.0
 30
0.0
  9
$UCSXDIR
 10
1.0
 20
0.0
 30
0.0
  9
$UCSYDIR
 10
0.0
 20
1.0
 30
0.0
  9
$PUCSNAME
  2

  9
$PUCSORG
 10
0.0
 20
0.0
 30
0.0
  9
$PUCSXDIR
 10
1.0
 20
0.0
 30
0.0
  9
$PUCSYDIR
 10
0.0
 20
1.0
 30
0.0
  9
$USERI1
 70
     0
  9
$USERI2
 70
     0
  9
$USERI3
 70
     0
  9
$USERI4
 70
     0
  9
$USERI5
 70
     0
  9
$USERR1
 40
0.0
  9
$USERR2
 40
0.0
  9
$USERR3
 40
0.0
  9
$USERR4
 40
0.0
  9
$USERR5
 40
0.0
  9
$WORLDVIEW
 70
     1
  9
$SHADEDGE
 70
     3
  9
$SHADEDIF
 70
    70
  9
$TILEMODE
 70
     1
  9
$MAXACTVP
 70
    48
  9
$PLIMCHECK
 70
     0
  9
$PEXTMIN
 10
1.0000000000000000E+020
 20
1.0000000000000000E+020
 30
1.0000000000000000E+020
  9
$PEXTMAX
 10
-1.0000000000000000E+020
 20
-1.0000000000000000E+020
 30
-1.0000000000000000E+020
  9
$PLIMMIN
 10
0.0
 20
0.0
  9
$PLIMMAX
 10
420.0
 20
297.0
  9
$UNITMODE
 70
     0
  9
$VISRETAIN
 70
     1
  9
$PLINEGEN
 70
     0
  9
$PSLTSCALE
 70
     1
  0
ENDSEC
  0
SECTION
  2
TABLES
  0
TABLE
  2
VPORT
 70
     2
  0
VPORT
  2
*ACTIVE
 70
     0
 10
0.0
 20
0.0
 11
1.0
 21
1.0
 12
37.802030974177569
 22
19.7386670288052
 13
0.0
 23
0.0
 14
10.0
 24
10.0
 15
10.0
 25
10.0
 16
0.0
 26
0.0
 36
1.0
 17
0.0
 27
0.0
 37
0.0
 40
54.229130795814122
 41
1.928853754940711
 42
50.0
 43
0.0
 44
0.0
 50
0.0
 51
0.0
 71
     0
 72
   100
 73
     1
 74
     1
 75
     0
 76
     0
 77
     0
 78
     0
  0
ENDTAB
  0
TABLE
  2
LTYPE
 70
     1
  0
LTYPE
  2
CONTINUOUS
 70
     0
  3
Solid line
 72
    65
 73
     0
 40
0.0
  0
ENDTAB
  0
TABLE
  2
LAYER
 70
     3
  0
LAYER
  2
0
 70
     0
 62
     7
  6
CONTINUOUS
  0
LAYER
  2
DEFPOINTS
 70
     0
 62
     7
  6
CONTINUOUS
  0
LAYER
  2
COTATION-JACOBDELAFON
 70
     0
 62
     8
  6
CONTINUOUS
  0
ENDTAB
  0
TABLE
  2
STYLE
 70
     2
  0
STYLE
  2
STANDARD
 70
     0
 40
0.0
 41
1.0
 50
0.0
 71
     0
 42
2.5
  3
txt
  4

  0
STYLE
  2
JACOB-DELAFON
 70
     0
 40
0.0
 41
1.0
 50
0.0
 71
     0
 42
2.5
  3
txt
  4

  0
ENDTAB
  0
TABLE
  2
VIEW
 70
     0
  0
ENDTAB
  0
TABLE
  2
UCS
 70
     0
  0
ENDTAB
  0
TABLE
  2
APPID
 70
     9
  0
APPID
  2
ACAD
 70
     0
  0
APPID
  2
PE_URL
 70
     0
  0
APPID
  2
ADCADD_ZZ
 70
     0
  0
APPID
  2
SDSK_PMN
 70
     0
  0
APPID
  2
ACAECLAYERSTANDARD
 70
     0
  0
APPID
  2
AECBASE
 70
     0
  0
APPID
  2
AEC_DWGVARSSETUP_DATA
 70
     0
  0
APPID
  2
AEC_DISPREPCONFIG_DATA
 70
     0
  0
APPID
  2
AEC_DISPREPSET_DATA
 70
     0
  0
ENDTAB
  0
TABLE
  2
DIMSTYLE
 70
     2
  0
DIMSTYLE
  2
STANDARD
 70
     0
  3

  4

  5

  6

  7

 40
1.0
 41
0.18
 42
0.0625
 43
0.38
 44
0.18
 45
0.0
 46
0.0
 47
0.0
 48
0.0
140
0.18
141
0.09
142
0.0
143
25.399999999999999
144
1.0
145
0.0
146
1.0
147
0.09
 71
     0
 72
     0
 73
     1
 74
     1
 75
     0
 76
     0
 77
     0
 78
     0
170
     0
171
     2
172
     0
173
     0
174
     0
175
     0
176
     0
177
     0
178
     0
  0
DIMSTYLE
  2
COTATION-JACOB-DELAFON
 70
     0
  3

  4

  5
OBLIQUE
  6

  7

 40
1.0
 41
1.8
 42
0.625
 43
3.7999999999999989
 44
1.8
 45
0.0
 46
0.0
 47
0.0
 48
0.0
140
3.0
141
0.9
142
0.0
143
25.399999999999999
144
1.0
145
0.0
146
1.0
147
0.9
 71
     0
 72
     0
 73
     0
 74
     0
 75
     0
 76
     0
 77
     1
 78
    12
170
     0
171
     2
172
     0
173
     0
174
     0
175
     0
176
     0
177
     0
178
     0
  0
ENDTAB
  0
ENDSEC
  0
SECTION
  2
BLOCKS
  0
BLOCK
  8
0
  2
$MODEL_SPACE
 70
     0
 10
0.0
 20
0.0
 30
0.0
  3
$MODEL_SPACE
  1

  0
ENDBLK
  5
1A
  8
0
  0
BLOCK
 67
     1
  8
0
  2
$PAPER_SPACE
 70
     0
 10
0.0
 20
0.0
 30
0.0
  3
$PAPER_SPACE
  1

  0
ENDBLK
  5
17
 67
     1
  8
0
  0
BLOCK
  8
0
  2
_OBLIQUE
 70
     0
 10
0.0
 20
0.0
 30
0.0
  3
_OBLIQUE
  1

  0
LINE
  5
1F1
  8
0
  6
BYBLOCK
 62
     0
 10
-0.5
 20
-0.5
 30
0.0
 11
0.5
 21
0.5
 31
0.0
  0
ENDBLK
  5
1F3
  8
0
  0
BLOCK
  8
0
  2
*D1
 70
     1
 10
0.0
 20
0.0
 30
0.0
  3
*D1
  1

  0
LINE
  5
682
  8
COTATION-JACOBDELAFON
 62
     0
 10
-0.000000000000071
 20
28.624999999999979
 30
0.0
 11
-0.0000000000000705
 21
37.427595930260651
 31
0.0
  0
LINE
  5
683
  8
COTATION-JACOBDELAFON
 62
     0
 10
80.999999999999915
 20
28.625000000000039
 30
0.0
 11
80.999999999999915
 21
37.427595930260651
 31
0.0
  0
LINE
  5
684
  8
COTATION-JACOBDELAFON
 62
     0
 10
-0.0000000000000706
 20
35.627595930260647
 30
0.0
 11
80.999999999999915
 21
35.627595930260647
 31
0.0
  0
INSERT
  5
685
  8
COTATION-JACOBDELAFON
 62
     0
  2
_OBLIQUE
 10
-0.0000000000000706
 20
35.627595930260647
 30
0.0
 41
1.8
 42
1.8
 43
1.8
 50
180.0
  0
INSERT
  5
686
  8
COTATION-JACOBDELAFON
 62
     0
  2
_OBLIQUE
 10
80.999999999999915
 20
35.627595930260647
 30
0.0
 41
1.8
 42
1.8
 43
1.8
  0
TEXT
  5
687
  8
0
 62
     0
 10
38.46896316507496
 20
36.584894702429821
 30
0.0
 40
3.0
  1
81
  7
JACOB-DELAFON
  0
POINT
  5
688
  8
DEFPOINTS
 62
     0
 10
-0.0000000000000711
 20
27.999999999999979
 30
0.0
  0
POINT
  5
689
  8
DEFPOINTS
 62
     0
 10
80.999999999999915
 20
28.000000000000039
 30
0.0
  0
POINT
  5
68A
  8
DEFPOINTS
 62
     0
 10
80.999999999999915
 20
35.627595930260647
 30
0.0
  0
ENDBLK
  5
5D0
  8
0
  0
BLOCK
  8
0
  2
*D2
 70
     1
 10
0.0
 20
0.0
 30
0.0
  3
*D2
  1

  0
LINE
  5
68B
  8
COTATION-JACOBDELAFON
 62
     0
 10
-0.6250000000000142
 20
28.000000000000039
 30
0.0
 11
-11.1766753136361
 21
28.00000000000005
 31
0.0
  0
LINE
  5
68C
  8
COTATION-JACOBDELAFON
 62
     0
 10
24.26346575678529
 20
-0.0000000000000105
 30
0.0
 11
-11.17667531363611
 21
-0.0000000000000004
 31
0.0
  0
LINE
  5
68D
  8
COTATION-JACOBDELAFON
 62
     0
 10
-9.3766753136361043
 20
28.00000000000005
 30
0.0
 11
-9.3766753136361114
 21
-0.000000000000001
 31
0.0
  0
INSERT
  5
68E
  8
COTATION-JACOBDELAFON
 62
     0
  2
_OBLIQUE
 10
-9.3766753136361043
 20
28.00000000000005
 30
0.0
 41
1.8
 42
1.8
 43
1.8
 50
90.0
  0
INSERT
  5
68F
  8
COTATION-JACOBDELAFON
 62
     0
  2
_OBLIQUE
 10
-9.3766753136361114
 20
-0.000000000000001
 30
0.0
 41
1.8
 42
1.8
 43
1.8
 50
270.0
  0
TEXT
  5
690
  8
0
 62
     0
 10
-10.33397408580527
 20
11.699863574351999
 30
0.0
 40
3.0
  1
28
 50
90.0
  7
JACOB-DELAFON
  0
POINT
  5
691
  8
DEFPOINTS
 62
     0
 10
-0.0000000000000142
 20
28.000000000000039
 30
0.0
  0
POINT
  5
692
  8
DEFPOINTS
 62
     0
 10
24.88846575678529
 20
-0.0000000000000107
 30
0.0
  0
POINT
  5
693
  8
DEFPOINTS
 62
     0
 10
-9.3766753136361114
 20
-0.000000000000001
 30
0.0
  0
ENDBLK
  5
62B
  8
0
  0
BLOCK
  8
0
  2
ADCADD_ZZ
 70
     0
 10
0.0
 20
0.0
 30
0.0
  3
ADCADD_ZZ
  1

  0
ENDBLK
  5
706
  8
0
  0
ENDSEC
  0
SECTION
  2
ENTITIES
  0
LINE
  5
2D0
  8
0
 10
78.437878139534675
 20
28.000000000000039
 30
0.0
 11
2.562121860465127
 21
27.999999999999979
 31
0.0
  0
LINE
  5
2D2
  8
0
 10
40.499999999999957
 20
1.8000000000000289
 30
0.0
 11
65.463319522291201
 21
1.8000000000000289
 31
0.0
  0
LINE
  5
2DB
  8
0
 10
53.790282302886858
 20
1.8000000000000289
 30
0.0
 11
54.390918657937007
 21
0.0000000000000178
 31
0.0
  0
LINE
  5
2E6
  8
0
 10
71.195527662692726
 20
6.4723458881238001
 30
0.0
 11
76.474774555211852
 21
25.437878139534732
 31
0.0
  0
ARC
  5
2E7
  8
0
 10
65.877315487875435
 20
7.1445105917851954
 30
0.0
 40
5.3605210684431652
 50
265.57060500669928
 51
352.7966250555661
  0
LINE
  5
2E8
  8
0
 10
57.832149828492177
 20
0.0000000000000462
 30
0.0
 11
58.432786183543463
 21
1.8
 31
0.0
  0
DIMENSION
  5
5C4
  8
COTATION-JACOBDELAFON
  2
*D1
 10
80.999999999999915
 20
35.627595930260647
 30
0.0
 11
40.499999999999922
 21
38.059314893425721
 31
0.0
 70
     0
 13
-0.0000000000000711
 23
27.999999999999979
 33
0.0
 14
80.999999999999915
 24
28.000000000000039
 34
0.0
  0
LINE
  5
609
  8
0
 10
9.8044723373071871
 20
6.4723458881238001
 30
0.0
 11
4.5252254447880063
 21
25.437878139534732
 31
0.0
  0
LINE
  5
60A
  8
0
 10
40.499999999999957
 20
1.8000000000000289
 30
0.0
 11
15.53668047770871
 21
1.8000000000000289
 31
0.0
  0
LINE
  5
60B
  8
0
 10
27.209717697112929
 20
1.8
 30
0.0
 11
26.609081342062819
 21
-0.0000000000000107
 31
0.0
  0
LINE
  5
60C
  8
0
 10
23.167850171507741
 20
0.0000000000000178
 30
0.0
 11
22.56721381645643
 21
1.8
 31
0.0
  0
ARC
  5
60E
  8
0
 10
15.122684512124479
 20
7.1445105917851954
 30
0.0
 40
5.3605210684431652
 50
187.20337494443379
 51
274.4293949933006
  0
LINE
  5
61C
  8
0
 10
57.832149828492149
 20
-0.0000000000000391
 30
0.0
 11
54.390918657937007
 21
-0.0000000000000107
 31
0.0
  0
LINE
  5
61D
  8
0
 10
26.60908134206279
 20
-0.0000000000000391
 30
0.0
 11
23.167850171507759
 21
-0.0000000000000107
 31
0.0
  0
DIMENSION
  5
61F
  8
COTATION-JACOBDELAFON
  2
*D2
 10
-9.3766753136361114
 20
-0.000000000000001
 30
0.0
 11
-11.808394276801179
 21
14.00000000000002
 31
0.0
 70
     0
 13
-0.0000000000000142
 23
28.000000000000039
 33
0.0
 14
24.88846575678529
 24
-0.0000000000000107
 34
0.0
 50
90.0
  0
LINE
  5
67A
  8
0
 10
-0.000000000000071
 20
25.437878139534781
 30
0.0
 11
80.999999999999915
 21
25.437878139534789
 31
0.0
  0
ARC
  5
6AF
  8
0
 10
2.5621218604651288
 20
25.437878139534781
 30
0.0
 40
2.5621218604651999
 50
90.000000000000057
 51
180.0
  0
ARC
  5
6B0
  8
0
 10
78.437878139534675
 20
25.437878139534789
 30
0.0
 40
2.562121860465254
 50
0.0
 51
90.0
  0
INSERT
  5
707
 67
     1
  8
0
  2
ADCADD_ZZ
 10
0.0
 20
0.0
 30
0.0
1001
ADCADD_ZZ
1070
   205
1070
    14
1070
   209
1070
     1
1070
   231
1070
     0
1070
   235
1070
     0
1070
   236
1070
     4
1070
   237
1070
     2
1070
   238
1070
     4
1070
   239
1070
     3
1070
   240
1070
     0
1070
   241
1070
  4096
1070
   242
1070
     3
1070
   244
1070
     0
1070
   245
1070
     1
1070
   303
1040
0.1
1070
   304
1040
50.0
1070
   305
1040
1.0
1070
   306
1040
0.25
1070
   337
1040
0.0
1070
   338
1040
3.2808399999999991
1070
   339
1040
1.587499999999999
1070
   340
1040
100.0
1070
   341
1040
50.0
1070
   342
1040
1.0
1070
   530
1010
0.0
1020
0.0
1030
0.0
1070
   531
1010
0.0
1020
0.0
1030
0.0
1070
   107
1000

1070
   108
1000
Architectural Desktop
1070
   135
1000
5MM
1070
   136
1000
m
1070
   137
1000
'
1001
SDSK_PMN
1070
   100
1000
ACADARCH
1070
   300
1040
2453076.744211528
  0
ENDSEC
  0
EOF
