  0
SECTION
  2
HEADER
  9
$ACADVER
  1
AC1009
  9
$INSBASE
 10
0.0000000000000048
 20
0.0
 30
0.0
  9
$EXTMIN
 10
-23.399999999999991
 20
-0.900000000000006
 30
0.0
  9
$EXTMAX
 10
33.478790953980521
 20
36.553855964033062
 30
0.0
  9
$LIMMIN
 10
0.0
 20
0.0
  9
$LIMMAX
 10
420.0
 20
297.0
  9
$ORTHOMODE
 70
     1
  9
$REGENMODE
 70
     1
  9
$FILLMODE
 70
     1
  9
$QTEXTMODE
 70
     0
  9
$MIRRTEXT
 70
     1
  9
$DRAGMODE
 70
     2
  9
$LTSCALE
 40
1.0
  9
$OSMODE
 70
     1
  9
$ATTMODE
 70
     1
  9
$TEXTSIZE
 40
2.5
  9
$TRACEWID
 40
1.0
  9
$TEXTSTYLE
  7
STANDARD
  9
$CLAYER
  8
0
  9
$CELTYPE
  6
BYLAYER
  9
$CECOLOR
 62
   256
  9
$DIMSCALE
 40
1.0
  9
$DIMASZ
 40
1.8
  9
$DIMEXO
 40
0.625
  9
$DIMDLI
 40
3.7999999999999989
  9
$DIMRND
 40
0.0
  9
$DIMDLE
 40
0.0
  9
$DIMEXE
 40
1.8
  9
$DIMTP
 40
0.0
  9
$DIMTM
 40
0.0
  9
$DIMTXT
 40
3.0
  9
$DIMCEN
 40
0.9
  9
$DIMTSZ
 40
0.0
  9
$DIMTOL
 70
     0
  9
$DIMLIM
 70
     0
  9
$DIMTIH
 70
     0
  9
$DIMTOH
 70
     0
  9
$DIMSE1
 70
     0
  9
$DIMSE2
 70
     0
  9
$DIMTAD
 70
     1
  9
$DIMZIN
 70
    12
  9
$DIMBLK
  1
OBLIQUE
  9
$DIMASO
 70
     1
  9
$DIMSHO
 70
     1
  9
$DIMPOST
  1

  9
$DIMAPOST
  1

  9
$DIMALT
 70
     0
  9
$DIMALTD
 70
     2
  9
$DIMALTF
 40
25.399999999999999
  9
$DIMLFAC
 40
1.0
  9
$DIMTOFL
 70
     0
  9
$DIMTVP
 40
0.0
  9
$DIMTIX
 70
     0
  9
$DIMSOXD
 70
     0
  9
$DIMSAH
 70
     0
  9
$DIMBLK1
  1

  9
$DIMBLK2
  1

  9
$DIMSTYLE
  2
COTATION-JACOB-DELAFON
  9
$DIMCLRD
 70
     0
  9
$DIMCLRE
 70
     0
  9
$DIMCLRT
 70
     0
  9
$DIMTFAC
 40
1.0
  9
$DIMGAP
 40
0.9
  9
$LUNITS
 70
     2
  9
$LUPREC
 70
     4
  9
$SKETCHINC
 40
1.0
  9
$FILLETRAD
 40
10.0
  9
$AUNITS
 70
     0
  9
$AUPREC
 70
     2
  9
$MENU
  1
.
  9
$ELEVATION
 40
0.0
  9
$PELEVATION
 40
0.0
  9
$THICKNESS
 40
0.0
  9
$LIMCHECK
 70
     0
  9
$BLIPMODE
 70
     0
  9
$CHAMFERA
 40
10.0
  9
$CHAMFERB
 40
10.0
  9
$SKPOLY
 70
     0
  9
$TDCREATE
 40
2451211.752960416
  9
$TDUPDATE
 40
2453076.7443464808
  9
$TDINDWG
 40
0.0372698264
  9
$TDUSRTIMER
 40
0.0372698264
  9
$USRTIMER
 70
     1
  9
$ANGBASE
 50
0.0
  9
$ANGDIR
 70
     0
  9
$PDMODE
 70
     0
  9
$PDSIZE
 40
0.0
  9
$PLINEWID
 40
0.0
  9
$COORDS
 70
     1
  9
$SPLFRAME
 70
     0
  9
$SPLINETYPE
 70
     6
  9
$SPLINESEGS
 70
     8
  9
$ATTDIA
 70
     1
  9
$ATTREQ
 70
     1
  9
$HANDLING
 70
 22529
  9
$HANDSEED
  5
F40
  9
$SURFTAB1
 70
     6
  9
$SURFTAB2
 70
     6
  9
$SURFTYPE
 70
     6
  9
$SURFU
 70
     6
  9
$SURFV
 70
     6
  9
$UCSNAME
  2

  9
$UCSORG
 10
0.0
 20
0.0
 30
0.0
  9
$UCSXDIR
 10
1.0
 20
0.0
 30
0.0
  9
$UCSYDIR
 10
0.0
 20
1.0
 30
0.0
  9
$PUCSNAME
  2

  9
$PUCSORG
 10
0.0
 20
0.0
 30
0.0
  9
$PUCSXDIR
 10
1.0
 20
0.0
 30
0.0
  9
$PUCSYDIR
 10
0.0
 20
1.0
 30
0.0
  9
$USERI1
 70
     0
  9
$USERI2
 70
     0
  9
$USERI3
 70
     0
  9
$USERI4
 70
     0
  9
$USERI5
 70
     0
  9
$USERR1
 40
0.0
  9
$USERR2
 40
0.0
  9
$USERR3
 40
0.0
  9
$USERR4
 40
0.0
  9
$USERR5
 40
0.0
  9
$WORLDVIEW
 70
     1
  9
$SHADEDGE
 70
     3
  9
$SHADEDIF
 70
    70
  9
$TILEMODE
 70
     1
  9
$MAXACTVP
 70
    48
  9
$PLIMCHECK
 70
     0
  9
$PEXTMIN
 10
1.0000000000000000E+020
 20
1.0000000000000000E+020
 30
1.0000000000000000E+020
  9
$PEXTMAX
 10
-1.0000000000000000E+020
 20
-1.0000000000000000E+020
 30
-1.0000000000000000E+020
  9
$PLIMMIN
 10
0.0
 20
0.0
  9
$PLIMMAX
 10
420.0
 20
297.0
  9
$UNITMODE
 70
     0
  9
$VISRETAIN
 70
     1
  9
$PLINEGEN
 70
     0
  9
$PSLTSCALE
 70
     1
  0
ENDSEC
  0
SECTION
  2
TABLES
  0
TABLE
  2
VPORT
 70
     2
  0
VPORT
  2
*ACTIVE
 70
     0
 10
0.0
 20
0.0
 11
1.0
 21
1.0
 12
7.784571609937891
 22
17.830117576918781
 13
0.0
 23
0.0
 14
10.0
 24
10.0
 15
10.0
 25
10.0
 16
0.0
 26
0.0
 36
1.0
 17
0.0
 27
0.0
 37
0.0
 40
37.905220353253533
 41
1.928853754940711
 42
50.0
 43
0.0
 44
0.0
 50
0.0
 51
0.0
 71
     0
 72
   100
 73
     1
 74
     1
 75
     0
 76
     0
 77
     0
 78
     0
  0
ENDTAB
  0
TABLE
  2
LTYPE
 70
     1
  0
LTYPE
  2
CONTINUOUS
 70
     0
  3
Solid line
 72
    65
 73
     0
 40
0.0
  0
ENDTAB
  0
TABLE
  2
LAYER
 70
     3
  0
LAYER
  2
0
 70
     0
 62
     7
  6
CONTINUOUS
  0
LAYER
  2
DEFPOINTS
 70
     0
 62
     7
  6
CONTINUOUS
  0
LAYER
  2
COTATION-JACOBDELAFON
 70
     0
 62
     8
  6
CONTINUOUS
  0
ENDTAB
  0
TABLE
  2
STYLE
 70
     2
  0
STYLE
  2
STANDARD
 70
     0
 40
0.0
 41
1.0
 50
0.0
 71
     0
 42
2.5
  3
txt
  4

  0
STYLE
  2
JACOB-DELAFON
 70
     0
 40
0.0
 41
1.0
 50
0.0
 71
     0
 42
2.5
  3
txt
  4

  0
ENDTAB
  0
TABLE
  2
VIEW
 70
     0
  0
ENDTAB
  0
TABLE
  2
UCS
 70
     0
  0
ENDTAB
  0
TABLE
  2
APPID
 70
     9
  0
APPID
  2
ACAD
 70
     0
  0
APPID
  2
PE_URL
 70
     0
  0
APPID
  2
ADCADD_ZZ
 70
     0
  0
APPID
  2
SDSK_PMN
 70
     0
  0
APPID
  2
ACAECLAYERSTANDARD
 70
     0
  0
APPID
  2
AECBASE
 70
     0
  0
APPID
  2
AEC_DWGVARSSETUP_DATA
 70
     0
  0
APPID
  2
AEC_DISPREPCONFIG_DATA
 70
     0
  0
APPID
  2
AEC_DISPREPSET_DATA
 70
     0
  0
ENDTAB
  0
TABLE
  2
DIMSTYLE
 70
     2
  0
DIMSTYLE
  2
STANDARD
 70
     0
  3

  4

  5

  6

  7

 40
1.0
 41
0.18
 42
0.0625
 43
0.38
 44
0.18
 45
0.0
 46
0.0
 47
0.0
 48
0.0
140
0.18
141
0.09
142
0.0
143
25.399999999999999
144
1.0
145
0.0
146
1.0
147
0.09
 71
     0
 72
     0
 73
     1
 74
     1
 75
     0
 76
     0
 77
     0
 78
     0
170
     0
171
     2
172
     0
173
     0
174
     0
175
     0
176
     0
177
     0
178
     0
  0
DIMSTYLE
  2
COTATION-JACOB-DELAFON
 70
     0
  3

  4

  5
OBLIQUE
  6

  7

 40
1.0
 41
1.8
 42
0.625
 43
3.7999999999999989
 44
1.8
 45
0.0
 46
0.0
 47
0.0
 48
0.0
140
3.0
141
0.9
142
0.0
143
25.399999999999999
144
1.0
145
0.0
146
1.0
147
0.9
 71
     0
 72
     0
 73
     0
 74
     0
 75
     0
 76
     0
 77
     1
 78
    12
170
     0
171
     2
172
     0
173
     0
174
     0
175
     0
176
     0
177
     0
178
     0
  0
ENDTAB
  0
ENDSEC
  0
SECTION
  2
BLOCKS
  0
BLOCK
  8
0
  2
$MODEL_SPACE
 70
     0
 10
0.0
 20
0.0
 30
0.0
  3
$MODEL_SPACE
  1

  0
ENDBLK
  5
1A
  8
0
  0
BLOCK
 67
     1
  8
0
  2
$PAPER_SPACE
 70
     0
 10
0.0
 20
0.0
 30
0.0
  3
$PAPER_SPACE
  1

  0
ENDBLK
  5
17
 67
     1
  8
0
  0
BLOCK
  8
0
  2
_OBLIQUE
 70
     0
 10
0.0
 20
0.0
 30
0.0
  3
_OBLIQUE
  1

  0
LINE
  5
1F1
  8
0
  6
BYBLOCK
 62
     0
 10
-0.5
 20
-0.5
 30
0.0
 11
0.5
 21
0.5
 31
0.0
  0
ENDBLK
  5
1F3
  8
0
  0
BLOCK
  8
0
  2
*D1
 70
     1
 10
0.0
 20
0.0
 30
0.0
  3
*D1
  1

  0
LINE
  5
D22
  8
COTATION-JACOBDELAFON
 62
     0
 10
24.290281355075638
 20
27.999999999999989
 30
0.0
 11
33.478790953980521
 21
27.999999999999989
 31
0.0
  0
LINE
  5
D23
  8
COTATION-JACOBDELAFON
 62
     0
 10
11.744830689637491
 20
-0.0000000000000002
 30
0.0
 11
33.478790953980521
 21
-0.0000000000000063
 31
0.0
  0
LINE
  5
D24
  8
COTATION-JACOBDELAFON
 62
     0
 10
31.678790953980531
 20
27.999999999999989
 30
0.0
 11
31.678790953980521
 21
-0.0000000000000058
 31
0.0
  0
INSERT
  5
D25
  8
COTATION-JACOBDELAFON
 62
     0
  2
_OBLIQUE
 10
31.678790953980531
 20
27.999999999999989
 30
0.0
 41
1.8
 42
1.8
 43
1.8
 50
90.0
  0
INSERT
  5
D26
  8
COTATION-JACOBDELAFON
 62
     0
  2
_OBLIQUE
 10
31.678790953980521
 20
-0.0000000000000058
 30
0.0
 41
1.8
 42
1.8
 43
1.8
 50
270.0
  0
TEXT
  5
D27
  8
0
 62
     0
 10
30.72149218181135
 20
11.69986357435198
 30
0.0
 40
3.0
  1
28
 50
90.0
  7
JACOB-DELAFON
  0
POINT
  5
D28
  8
DEFPOINTS
 62
     0
 10
23.665281355075638
 20
28.0
 30
0.0
  0
POINT
  5
D29
  8
DEFPOINTS
 62
     0
 10
11.119830689637491
 20
0.0
 30
0.0
  0
POINT
  5
D2A
  8
DEFPOINTS
 62
     0
 10
31.678790953980521
 20
-0.0000000000000058
 30
0.0
  0
ENDBLK
  5
C0A
  8
0
  0
BLOCK
  8
0
  2
*D2
 70
     1
 10
0.0
 20
0.0
 30
0.0
  3
*D2
  1

  0
LINE
  5
D71
  8
COTATION-JACOBDELAFON
 62
     0
 10
-22.499999999999989
 20
28.625000000000039
 30
0.0
 11
-22.499999999999989
 21
33.608699074537839
 31
0.0
  0
LINE
  5
D72
  8
COTATION-JACOBDELAFON
 62
     0
 10
22.500000000000011
 20
28.62500000000006
 30
0.0
 11
22.500000000000011
 21
33.608699074537839
 31
0.0
  0
LINE
  5
D73
  8
COTATION-JACOBDELAFON
 62
     0
 10
-22.499999999999989
 20
31.808699074537842
 30
0.0
 11
22.500000000000011
 21
31.808699074537842
 31
0.0
  0
INSERT
  5
D74
  8
COTATION-JACOBDELAFON
 62
     0
  2
_OBLIQUE
 10
-22.499999999999989
 20
31.808699074537842
 30
0.0
 41
1.8
 42
1.8
 43
1.8
 50
180.0
  0
INSERT
  5
D75
  8
COTATION-JACOBDELAFON
 62
     0
  2
_OBLIQUE
 10
22.500000000000011
 20
31.808699074537842
 30
0.0
 41
1.8
 42
1.8
 43
1.8
  0
TEXT
  5
D76
  8
0
 62
     0
 10
-2.2735334242837562
 20
32.759858692546018
 30
0.0
 40
3.0
  1
45
  7
JACOB-DELAFON
  0
POINT
  5
D77
  8
DEFPOINTS
 62
     0
 10
-22.499999999999989
 20
28.000000000000039
 30
0.0
  0
POINT
  5
D78
  8
DEFPOINTS
 62
     0
 10
22.500000000000011
 20
28.00000000000006
 30
0.0
  0
POINT
  5
D79
  8
DEFPOINTS
 62
     0
 10
22.500000000000011
 20
31.808699074537842
 30
0.0
  0
ENDBLK
  5
D5E
  8
0
  0
BLOCK
  8
0
  2
ADCADD_ZZ
 70
     0
 10
0.0
 20
0.0
 30
0.0
  3
ADCADD_ZZ
  1

  0
ENDBLK
  5
DDD
  8
0
  0
ENDSEC
  0
SECTION
  2
ENTITIES
  0
LINE
  5
896
  8
0
 10
10.185874827021699
 20
1.8
 30
0.0
 11
0.0
 21
1.8
 31
0.0
  0
LINE
  5
8B4
  8
0
 10
-17.256165639858629
 20
25.440000000000001
 30
0.0
 11
-15.457062756149369
 21
6.5513438662803187
 31
0.0
  0
ARC
  5
8B8
  8
0
 10
-10.03275521017842
 20
7.2713220294281831
 30
0.0
 40
5.4718809296883517
 50
187.5607780074028
 51
270.81891752195929
  0
LINE
  5
8B9
  8
0
 10
-7.1033179189897293
 20
0.0
 30
0.0
 11
-7.1033179189897293
 21
1.8
 31
0.0
  0
LINE
  5
8BA
  8
0
 10
-9.9545493345618592
 20
0.0
 30
0.0
 11
-7.1033179189897293
 21
0.0
 31
0.0
  0
LINE
  5
8BB
  8
0
 10
-9.9545493345618592
 20
1.8
 30
0.0
 11
-9.9545493345618592
 21
0.0
 31
0.0
  0
LINE
  5
8BC
  8
0
 10
-10.1109610857949
 20
1.8
 30
0.0
 11
0.0
 21
1.8
 31
0.0
  0
ARC
  5
8C9
  8
0
 10
10.107668951405239
 20
7.2713220294281831
 30
0.0
 40
5.4718809296883517
 50
269.18108247804059
 51
352.43922199257599
  0
LINE
  5
8CA
  8
0
 10
10.02946307578865
 20
0.0
 30
0.0
 11
7.1782316602165253
 21
0.0
 31
0.0
  0
LINE
  5
8CB
  8
0
 10
10.02946307578865
 20
1.8
 30
0.0
 11
10.02946307578865
 21
0.0
 31
0.0
  0
LINE
  5
8CC
  8
0
 10
7.1782316602165253
 20
0.0
 30
0.0
 11
7.1782316602165253
 21
1.8
 31
0.0
  0
LINE
  5
8D1
  8
0
 10
19.939999999999952
 20
28.0
 30
0.0
 11
-19.939999999999941
 21
28.00000000000006
 31
0.0
  0
DIMENSION
  5
BFE
  8
COTATION-JACOBDELAFON
  2
*D1
 10
31.678790953980521
 20
-0.0000000000000058
 30
0.0
 11
29.247071990815449
 21
14.0
 31
0.0
 70
     0
 13
23.665281355075638
 23
28.0
 33
0.0
 14
11.119830689637491
 24
0.0
 34
0.0
 50
90.0
  0
LINE
  5
C9D
  8
0
 10
22.499999999999989
 20
25.439999999999991
 30
0.0
 11
-22.499999999999989
 21
25.440000000000001
 31
0.0
  0
DIMENSION
  5
D52
  8
COTATION-JACOBDELAFON
  2
*D2
 10
22.500000000000011
 20
31.808699074537842
 30
0.0
 11
0.000000000000009
 21
34.234278883541933
 31
0.0
 70
     0
 13
-22.499999999999989
 23
28.000000000000039
 33
0.0
 14
22.500000000000011
 24
28.00000000000006
 34
0.0
  0
ARC
  5
D85
  8
0
 10
-19.939999999999952
 20
25.440000000000001
 30
0.0
 40
2.560000000000044
 50
89.999999999999915
 51
180.0
  0
LINE
  5
D86
  8
0
 10
17.256165639858629
 20
25.440000000000001
 30
0.0
 11
15.457062756149369
 21
6.5513438662803187
 31
0.0
  0
ARC
  5
D87
  8
0
 10
19.939999999999952
 20
25.440000000000001
 30
0.0
 40
2.560000000000044
 50
359.99999999999972
 51
90.000000000000071
  0
INSERT
  5
DDE
 67
     1
  8
0
  2
ADCADD_ZZ
 10
0.0
 20
0.0
 30
0.0
1001
ADCADD_ZZ
1070
   205
1070
    14
1070
   209
1070
     1
1070
   231
1070
     0
1070
   235
1070
     0
1070
   236
1070
     4
1070
   237
1070
     2
1070
   238
1070
     4
1070
   239
1070
     3
1070
   240
1070
     0
1070
   241
1070
  4096
1070
   242
1070
     3
1070
   244
1070
     0
1070
   245
1070
     1
1070
   303
1040
0.1
1070
   304
1040
50.0
1070
   305
1040
1.0
1070
   306
1040
0.25
1070
   337
1040
0.0
1070
   338
1040
3.2808399999999991
1070
   339
1040
1.587499999999999
1070
   340
1040
100.0
1070
   341
1040
50.0
1070
   342
1040
1.0
1070
   530
1010
0.0
1020
0.0
1030
0.0
1070
   531
1010
0.0
1020
0.0
1030
0.0
1070
   107
1000

1070
   108
1000
Architectural Desktop
1070
   135
1000
5MM
1070
   136
1000
m
1070
   137
1000
'
1001
SDSK_PMN
1070
   100
1000
ACADARCH
1070
   300
1040
2453076.744370867
  0
ENDSEC
  0
EOF
