  0
SECTION
  2
HEADER
  9
$ACADVER
  1
AC1014
  9
$ACADMAINTVER
 70
     9
  9
$DWGCODEPAGE
  3
ANSI_1252
  9
$INSBASE
 10
-0.0000000000000324
 20
0.0000000000000001
 30
0.0
  9
$EXTMIN
 10
-11.78524508530368
 20
-0.8999999999999982
 30
0.0
  9
$EXTMAX
 10
80.90000000000001
 20
79.2300399993611
 30
0.0
  9
$LIMMIN
 10
0.0
 20
0.0
  9
$LIMMAX
 10
420.0
 20
297.0
  9
$ORTHOMODE
 70
     1
  9
$REGENMODE
 70
     1
  9
$FILLMODE
 70
     1
  9
$QTEXTMODE
 70
     0
  9
$MIRRTEXT
 70
     1
  9
$DRAGMODE
 70
     2
  9
$LTSCALE
 40
1.0
  9
$OSMODE
 70
   167
  9
$ATTMODE
 70
     1
  9
$TEXTSIZE
 40
2.5
  9
$TRACEWID
 40
1.0
  9
$TEXTSTYLE
  7
STANDARD
  9
$CLAYER
  8
0
  9
$CELTYPE
  6
BYLAYER
  9
$CECOLOR
 62
   256
  9
$CELTSCALE
 40
1.0
  9
$DELOBJ
 70
     1
  9
$DISPSILH
 70
     0
  9
$DIMSCALE
 40
1.0
  9
$DIMASZ
 40
2.5
  9
$DIMEXO
 40
0.625
  9
$DIMDLI
 40
3.75
  9
$DIMRND
 40
0.0
  9
$DIMDLE
 40
0.0
  9
$DIMEXE
 40
1.25
  9
$DIMTP
 40
0.0
  9
$DIMTM
 40
0.0
  9
$DIMTXT
 40
2.5
  9
$DIMCEN
 40
2.5
  9
$DIMTSZ
 40
0.0
  9
$DIMTOL
 70
     0
  9
$DIMLIM
 70
     0
  9
$DIMTIH
 70
     0
  9
$DIMTOH
 70
     0
  9
$DIMSE1
 70
     0
  9
$DIMSE2
 70
     0
  9
$DIMTAD
 70
     1
  9
$DIMZIN
 70
     8
  9
$DIMBLK
  1

  9
$DIMASO
 70
     1
  9
$DIMSHO
 70
     1
  9
$DIMPOST
  1

  9
$DIMAPOST
  1

  9
$DIMALT
 70
     0
  9
$DIMALTD
 70
     4
  9
$DIMALTF
 40
0.0394
  9
$DIMLFAC
 40
1.0
  9
$DIMTOFL
 70
     1
  9
$DIMTVP
 40
0.0
  9
$DIMTIX
 70
     0
  9
$DIMSOXD
 70
     0
  9
$DIMSAH
 70
     0
  9
$DIMBLK1
  1

  9
$DIMBLK2
  1

  9
$DIMSTYLE
  2
STANDARD
  9
$DIMCLRD
 70
     0
  9
$DIMCLRE
 70
     0
  9
$DIMCLRT
 70
     0
  9
$DIMTFAC
 40
1.0
  9
$DIMGAP
 40
0.625
  9
$DIMJUST
 70
     0
  9
$DIMSD1
 70
     0
  9
$DIMSD2
 70
     0
  9
$DIMTOLJ
 70
     1
  9
$DIMTZIN
 70
     0
  9
$DIMALTZ
 70
     0
  9
$DIMALTTZ
 70
     0
  9
$DIMFIT
 70
     3
  9
$DIMUPT
 70
     0
  9
$DIMUNIT
 70
     8
  9
$DIMDEC
 70
     4
  9
$DIMTDEC
 70
     4
  9
$DIMALTU
 70
     8
  9
$DIMALTTD
 70
     4
  9
$DIMTXSTY
  7
STANDARD
  9
$DIMAUNIT
 70
     0
  9
$LUNITS
 70
     2
  9
$LUPREC
 70
     2
  9
$SKETCHINC
 40
1.0
  9
$FILLETRAD
 40
0.0
  9
$AUNITS
 70
     0
  9
$AUPREC
 70
     0
  9
$MENU
  1
.
  9
$ELEVATION
 40
0.0
  9
$PELEVATION
 40
0.0
  9
$THICKNESS
 40
0.0
  9
$LIMCHECK
 70
     0
  9
$BLIPMODE
 70
     0
  9
$CHAMFERA
 40
10.0
  9
$CHAMFERB
 40
10.0
  9
$CHAMFERC
 40
20.0
  9
$CHAMFERD
 40
0.0
  9
$SKPOLY
 70
     0
  9
$TDCREATE
 40
2451164.545970139
  9
$TDUPDATE
 40
2452285.654011782
  9
$TDINDWG
 40
0.9773687847
  9
$TDUSRTIMER
 40
0.9773687847
  9
$USRTIMER
 70
     1
  9
$ANGBASE
 50
0.0
  9
$ANGDIR
 70
     0
  9
$PDMODE
 70
    35
  9
$PDSIZE
 40
-1.0
  9
$PLINEWID
 40
0.0
  9
$COORDS
 70
     0
  9
$SPLFRAME
 70
     0
  9
$SPLINETYPE
 70
     6
  9
$SPLINESEGS
 70
     8
  9
$ATTDIA
 70
     0
  9
$ATTREQ
 70
     1
  9
$HANDLING
 70
 22529
  9
$HANDSEED
  5
1C5
  9
$SURFTAB1
 70
     6
  9
$SURFTAB2
 70
     6
  9
$SURFTYPE
 70
     6
  9
$SURFU
 70
     6
  9
$SURFV
 70
     6
  9
$UCSNAME
  2

  9
$UCSORG
 10
0.0
 20
0.0
 30
0.0
  9
$UCSXDIR
 10
1.0
 20
0.0
 30
0.0
  9
$UCSYDIR
 10
0.0
 20
1.0
 30
0.0
  9
$PUCSNAME
  2

  9
$PUCSORG
 10
0.0
 20
0.0
 30
0.0
  9
$PUCSXDIR
 10
1.0
 20
0.0
 30
0.0
  9
$PUCSYDIR
 10
0.0
 20
1.0
 30
0.0
  9
$USERI1
 70
     0
  9
$USERI2
 70
     0
  9
$USERI3
 70
     0
  9
$USERI4
 70
     0
  9
$USERI5
 70
     0
  9
$USERR1
 40
0.0
  9
$USERR2
 40
0.0
  9
$USERR3
 40
0.0
  9
$USERR4
 40
0.0
  9
$USERR5
 40
0.0
  9
$WORLDVIEW
 70
     1
  9
$SHADEDGE
 70
     3
  9
$SHADEDIF
 70
    70
  9
$TILEMODE
 70
     1
  9
$MAXACTVP
 70
    48
  9
$PINSBASE
 10
0.0
 20
0.0
 30
0.0
  9
$PLIMCHECK
 70
     0
  9
$PEXTMIN
 10
1.000000000000000E+20
 20
1.000000000000000E+20
 30
1.000000000000000E+20
  9
$PEXTMAX
 10
-1.000000000000000E+20
 20
-1.000000000000000E+20
 30
-1.000000000000000E+20
  9
$PLIMMIN
 10
0.0
 20
0.0
  9
$PLIMMAX
 10
420.0
 20
297.0
  9
$UNITMODE
 70
     0
  9
$VISRETAIN
 70
     1
  9
$PLINEGEN
 70
     0
  9
$PSLTSCALE
 70
     1
  9
$TREEDEPTH
 70
  3020
  9
$PICKSTYLE
 70
     1
  9
$CMLSTYLE
  2
STANDARD
  9
$CMLJUST
 70
     0
  9
$CMLSCALE
 40
20.0
  9
$PROXYGRAPHICS
 70
     1
  9
$MEASUREMENT
 70
     1
  0
ENDSEC
  0
SECTION
  2
CLASSES
  0
CLASS
  1
RASTERVARIABLES
  2
AcDbRasterVariables
  3
ISM
 90
        0
280
     0
281
     0
  0
CLASS
  1
IMAGEDEF
  2
AcDbRasterImageDef
  3
ISM
 90
        0
280
     0
281
     0
  0
CLASS
  1
IMAGEDEF_REACTOR
  2
AcDbRasterImageDefReactor
  3
ISM
 90
        1
280
     0
281
     0
  0
CLASS
  1
IMAGE
  2
AcDbRasterImage
  3
ISM
 90
      127
280
     0
281
     1
  0
CLASS
  1
LWPOLYLINE
  2
AcDbPolyline
  3
AutoCAD 2000
 90
        0
280
     0
281
     1
  0
CLASS
  1
DICTIONARYVAR
  2
AcDbDictionaryVar
  3
AutoCAD 2000
 90
        0
280
     0
281
     0
  0
CLASS
  1
SORTENTSTABLE
  2
AcDbSortentsTable
  3
AutoCAD 2000
 90
        0
280
     0
281
     0
  0
CLASS
  1
HATCH
  2
AcDbHatch
  3
AutoCAD 2000
 90
        0
280
     0
281
     1
  0
CLASS
  1
ACDBDICTIONARYWDFLT
  2
AcDbDictionaryWithDefault
  3
AutoCAD 2000
 90
        0
280
     0
281
     0
  0
CLASS
  1
ACDBPLACEHOLDER
  2
AcDbPlaceHolder
  3
AutoCAD 2000
 90
        0
280
     0
281
     0
  0
CLASS
  1
LAYOUT
  2
AcDbLayout
  3
AutoCAD 2000
 90
        0
280
     0
281
     0
  0
CLASS
  1
LONG_TRANSACTION
  2
AcDbLongTransaction
  3
AutoCAD 2000
 90
        0
280
     0
281
     0
  0
CLASS
  1
LWPOLYLINE
  2
AcDbPolyline
  3
AutoCAD 2000
 90
        0
280
     0
281
     1
  0
CLASS
  1
HATCH
  2
AcDbHatch
  3
AutoCAD 2000
 90
        0
280
     0
281
     1
  0
CLASS
  1
XRECORD
  2
AcDbXrecord
  3
AutoCAD 2000
 90
        0
280
     0
281
     0
  0
ENDSEC
  0
SECTION
  2
TABLES
  0
TABLE
  2
VPORT
  5
1B
330
0
100
AcDbSymbolTable
 70
     3
  0
VPORT
  5
1A0
330
1B
100
AcDbSymbolTableRecord
100
AcDbViewportTableRecord
  2
*ACTIVE
 70
     0
 10
0.0
 20
0.0
 11
1.0
 21
1.0
 12
34.54738611280061
 22
40.20683903462084
 13
0.0
 23
0.0
 14
10.0
 24
10.0
 15
10.0
 25
10.0
 16
0.0
 26
0.0
 36
1.0
 17
0.0
 27
0.0
 37
0.0
 40
83.17624256250876
 41
1.828516377649325
 42
50.0
 43
0.0
 44
0.0
 50
0.0
 51
0.0
 71
     0
 72
   100
 73
     1
 74
     1
 75
     0
 76
     0
 77
     0
 78
     0
  0
ENDTAB
  0
TABLE
  2
LTYPE
  5
16
330
0
100
AcDbSymbolTable
 70
     1
  0
LTYPE
  5
17
330
16
100
AcDbSymbolTableRecord
100
AcDbLinetypeTableRecord
  2
BYBLOCK
 70
     0
  3

 72
    65
 73
     0
 40
0.0
  0
LTYPE
  5
18
330
16
100
AcDbSymbolTableRecord
100
AcDbLinetypeTableRecord
  2
BYLAYER
 70
     0
  3

 72
    65
 73
     0
 40
0.0
  0
LTYPE
  5
A
330
16
100
AcDbSymbolTableRecord
100
AcDbLinetypeTableRecord
  2
CONTINUOUS
 70
     0
  3
Solid line
 72
    65
 73
     0
 40
0.0
  0
ENDTAB
  0
TABLE
  2
LAYER
  5
12
330
0
100
AcDbSymbolTable
 70
     3
  0
LAYER
  5
6
330
12
100
AcDbSymbolTableRecord
100
AcDbLayerTableRecord
  2
0
 70
     0
 62
     7
  6
CONTINUOUS
  0
LAYER
  5
35
330
12
100
AcDbSymbolTableRecord
100
AcDbLayerTableRecord
  2
DEFPOINTS
 70
     0
 62
     7
  6
CONTINUOUS
  0
LAYER
  5
25
330
12
100
AcDbSymbolTableRecord
100
AcDbLayerTableRecord
  2
COTATION-JACOBDELAFON
 70
     0
 62
     8
  6
CONTINUOUS
  0
ENDTAB
  0
TABLE
  2
STYLE
  5
13
330
0
100
AcDbSymbolTable
 70
     2
  0
STYLE
  5
14
330
13
100
AcDbSymbolTableRecord
100
AcDbTextStyleTableRecord
  2
STANDARD
 70
     0
 40
0.0
 41
1.0
 50
0.0
 71
     0
 42
2.5
  3
txt
  4

  0
STYLE
  5
114
330
13
100
AcDbSymbolTableRecord
100
AcDbTextStyleTableRecord
  2
JACOB-DELAFON
 70
     0
 40
0.0
 41
1.0
 50
0.0
 71
     0
 42
2.5
  3
ARIAL.TTF
  4

1001
ACAD
1000
Arial
1071
       34
  0
ENDTAB
  0
TABLE
  2
VIEW
  5
19
330
0
100
AcDbSymbolTable
 70
     0
  0
ENDTAB
  0
TABLE
  2
UCS
  5
1A
330
0
100
AcDbSymbolTable
 70
     0
  0
ENDTAB
  0
TABLE
  2
APPID
  5
1D
330
0
100
AcDbSymbolTable
 70
     1
  0
APPID
  5
1E
330
1D
100
AcDbSymbolTableRecord
100
AcDbRegAppTableRecord
  2
ACAD
 70
     0
  0
ENDTAB
  0
TABLE
  2
DIMSTYLE
  5
1F
330
0
100
AcDbSymbolTable
 70
     2
  0
DIMSTYLE
105
20
330
1F
100
AcDbSymbolTableRecord
100
AcDbDimStyleTableRecord
  2
STANDARD
 70
     0
  3

  4

  5

  6

  7

 40
1.0
 41
0.18
 42
0.0625
 43
0.38
 44
0.18
 45
0.0
 46
0.0
 47
0.0
 48
0.0
140
0.18
141
0.09
142
0.0
143
25.4
144
1.0
145
0.0
146
1.0
147
0.09
 71
     0
 72
     0
 73
     1
 74
     1
 75
     0
 76
     0
 77
     0
 78
     0
170
     0
171
     2
172
     0
173
     0
174
     0
175
     0
176
     0
177
     0
178
     0
270
     2
271
     4
272
     4
273
     2
274
     2
340
14
275
     0
280
     0
281
     0
282
     0
283
     1
284
     0
285
     0
286
     0
287
     3
288
     0
  0
DIMSTYLE
105
115
102
{ACAD_REACTORS
330
2C
330
46
102
}
330
1F
100
AcDbSymbolTableRecord
100
AcDbDimStyleTableRecord
  2
COTATION-JACOB-DELAFON
 70
     0
  3

  4

  5
OBLIQUE
  6

  7

 40
1.0
 41
1.8
 42
0.625
 43
3.799999999999999
 44
1.8
 45
0.0
 46
0.0
 47
0.0
 48
0.0
140
3.0
141
0.9
142
0.0
143
25.4
144
1.0
145
0.0
146
1.0
147
0.9
 71
     0
 72
     0
 73
     0
 74
     0
 75
     0
 76
     0
 77
     1
 78
    12
170
     0
171
     2
172
     0
173
     0
174
     0
175
     0
176
     0
177
     0
178
     0
270
     2
271
     2
272
     2
273
     2
274
     2
340
114
275
     0
280
     0
281
     0
282
     0
283
     1
284
     0
285
     0
286
     0
287
     5
288
     0
  0
ENDTAB
  0
TABLE
  2
BLOCK_RECORD
  5
1
330
0
100
AcDbSymbolTable
 70
     3
  0
BLOCK_RECORD
  5
2
102
{ACAD_XDICTIONARY
360
3
102
}
330
1
100
AcDbSymbolTableRecord
100
AcDbBlockTableRecord
  2
*MODEL_SPACE
  0
BLOCK_RECORD
  5
E
102
{ACAD_XDICTIONARY
360
1C3
102
}
330
1
100
AcDbSymbolTableRecord
100
AcDbBlockTableRecord
  2
*PAPER_SPACE
  0
BLOCK_RECORD
  5
66
330
1
100
AcDbSymbolTableRecord
100
AcDbBlockTableRecord
  2
*D0
  0
BLOCK_RECORD
  5
72
330
1
100
AcDbSymbolTableRecord
100
AcDbBlockTableRecord
  2
*D1
  0
BLOCK_RECORD
  5
104
330
1
100
AcDbSymbolTableRecord
100
AcDbBlockTableRecord
  2
_OBLIQUE
  0
ENDTAB
  0
ENDSEC
  0
SECTION
  2
BLOCKS
  0
BLOCK
  5
5
330
2
100
AcDbEntity
  8
0
100
AcDbBlockBegin
  2
*MODEL_SPACE
 70
     0
 10
0.0
 20
0.0
 30
0.0
  3
*MODEL_SPACE
  1

  0
ENDBLK
  5
B
330
2
100
AcDbEntity
  8
0
100
AcDbBlockEnd
  0
BLOCK
  5
F
330
E
100
AcDbEntity
 67
     1
  8
0
100
AcDbBlockBegin
  2
*PAPER_SPACE
 70
     0
 10
0.0
 20
0.0
 30
0.0
  3
*PAPER_SPACE
  1

  0
ENDBLK
  5
10
330
E
100
AcDbEntity
 67
     1
  8
0
100
AcDbBlockEnd
  0
BLOCK
  5
70
330
66
100
AcDbEntity
  8
0
100
AcDbBlockBegin
  2
*D0
 70
     1
 10
0.0
 20
0.0
 30
0.0
  3
*D0
  1

  0
LINE
  5
153
330
66
100
AcDbEntity
  8
COTATION-JACOBDELAFON
 62
     0
100
AcDbLine
 10
0.0
 20
63.78520145625043
 30
0.0
 11
0.0000000000000008
 21
76.27874395570488
 31
0.0
  0
LINE
  5
154
330
66
100
AcDbEntity
  8
COTATION-JACOBDELAFON
 62
     0
100
AcDbLine
 10
80.0
 20
63.468688366057
 30
0.0
 11
80.0
 21
76.27874395570488
 31
0.0
  0
LINE
  5
155
330
66
100
AcDbEntity
  8
COTATION-JACOBDELAFON
 62
     0
100
AcDbLine
 10
0.0000000000000007
 20
74.47874395570488
 30
0.0
 11
80.0
 21
74.47874395570488
 31
0.0
  0
INSERT
  5
156
330
66
100
AcDbEntity
  8
COTATION-JACOBDELAFON
 62
     0
100
AcDbBlockReference
  2
_OBLIQUE
 10
0.0000000000000007
 20
74.47874395570488
 30
0.0
 41
1.8
 42
1.8
 43
1.8
 50
180.0
  0
INSERT
  5
157
330
66
100
AcDbEntity
  8
COTATION-JACOBDELAFON
 62
     0
100
AcDbBlockReference
  2
_OBLIQUE
 10
80.0
 20
74.47874395570488
 30
0.0
 41
1.8
 42
1.8
 43
1.8
  0
MTEXT
  5
158
330
66
100
AcDbEntity
  8
COTATION-JACOBDELAFON
 62
     0
100
AcDbMText
 10
40.0
 20
76.91046291886997
 30
0.0
 40
3.0
 41
0.0
 71
     5
 72
     1
  1
\A1;80
  7
JACOB-DELAFON
1001
ACAD
1000
MTEXTBEGIN
1070
    73
1070
     1
1070
    44
1040
1.0
1070
    74
1070
     0
1000
MTEXTEND
  0
POINT
  5
159
330
66
100
AcDbEntity
  8
DEFPOINTS
 62
     0
100
AcDbPoint
 10
0.0
 20
63.16020145625043
 30
0.0
  0
POINT
  5
15A
330
66
100
AcDbEntity
  8
DEFPOINTS
 62
     0
100
AcDbPoint
 10
80.0
 20
62.843688366057
 30
0.0
  0
POINT
  5
15B
330
66
100
AcDbEntity
  8
DEFPOINTS
 62
     0
100
AcDbPoint
 10
80.0
 20
74.47874395570488
 30
0.0
  0
ENDBLK
  5
71
330
66
100
AcDbEntity
  8
0
100
AcDbBlockEnd
  0
BLOCK
  5
7C
330
72
100
AcDbEntity
  8
0
100
AcDbBlockBegin
  2
*D1
 70
     1
 10
0.0
 20
0.0
 30
0.0
  3
*D1
  1

  0
LINE
  5
15C
330
72
100
AcDbEntity
  8
COTATION-JACOBDELAFON
 62
     0
100
AcDbLine
 10
3.384586631832917
 20
66.0
 30
0.0
 11
-8.833949041647464
 21
66.0
 31
0.0
  0
LINE
  5
15D
330
72
100
AcDbEntity
  8
COTATION-JACOBDELAFON
 62
     0
100
AcDbLine
 10
-0.625
 20
0.0000000000000002
 30
0.0
 11
-8.833949041647478
 21
0.0000000000000025
 31
0.0
  0
LINE
  5
15E
330
72
100
AcDbEntity
  8
COTATION-JACOBDELAFON
 62
     0
100
AcDbLine
 10
-7.033949041647463
 20
66.0
 30
0.0
 11
-7.033949041647478
 21
0.000000000000002
 31
0.0
  0
INSERT
  5
15F
330
72
100
AcDbEntity
  8
COTATION-JACOBDELAFON
 62
     0
100
AcDbBlockReference
  2
_OBLIQUE
 10
-7.033949041647463
 20
66.0
 30
0.0
 41
1.8
 42
1.8
 43
1.8
 50
90.0
  0
INSERT
  5
160
330
72
100
AcDbEntity
  8
COTATION-JACOBDELAFON
 62
     0
100
AcDbBlockReference
  2
_OBLIQUE
 10
-7.033949041647478
 20
0.000000000000002
 30
0.0
 41
1.8
 42
1.8
 43
1.8
 50
270.0
  0
MTEXT
  5
161
330
72
100
AcDbEntity
  8
COTATION-JACOBDELAFON
 62
     0
100
AcDbMText
 10
-9.465668004812551
 20
33.0
 30
0.0
 40
3.0
 41
0.0
 71
     5
 72
     1
  1
\A1;66
  7
JACOB-DELAFON
 11
0.0000000000000001
 21
1.0
 31
0.0
1001
ACAD
1000
MTEXTBEGIN
1070
    73
1070
     1
1070
    44
1040
1.0
1070
    74
1070
     0
1000
MTEXTEND
  0
POINT
  5
162
330
72
100
AcDbEntity
  8
DEFPOINTS
 62
     0
100
AcDbPoint
 10
4.009586631832917
 20
66.0
 30
0.0
  0
POINT
  5
163
330
72
100
AcDbEntity
  8
DEFPOINTS
 62
     0
100
AcDbPoint
 10
0.0
 20
0.0
 30
0.0
  0
POINT
  5
164
330
72
100
AcDbEntity
  8
DEFPOINTS
 62
     0
100
AcDbPoint
 10
-7.033949041647478
 20
0.000000000000002
 30
0.0
  0
ENDBLK
  5
7D
330
72
100
AcDbEntity
  8
0
100
AcDbBlockEnd
  0
BLOCK
  5
106
330
104
100
AcDbEntity
  8
0
100
AcDbBlockBegin
  2
_OBLIQUE
 70
     0
 10
0.0
 20
0.0
 30
0.0
  3
_OBLIQUE
  1

  0
LINE
  5
105
330
104
100
AcDbEntity
  8
0
  6
BYBLOCK
 62
     0
100
AcDbLine
 10
-0.5
 20
-0.5
 30
0.0
 11
0.5
 21
0.5
 31
0.0
  0
ENDBLK
  5
107
330
104
100
AcDbEntity
  8
0
100
AcDbBlockEnd
  0
ENDSEC
  0
SECTION
  2
ENTITIES
  0
ARC
  5
27
330
2
100
AcDbEntity
  8
0
100
AcDbCircle
 10
40.78212339335914
 20
42.45120502344571
 30
0.0
 40
27.55119777315875
100
AcDbArc
 50
268.3732688887642
 51
328.0025018850203
  0
LINE
  5
28
330
2
100
AcDbEntity
  8
0
100
AcDbLine
 10
64.14750171104469
 20
27.85231483250436
 30
0.0
 11
72.98834311241989
 21
62.15949650542597
 31
0.0
  0
ARC
  5
29
330
2
100
AcDbEntity
  8
0
100
AcDbCircle
 10
75.97105327041617
 20
61.83190013850299
 30
0.0
 40
4.168623630195303
100
AcDbArc
 50
18.58085850086962
 51
90.2660964277339
  0
ARC
  5
2A
330
2
100
AcDbEntity
  8
0
100
AcDbCircle
 10
79.31580813936853
 20
62.843688366057
 30
0.0
 40
0.6841918606315045
100
AcDbArc
 50
270.0
 51
27.55556907129124
  0
DIMENSION
  5
2C
330
2
100
AcDbEntity
  8
COTATION-JACOBDELAFON
 48
10.0
100
AcDbDimension
  2
*D0
 10
80.0
 20
74.47874395570488
 30
0.0
 11
40.0
 21
76.91046291886997
 31
0.0
 70
    32
  3
COTATION-JACOB-DELAFON
100
AcDbAlignedDimension
 13
0.0
 23
63.16020145625043
 33
0.0
 14
80.0
 24
62.843688366057
 34
0.0
100
AcDbRotatedDimension
  0
LINE
  5
3A
330
2
100
AcDbEntity
  8
0
100
AcDbLine
 10
40.0
 20
66.00047881196587
 30
0.0
 11
75.99041336785649
 21
66.00047881196587
 31
0.0
  0
ARC
  5
3B
330
2
100
AcDbEntity
  8
0
100
AcDbCircle
 10
39.21787660664222
 20
42.45120502344889
 30
0.0
 40
27.55119777316206
100
AcDbArc
 50
211.9974981149837
 51
271.6267311112327
  0
ARC
  5
3C
330
2
100
AcDbEntity
  8
0
100
AcDbCircle
 10
23.37688316973618
 20
6.459628846806936
 30
0.0
 40
8.623116830264102
100
AcDbArc
 50
134.0866087164496
 51
228.5129990023762
  0
ARC
  5
3D
330
2
100
AcDbEntity
  8
0
100
AcDbCircle
 10
21.02574662794495
 20
6.106685730513619
 30
0.0
 40
8.493419423291902
100
AcDbArc
 50
314.0288238180469
 51
52.76333703103887
  0
LINE
  5
3E
330
2
100
AcDbEntity
  8
0
100
AcDbLine
 10
15.85249828895576
 20
27.85231483250345
 30
0.0
 11
17.37739330530485
 21
12.65351819316947
 31
0.0
  0
LINE
  5
3F
330
2
100
AcDbEntity
  8
0
100
AcDbLine
 10
17.37739330530485
 20
12.65351819316947
 30
0.0
 11
26.16518846251847
 21
12.86866111711378
 31
0.0
  0
LINE
  5
40
330
2
100
AcDbEntity
  8
0
100
AcDbLine
 10
26.16518846251847
 20
12.86866111711378
 30
0.0
 11
28.04830023092563
 21
17.35160332275518
 31
0.0
  0
LINE
  5
41
330
2
100
AcDbEntity
  8
0
100
AcDbLine
 10
15.8524982889553
 20
27.85231483250436
 30
0.0
 11
7.015961936982876
 21
62.15949650542552
 31
0.0
  0
ARC
  5
42
330
2
100
AcDbEntity
  8
0
100
AcDbCircle
 10
4.032035711883054
 20
61.82692033181092
 30
0.0
 40
4.173140050159893
100
AcDbArc
 50
90.30821964492117
 51
161.3678481502014
  0
ARC
  5
43
330
2
100
AcDbEntity
  8
0
100
AcDbCircle
 10
0.6841918606314721
 20
62.843688366057
 30
0.0
 40
0.6841918606315045
100
AcDbArc
 50
152.4444309287087
 51
270.0
  0
LINE
  5
44
330
2
100
AcDbEntity
  8
0
100
AcDbLine
 10
40.0
 20
66.00047881196587
 30
0.0
 11
4.009586631832462
 21
66.00027240933923
 31
0.0
  0
LINE
  5
45
330
2
100
AcDbEntity
  8
0
100
AcDbLine
 10
79.31580813936853
 20
62.15949650542552
 30
0.0
 11
0.6841918606314721
 21
62.15949650542552
 31
0.0
  0
DIMENSION
  5
46
330
2
100
AcDbEntity
  8
COTATION-JACOBDELAFON
 48
10.0
100
AcDbDimension
  2
*D1
 10
-7.033949041647478
 20
0.000000000000002
 30
0.0
 11
-9.465668004812551
 21
33.0
 31
0.0
 70
    32
  3
COTATION-JACOB-DELAFON
100
AcDbAlignedDimension
 13
4.009586631832917
 23
66.0
 33
0.0
 14
0.0
 24
0.0
 34
0.0
 50
90.0
100
AcDbRotatedDimension
  0
ARC
  5
53
330
2
100
AcDbEntity
  8
0
100
AcDbCircle
 10
56.62311683026382
 20
6.459628846806936
 30
0.0
 40
8.623116830264102
100
AcDbArc
 50
311.4870009976237
 51
45.91339128355034
  0
ARC
  5
54
330
2
100
AcDbEntity
  8
0
100
AcDbCircle
 10
58.97425337205504
 20
6.106685730513619
 30
0.0
 40
8.493419423291902
100
AcDbArc
 50
127.2366629689611
 51
225.971176181953
  0
LINE
  5
55
330
2
100
AcDbEntity
  8
0
100
AcDbLine
 10
64.14750171104424
 20
27.85231483250345
 30
0.0
 11
62.62260669469515
 21
12.65351819316947
 31
0.0
  0
LINE
  5
56
330
2
100
AcDbEntity
  8
0
100
AcDbLine
 10
62.62260669469515
 20
12.65351819316947
 30
0.0
 11
53.83481153748153
 21
12.86866111711378
 31
0.0
  0
LINE
  5
57
330
2
100
AcDbEntity
  8
0
100
AcDbLine
 10
53.83481153748153
 20
12.86866111711378
 30
0.0
 11
51.95169976907436
 21
17.35160332275518
 31
0.0
  0
LINE
  5
C2
330
2
100
AcDbEntity
  8
0
100
AcDbLine
 10
17.66449846368882
 20
0.0000000000000022
 30
0.0
 11
26.92884436461623
 21
0.0000000000000022
 31
0.0
  0
LINE
  5
D6
330
2
100
AcDbEntity
  8
0
100
AcDbLine
 10
53.07115563538378
 20
0.0000000000000022
 30
0.0
 11
62.33550153631118
 21
0.0000000000000022
 31
0.0
  0
ENDSEC
  0
SECTION
  2
OBJECTS
  0
DICTIONARY
  5
9
330
0
100
AcDbDictionary
  3
ACAD_GROUP
350
22
  3
ACAD_LAYOUT
350
D
  3
ACAD_MLINESTYLE
350
23
  3
ACAD_PLOTSETTINGS
350
24
  3
ACAD_PLOTSTYLENAME
350
8
  3
ACDBHEADERROUNDTRIPXREC
350
1A1
  3
ACDBVARIABLEDICTIONARY
350
59
  3
AEC_PROPERTY_SET_DEFS
350
11A
  0
DICTIONARY
  5
3
330
2
100
AcDbDictionary
280
     1
  3
ACAD_LAYOUTSELFREF
360
1C2
  3
ACAD_SORTENTS
360
4
  0
DICTIONARY
  5
1C3
330
E
100
AcDbDictionary
280
     1
  3
ACAD_LAYOUTSELFREF
360
1C4
  0
DICTIONARY
  5
22
102
{ACAD_REACTORS
330
9
102
}
330
9
100
AcDbDictionary
  0
DICTIONARY
  5
D
102
{ACAD_REACTORS
330
9
102
}
330
9
100
AcDbDictionary
  0
DICTIONARY
  5
23
102
{ACAD_REACTORS
330
9
102
}
330
9
100
AcDbDictionary
  3
STANDARD
350
26
  0
DICTIONARY
  5
24
102
{ACAD_REACTORS
330
9
102
}
330
9
100
AcDbDictionary
  0
ACDBDICTIONARYWDFLT
  5
8
102
{ACAD_REACTORS
330
9
102
}
330
9
100
AcDbDictionary
281
     1
  3
Normal
350
7
100
AcDbDictionaryWithDefault
340
7
  0
DICTIONARY
  5
1A1
102
{ACAD_REACTORS
330
9
102
}
330
9
100
AcDbDictionary
  3
CEPSNTYPE
350
1AB
  3
DIMSTYLEDATA
350
1AF
  3
FINGERPRINTGUID
350
1AC
  3
HYPERLINKBASE
350
1A4
  3
INSUNITS
350
1AA
  3
LAYOUTDICT
350
1A6
  3
LWETCUNION
350
1A9
  3
PLOTSETDICT
350
1A7
  3
PLOTSTYLNAMDICT
350
1A8
  3
PSVPSCALE
350
1AE
  3
PUCSBASE
350
1B2
  3
PUCSORGBACK
350
1B8
  3
PUCSORGBOTTOM
350
1B4
  3
PUCSORGFRONT
350
1B7
  3
PUCSORGLEFT
350
1B5
  3
PUCSORGRIGHT
350
1B6
  3
PUCSORGTOP
350
1B3
  3
PUCSORTHOREF
350
1B0
  3
PUCSORTHOVIEW
350
1B1
  3
STYLESHEET
350
1A5
  3
TSTACKALIGN
350
1A2
  3
TSTACKSIZE
350
1A3
  3
UCSBASE
350
1BB
  3
UCSORGBACK
350
1C1
  3
UCSORGBOTTOM
350
1BD
  3
UCSORGFRONT
350
1C0
  3
UCSORGLEFT
350
1BE
  3
UCSORGRIGHT
350
1BF
  3
UCSORGTOP
350
1BC
  3
UCSORTHOREF
350
1B9
  3
UCSORTHOVIEW
350
1BA
  3
VERSIONGUID
350
1AD
  0
DICTIONARY
  5
59
102
{ACAD_REACTORS
330
9
102
}
330
9
100
AcDbDictionary
  3
DIMASSOC
350
5B
  3
HIDETEXT
350
5A
  0
DICTIONARY
  5
11A
102
{ACAD_REACTORS
330
9
102
}
330
9
100
AcDbDictionary
  0
XRECORD
  5
1C2
102
{ACAD_REACTORS
330
3
102
}
330
3
100
AcDbXrecord
340
2
  0
SORTENTSTABLE
  5
4
102
{ACAD_REACTORS
330
3
102
}
330
3
100
AcDbSortentsTable
330
2
  0
XRECORD
  5
1C4
102
{ACAD_REACTORS
330
1C3
102
}
330
1C3
100
AcDbXrecord
340
E
  0
MLINESTYLE
  5
26
102
{ACAD_REACTORS
330
23
102
}
330
23
100
AcDbMlineStyle
  2
STANDARD
 70
     0
  3

 62
   256
 51
90.0
 52
90.0
 71
     2
 49
0.5
 62
   256
  6
BYLAYER
 49
-0.5
 62
   256
  6
BYLAYER
  0
ACDBPLACEHOLDER
  5
7
102
{ACAD_REACTORS
330
8
102
}
330
8
100
AcDbPlaceHolder
280
     0
  0
XRECORD
  5
1AB
102
{ACAD_REACTORS
330
1A1
102
}
330
1A1
100
AcDbXrecord
 90
        0
  0
XRECORD
  5
1AF
102
{ACAD_REACTORS
330
1A1
102
}
330
1A1
100
AcDbXrecord
1000
DSTYLE
1002
{
1070
   277
 70
     6
1002
}
  0
XRECORD
  5
1AC
102
{ACAD_REACTORS
330
1A1
102
}
330
1A1
100
AcDbXrecord
  1
{B9AAF77B-DF2C-4A3C-8B74-42FC8F34DC94}
  0
XRECORD
  5
1A4
102
{ACAD_REACTORS
330
1A1
102
}
330
1A1
100
AcDbXrecord
  1

  0
XRECORD
  5
1AA
102
{ACAD_REACTORS
330
1A1
102
}
330
1A1
100
AcDbXrecord
 90
        0
  0
XRECORD
  5
1A6
102
{ACAD_REACTORS
330
1A1
102
}
330
1A1
100
AcDbXrecord
340
D
  0
XRECORD
  5
1A9
102
{ACAD_REACTORS
330
1A1
102
}
330
1A1
100
AcDbXrecord
 90
    10781
  0
XRECORD
  5
1A7
102
{ACAD_REACTORS
330
1A1
102
}
330
1A1
100
AcDbXrecord
340
24
  0
XRECORD
  5
1A8
102
{ACAD_REACTORS
330
1A1
102
}
330
1A1
100
AcDbXrecord
340
8
  0
XRECORD
  5
1AE
102
{ACAD_REACTORS
330
1A1
102
}
330
1A1
100
AcDbXrecord
 40
0.0
  0
XRECORD
  5
1B2
102
{ACAD_REACTORS
330
1A1
102
}
330
1A1
100
AcDbXrecord
340
0
  0
XRECORD
  5
1B8
102
{ACAD_REACTORS
330
1A1
102
}
330
1A1
100
AcDbXrecord
 10
0.0
 20
0.0
 30
0.0
  0
XRECORD
  5
1B4
102
{ACAD_REACTORS
330
1A1
102
}
330
1A1
100
AcDbXrecord
 10
0.0
 20
0.0
 30
0.0
  0
XRECORD
  5
1B7
102
{ACAD_REACTORS
330
1A1
102
}
330
1A1
100
AcDbXrecord
 10
0.0
 20
0.0
 30
0.0
  0
XRECORD
  5
1B5
102
{ACAD_REACTORS
330
1A1
102
}
330
1A1
100
AcDbXrecord
 10
0.0
 20
0.0
 30
0.0
  0
XRECORD
  5
1B6
102
{ACAD_REACTORS
330
1A1
102
}
330
1A1
100
AcDbXrecord
 10
0.0
 20
0.0
 30
0.0
  0
XRECORD
  5
1B3
102
{ACAD_REACTORS
330
1A1
102
}
330
1A1
100
AcDbXrecord
 10
0.0
 20
0.0
 30
0.0
  0
XRECORD
  5
1B0
102
{ACAD_REACTORS
330
1A1
102
}
330
1A1
100
AcDbXrecord
340
0
  0
XRECORD
  5
1B1
102
{ACAD_REACTORS
330
1A1
102
}
330
1A1
100
AcDbXrecord
 70
     0
  0
XRECORD
  5
1A5
102
{ACAD_REACTORS
330
1A1
102
}
330
1A1
100
AcDbXrecord
  1

  0
XRECORD
  5
1A2
102
{ACAD_REACTORS
330
1A1
102
}
330
1A1
100
AcDbXrecord
 90
        1
  0
XRECORD
  5
1A3
102
{ACAD_REACTORS
330
1A1
102
}
330
1A1
100
AcDbXrecord
 90
       70
  0
XRECORD
  5
1BB
102
{ACAD_REACTORS
330
1A1
102
}
330
1A1
100
AcDbXrecord
340
0
  0
XRECORD
  5
1C1
102
{ACAD_REACTORS
330
1A1
102
}
330
1A1
100
AcDbXrecord
 10
0.0
 20
0.0
 30
0.0
  0
XRECORD
  5
1BD
102
{ACAD_REACTORS
330
1A1
102
}
330
1A1
100
AcDbXrecord
 10
0.0
 20
0.0
 30
0.0
  0
XRECORD
  5
1C0
102
{ACAD_REACTORS
330
1A1
102
}
330
1A1
100
AcDbXrecord
 10
0.0
 20
0.0
 30
0.0
  0
XRECORD
  5
1BE
102
{ACAD_REACTORS
330
1A1
102
}
330
1A1
100
AcDbXrecord
 10
0.0
 20
0.0
 30
0.0
  0
XRECORD
  5
1BF
102
{ACAD_REACTORS
330
1A1
102
}
330
1A1
100
AcDbXrecord
 10
0.0
 20
0.0
 30
0.0
  0
XRECORD
  5
1BC
102
{ACAD_REACTORS
330
1A1
102
}
330
1A1
100
AcDbXrecord
 10
0.0
 20
0.0
 30
0.0
  0
XRECORD
  5
1B9
102
{ACAD_REACTORS
330
1A1
102
}
330
1A1
100
AcDbXrecord
340
0
  0
XRECORD
  5
1BA
102
{ACAD_REACTORS
330
1A1
102
}
330
1A1
100
AcDbXrecord
 70
     0
  0
XRECORD
  5
1AD
102
{ACAD_REACTORS
330
1A1
102
}
330
1A1
100
AcDbXrecord
  1
{848519AD-692F-48D5-9F59-D81357C78EA9}
  0
DICTIONARYVAR
  5
5B
102
{ACAD_REACTORS
330
59
102
}
330
59
100
DictionaryVariables
280
     0
  1
1
  0
DICTIONARYVAR
  5
5A
102
{ACAD_REACTORS
330
59
102
}
330
59
100
DictionaryVariables
280
     0
  1
1
  0
ENDSEC
  0
EOF
