  0
SECTION
  2
HEADER
  9
$ACADVER
  1
AC1021
  9
$ACADMAINTVER
 70
    50
  9
$DWGCODEPAGE
  3
ANSI_1252
  9
$LASTSAVEDBY
  1
François
  9
$INSBASE
 10
80.05489
 20
122.000133
 30
0.0
  9
$EXTMIN
 10
56.55695525265238
 20
121.100133
 30
-0.0015258207003583
  9
$EXTMAX
 10
129.9477127049669
 20
198.040283554374
 30
0.0000000349246037
  9
$LIMMIN
 10
80.04231500000001
 20
121.987731
  9
$LIMMAX
 10
129.957614
 20
175.012573
  9
$ORTHOMODE
 70
     0
  9
$REGENMODE
 70
     1
  9
$FILLMODE
 70
     1
  9
$QTEXTMODE
 70
     0
  9
$MIRRTEXT
 70
     1
  9
$LTSCALE
 40
1.0
  9
$ATTMODE
 70
     1
  9
$TEXTSIZE
 40
0.0
  9
$TRACEWID
 40
0.05
  9
$TEXTSTYLE
  7
Standard
  9
$CLAYER
  8
Cotation-JacobDelafon
  9
$CELTYPE
  6
Continuous
  9
$CECOLOR
 62
   256
  9
$CELTSCALE
 40
1.0
  9
$DISPSILH
 70
     0
  9
$DIMSCALE
 40
1.0
  9
$DIMASZ
 40
1.8
  9
$DIMEXO
 40
0.625
  9
$DIMDLI
 40
3.799999999999998
  9
$DIMRND
 40
0.0
  9
$DIMDLE
 40
0.0
  9
$DIMEXE
 40
1.8
  9
$DIMTP
 40
0.0
  9
$DIMTM
 40
0.0
  9
$DIMTXT
 40
3.0
  9
$DIMCEN
 40
0.9
  9
$DIMTSZ
 40
0.0
  9
$DIMTOL
 70
     0
  9
$DIMLIM
 70
     0
  9
$DIMTIH
 70
     0
  9
$DIMTOH
 70
     0
  9
$DIMSE1
 70
     0
  9
$DIMSE2
 70
     0
  9
$DIMTAD
 70
     1
  9
$DIMZIN
 70
    12
  9
$DIMBLK
  1
Oblique
  9
$DIMASO
 70
     1
  9
$DIMSHO
 70
     1
  9
$DIMPOST
  1

  9
$DIMAPOST
  1

  9
$DIMALT
 70
     0
  9
$DIMALTD
 70
     2
  9
$DIMALTF
 40
25.4
  9
$DIMLFAC
 40
1.0
  9
$DIMTOFL
 70
     0
  9
$DIMTVP
 40
0.0
  9
$DIMTIX
 70
     0
  9
$DIMSOXD
 70
     0
  9
$DIMSAH
 70
     0
  9
$DIMBLK1
  1

  9
$DIMBLK2
  1

  9
$DIMSTYLE
  2
Cotation-Jacob-Delafon
  9
$DIMCLRD
 70
     0
  9
$DIMCLRE
 70
     0
  9
$DIMCLRT
 70
     0
  9
$DIMTFAC
 40
1.0
  9
$DIMGAP
 40
0.9
  9
$DIMJUST
 70
     0
  9
$DIMSD1
 70
     0
  9
$DIMSD2
 70
     0
  9
$DIMTOLJ
 70
     1
  9
$DIMTZIN
 70
     0
  9
$DIMALTZ
 70
     0
  9
$DIMALTTZ
 70
     0
  9
$DIMUPT
 70
     0
  9
$DIMDEC
 70
     2
  9
$DIMTDEC
 70
     2
  9
$DIMALTU
 70
     2
  9
$DIMALTTD
 70
     2
  9
$DIMTXSTY
  7
Jacob-Delafon
  9
$DIMAUNIT
 70
     0
  9
$DIMADEC
 70
     0
  9
$DIMALTRND
 40
0.0
  9
$DIMAZIN
 70
     3
  9
$DIMDSEP
 70
    46
  9
$DIMATFIT
 70
     3
  9
$DIMFRAC
 70
     0
  9
$DIMLDRBLK
  1
Oblique
  9
$DIMLUNIT
 70
     2
  9
$DIMLWD
 70
    -2
  9
$DIMLWE
 70
    -2
  9
$DIMTMOVE
 70
     2
  9
$DIMFXL
 40
1.0
  9
$DIMFXLON
 70
     0
  9
$DIMJOGANG
 40
0.7853981633974483
  9
$DIMTFILL
 70
     0
  9
$DIMTFILLCLR
 70
     0
  9
$DIMARCSYM
 70
     0
  9
$DIMLTYPE
  6

  9
$DIMLTEX1
  6

  9
$DIMLTEX2
  6

  9
$LUNITS
 70
     2
  9
$LUPREC
 70
     4
  9
$SKETCHINC
 40
0.1
  9
$FILLETRAD
 40
0.0
  9
$AUNITS
 70
     0
  9
$AUPREC
 70
     0
  9
$MENU
  1
acad
  9
$ELEVATION
 40
0.0
  9
$PELEVATION
 40
0.0
  9
$THICKNESS
 40
0.0
  9
$LIMCHECK
 70
     0
  9
$CHAMFERA
 40
0.0
  9
$CHAMFERB
 40
0.0
  9
$CHAMFERC
 40
0.0
  9
$CHAMFERD
 40
0.0
  9
$SKPOLY
 70
     0
  9
$TDCREATE
 40
2455625.790528426
  9
$TDUCREATE
 40
2455625.748861760
  9
$TDUPDATE
 40
2455625.796102245
  9
$TDUUPDATE
 40
2455625.754435579
  9
$TDINDWG
 40
0.0055752662
  9
$TDUSRTIMER
 40
0.0055750926
  9
$USRTIMER
 70
     1
  9
$ANGBASE
 50
0.0
  9
$ANGDIR
 70
     0
  9
$PDMODE
 70
     0
  9
$PDSIZE
 40
0.0
  9
$PLINEWID
 40
0.0
  9
$SPLFRAME
 70
     0
  9
$SPLINETYPE
 70
     6
  9
$SPLINESEGS
 70
     8
  9
$HANDSEED
  5
E9
  9
$SURFTAB1
 70
     6
  9
$SURFTAB2
 70
     6
  9
$SURFTYPE
 70
     6
  9
$SURFU
 70
     6
  9
$SURFV
 70
     6
  9
$UCSBASE
  2

  9
$UCSNAME
  2

  9
$UCSORG
 10
0.0
 20
0.0
 30
0.0
  9
$UCSXDIR
 10
1.0
 20
0.0
 30
0.0
  9
$UCSYDIR
 10
0.0
 20
1.0
 30
0.0
  9
$UCSORTHOREF
  2

  9
$UCSORTHOVIEW
 70
     0
  9
$UCSORGTOP
 10
0.0
 20
0.0
 30
0.0
  9
$UCSORGBOTTOM
 10
0.0
 20
0.0
 30
0.0
  9
$UCSORGLEFT
 10
0.0
 20
0.0
 30
0.0
  9
$UCSORGRIGHT
 10
0.0
 20
0.0
 30
0.0
  9
$UCSORGFRONT
 10
0.0
 20
0.0
 30
0.0
  9
$UCSORGBACK
 10
0.0
 20
0.0
 30
0.0
  9
$PUCSBASE
  2

  9
$PUCSNAME
  2

  9
$PUCSORG
 10
0.0
 20
0.0
 30
0.0
  9
$PUCSXDIR
 10
1.0
 20
0.0
 30
0.0
  9
$PUCSYDIR
 10
0.0
 20
1.0
 30
0.0
  9
$PUCSORTHOREF
  2

  9
$PUCSORTHOVIEW
 70
     0
  9
$PUCSORGTOP
 10
0.0
 20
0.0
 30
0.0
  9
$PUCSORGBOTTOM
 10
0.0
 20
0.0
 30
0.0
  9
$PUCSORGLEFT
 10
0.0
 20
0.0
 30
0.0
  9
$PUCSORGRIGHT
 10
0.0
 20
0.0
 30
0.0
  9
$PUCSORGFRONT
 10
0.0
 20
0.0
 30
0.0
  9
$PUCSORGBACK
 10
0.0
 20
0.0
 30
0.0
  9
$USERI1
 70
     0
  9
$USERI2
 70
     0
  9
$USERI3
 70
     0
  9
$USERI4
 70
     0
  9
$USERI5
 70
     0
  9
$USERR1
 40
0.0
  9
$USERR2
 40
0.0
  9
$USERR3
 40
0.0
  9
$USERR4
 40
0.0
  9
$USERR5
 40
0.0
  9
$WORLDVIEW
 70
     1
  9
$SHADEDGE
 70
     3
  9
$SHADEDIF
 70
    70
  9
$TILEMODE
 70
     1
  9
$MAXACTVP
 70
    16
  9
$PINSBASE
 10
0.0
 20
0.0
 30
0.0
  9
$PLIMCHECK
 70
     0
  9
$PEXTMIN
 10
1.000000000000000E+20
 20
1.000000000000000E+20
 30
1.000000000000000E+20
  9
$PEXTMAX
 10
-1.000000000000000E+20
 20
-1.000000000000000E+20
 30
-1.000000000000000E+20
  9
$PLIMMIN
 10
0.0
 20
0.0
  9
$PLIMMAX
 10
12.0
 20
9.0
  9
$UNITMODE
 70
     0
  9
$VISRETAIN
 70
     0
  9
$PLINEGEN
 70
     1
  9
$PSLTSCALE
 70
     0
  9
$TREEDEPTH
 70
  3020
  9
$CMLSTYLE
  2
Standard
  9
$CMLJUST
 70
     0
  9
$CMLSCALE
 40
1.0
  9
$PROXYGRAPHICS
 70
     0
  9
$MEASUREMENT
 70
     1
  9
$CELWEIGHT
370
     0
  9
$ENDCAPS
280
     0
  9
$JOINSTYLE
280
     0
  9
$LWDISPLAY
290
     0
  9
$INSUNITS
 70
     0
  9
$HYPERLINKBASE
  1

  9
$STYLESHEET
  1

  9
$XEDIT
290
     1
  9
$CEPSNTYPE
380
     0
  9
$PSTYLEMODE
290
     1
  9
$FINGERPRINTGUID
  2

  9
$VERSIONGUID
  2
{1BCE3F96-3039-4424-991A-35E97F8ED369}
  9
$EXTNAMES
290
     1
  9
$PSVPSCALE
 40
0.0
  9
$OLESTARTUP
290
     0
  9
$SORTENTS
280
   127
  9
$INDEXCTL
280
     0
  9
$HIDETEXT
280
     0
  9
$XCLIPFRAME
290
     0
  9
$HALOGAP
280
     0
  9
$OBSCOLOR
 70
   257
  9
$OBSLTYPE
280
     0
  9
$INTERSECTIONDISPLAY
280
     0
  9
$INTERSECTIONCOLOR
 70
   257
  9
$DIMASSOC
280
     1
  9
$PROJECTNAME
  1

  9
$CAMERADISPLAY
290
     0
  9
$LENSLENGTH
 40
50.0
  9
$CAMERAHEIGHT
 40
0.0
  9
$STEPSPERSEC
 40
2.0
  9
$STEPSIZE
 40
6.0
  9
$3DDWFPREC
 40
2.0
  9
$PSOLWIDTH
 40
0.25
  9
$PSOLHEIGHT
 40
4.0
  9
$LOFTANG1
 40
1.570796326794896
  9
$LOFTANG2
 40
1.570796326794896
  9
$LOFTMAG1
 40
0.0
  9
$LOFTMAG2
 40
0.0
  9
$LOFTPARAM
 70
     7
  9
$LOFTNORMALS
280
     1
  9
$LATITUDE
 40
37.795
  9
$LONGITUDE
 40
-122.394
  9
$NORTHDIRECTION
 40
0.0
  9
$TIMEZONE
 70
 -8000
  9
$LIGHTGLYPHDISPLAY
280
     1
  9
$TILEMODELIGHTSYNCH
280
     1
  9
$CMATERIAL
347
64
  9
$SOLIDHIST
280
     1
  9
$SHOWHIST
280
     1
  9
$DWFFRAME
280
     2
  9
$DGNFRAME
280
     0
  9
$REALWORLDSCALE
290
     1
  9
$INTERFERECOLOR
 62
     1
  9
$INTERFEREOBJVS
345
86
  9
$INTERFEREVPVS
346
83
  9
$CSHADOW
280
     0
  9
$SHADOWPLANELOCATION
 40
0.0
  0
ENDSEC
  0
SECTION
  2
CLASSES
  0
CLASS
  1
IMAGE
  2
AcDbRasterImage
  3
ISM
 90
     2175
 91
        0
280
     0
281
     1
  0
CLASS
  1
DICTIONARYVAR
  2
AcDbDictionaryVar
  3
ObjectDBX Classes
 90
        0
 91
        7
280
     0
281
     0
  0
CLASS
  1
RASTERVARIABLES
  2
AcDbRasterVariables
  3
ISM
 90
        0
 91
        0
280
     0
281
     0
  0
CLASS
  1
IMAGEDEF
  2
AcDbRasterImageDef
  3
ISM
 90
        0
 91
        0
280
     0
281
     0
  0
CLASS
  1
IMAGEDEF_REACTOR
  2
AcDbRasterImageDefReactor
  3
ISM
 90
        1
 91
        0
280
     0
281
     0
  0
CLASS
  1
IDBUFFER
  2
AcDbIdBuffer
  3
ObjectDBX Classes
 90
        0
 91
        0
280
     0
281
     0
  0
CLASS
  1
SPATIAL_FILTER
  2
AcDbSpatialFilter
  3
ObjectDBX Classes
 90
        0
 91
        0
280
     0
281
     0
  0
CLASS
  1
SORTENTSTABLE
  2
AcDbSortentsTable
  3
ObjectDBX Classes
 90
        0
 91
        0
280
     0
281
     0
  0
CLASS
  1
LAYER_INDEX
  2
AcDbLayerIndex
  3
ObjectDBX Classes
 90
        0
 91
        0
280
     0
281
     0
  0
CLASS
  1
SPATIAL_INDEX
  2
AcDbSpatialIndex
  3
ObjectDBX Classes
 90
        0
 91
        0
280
     0
281
     0
  0
CLASS
  1
OBJECT_PTR
  2
CAseDLPNTableRecord
  3
"ASE-LPNTableRecord"
 90
        1
 91
        0
280
     0
281
     0
  0
CLASS
  1
PLOTSETTINGS
  2
AcDbPlotSettings
  3
ObjectDBX Classes
 90
        0
 91
        0
280
     0
281
     0
  0
CLASS
  1
ACDBDICTIONARYWDFLT
  2
AcDbDictionaryWithDefault
  3
ObjectDBX Classes
 90
        0
 91
        1
280
     0
281
     0
  0
CLASS
  1
WIPEOUT
  2
AcDbWipeout
  3
"WipeOut|Product Desc: Object Enabler for WipeOut entity                        |Company: Autodesk, Inc.                        |WEB Address: www.autodesk.com"
 90
     2175
 91
        0
280
     0
281
     1
  0
CLASS
  1
WIPEOUTVARIABLES
  2
AcDbWipeoutVariables
  3
"WipeOut|Product Desc:     WipeOut Dbx Application|Company:          Autodesk, Inc.|WEB Address:      www.autodesk.com"
 90
        0
 91
        1
280
     0
281
     0
  0
CLASS
  1
RTEXT
  2
RText
  3
RText|AutoCAD Express Tool|expresstools@autodesk.com
 90
        0
 91
        0
280
     0
281
     1
  0
CLASS
  1
ARCALIGNEDTEXT
  2
AcDbArcAlignedText
  3
ATEXT|AutoCAD Express Tool|expresstools@autodesk.com
 90
        0
 91
        0
280
     0
281
     1
  0
CLASS
  1
MATERIAL
  2
AcDbMaterial
  3
ObjectDBX Classes
 90
     1153
 91
        3
280
     0
281
     0
  0
CLASS
  1
VISUALSTYLE
  2
AcDbVisualStyle
  3
ObjectDBX Classes
 90
     4095
 91
       16
280
     0
281
     0
  0
CLASS
  1
TABLESTYLE
  2
AcDbTableStyle
  3
ObjectDBX Classes
 90
     4095
 91
        1
280
     0
281
     0
  0
CLASS
  1
SCALE
  2
AcDbScale
  3
ObjectDBX Classes
 90
     1153
 91
       17
280
     0
281
     0
  0
CLASS
  1
MLEADERSTYLE
  2
AcDbMLeaderStyle
  3
ACDB_MLEADERSTYLE_CLASS
 90
     4095
 91
        1
280
     0
281
     0
  0
CLASS
  1
AEC_REFEDIT_STATUS_TRACKER
  2
AecDbRefEditStatusTracker
  3
AecArchBase50|Product Desc: Autodesk Architectural Desktop 2007 |Company: Autodesk,Inc. |WEB Address: www.autodesk.com
 90
      129
 91
        1
280
     0
281
     0
  0
CLASS
  1
NPOCOLLECTION
  2
AcDbImpNonPersistentObjectsCollection
  3
ObjectDBX Classes
 90
     1153
 91
        1
280
     0
281
     0
  0
CLASS
  1
CELLSTYLEMAP
  2
AcDbCellStyleMap
  3
ObjectDBX Classes
 90
     1152
 91
        1
280
     0
281
     0
  0
ENDSEC
  0
SECTION
  2
TABLES
  0
TABLE
  2
VPORT
  5
7
330
0
100
AcDbSymbolTable
 70
     1
  0
VPORT
  5
15
330
7
100
AcDbSymbolTableRecord
100
AcDbViewportTableRecord
  2
*ACTIVE
 70
     0
 10
0.0
 20
0.0
 11
1.0
 21
1.0
 12
92.12440679782895
 22
160.6869822284773
 13
0.0
 23
0.0
 14
1.0
 24
1.0
 15
0.0
 25
0.0
 16
0.0
 26
0.0
 36
1.0
 17
0.0
 27
0.0
 37
0.0
 40
85.04870904216561
 41
1.487750556792873
 42
50.0
 43
0.0
 44
0.0
 50
0.0
 51
0.0
 71
     0
 72
   100
 73
     1
 74
     1
 75
     0
 76
     0
 77
     0
 78
     0
281
     0
 65
     0
110
0.0
120
0.0
130
0.0
111
1.0
121
0.0
131
0.0
112
0.0
122
1.0
132
0.0
 79
     0
146
0.0
348
82
 60
     3
 61
     5
292
     1
282
     1
141
0.0
142
0.0
 63
   250
421
  3355443
  0
ENDTAB
  0
TABLE
  2
LTYPE
  5
4
330
0
100
AcDbSymbolTable
 70
     1
  0
LTYPE
  5
11
330
4
100
AcDbSymbolTableRecord
100
AcDbLinetypeTableRecord
  2
ByBlock
 70
     0
  3

 72
    65
 73
     0
 40
0.0
  0
LTYPE
  5
12
330
4
100
AcDbSymbolTableRecord
100
AcDbLinetypeTableRecord
  2
ByLayer
 70
     0
  3

 72
    65
 73
     0
 40
0.0
  0
LTYPE
  5
13
330
4
100
AcDbSymbolTableRecord
100
AcDbLinetypeTableRecord
  2
Continuous
 70
     0
  3
Solid line
 72
    65
 73
     0
 40
0.0
  0
ENDTAB
  0
TABLE
  2
LAYER
  5
2
330
0
100
AcDbSymbolTable
 70
     3
  0
LAYER
  5
14
102
{ACAD_XDICTIONARY
360
DB
102
}
330
2
100
AcDbSymbolTableRecord
100
AcDbLayerTableRecord
  2
0
 70
     0
 62
     7
  6
Continuous
370
    -3
390
1D
347
74
  0
LAYER
  5
AC
330
2
100
AcDbSymbolTableRecord
100
AcDbLayerTableRecord
  2
Defpoints
 70
     0
 62
     7
  6
Continuous
290
     0
370
    -3
390
1D
347
74
  0
LAYER
  5
BA
102
{ACAD_XDICTIONARY
360
BB
102
}
330
2
100
AcDbSymbolTableRecord
100
AcDbLayerTableRecord
  2
Cotation-JacobDelafon
 70
     0
 62
     8
  6
Continuous
370
    -3
390
1D
347
74
  0
ENDTAB
  0
TABLE
  2
STYLE
  5
3
330
0
100
AcDbSymbolTable
 70
     7
  0
STYLE
  5
17
330
3
100
AcDbSymbolTableRecord
100
AcDbTextStyleTableRecord
  2
Standard
 70
     0
 40
0.0
 41
1.0
 50
0.0
 71
     0
 42
0.0
  3
txt
  4

  0
STYLE
  5
24
330
3
100
AcDbSymbolTableRecord
100
AcDbTextStyleTableRecord
  2
STD
 70
     0
 40
0.0
 41
1.0
 50
0.0
 71
     0
 42
0.0
  3
txt
  4

  0
STYLE
  5
25
330
3
100
AcDbSymbolTableRecord
100
AcDbTextStyleTableRecord
  2
TATESTD
 70
     4
 40
0.0
 41
1.0
 50
0.0
 71
     0
 42
0.0
  3
txt
  4

  0
STYLE
  5
26
330
3
100
AcDbSymbolTableRecord
100
AcDbTextStyleTableRecord
  2
KANJISTD
 70
     0
 40
0.0
 41
1.0
 50
0.0
 71
     0
 42
0.0
  3
txt
  4
extfont
  0
STYLE
  5
27
330
3
100
AcDbSymbolTableRecord
100
AcDbTextStyleTableRecord
  2
KANJITATE
 70
     4
 40
0.0
 41
1.0
 50
0.0
 71
     0
 42
0.0
  3
txt
  4
extfont
  0
STYLE
  5
AD
330
3
100
AcDbSymbolTableRecord
100
AcDbTextStyleTableRecord
  2
Annotative
 70
     0
 40
0.0
 41
1.0
 50
0.0
 71
     0
 42
0.2
  3
txt
  4

1001
AcadAnnotative
1000
AnnotativeData
1002
{
1070
     1
1070
     1
1002
}
  0
STYLE
  5
AE
330
3
100
AcDbSymbolTableRecord
100
AcDbTextStyleTableRecord
  2
Jacob-Delafon
 70
     0
 40
0.0
 41
1.0
 50
0.0
 71
     0
 42
2.5
  3
ARIAL.TTF
  4

1001
ACAD
1000
Arial
1071
       34
  0
ENDTAB
  0
TABLE
  2
VIEW
  5
5
330
0
100
AcDbSymbolTable
 70
     0
  0
ENDTAB
  0
TABLE
  2
UCS
  5
6
330
0
100
AcDbSymbolTable
 70
     0
  0
ENDTAB
  0
TABLE
  2
APPID
  5
8
330
0
100
AcDbSymbolTable
 70
     3
  0
APPID
  5
16
330
8
100
AcDbSymbolTableRecord
100
AcDbRegAppTableRecord
  2
ACAD
 70
     0
  0
APPID
  5
A4
330
8
100
AcDbSymbolTableRecord
100
AcDbRegAppTableRecord
  2
ACAD_MLEADERVER
 70
     0
  0
APPID
  5
B1
330
8
100
AcDbSymbolTableRecord
100
AcDbRegAppTableRecord
  2
AcadAnnotative
 70
     0
  0
ENDTAB
  0
TABLE
  2
DIMSTYLE
  5
9
330
0
100
AcDbSymbolTable
 70
     3
100
AcDbDimStyleTable
 71
     1
340
B0
  0
DIMSTYLE
105
18
330
9
100
AcDbSymbolTableRecord
100
AcDbDimStyleTableRecord
  2
Standard
 70
     0
340
17
  0
DIMSTYLE
105
AF
330
9
100
AcDbSymbolTableRecord
100
AcDbDimStyleTableRecord
  2
Annotative
 70
     0
340
17
1001
AcadAnnotative
1000
AnnotativeData
1002
{
1070
     1
1070
     1
1002
}
  0
DIMSTYLE
105
B0
102
{ACAD_REACTORS
330
C1
330
CE
102
}
330
9
100
AcDbSymbolTableRecord
100
AcDbDimStyleTableRecord
  2
Cotation-Jacob-Delafon
 70
     0
 41
1.8
 42
0.625
 43
3.799999999999998
 44
1.8
 73
     0
 74
     0
 77
     1
 78
    12
 79
     3
140
3.0
141
0.9
147
0.9
271
     2
272
     2
279
     2
340
AE
341
A8
342
A8
  0
ENDTAB
  0
TABLE
  2
BLOCK_RECORD
  5
1
330
0
100
AcDbSymbolTable
 70
     5
  0
BLOCK_RECORD
  5
A
330
1
100
AcDbSymbolTableRecord
100
AcDbBlockTableRecord
  2
*MODEL_SPACE
340
20
 70
     0
280
     1
281
     0
  0
BLOCK_RECORD
  5
B
330
1
100
AcDbSymbolTableRecord
100
AcDbBlockTableRecord
  2
*PAPER_SPACE
340
21
 70
     0
280
     1
281
     0
  0
BLOCK_RECORD
  5
A8
330
1
100
AcDbSymbolTableRecord
100
AcDbBlockTableRecord
  2
_Oblique
340
0
102
{BLKREFS
331
C8
331
C9
331
D5
331
D6
102
}
 70
     0
280
     1
281
     0
  0
BLOCK_RECORD
  5
C2
330
1
100
AcDbSymbolTableRecord
100
AcDbBlockTableRecord
  2
*D3
340
0
 70
     0
280
     1
281
     0
  0
BLOCK_RECORD
  5
CF
330
1
100
AcDbSymbolTableRecord
100
AcDbBlockTableRecord
  2
*D4
340
0
 70
     0
280
     1
281
     0
  0
ENDTAB
  0
ENDSEC
  0
SECTION
  2
BLOCKS
  0
BLOCK
  5
D
330
A
100
AcDbEntity
  8
0
100
AcDbBlockBegin
  2
*MODEL_SPACE
 70
     0
 10
0.0
 20
0.0
 30
0.0
  3
*MODEL_SPACE
  1

  0
ENDBLK
  5
E
330
A
100
AcDbEntity
  8
0
100
AcDbBlockEnd
  0
BLOCK
  5
F
330
B
100
AcDbEntity
 67
     1
  8
0
100
AcDbBlockBegin
  2
*PAPER_SPACE
 70
     0
 10
0.0
 20
0.0
 30
0.0
  3
*PAPER_SPACE
  1

  0
ENDBLK
  5
10
330
B
100
AcDbEntity
 67
     1
  8
0
100
AcDbBlockEnd
  0
BLOCK
  5
A9
330
A8
100
AcDbEntity
  8
0
100
AcDbBlockBegin
  2
_Oblique
 70
     0
 10
0.0
 20
0.0
 30
0.0
  3
_Oblique
  1

  0
LINE
  5
AA
330
A8
100
AcDbEntity
  8
0
  6
ByBlock
 62
     0
370
    -2
380
     1
100
AcDbLine
 10
-0.5
 20
-0.5
 30
0.0
 11
0.5
 21
0.5
 31
0.0
  0
ENDBLK
  5
AB
330
A8
100
AcDbEntity
  8
0
100
AcDbBlockEnd
  0
BLOCK
  5
C3
330
C2
100
AcDbEntity
  8
0
370
     0
100
AcDbBlockBegin
  2
*D3
 70
     1
 10
0.0
 20
0.0
 30
0.0
  3
*D3
  1

  0
LINE
  5
C5
330
C2
100
AcDbEntity
  8
Cotation-JacobDelafon
  6
Continuous
 62
     0
370
    -2
100
AcDbLine
 10
79.42989
 20
122.000133
 30
0.0
 11
59.51029768102893
 21
122.000133
 31
0.0
  0
LINE
  5
C6
330
C2
100
AcDbEntity
  8
Cotation-JacobDelafon
  6
Continuous
 62
     0
370
    -2
100
AcDbLine
 10
79.42989
 20
174.999999
 30
0.0
 11
59.51029768102894
 21
174.999999
 31
0.0
  0
LINE
  5
C7
330
C2
100
AcDbEntity
  8
Cotation-JacobDelafon
  6
Continuous
 62
     0
370
    -2
100
AcDbLine
 10
61.31029768102894
 20
122.000133
 30
0.0
 11
61.31029768102894
 21
174.999999
 31
0.0
  0
INSERT
  5
C8
330
C2
100
AcDbEntity
  8
Cotation-JacobDelafon
  6
Continuous
 62
     0
370
    -2
100
AcDbBlockReference
  2
_Oblique
 10
61.31029768102894
 20
122.000133
 30
0.0
 41
1.8
 42
1.8
 43
1.8
 50
270.0
  0
INSERT
  5
C9
330
C2
100
AcDbEntity
  8
Cotation-JacobDelafon
  6
Continuous
 62
     0
370
    -2
100
AcDbBlockReference
  2
_Oblique
 10
61.31029768102894
 20
174.999999
 30
0.0
 41
1.8
 42
1.8
 43
1.8
 50
90.0
  0
MTEXT
  5
CA
330
C2
100
AcDbEntity
  8
Cotation-JacobDelafon
  6
Continuous
 62
     0
370
     0
100
AcDbMText
 10
58.87755552550367
 20
148.500066
 30
0.0
 40
3.0
 41
0.0
 46
0.0
 71
     5
 72
     1
  1
\A1;53
  7
Jacob-Delafon
 11
0.0000000000000001
 21
1.0
 31
0.0
 73
     1
 44
1.0
  0
POINT
  5
CB
330
C2
100
AcDbEntity
  8
Defpoints
  6
Continuous
 62
     0
370
     0
100
AcDbPoint
 10
80.05489
 20
122.000133
 30
0.0
  0
POINT
  5
CC
330
C2
100
AcDbEntity
  8
Defpoints
  6
Continuous
 62
     0
370
     0
100
AcDbPoint
 10
80.05489
 20
174.999999
 30
0.0
  0
POINT
  5
CD
330
C2
100
AcDbEntity
  8
Defpoints
  6
Continuous
 62
     0
370
     0
100
AcDbPoint
 10
61.31029768102894
 20
174.999999
 30
0.0
  0
ENDBLK
  5
C4
330
C2
100
AcDbEntity
  8
0
370
     0
100
AcDbBlockEnd
  0
BLOCK
  5
D0
330
CF
100
AcDbEntity
  8
0
370
     0
100
AcDbBlockBegin
  2
*D4
 70
     1
 10
0.0
 20
0.0
 30
0.0
  3
*D4
  1

  0
LINE
  5
D2
330
CF
100
AcDbEntity
  8
Cotation-JacobDelafon
  6
Continuous
 62
     0
370
    -2
100
AcDbLine
 10
80.05489
 20
175.624999
 30
0.0
 11
80.05489
 21
195.0889875107178
 31
0.0
  0
LINE
  5
D3
330
CF
100
AcDbEntity
  8
Cotation-JacobDelafon
  6
Continuous
 62
     0
370
    -2
100
AcDbLine
 10
128.555116
 20
174.825047
 30
0.0
 11
128.555116
 21
195.0889875107178
 31
0.0
  0
LINE
  5
D4
330
CF
100
AcDbEntity
  8
Cotation-JacobDelafon
  6
Continuous
 62
     0
370
    -2
100
AcDbLine
 10
80.05489
 20
193.2889875107178
 30
0.0
 11
128.555116
 21
193.2889875107178
 31
0.0
  0
INSERT
  5
D5
330
CF
100
AcDbEntity
  8
Cotation-JacobDelafon
  6
Continuous
 62
     0
370
    -2
100
AcDbBlockReference
  2
_Oblique
 10
80.05489
 20
193.2889875107178
 30
0.0
 41
1.8
 42
1.8
 43
1.8
 50
180.0
  0
INSERT
  5
D6
330
CF
100
AcDbEntity
  8
Cotation-JacobDelafon
  6
Continuous
 62
     0
370
    -2
100
AcDbBlockReference
  2
_Oblique
 10
128.555116
 20
193.2889875107178
 30
0.0
 41
1.8
 42
1.8
 43
1.8
  0
MTEXT
  5
D7
330
CF
100
AcDbEntity
  8
Cotation-JacobDelafon
  6
Continuous
 62
     0
370
     0
100
AcDbMText
 10
104.305003
 20
195.7207064738829
 30
0.0
 40
3.0
 41
0.0
 46
0.0
 71
     5
 72
     1
  1
\A1;48.5
  7
Jacob-Delafon
 73
     1
 44
1.0
  0
POINT
  5
D8
330
CF
100
AcDbEntity
  8
Defpoints
  6
Continuous
 62
     0
370
     0
100
AcDbPoint
 10
80.05489
 20
174.999999
 30
0.0
  0
POINT
  5
D9
330
CF
100
AcDbEntity
  8
Defpoints
  6
Continuous
 62
     0
370
     0
100
AcDbPoint
 10
128.555116
 20
174.2000469999999
 30
0.0
  0
POINT
  5
DA
330
CF
100
AcDbEntity
  8
Defpoints
  6
Continuous
 62
     0
370
     0
100
AcDbPoint
 10
128.555116
 20
193.2889875107178
 30
0.0
  0
ENDBLK
  5
D1
330
CF
100
AcDbEntity
  8
0
370
     0
100
AcDbBlockEnd
  0
ENDSEC
  0
SECTION
  2
ENTITIES
  0
LINE
  5
60
330
A
100
AcDbEntity
  8
0
 62
     7
100
AcDbLine
 10
129.853228
 20
147.649902
 30
0.0
 11
129.944868
 21
147.774959
 31
0.0
  0
LINE
  5
5F
330
A
100
AcDbEntity
  8
0
 62
     7
100
AcDbLine
 10
129.705089
 20
147.602016
 30
0.0
 11
129.853228
 21
147.649902
 31
0.0
  0
LINE
  5
5E
330
A
100
AcDbEntity
  8
0
 62
     7
100
AcDbLine
 10
129.556605
 20
147.649902
 30
0.0
 11
129.705089
 21
147.602016
 31
0.0
  0
LINE
  5
5D
330
A
100
AcDbEntity
  8
0
 62
     7
100
AcDbLine
 10
129.365058
 20
147.902083
 30
0.0
 11
129.556605
 21
147.649902
 31
0.0
  0
LINE
  5
5C
330
A
100
AcDbEntity
  8
0
 62
     7
100
AcDbLine
 10
126.854961
 20
147.902083
 30
0.0
 11
129.365058
 21
147.902083
 31
0.0
  0
LINE
  5
5B
330
A
100
AcDbEntity
  8
0
 62
     7
100
AcDbLine
 10
126.854961
 20
148.102071
 30
0.0
 11
126.854961
 21
147.902083
 31
0.0
  0
LINE
  5
5A
330
A
100
AcDbEntity
  8
0
 62
     7
100
AcDbLine
 10
129.705089
 20
148.102071
 30
0.0
 11
126.854961
 21
148.102071
 31
0.0
  0
LINE
  5
59
330
A
100
AcDbEntity
  8
0
 62
     7
100
AcDbLine
 10
129.853228
 20
148.054357
 30
0.0
 11
129.705089
 21
148.102071
 31
0.0
  0
LINE
  5
58
330
A
100
AcDbEntity
  8
0
 62
     7
100
AcDbLine
 10
129.944868
 20
147.9293
 30
0.0
 11
129.853228
 21
148.054357
 31
0.0
  0
LINE
  5
57
330
A
100
AcDbEntity
  8
0
 62
     7
100
AcDbLine
 10
129.944868
 20
147.774959
 30
0.0
 11
129.944868
 21
147.9293
 31
0.0
  0
LINE
  5
56
330
A
100
AcDbEntity
  8
0
 62
     7
100
AcDbLine
 10
129.945212
 20
147.929472
 30
0.0
 11
129.945212
 21
147.774959
 31
0.0
  0
LINE
  5
55
330
A
100
AcDbEntity
  8
0
 62
     7
100
AcDbLine
 10
129.853228
 20
148.054357
 30
0.0
 11
129.945212
 21
147.929472
 31
0.0
  0
LINE
  5
54
330
A
100
AcDbEntity
  8
0
 62
     7
100
AcDbLine
 10
129.705089
 20
148.102243
 30
0.0
 11
129.853228
 21
148.054357
 31
0.0
  0
LINE
  5
53
330
A
100
AcDbEntity
  8
0
 62
     7
100
AcDbLine
 10
126.854617
 20
148.102243
 30
0.0
 11
129.705089
 21
148.102243
 31
0.0
  0
LINE
  5
52
330
A
100
AcDbEntity
  8
0
 62
     7
100
AcDbLine
 10
126.854617
 20
147.902083
 30
0.0
 11
126.854617
 21
148.102243
 31
0.0
  0
LINE
  5
51
330
A
100
AcDbEntity
  8
0
 62
     7
100
AcDbLine
 10
129.853228
 20
147.649902
 30
0.0
 11
129.705089
 21
147.602016
 31
0.0
  0
LINE
  5
50
330
A
100
AcDbEntity
  8
0
 62
     7
100
AcDbLine
 10
129.945212
 20
147.774959
 30
0.0
 11
129.853228
 21
147.649902
 31
0.0
  0
LINE
  5
4F
330
A
100
AcDbEntity
  8
0
 62
     7
100
AcDbLine
 10
126.854961
 20
122.100041
 30
0.0
 11
126.755054
 21
122.199948
 31
0.0
  0
LINE
  5
4E
330
A
100
AcDbEntity
  8
0
 62
     7
100
AcDbLine
 10
126.755054
 20
147.799936
 30
0.0
 11
126.854961
 21
147.900016
 31
0.0
  0
LINE
  5
4D
330
A
100
AcDbEntity
  8
0
 62
     7
100
AcDbLine
 10
128.454864
 20
147.900016
 30
0.0
 11
128.555116
 21
147.799936
 31
0.0
  0
LINE
  5
4C
330
A
100
AcDbEntity
  8
0
 62
     7
100
AcDbLine
 10
128.555116
 20
122.199948
 30
0.0
 11
128.454864
 21
122.100041
 31
0.0
  0
LINE
  5
4B
330
A
100
AcDbEntity
  8
0
 62
     7
100
AcDbLine
 10
128.555116
 20
147.799936
 30
0.0
 11
128.555116
 21
122.199948
 31
0.0
  0
LINE
  5
4A
330
A
100
AcDbEntity
  8
0
 62
     7
100
AcDbLine
 10
128.454864
 20
147.900016
 30
0.0
 11
126.854961
 21
147.900016
 31
0.0
  0
LINE
  5
49
330
A
100
AcDbEntity
  8
0
 62
     7
100
AcDbLine
 10
126.854961
 20
147.900016
 30
0.0
 11
128.454864
 21
147.900016
 31
0.0
  0
LINE
  5
48
330
A
100
AcDbEntity
  8
0
 62
     7
100
AcDbLine
 10
128.454864
 20
122.100041
 30
0.0
 11
126.854961
 21
122.100041
 31
0.0
  0
LINE
  5
47
330
A
100
AcDbEntity
  8
0
 62
     7
100
AcDbLine
 10
129.853228
 20
174.049841
 30
0.0
 11
129.944868
 21
174.174898
 31
0.0
  0
LINE
  5
46
330
A
100
AcDbEntity
  8
0
 62
     7
100
AcDbLine
 10
129.705089
 20
174.002127
 30
0.0
 11
129.853228
 21
174.049841
 31
0.0
  0
LINE
  5
45
330
A
100
AcDbEntity
  8
0
 62
     7
100
AcDbLine
 10
129.556605
 20
174.049841
 30
0.0
 11
129.705089
 21
174.002127
 31
0.0
  0
LINE
  5
44
330
A
100
AcDbEntity
  8
0
 62
     7
100
AcDbLine
 10
129.365058
 20
174.302195
 30
0.0
 11
129.556605
 21
174.049841
 31
0.0
  0
LINE
  5
43
330
A
100
AcDbEntity
  8
0
 62
     7
100
AcDbLine
 10
126.854961
 20
174.302195
 30
0.0
 11
129.365058
 21
174.302195
 31
0.0
  0
LINE
  5
42
330
A
100
AcDbEntity
  8
0
 62
     7
100
AcDbLine
 10
126.854961
 20
174.502182
 30
0.0
 11
126.854961
 21
174.302195
 31
0.0
  0
LINE
  5
41
330
A
100
AcDbEntity
  8
0
 62
     7
100
AcDbLine
 10
129.705089
 20
174.502182
 30
0.0
 11
126.854961
 21
174.502182
 31
0.0
  0
LINE
  5
40
330
A
100
AcDbEntity
  8
0
 62
     7
100
AcDbLine
 10
129.853228
 20
174.454296
 30
0.0
 11
129.705089
 21
174.502182
 31
0.0
  0
LINE
  5
3F
330
A
100
AcDbEntity
  8
0
 62
     7
100
AcDbLine
 10
129.944868
 20
174.329411
 30
0.0
 11
129.853228
 21
174.454296
 31
0.0
  0
LINE
  5
3E
330
A
100
AcDbEntity
  8
0
 62
     7
100
AcDbLine
 10
129.944868
 20
174.174898
 30
0.0
 11
129.944868
 21
174.329411
 31
0.0
  0
LINE
  5
3D
330
A
100
AcDbEntity
  8
0
 62
     7
100
AcDbLine
 10
129.945212
 20
174.329411
 30
0.0
 11
129.945212
 21
174.174898
 31
0.0
  0
LINE
  5
3C
330
A
100
AcDbEntity
  8
0
 62
     7
100
AcDbLine
 10
129.853228
 20
174.454468
 30
0.0
 11
129.945212
 21
174.329411
 31
0.0
  0
LINE
  5
3B
330
A
100
AcDbEntity
  8
0
 62
     7
100
AcDbLine
 10
129.705089
 20
174.502182
 30
0.0
 11
129.853228
 21
174.454468
 31
0.0
  0
LINE
  5
3A
330
A
100
AcDbEntity
  8
0
 62
     7
100
AcDbLine
 10
126.854617
 20
174.502182
 30
0.0
 11
129.705089
 21
174.502182
 31
0.0
  0
LINE
  5
39
330
A
100
AcDbEntity
  8
0
 62
     7
100
AcDbLine
 10
126.854617
 20
174.302195
 30
0.0
 11
126.854617
 21
174.502182
 31
0.0
  0
LINE
  5
38
330
A
100
AcDbEntity
  8
0
 62
     7
100
AcDbLine
 10
129.853228
 20
174.049841
 30
0.0
 11
129.705089
 21
174.002127
 31
0.0
  0
LINE
  5
37
330
A
100
AcDbEntity
  8
0
 62
     7
100
AcDbLine
 10
129.945212
 20
174.174898
 30
0.0
 11
129.853228
 21
174.049841
 31
0.0
  0
LINE
  5
36
330
A
100
AcDbEntity
  8
0
 62
     7
100
AcDbLine
 10
126.854961
 20
148.49998
 30
0.0
 11
126.755054
 21
148.60006
 31
0.0
  0
LINE
  5
35
330
A
100
AcDbEntity
  8
0
 62
     7
100
AcDbLine
 10
126.755054
 20
174.2000469999999
 30
0.0
 11
126.854961
 21
174.299955
 31
0.0
  0
LINE
  5
34
330
A
100
AcDbEntity
  8
0
 62
     7
100
AcDbLine
 10
128.454864
 20
174.299955
 30
0.0
 11
128.555116
 21
174.2000469999999
 31
0.0
  0
LINE
  5
33
330
A
100
AcDbEntity
  8
0
 62
     7
100
AcDbLine
 10
128.555116
 20
148.60006
 30
0.0
 11
128.454864
 21
148.49998
 31
0.0
  0
LINE
  5
32
330
A
100
AcDbEntity
  8
0
 62
     7
100
AcDbLine
 10
128.555116
 20
174.2000469999999
 30
0.0
 11
128.555116
 21
148.60006
 31
0.0
  0
LINE
  5
31
330
A
100
AcDbEntity
  8
0
 62
     7
100
AcDbLine
 10
128.454864
 20
174.299955
 30
0.0
 11
126.854961
 21
174.299955
 31
0.0
  0
LINE
  5
30
330
A
100
AcDbEntity
  8
0
 62
     7
100
AcDbLine
 10
126.854961
 20
174.299955
 30
0.0
 11
128.454864
 21
174.299955
 31
0.0
  0
LINE
  5
2F
330
A
100
AcDbEntity
  8
0
 62
     7
100
AcDbLine
 10
128.454864
 20
148.49998
 30
0.0
 11
126.854961
 21
148.49998
 31
0.0
  0
LINE
  5
2E
330
A
100
AcDbEntity
  8
0
 62
     7
100
AcDbLine
 10
128.454864
 20
174.299955
 30
0.0
 11
126.854961
 21
174.299955
 31
0.0
  0
LINE
  5
2D
330
A
100
AcDbEntity
  8
0
 62
     7
100
AcDbLine
 10
126.854961
 20
174.299955
 30
0.0
 11
128.454864
 21
174.299955
 31
0.0
  0
LINE
  5
2C
330
A
100
AcDbEntity
  8
0
 62
     7
100
AcDbLine
 10
80.05489
 20
174.999999
 30
0.0
 11
80.05489
 21
122.000133
 31
0.0
  0
LINE
  5
2B
330
A
100
AcDbEntity
  8
0
 62
     7
100
AcDbLine
 10
126.755054
 20
122.000133
 30
0.0
 11
126.755054
 21
174.999999
 31
0.0
  0
LINE
  5
2A
330
A
100
AcDbEntity
  8
0
 62
     7
100
AcDbLine
 10
80.05489
 20
174.999999
 30
0.0
 11
126.755054
 21
174.999999
 31
0.0
  0
LINE
  5
29
330
A
100
AcDbEntity
  8
0
 62
     7
100
AcDbLine
 10
126.755054
 20
122.000133
 30
0.0
 11
80.05489
 21
122.000133
 31
0.0
  0
DIMENSION
  5
C1
330
A
100
AcDbEntity
  8
Cotation-JacobDelafon
  6
Continuous
370
     0
100
AcDbDimension
  2
*D3
 10
61.31029768102894
 20
174.999999
 30
0.0
 11
58.87755552550367
 21
148.500066
 31
0.0
 70
    32
 71
     5
 42
52.99986600000001
 73
     0
 74
     0
 75
     0
  3
Cotation-Jacob-Delafon
100
AcDbAlignedDimension
 13
80.05489
 23
122.000133
 33
0.0
 14
80.05489
 24
174.999999
 34
0.0
 50
90.0
100
AcDbRotatedDimension
  0
DIMENSION
  5
CE
330
A
100
AcDbEntity
  8
Cotation-JacobDelafon
  6
Continuous
370
     0
100
AcDbDimension
  2
*D4
 10
128.555116
 20
193.2889875107178
 30
0.0
 11
104.305003
 21
195.7207064738829
 31
0.0
 70
    32
 71
     5
 42
48.50022599999999
 73
     0
 74
     0
 75
     0
  3
Cotation-Jacob-Delafon
100
AcDbAlignedDimension
 13
80.05489
 23
174.999999
 33
0.0
 14
128.555116
 24
174.2000469999999
 34
0.0
100
AcDbRotatedDimension
  0
ENDSEC
  0
SECTION
  2
OBJECTS
  0
DICTIONARY
  5
19
330
0
100
AcDbDictionary
281
     1
  3
ACAD_COLOR
350
8D
  3
ACAD_GROUP
350
1A
  3
ACAD_LAYOUT
350
1E
  3
ACAD_MATERIAL
350
63
  3
ACAD_MLEADERSTYLE
350
A2
  3
ACAD_MLINESTYLE
350
1B
  3
ACAD_PLOTSETTINGS
350
22
  3
ACAD_PLOTSTYLENAME
350
1F
  3
ACAD_SCALELIST
350
90
  3
ACAD_TABLESTYLE
350
8E
  3
ACAD_VISUALSTYLE
350
7C
  3
ACAD_WIPEOUT_VARS
350
23
  3
ACDB_RECOMPOSE_DATA
350
E8
  3
AcDbVariableDictionary
350
DE
  3
AEC_PROPERTY_SET_DEFS
350
B5
  0
DICTIONARY
  5
DB
330
14
100
AcDbDictionary
280
     1
281
     1
  3
ADSK_XREC_LAYER_RECONCILED
360
DC
  0
DICTIONARY
  5
BB
330
BA
100
AcDbDictionary
280
     1
281
     1
  3
ADSK_XREC_LAYER_RECONCILED
360
DD
  0
DICTIONARY
  5
8D
102
{ACAD_REACTORS
330
19
102
}
330
19
100
AcDbDictionary
281
     1
  0
DICTIONARY
  5
1A
102
{ACAD_REACTORS
330
19
102
}
330
19
100
AcDbDictionary
281
     1
  0
DICTIONARY
  5
1E
102
{ACAD_REACTORS
330
19
102
}
330
19
100
AcDbDictionary
281
     1
  3
Layout1
350
21
  3
Model
350
20
  0
DICTIONARY
  5
63
102
{ACAD_REACTORS
330
19
102
}
330
19
100
AcDbDictionary
281
     1
  3
ByBlock
350
6C
  3
ByLayer
350
64
  3
Global
350
74
  0
DICTIONARY
  5
A2
102
{ACAD_REACTORS
330
19
102
}
330
19
100
AcDbDictionary
281
     1
  3
Standard
350
A3
  0
DICTIONARY
  5
1B
102
{ACAD_REACTORS
330
19
102
}
330
19
100
AcDbDictionary
281
     1
  3
Standard
350
1C
  0
DICTIONARY
  5
22
102
{ACAD_REACTORS
330
19
102
}
330
19
100
AcDbDictionary
281
     1
  0
ACDBDICTIONARYWDFLT
  5
1F
102
{ACAD_REACTORS
330
19
102
}
330
19
100
AcDbDictionary
281
     1
  3
Normal
350
1D
100
AcDbDictionaryWithDefault
340
1D
  0
DICTIONARY
  5
90
102
{ACAD_REACTORS
330
19
102
}
330
19
100
AcDbDictionary
281
     1
  3
A0
350
91
  3
A1
350
92
  3
A2
350
93
  3
A3
350
94
  3
A4
350
95
  3
A5
350
96
  3
A6
350
97
  3
A7
350
98
  3
A8
350
99
  3
A9
350
9A
  3
B0
350
9B
  3
B1
350
9C
  3
B2
350
9D
  3
B3
350
9E
  3
B4
350
9F
  3
B5
350
A0
  3
B6
350
A1
  0
DICTIONARY
  5
8E
102
{ACAD_REACTORS
330
19
102
}
330
19
100
AcDbDictionary
281
     1
  3
Standard
350
8F
  0
DICTIONARY
  5
7C
102
{ACAD_REACTORS
330
19
102
}
330
19
100
AcDbDictionary
281
     1
  3
2dWireframe
350
82
  3
3D Hidden
350
84
  3
3dWireframe
350
83
  3
Basic
350
81
  3
Brighten
350
88
  3
ColorChange
350
8C
  3
Conceptual
350
85
  3
Dim
350
87
  3
Facepattern
350
8B
  3
Flat
350
7D
  3
FlatWithEdges
350
7E
  3
Gouraud
350
7F
  3
GouraudWithEdges
350
80
  3
Linepattern
350
8A
  3
Realistic
350
86
  3
Thicken
350
89
  0
WIPEOUTVARIABLES
  5
23
330
19
100
AcDbWipeoutVariables
 70
     1
  0
XRECORD
  5
E8
102
{ACAD_REACTORS
330
19
102
}
330
19
100
AcDbXrecord
280
     1
 90
        1
330
8F
  0
DICTIONARY
  5
DE
102
{ACAD_REACTORS
330
19
102
}
330
19
100
AcDbDictionary
281
     1
  3
CANNOSCALE
350
E2
  3
CMLEADERSTYLE
350
E0
  3
CTABLESTYLE
350
DF
  3
LAYEREVAL
350
E4
  3
LAYERNOTIFY
350
E5
  3
LIGHTINGUNITS
350
E3
  3
MSLTSCALE
350
E1
  0
DICTIONARY
  5
B5
102
{ACAD_REACTORS
330
19
102
}
330
19
100
AcDbDictionary
281
     1
  0
XRECORD
  5
DC
102
{ACAD_REACTORS
330
DB
102
}
330
DB
100
AcDbXrecord
280
     1
290
     1
  0
XRECORD
  5
DD
102
{ACAD_REACTORS
330
BB
102
}
330
BB
100
AcDbXrecord
280
     1
290
     1
  0
LAYOUT
  5
21
102
{ACAD_REACTORS
330
1E
102
}
330
1E
100
AcDbPlotSettings
  1

  2

  4

  6

 40
0.0
 41
0.0
 42
0.0
 43
0.0
 44
0.0
 45
0.0
 46
0.0
 47
0.0
 48
0.0
 49
0.0
140
0.0
141
0.0
142
1.0
143
1.0
 70
     0
 72
     0
 73
     0
 74
     0
  7

 75
     0
147
1.0
 76
     0
 77
     2
 78
   300
148
0.0
149
0.0
100
AcDbLayout
  1
Layout1
 70
     0
 71
     1
 10
0.0
 20
0.0
 11
12.0
 21
9.0
 12
0.0
 22
0.0
 32
0.0
 14
1.000000000000000E+20
 24
1.000000000000000E+20
 34
1.000000000000000E+20
 15
-1.000000000000000E+20
 25
-1.000000000000000E+20
 35
-1.000000000000000E+20
146
0.0
 13
0.0
 23
0.0
 33
0.0
 16
1.0
 26
0.0
 36
0.0
 17
0.0
 27
1.0
 37
0.0
 76
     0
330
B
  0
LAYOUT
  5
20
102
{ACAD_REACTORS
330
1E
102
}
330
1E
100
AcDbPlotSettings
  1

  2

  4

  6

 40
0.0
 41
0.0
 42
0.0
 43
0.0
 44
0.0
 45
0.0
 46
0.0
 47
0.0
 48
0.0
 49
0.0
140
0.0
141
0.0
142
1.0
143
1.0
 70
  1024
 72
     0
 73
     0
 74
     0
  7

 75
     0
147
1.0
 76
     0
 77
     2
 78
   300
148
0.0
149
0.0
100
AcDbLayout
  1
Model
 70
     0
 71
     0
 10
0.0
 20
0.0
 11
0.0
 21
0.0
 12
0.0
 22
0.0
 32
0.0
 14
0.0
 24
0.0
 34
0.0
 15
0.0
 25
0.0
 35
0.0
146
0.0
 13
0.0
 23
0.0
 33
0.0
 16
0.0
 26
0.0
 36
0.0
 17
0.0
 27
0.0
 37
0.0
 76
     0
330
A
331
15
  0
MATERIAL
  5
6C
102
{ACAD_XDICTIONARY
360
6D
102
}
102
{ACAD_REACTORS
330
63
102
}
330
63
100
AcDbMaterial
  1
ByBlock
 72
     0
 43
0.0208333333333333
 43
0.0
 43
0.0
 43
0.0
 43
0.0
 43
0.0208333333333333
 43
0.0
 43
0.0
 43
0.0
 43
0.0
 43
1.0
 43
0.0
 43
0.0
 43
0.0
 43
0.0
 43
1.0
 77
     0
 47
0.0208333333333333
 47
0.0
 47
0.0
 47
0.0
 47
0.0
 47
0.0208333333333333
 47
0.0
 47
0.0
 47
0.0
 47
0.0
 47
1.0
 47
0.0
 47
0.0
 47
0.0
 47
0.0
 47
1.0
171
     0
 49
0.0208333333333333
 49
0.0
 49
0.0
 49
0.0
 49
0.0
 49
0.0208333333333333
 49
0.0
 49
0.0
 49
0.0
 49
0.0
 49
1.0
 49
0.0
 49
0.0
 49
0.0
 49
0.0
 49
1.0
175
     0
142
0.0208333333333333
142
0.0
142
0.0
142
0.0
142
0.0
142
0.0208333333333333
142
0.0
142
0.0
142
0.0
142
0.0
142
1.0
142
0.0
142
0.0
142
0.0
142
0.0
142
1.0
179
     0
144
0.0208333333333333
144
0.0
144
0.0
144
0.0
144
0.0
144
0.0208333333333333
144
0.0
144
0.0
144
0.0
144
0.0
144
1.0
144
0.0
144
0.0
144
0.0
144
0.0
144
1.0
147
0.0208333333333333
147
0.0
147
0.0
147
0.0
147
0.0
147
0.0208333333333333
147
0.0
147
0.0
147
0.0
147
0.0
147
1.0
147
0.0
147
0.0
147
0.0
147
0.0
147
1.0
  0
MATERIAL
  5
64
102
{ACAD_XDICTIONARY
360
65
102
}
102
{ACAD_REACTORS
330
63
102
}
330
63
100
AcDbMaterial
  1
ByLayer
 72
     0
 43
0.0208333333333333
 43
0.0
 43
0.0
 43
0.0
 43
0.0
 43
0.0208333333333333
 43
0.0
 43
0.0
 43
0.0
 43
0.0
 43
1.0
 43
0.0
 43
0.0
 43
0.0
 43
0.0
 43
1.0
 77
     0
 47
0.0208333333333333
 47
0.0
 47
0.0
 47
0.0
 47
0.0
 47
0.0208333333333333
 47
0.0
 47
0.0
 47
0.0
 47
0.0
 47
1.0
 47
0.0
 47
0.0
 47
0.0
 47
0.0
 47
1.0
171
     0
 49
0.0208333333333333
 49
0.0
 49
0.0
 49
0.0
 49
0.0
 49
0.0208333333333333
 49
0.0
 49
0.0
 49
0.0
 49
0.0
 49
1.0
 49
0.0
 49
0.0
 49
0.0
 49
0.0
 49
1.0
175
     0
142
0.0208333333333333
142
0.0
142
0.0
142
0.0
142
0.0
142
0.0208333333333333
142
0.0
142
0.0
142
0.0
142
0.0
142
1.0
142
0.0
142
0.0
142
0.0
142
0.0
142
1.0
179
     0
144
0.0208333333333333
144
0.0
144
0.0
144
0.0
144
0.0
144
0.0208333333333333
144
0.0
144
0.0
144
0.0
144
0.0
144
1.0
144
0.0
144
0.0
144
0.0
144
0.0
144
1.0
147
0.0208333333333333
147
0.0
147
0.0
147
0.0
147
0.0
147
0.0208333333333333
147
0.0
147
0.0
147
0.0
147
0.0
147
1.0
147
0.0
147
0.0
147
0.0
147
0.0
147
1.0
  0
MATERIAL
  5
74
102
{ACAD_XDICTIONARY
360
75
102
}
102
{ACAD_REACTORS
330
63
102
}
330
63
100
AcDbMaterial
  1
Global
 72
     0
 43
0.0208333333333333
 43
0.0
 43
0.0
 43
0.0
 43
0.0
 43
0.0208333333333333
 43
0.0
 43
0.0
 43
0.0
 43
0.0
 43
1.0
 43
0.0
 43
0.0
 43
0.0
 43
0.0
 43
1.0
 77
     0
 47
0.0208333333333333
 47
0.0
 47
0.0
 47
0.0
 47
0.0
 47
0.0208333333333333
 47
0.0
 47
0.0
 47
0.0
 47
0.0
 47
1.0
 47
0.0
 47
0.0
 47
0.0
 47
0.0
 47
1.0
171
     0
 49
0.0208333333333333
 49
0.0
 49
0.0
 49
0.0
 49
0.0
 49
0.0208333333333333
 49
0.0
 49
0.0
 49
0.0
 49
0.0
 49
1.0
 49
0.0
 49
0.0
 49
0.0
 49
0.0
 49
1.0
175
     0
142
0.0208333333333333
142
0.0
142
0.0
142
0.0
142
0.0
142
0.0208333333333333
142
0.0
142
0.0
142
0.0
142
0.0
142
1.0
142
0.0
142
0.0
142
0.0
142
0.0
142
1.0
179
     0
144
0.0208333333333333
144
0.0
144
0.0
144
0.0
144
0.0
144
0.0208333333333333
144
0.0
144
0.0
144
0.0
144
0.0
144
1.0
144
0.0
144
0.0
144
0.0
144
0.0
144
1.0
147
0.0208333333333333
147
0.0
147
0.0
147
0.0
147
0.0
147
0.0208333333333333
147
0.0
147
0.0
147
0.0
147
0.0
147
1.0
147
0.0
147
0.0
147
0.0
147
0.0
147
1.0
  0
MLEADERSTYLE
  5
A3
102
{ACAD_REACTORS
330
A2
102
}
330
A2
100
AcDbMLeaderStyle
170
     2
171
     1
172
     0
 90
        2
 40
0.0
 41
0.0
173
     1
 91
-1056964608
340
11
 92
       -2
290
     1
 42
2.0
291
     1
 43
0.36
  3
Standard
 44
4.0
300

342
17
174
     1
178
     6
175
     1
176
     0
 93
-1056964608
 45
4.0
292
     0
297
     0
 46
4.0
 94
-1056964608
 47
1.0
 49
1.0
140
1.0
293
     1
141
0.0
294
     1
177
     0
142
1.0
295
     0
296
     0
143
0.125
1001
ACAD_MLEADERVER
1070
     2
  0
MLINESTYLE
  5
1C
102
{ACAD_REACTORS
330
1B
102
}
330
1B
100
AcDbMlineStyle
  2
STANDARD
 70
     0
  3

 62
     0
 51
90.0
 52
90.0
 71
     2
 49
0.5
 62
   256
  6
BYLAYER
 49
-0.5
 62
   256
  6
BYLAYER
  0
ACDBPLACEHOLDER
  5
1D
102
{ACAD_REACTORS
330
1F
102
}
330
1F
  0
SCALE
  5
91
102
{ACAD_REACTORS
330
90
102
}
330
90
100
AcDbScale
 70
     0
300
1:1
140
1.0
141
1.0
290
     1
  0
SCALE
  5
92
102
{ACAD_REACTORS
330
90
102
}
330
90
100
AcDbScale
 70
     0
300
1:2
140
1.0
141
2.0
290
     0
  0
SCALE
  5
93
102
{ACAD_REACTORS
330
90
102
}
330
90
100
AcDbScale
 70
     0
300
1:4
140
1.0
141
4.0
290
     0
  0
SCALE
  5
94
102
{ACAD_REACTORS
330
90
102
}
330
90
100
AcDbScale
 70
     0
300
1:5
140
1.0
141
5.0
290
     0
  0
SCALE
  5
95
102
{ACAD_REACTORS
330
90
102
}
330
90
100
AcDbScale
 70
     0
300
1:8
140
1.0
141
8.0
290
     0
  0
SCALE
  5
96
102
{ACAD_REACTORS
330
90
102
}
330
90
100
AcDbScale
 70
     0
300
1:10
140
1.0
141
10.0
290
     0
  0
SCALE
  5
97
102
{ACAD_REACTORS
330
90
102
}
330
90
100
AcDbScale
 70
     0
300
1:16
140
1.0
141
16.0
290
     0
  0
SCALE
  5
98
102
{ACAD_REACTORS
330
90
102
}
330
90
100
AcDbScale
 70
     0
300
1:20
140
1.0
141
20.0
290
     0
  0
SCALE
  5
99
102
{ACAD_REACTORS
330
90
102
}
330
90
100
AcDbScale
 70
     0
300
1:30
140
1.0
141
30.0
290
     0
  0
SCALE
  5
9A
102
{ACAD_REACTORS
330
90
102
}
330
90
100
AcDbScale
 70
     0
300
1:40
140
1.0
141
40.0
290
     0
  0
SCALE
  5
9B
102
{ACAD_REACTORS
330
90
102
}
330
90
100
AcDbScale
 70
     0
300
1:50
140
1.0
141
50.0
290
     0
  0
SCALE
  5
9C
102
{ACAD_REACTORS
330
90
102
}
330
90
100
AcDbScale
 70
     0
300
1:100
140
1.0
141
100.0
290
     0
  0
SCALE
  5
9D
102
{ACAD_REACTORS
330
90
102
}
330
90
100
AcDbScale
 70
     0
300
2:1
140
2.0
141
1.0
290
     0
  0
SCALE
  5
9E
102
{ACAD_REACTORS
330
90
102
}
330
90
100
AcDbScale
 70
     0
300
4:1
140
4.0
141
1.0
290
     0
  0
SCALE
  5
9F
102
{ACAD_REACTORS
330
90
102
}
330
90
100
AcDbScale
 70
     0
300
8:1
140
8.0
141
1.0
290
     0
  0
SCALE
  5
A0
102
{ACAD_REACTORS
330
90
102
}
330
90
100
AcDbScale
 70
     0
300
10:1
140
10.0
141
1.0
290
     0
  0
SCALE
  5
A1
102
{ACAD_REACTORS
330
90
102
}
330
90
100
AcDbScale
 70
     0
300
100:1
140
100.0
141
1.0
290
     0
  0
TABLESTYLE
  5
8F
102
{ACAD_XDICTIONARY
360
E6
102
}
102
{ACAD_REACTORS
330
8E
102
}
330
8E
100
AcDbTableStyle
  3
Standard
 70
     0
 71
     0
 40
1.5
 41
1.5
280
     0
281
     0
  7
Standard
140
4.5
170
     2
 62
     0
 63
     7
283
     0
 90
      512
 91
        0
  1

274
    -2
284
     1
 64
     0
275
    -2
285
     1
 65
     0
276
    -2
286
     1
 66
     0
277
    -2
287
     1
 67
     0
278
    -2
288
     1
 68
     0
279
    -2
289
     1
 69
     0
  7
Standard
140
6.0
170
     5
 62
     0
 63
     7
283
     0
 90
      512
 91
        0
  1

274
    -2
284
     1
 64
     0
275
    -2
285
     1
 65
     0
276
    -2
286
     1
 66
     0
277
    -2
287
     1
 67
     0
278
    -2
288
     1
 68
     0
279
    -2
289
     1
 69
     0
  7
Standard
140
4.5
170
     5
 62
     0
 63
     7
283
     0
 90
      512
 91
        0
  1

274
    -2
284
     1
 64
     0
275
    -2
285
     1
 65
     0
276
    -2
286
     1
 66
     0
277
    -2
287
     1
 67
     0
278
    -2
288
     1
 68
     0
279
    -2
289
     1
 69
     0
  0
VISUALSTYLE
  5
82
102
{ACAD_REACTORS
330
7C
102
}
330
7C
100
AcDbVisualStyle
  2
2dWireframe
 70
     4
 71
     0
 72
     2
 73
     0
 90
        0
 40
-0.6
 41
-30.0
 62
     5
 63
     7
421
 16777215
 74
     1
 91
        4
 64
     7
 65
   257
 75
     1
175
     1
 42
1.0
 92
        0
 66
   257
 43
1.0
 76
     1
 77
     6
 78
     2
 67
     7
 79
     5
170
     0
171
     0
290
     0
174
     0
 93
        1
 44
0.0
173
     0
291
     0
 45
0.0
  0
VISUALSTYLE
  5
84
102
{ACAD_REACTORS
330
7C
102
}
330
7C
100
AcDbVisualStyle
  2
3D Hidden
 70
     6
 71
     1
 72
     2
 73
     2
 90
        0
 40
-0.6
 41
-30.0
 62
     5
 63
     7
421
 16777215
 74
     2
 91
        2
 64
     7
 65
   257
 75
     2
175
     1
 42
40.0
 92
        0
 66
   257
 43
1.0
 76
     1
 77
     6
 78
     2
 67
     7
 79
     3
170
     0
171
     0
290
     0
174
     0
 93
        1
 44
0.0
173
     0
291
     0
 45
0.0
  0
VISUALSTYLE
  5
83
102
{ACAD_REACTORS
330
7C
102
}
330
7C
100
AcDbVisualStyle
  2
3dWireframe
 70
     5
 71
     0
 72
     2
 73
     0
 90
        0
 40
-0.6
 41
-30.0
 62
     5
 63
     7
421
 16777215
 74
     1
 91
        4
 64
     7
 65
   257
 75
     1
175
     1
 42
1.0
 92
        0
 66
   257
 43
1.0
 76
     1
 77
     6
 78
     2
 67
     7
 79
     5
170
     0
171
     0
290
     0
174
     0
 93
        1
 44
0.0
173
     0
291
     0
 45
0.0
  0
VISUALSTYLE
  5
81
102
{ACAD_REACTORS
330
7C
102
}
330
7C
100
AcDbVisualStyle
  2
Basic
 70
     7
 71
     1
 72
     0
 73
     1
 90
        0
 40
-0.6
 41
-30.0
 62
     5
 63
     7
421
 16777215
 74
     0
 91
        4
 64
     7
 65
   257
 75
     1
175
     1
 42
1.0
 92
        8
 66
     7
 43
1.0
 76
     1
 77
     6
 78
     2
 67
     7
 79
     5
170
     0
171
     0
290
     0
174
     0
 93
        1
 44
0.0
173
     0
291
     1
 45
0.0
  0
VISUALSTYLE
  5
88
102
{ACAD_REACTORS
330
7C
102
}
330
7C
100
AcDbVisualStyle
  2
Brighten
 70
    12
 71
     2
 72
     2
 73
     0
 90
        0
 40
-0.6
 41
-30.0
 62
     5
 63
     7
421
 16777215
 74
     1
 91
        4
 64
     7
 65
   257
 75
     1
175
     1
 42
1.0
 92
        8
 66
     7
 43
1.0
 76
     1
 77
     6
 78
     2
 67
     7
 79
     5
170
     0
171
     0
290
     0
174
     0
 93
        1
 44
50.0
173
     0
291
     1
 45
0.0
  0
VISUALSTYLE
  5
8C
102
{ACAD_REACTORS
330
7C
102
}
330
7C
100
AcDbVisualStyle
  2
ColorChange
 70
    16
 71
     2
 72
     2
 73
     3
 90
        0
 40
-0.6
 41
-30.0
 62
     5
 63
     8
421
  8421504
 74
     1
 91
        4
 64
     7
 65
   257
 75
     1
175
     1
 42
1.0
 92
        8
 66
     8
424
  8421504
 43
1.0
 76
     1
 77
     6
 78
     2
 67
     7
 79
     5
170
     0
171
     0
290
     0
174
     0
 93
        1
 44
0.0
173
     0
291
     1
 45
0.0
  0
VISUALSTYLE
  5
85
102
{ACAD_REACTORS
330
7C
102
}
330
7C
100
AcDbVisualStyle
  2
Conceptual
 70
     9
 71
     3
 72
     2
 73
     0
 90
        0
 40
-0.6
 41
-30.0
 62
     5
 63
     7
421
 16777215
 74
     2
 91
        2
 64
     7
 65
   257
 75
     1
175
     1
 42
40.0
 92
        8
 66
     7
 43
1.0
 76
     1
 77
     6
 78
     2
 67
     7
 79
     3
170
     0
171
     0
290
     0
174
     0
 93
        1
 44
0.0
173
     0
291
     0
 45
0.0
  0
VISUALSTYLE
  5
87
102
{ACAD_REACTORS
330
7C
102
}
330
7C
100
AcDbVisualStyle
  2
Dim
 70
    11
 71
     2
 72
     2
 73
     0
 90
        0
 40
-0.6
 41
-30.0
 62
     5
 63
     7
421
 16777215
 74
     1
 91
        4
 64
     7
 65
   257
 75
     1
175
     1
 42
1.0
 92
        8
 66
     7
 43
1.0
 76
     1
 77
     6
 78
     2
 67
     7
 79
     5
170
     0
171
     0
290
     0
174
     0
 93
        1
 44
-50.0
173
     0
291
     1
 45
0.0
  0
VISUALSTYLE
  5
8B
102
{ACAD_REACTORS
330
7C
102
}
330
7C
100
AcDbVisualStyle
  2
Facepattern
 70
    15
 71
     2
 72
     2
 73
     0
 90
        0
 40
-0.6
 41
-30.0
 62
     5
 63
     7
421
 16777215
 74
     1
 91
        4
 64
     7
 65
   257
 75
     1
175
     1
 42
1.0
 92
        8
 66
     7
 43
1.0
 76
     1
 77
     6
 78
     2
 67
     7
 79
     5
170
     0
171
     0
290
     0
174
     0
 93
        1
 44
0.0
173
     0
291
     1
 45
0.0
  0
VISUALSTYLE
  5
7D
102
{ACAD_REACTORS
330
7C
102
}
330
7C
100
AcDbVisualStyle
  2
Flat
 70
     0
 71
     2
 72
     1
 73
     1
 90
        2
 40
-0.6
 41
30.0
 62
     5
 63
     7
421
 16777215
 74
     0
 91
        4
 64
     7
 65
   257
 75
     1
175
     1
 42
1.0
 92
        8
 66
     7
 43
1.0
 76
     1
 77
     6
 78
     2
 67
     7
 79
     5
170
     0
171
     0
290
     0
174
     0
 93
       13
 44
0.0
173
     0
291
     1
 45
0.0
  0
VISUALSTYLE
  5
7E
102
{ACAD_REACTORS
330
7C
102
}
330
7C
100
AcDbVisualStyle
  2
FlatWithEdges
 70
     1
 71
     2
 72
     1
 73
     1
 90
        2
 40
-0.6
 41
30.0
 62
     5
 63
     7
421
 16777215
 74
     1
 91
        4
 64
     7
 65
   257
 75
     1
175
     1
 42
1.0
 92
        0
 66
   257
 43
1.0
 76
     1
 77
     6
 78
     2
 67
     7
 79
     5
170
     0
171
     0
290
     0
174
     0
 93
       13
 44
0.0
173
     0
291
     1
 45
0.0
  0
VISUALSTYLE
  5
7F
102
{ACAD_REACTORS
330
7C
102
}
330
7C
100
AcDbVisualStyle
  2
Gouraud
 70
     2
 71
     2
 72
     2
 73
     1
 90
        2
 40
-0.6
 41
30.0
 62
     5
 63
     7
421
 16777215
 74
     0
 91
        4
 64
     7
 65
   257
 75
     1
175
     1
 42
1.0
 92
        0
 66
     7
 43
1.0
 76
     1
 77
     6
 78
     2
 67
     7
 79
     5
170
     0
171
     0
290
     0
174
     0
 93
       13
 44
0.0
173
     0
291
     1
 45
0.0
  0
VISUALSTYLE
  5
80
102
{ACAD_REACTORS
330
7C
102
}
330
7C
100
AcDbVisualStyle
  2
GouraudWithEdges
 70
     3
 71
     2
 72
     2
 73
     1
 90
        2
 40
-0.6
 41
30.0
 62
     5
 63
     7
421
 16777215
 74
     1
 91
        4
 64
     7
 65
   257
 75
     1
175
     1
 42
1.0
 92
        0
 66
   257
 43
1.0
 76
     1
 77
     6
 78
     2
 67
     7
 79
     5
170
     0
171
     0
290
     0
174
     0
 93
       13
 44
0.0
173
     0
291
     1
 45
0.0
  0
VISUALSTYLE
  5
8A
102
{ACAD_REACTORS
330
7C
102
}
330
7C
100
AcDbVisualStyle
  2
Linepattern
 70
    14
 71
     2
 72
     2
 73
     0
 90
        0
 40
-0.6
 41
-30.0
 62
     5
 63
     7
421
 16777215
 74
     1
 91
        4
 64
     7
 65
   257
 75
     7
175
     7
 42
1.0
 92
        8
 66
     7
 43
1.0
 76
     1
 77
     6
 78
     2
 67
     7
 79
     5
170
     0
171
     0
290
     0
174
     0
 93
        1
 44
0.0
173
     0
291
     1
 45
0.0
  0
VISUALSTYLE
  5
86
102
{ACAD_REACTORS
330
7C
102
}
330
7C
100
AcDbVisualStyle
  2
Realistic
 70
     8
 71
     2
 72
     2
 73
     0
 90
        0
 40
-0.6
 41
-30.0
 62
     5
 63
     7
421
 16777215
 74
     1
 91
        0
 64
     7
 65
   257
 75
     1
175
     1
 42
1.0
 92
        8
 66
     8
424
  7895160
 43
1.0
 76
     1
 77
     6
 78
     2
 67
     7
 79
     5
170
     0
171
     0
290
     0
174
     0
 93
       13
 44
0.0
173
     0
291
     0
 45
0.0
  0
VISUALSTYLE
  5
89
102
{ACAD_REACTORS
330
7C
102
}
330
7C
100
AcDbVisualStyle
  2
Thicken
 70
    13
 71
     2
 72
     2
 73
     0
 90
        0
 40
-0.6
 41
-30.0
 62
     5
 63
     7
421
 16777215
 74
     1
 91
        4
 64
     7
 65
   257
 75
     1
175
     1
 42
1.0
 92
       12
 66
     7
 43
1.0
 76
     1
 77
     6
 78
     2
 67
     7
 79
     5
170
     0
171
     0
290
     0
174
     0
 93
        1
 44
0.0
173
     0
291
     1
 45
0.0
  0
DICTIONARYVAR
  5
E2
102
{ACAD_REACTORS
330
DE
102
}
330
DE
100
DictionaryVariables
280
     0
  1
1:1
  0
DICTIONARYVAR
  5
E0
102
{ACAD_REACTORS
330
DE
102
}
330
DE
100
DictionaryVariables
280
     0
  1
STANDARD
  0
DICTIONARYVAR
  5
DF
102
{ACAD_REACTORS
330
DE
102
}
330
DE
100
DictionaryVariables
280
     0
  1
STANDARD
  0
DICTIONARYVAR
  5
E4
102
{ACAD_REACTORS
330
DE
102
}
330
DE
100
DictionaryVariables
280
     0
  1
1
  0
DICTIONARYVAR
  5
E5
102
{ACAD_REACTORS
330
DE
102
}
330
DE
100
DictionaryVariables
280
     0
  1
15
  0
DICTIONARYVAR
  5
E3
102
{ACAD_REACTORS
330
DE
102
}
330
DE
100
DictionaryVariables
280
     0
  1
0
  0
DICTIONARYVAR
  5
E1
102
{ACAD_REACTORS
330
DE
102
}
330
DE
100
DictionaryVariables
280
     0
  1
0
  0
DICTIONARY
  5
6D
330
6C
100
AcDbDictionary
280
     1
281
     1
  3
BUMPTILE
360
6F
  3
DIFFUSETILE
360
6E
  3
OPACITYTILE
360
72
  3
REFLECTIONTILE
360
71
  3
REFRACTIONTILE
360
73
  3
SPECULARTILE
360
70
  0
DICTIONARY
  5
65
330
64
100
AcDbDictionary
280
     1
281
     1
  3
BUMPTILE
360
67
  3
DIFFUSETILE
360
66
  3
OPACITYTILE
360
6A
  3
REFLECTIONTILE
360
69
  3
REFRACTIONTILE
360
6B
  3
SPECULARTILE
360
68
  0
DICTIONARY
  5
75
330
74
100
AcDbDictionary
280
     1
281
     1
  3
BUMPTILE
360
77
  3
DIFFUSETILE
360
76
  3
OPACITYTILE
360
7A
  3
REFLECTIONTILE
360
79
  3
REFRACTIONTILE
360
7B
  3
SPECULARTILE
360
78
  0
DICTIONARY
  5
E6
330
8F
100
AcDbDictionary
280
     1
281
     1
  3
ACAD_ROUNDTRIP_2008_TABLESTYLE_CELLSTYLEMAP
360
E7
  0
XRECORD
  5
6F
102
{ACAD_REACTORS
330
6D
102
}
330
6D
100
AcDbXrecord
280
     1
270
     1
271
     1
  0
XRECORD
  5
6E
102
{ACAD_REACTORS
330
6D
102
}
330
6D
100
AcDbXrecord
280
     1
270
     1
271
     1
  0
XRECORD
  5
72
102
{ACAD_REACTORS
330
6D
102
}
330
6D
100
AcDbXrecord
280
     1
270
     1
271
     1
  0
XRECORD
  5
71
102
{ACAD_REACTORS
330
6D
102
}
330
6D
100
AcDbXrecord
280
     1
270
     1
271
     1
  0
XRECORD
  5
73
102
{ACAD_REACTORS
330
6D
102
}
330
6D
100
AcDbXrecord
280
     1
270
     1
271
     1
  0
XRECORD
  5
70
102
{ACAD_REACTORS
330
6D
102
}
330
6D
100
AcDbXrecord
280
     1
270
     1
271
     1
  0
XRECORD
  5
67
102
{ACAD_REACTORS
330
65
102
}
330
65
100
AcDbXrecord
280
     1
270
     1
271
     1
  0
XRECORD
  5
66
102
{ACAD_REACTORS
330
65
102
}
330
65
100
AcDbXrecord
280
     1
270
     1
271
     1
  0
XRECORD
  5
6A
102
{ACAD_REACTORS
330
65
102
}
330
65
100
AcDbXrecord
280
     1
270
     1
271
     1
  0
XRECORD
  5
69
102
{ACAD_REACTORS
330
65
102
}
330
65
100
AcDbXrecord
280
     1
270
     1
271
     1
  0
XRECORD
  5
6B
102
{ACAD_REACTORS
330
65
102
}
330
65
100
AcDbXrecord
280
     1
270
     1
271
     1
  0
XRECORD
  5
68
102
{ACAD_REACTORS
330
65
102
}
330
65
100
AcDbXrecord
280
     1
270
     1
271
     1
  0
XRECORD
  5
77
102
{ACAD_REACTORS
330
75
102
}
330
75
100
AcDbXrecord
280
     1
270
     1
271
     1
  0
XRECORD
  5
76
102
{ACAD_REACTORS
330
75
102
}
330
75
100
AcDbXrecord
280
     1
270
     1
271
     1
  0
XRECORD
  5
7A
102
{ACAD_REACTORS
330
75
102
}
330
75
100
AcDbXrecord
280
     1
270
     1
271
     1
  0
XRECORD
  5
79
102
{ACAD_REACTORS
330
75
102
}
330
75
100
AcDbXrecord
280
     1
270
     1
271
     1
  0
XRECORD
  5
7B
102
{ACAD_REACTORS
330
75
102
}
330
75
100
AcDbXrecord
280
     1
270
     1
271
     1
  0
XRECORD
  5
78
102
{ACAD_REACTORS
330
75
102
}
330
75
100
AcDbXrecord
280
     1
270
     1
271
     1
  0
CELLSTYLEMAP
  5
E7
102
{ACAD_REACTORS
330
E6
102
}
330
E6
100
AcDbCellStyleMap
 90
        3
300
CELLSTYLE
  1
TABLEFORMAT_BEGIN
 90
        5
170
     1
 91
        0
 92
    32768
 62
   257
 93
        1
300
CONTENTFORMAT
  1
CONTENTFORMAT_BEGIN
 90
        0
 91
        0
 92
      512
 93
        0
300

 40
0.0
140
1.0
 94
        5
 62
     0
340
17
144
6.0
309
CONTENTFORMAT_END
171
     1
301
MARGIN
  1
CELLMARGIN_BEGIN
 40
1.5
 40
1.5
 40
1.5
 40
1.5
 40
4.5
 40
4.5
309
CELLMARGIN_END
 94
        6
 95
        1
302
GRIDFORMAT
  1
GRIDFORMAT_BEGIN
 90
        0
 91
        1
 62
     0
 92
       -2
340
0
 93
        0
 40
1.125
309
GRIDFORMAT_END
 95
        2
302
GRIDFORMAT
  1
GRIDFORMAT_BEGIN
 90
        0
 91
        1
 62
     0
 92
       -2
340
0
 93
        0
 40
1.125
309
GRIDFORMAT_END
 95
        4
302
GRIDFORMAT
  1
GRIDFORMAT_BEGIN
 90
        0
 91
        1
 62
     0
 92
       -2
340
0
 93
        0
 40
1.125
309
GRIDFORMAT_END
 95
        8
302
GRIDFORMAT
  1
GRIDFORMAT_BEGIN
 90
        0
 91
        1
 62
     0
 92
       -2
340
0
 93
        0
 40
1.125
309
GRIDFORMAT_END
 95
       16
302
GRIDFORMAT
  1
GRIDFORMAT_BEGIN
 90
        0
 91
        1
 62
     0
 92
       -2
340
0
 93
        0
 40
1.125
309
GRIDFORMAT_END
 95
       32
302
GRIDFORMAT
  1
GRIDFORMAT_BEGIN
 90
        0
 91
        1
 62
     0
 92
       -2
340
0
 93
        0
 40
1.125
309
GRIDFORMAT_END
309
TABLEFORMAT_END
  1
CELLSTYLE_BEGIN
 90
        1
 91
        1
300
_TITLE
309
CELLSTYLE_END
300
CELLSTYLE
  1
TABLEFORMAT_BEGIN
 90
        5
170
     1
 91
        0
 92
        0
 62
   257
 93
        1
300
CONTENTFORMAT
  1
CONTENTFORMAT_BEGIN
 90
        0
 91
        0
 92
      512
 93
        0
300

 40
0.0
140
1.0
 94
        5
 62
     0
340
17
144
4.5
309
CONTENTFORMAT_END
171
     1
301
MARGIN
  1
CELLMARGIN_BEGIN
 40
1.5
 40
1.5
 40
1.5
 40
1.5
 40
4.5
 40
4.5
309
CELLMARGIN_END
 94
        6
 95
        1
302
GRIDFORMAT
  1
GRIDFORMAT_BEGIN
 90
        0
 91
        1
 62
     0
 92
       -2
340
0
 93
        0
 40
1.125
309
GRIDFORMAT_END
 95
        2
302
GRIDFORMAT
  1
GRIDFORMAT_BEGIN
 90
        0
 91
        1
 62
     0
 92
       -2
340
0
 93
        0
 40
1.125
309
GRIDFORMAT_END
 95
        4
302
GRIDFORMAT
  1
GRIDFORMAT_BEGIN
 90
        0
 91
        1
 62
     0
 92
       -2
340
0
 93
        0
 40
1.125
309
GRIDFORMAT_END
 95
        8
302
GRIDFORMAT
  1
GRIDFORMAT_BEGIN
 90
        0
 91
        1
 62
     0
 92
       -2
340
0
 93
        0
 40
1.125
309
GRIDFORMAT_END
 95
       16
302
GRIDFORMAT
  1
GRIDFORMAT_BEGIN
 90
        0
 91
        1
 62
     0
 92
       -2
340
0
 93
        0
 40
1.125
309
GRIDFORMAT_END
 95
       32
302
GRIDFORMAT
  1
GRIDFORMAT_BEGIN
 90
        0
 91
        1
 62
     0
 92
       -2
340
0
 93
        0
 40
1.125
309
GRIDFORMAT_END
309
TABLEFORMAT_END
  1
CELLSTYLE_BEGIN
 90
        2
 91
        1
300
_HEADER
309
CELLSTYLE_END
300
CELLSTYLE
  1
TABLEFORMAT_BEGIN
 90
        5
170
     1
 91
        0
 92
        0
 62
   257
 93
        1
300
CONTENTFORMAT
  1
CONTENTFORMAT_BEGIN
 90
        0
 91
        0
 92
      512
 93
        0
300

 40
0.0
140
1.0
 94
        2
 62
     0
340
17
144
4.5
309
CONTENTFORMAT_END
171
     1
301
MARGIN
  1
CELLMARGIN_BEGIN
 40
1.5
 40
1.5
 40
1.5
 40
1.5
 40
4.5
 40
4.5
309
CELLMARGIN_END
 94
        6
 95
        1
302
GRIDFORMAT
  1
GRIDFORMAT_BEGIN
 90
        0
 91
        1
 62
     0
 92
       -2
340
0
 93
        0
 40
1.125
309
GRIDFORMAT_END
 95
        2
302
GRIDFORMAT
  1
GRIDFORMAT_BEGIN
 90
        0
 91
        1
 62
     0
 92
       -2
340
0
 93
        0
 40
1.125
309
GRIDFORMAT_END
 95
        4
302
GRIDFORMAT
  1
GRIDFORMAT_BEGIN
 90
        0
 91
        1
 62
     0
 92
       -2
340
0
 93
        0
 40
1.125
309
GRIDFORMAT_END
 95
        8
302
GRIDFORMAT
  1
GRIDFORMAT_BEGIN
 90
        0
 91
        1
 62
     0
 92
       -2
340
0
 93
        0
 40
1.125
309
GRIDFORMAT_END
 95
       16
302
GRIDFORMAT
  1
GRIDFORMAT_BEGIN
 90
        0
 91
        1
 62
     0
 92
       -2
340
0
 93
        0
 40
1.125
309
GRIDFORMAT_END
 95
       32
302
GRIDFORMAT
  1
GRIDFORMAT_BEGIN
 90
        0
 91
        1
 62
     0
 92
       -2
340
0
 93
        0
 40
1.125
309
GRIDFORMAT_END
309
TABLEFORMAT_END
  1
CELLSTYLE_BEGIN
 90
        3
 91
        2
300
_DATA
309
CELLSTYLE_END
  0
ENDSEC
  0
EOF
