  0
SECTION
  2
HEADER
  9
$ACADVER
  1
AC1021
  9
$ACADMAINTVER
 70
    50
  9
$DWGCODEPAGE
  3
ANSI_1252
  9
$LASTSAVEDBY
  1
François
  9
$INSBASE
 10
200.0961920305762
 20
160.61483
 30
0.0
  9
$EXTMIN
 10
171.9525618484835
 20
138.485463
 30
-0.0015258207003583
  9
$EXTMAX
 10
213.9984545720821
 20
177.8004902229095
 30
0.0000000349246037
  9
$LIMMIN
 10
186.987725
 20
139.37306
  9
$LIMMAX
 10
213.012665
 20
160.627405
  9
$ORTHOMODE
 70
     0
  9
$REGENMODE
 70
     1
  9
$FILLMODE
 70
     1
  9
$QTEXTMODE
 70
     0
  9
$MIRRTEXT
 70
     1
  9
$LTSCALE
 40
1.0
  9
$ATTMODE
 70
     1
  9
$TEXTSIZE
 40
0.0
  9
$TRACEWID
 40
0.05
  9
$TEXTSTYLE
  7
Standard
  9
$CLAYER
  8
Cotation-JacobDelafon
  9
$CELTYPE
  6
Continuous
  9
$CECOLOR
 62
   256
  9
$CELTSCALE
 40
1.0
  9
$DISPSILH
 70
     0
  9
$DIMSCALE
 40
1.0
  9
$DIMASZ
 40
1.8
  9
$DIMEXO
 40
0.625
  9
$DIMDLI
 40
3.799999999999998
  9
$DIMRND
 40
0.0
  9
$DIMDLE
 40
0.0
  9
$DIMEXE
 40
1.8
  9
$DIMTP
 40
0.0
  9
$DIMTM
 40
0.0
  9
$DIMTXT
 40
3.0
  9
$DIMCEN
 40
0.9
  9
$DIMTSZ
 40
0.0
  9
$DIMTOL
 70
     0
  9
$DIMLIM
 70
     0
  9
$DIMTIH
 70
     0
  9
$DIMTOH
 70
     0
  9
$DIMSE1
 70
     0
  9
$DIMSE2
 70
     0
  9
$DIMTAD
 70
     1
  9
$DIMZIN
 70
    12
  9
$DIMBLK
  1
Oblique
  9
$DIMASO
 70
     1
  9
$DIMSHO
 70
     1
  9
$DIMPOST
  1

  9
$DIMAPOST
  1

  9
$DIMALT
 70
     0
  9
$DIMALTD
 70
     2
  9
$DIMALTF
 40
25.4
  9
$DIMLFAC
 40
1.0
  9
$DIMTOFL
 70
     0
  9
$DIMTVP
 40
0.0
  9
$DIMTIX
 70
     0
  9
$DIMSOXD
 70
     0
  9
$DIMSAH
 70
     0
  9
$DIMBLK1
  1

  9
$DIMBLK2
  1

  9
$DIMSTYLE
  2
Cotation-Jacob-Delafon
  9
$DIMCLRD
 70
     0
  9
$DIMCLRE
 70
     0
  9
$DIMCLRT
 70
     0
  9
$DIMTFAC
 40
1.0
  9
$DIMGAP
 40
0.9
  9
$DIMJUST
 70
     0
  9
$DIMSD1
 70
     0
  9
$DIMSD2
 70
     0
  9
$DIMTOLJ
 70
     1
  9
$DIMTZIN
 70
     0
  9
$DIMALTZ
 70
     0
  9
$DIMALTTZ
 70
     0
  9
$DIMUPT
 70
     0
  9
$DIMDEC
 70
     2
  9
$DIMTDEC
 70
     2
  9
$DIMALTU
 70
     2
  9
$DIMALTTD
 70
     2
  9
$DIMTXSTY
  7
Jacob-Delafon
  9
$DIMAUNIT
 70
     0
  9
$DIMADEC
 70
     0
  9
$DIMALTRND
 40
0.0
  9
$DIMAZIN
 70
     3
  9
$DIMDSEP
 70
    46
  9
$DIMATFIT
 70
     3
  9
$DIMFRAC
 70
     0
  9
$DIMLDRBLK
  1
Oblique
  9
$DIMLUNIT
 70
     2
  9
$DIMLWD
 70
    -2
  9
$DIMLWE
 70
    -2
  9
$DIMTMOVE
 70
     2
  9
$DIMFXL
 40
1.0
  9
$DIMFXLON
 70
     0
  9
$DIMJOGANG
 40
0.7853981633974483
  9
$DIMTFILL
 70
     0
  9
$DIMTFILLCLR
 70
     0
  9
$DIMARCSYM
 70
     0
  9
$DIMLTYPE
  6

  9
$DIMLTEX1
  6

  9
$DIMLTEX2
  6

  9
$LUNITS
 70
     2
  9
$LUPREC
 70
     4
  9
$SKETCHINC
 40
0.1
  9
$FILLETRAD
 40
0.0
  9
$AUNITS
 70
     0
  9
$AUPREC
 70
     0
  9
$MENU
  1
acad
  9
$ELEVATION
 40
0.0
  9
$PELEVATION
 40
0.0
  9
$THICKNESS
 40
0.0
  9
$LIMCHECK
 70
     0
  9
$CHAMFERA
 40
0.0
  9
$CHAMFERB
 40
0.0
  9
$CHAMFERC
 40
0.0
  9
$CHAMFERD
 40
0.0
  9
$SKPOLY
 70
     0
  9
$TDCREATE
 40
2455397.985682141
  9
$TDUCREATE
 40
2455397.902348808
  9
$TDUPDATE
 40
2455397.987917384
  9
$TDUUPDATE
 40
2455397.904584051
  9
$TDINDWG
 40
0.0022370486
  9
$TDUSRTIMER
 40
0.0022368634
  9
$USRTIMER
 70
     1
  9
$ANGBASE
 50
0.0
  9
$ANGDIR
 70
     0
  9
$PDMODE
 70
     0
  9
$PDSIZE
 40
0.0
  9
$PLINEWID
 40
0.0
  9
$SPLFRAME
 70
     0
  9
$SPLINETYPE
 70
     6
  9
$SPLINESEGS
 70
     8
  9
$HANDSEED
  5
296
  9
$SURFTAB1
 70
     6
  9
$SURFTAB2
 70
     6
  9
$SURFTYPE
 70
     6
  9
$SURFU
 70
     6
  9
$SURFV
 70
     6
  9
$UCSBASE
  2

  9
$UCSNAME
  2

  9
$UCSORG
 10
0.0
 20
0.0
 30
0.0
  9
$UCSXDIR
 10
1.0
 20
0.0
 30
0.0
  9
$UCSYDIR
 10
0.0
 20
1.0
 30
0.0
  9
$UCSORTHOREF
  2

  9
$UCSORTHOVIEW
 70
     0
  9
$UCSORGTOP
 10
0.0
 20
0.0
 30
0.0
  9
$UCSORGBOTTOM
 10
0.0
 20
0.0
 30
0.0
  9
$UCSORGLEFT
 10
0.0
 20
0.0
 30
0.0
  9
$UCSORGRIGHT
 10
0.0
 20
0.0
 30
0.0
  9
$UCSORGFRONT
 10
0.0
 20
0.0
 30
0.0
  9
$UCSORGBACK
 10
0.0
 20
0.0
 30
0.0
  9
$PUCSBASE
  2

  9
$PUCSNAME
  2

  9
$PUCSORG
 10
0.0
 20
0.0
 30
0.0
  9
$PUCSXDIR
 10
1.0
 20
0.0
 30
0.0
  9
$PUCSYDIR
 10
0.0
 20
1.0
 30
0.0
  9
$PUCSORTHOREF
  2

  9
$PUCSORTHOVIEW
 70
     0
  9
$PUCSORGTOP
 10
0.0
 20
0.0
 30
0.0
  9
$PUCSORGBOTTOM
 10
0.0
 20
0.0
 30
0.0
  9
$PUCSORGLEFT
 10
0.0
 20
0.0
 30
0.0
  9
$PUCSORGRIGHT
 10
0.0
 20
0.0
 30
0.0
  9
$PUCSORGFRONT
 10
0.0
 20
0.0
 30
0.0
  9
$PUCSORGBACK
 10
0.0
 20
0.0
 30
0.0
  9
$USERI1
 70
     0
  9
$USERI2
 70
     0
  9
$USERI3
 70
     0
  9
$USERI4
 70
     0
  9
$USERI5
 70
     0
  9
$USERR1
 40
0.0
  9
$USERR2
 40
0.0
  9
$USERR3
 40
0.0
  9
$USERR4
 40
0.0
  9
$USERR5
 40
0.0
  9
$WORLDVIEW
 70
     1
  9
$SHADEDGE
 70
     3
  9
$SHADEDIF
 70
    70
  9
$TILEMODE
 70
     1
  9
$MAXACTVP
 70
    16
  9
$PINSBASE
 10
0.0
 20
0.0
 30
0.0
  9
$PLIMCHECK
 70
     0
  9
$PEXTMIN
 10
1.000000000000000E+20
 20
1.000000000000000E+20
 30
1.000000000000000E+20
  9
$PEXTMAX
 10
-1.000000000000000E+20
 20
-1.000000000000000E+20
 30
-1.000000000000000E+20
  9
$PLIMMIN
 10
0.0
 20
0.0
  9
$PLIMMAX
 10
12.0
 20
9.0
  9
$UNITMODE
 70
     0
  9
$VISRETAIN
 70
     0
  9
$PLINEGEN
 70
     1
  9
$PSLTSCALE
 70
     0
  9
$TREEDEPTH
 70
  3020
  9
$CMLSTYLE
  2
Standard
  9
$CMLJUST
 70
     0
  9
$CMLSCALE
 40
1.0
  9
$PROXYGRAPHICS
 70
     0
  9
$MEASUREMENT
 70
     1
  9
$CELWEIGHT
370
     0
  9
$ENDCAPS
280
     0
  9
$JOINSTYLE
280
     0
  9
$LWDISPLAY
290
     0
  9
$INSUNITS
 70
     0
  9
$HYPERLINKBASE
  1

  9
$STYLESHEET
  1

  9
$XEDIT
290
     1
  9
$CEPSNTYPE
380
     0
  9
$PSTYLEMODE
290
     1
  9
$FINGERPRINTGUID
  2

  9
$VERSIONGUID
  2
{8DCA6751-5DCE-4226-A220-DF93A9A73301}
  9
$EXTNAMES
290
     1
  9
$PSVPSCALE
 40
0.0
  9
$OLESTARTUP
290
     0
  9
$SORTENTS
280
   127
  9
$INDEXCTL
280
     0
  9
$HIDETEXT
280
     0
  9
$XCLIPFRAME
290
     0
  9
$HALOGAP
280
     0
  9
$OBSCOLOR
 70
   257
  9
$OBSLTYPE
280
     0
  9
$INTERSECTIONDISPLAY
280
     0
  9
$INTERSECTIONCOLOR
 70
   257
  9
$DIMASSOC
280
     1
  9
$PROJECTNAME
  1

  9
$CAMERADISPLAY
290
     0
  9
$LENSLENGTH
 40
50.0
  9
$CAMERAHEIGHT
 40
0.0
  9
$STEPSPERSEC
 40
2.0
  9
$STEPSIZE
 40
6.0
  9
$3DDWFPREC
 40
2.0
  9
$PSOLWIDTH
 40
0.25
  9
$PSOLHEIGHT
 40
4.0
  9
$LOFTANG1
 40
1.570796326794896
  9
$LOFTANG2
 40
1.570796326794896
  9
$LOFTMAG1
 40
0.0
  9
$LOFTMAG2
 40
0.0
  9
$LOFTPARAM
 70
     7
  9
$LOFTNORMALS
280
     1
  9
$LATITUDE
 40
37.795
  9
$LONGITUDE
 40
-122.394
  9
$NORTHDIRECTION
 40
0.0
  9
$TIMEZONE
 70
 -8000
  9
$LIGHTGLYPHDISPLAY
280
     1
  9
$TILEMODELIGHTSYNCH
280
     1
  9
$CMATERIAL
347
1F3
  9
$SOLIDHIST
280
     1
  9
$SHOWHIST
280
     1
  9
$DWFFRAME
280
     2
  9
$DGNFRAME
280
     0
  9
$REALWORLDSCALE
290
     1
  9
$INTERFERECOLOR
 62
     1
  9
$INTERFEREOBJVS
345
215
  9
$INTERFEREVPVS
346
212
  9
$CSHADOW
280
     0
  9
$SHADOWPLANELOCATION
 40
0.0
  0
ENDSEC
  0
SECTION
  2
CLASSES
  0
CLASS
  1
IMAGE
  2
AcDbRasterImage
  3
ISM
 90
     2175
 91
        0
280
     0
281
     1
  0
CLASS
  1
DICTIONARYVAR
  2
AcDbDictionaryVar
  3
ObjectDBX Classes
 90
        0
 91
        7
280
     0
281
     0
  0
CLASS
  1
RASTERVARIABLES
  2
AcDbRasterVariables
  3
ISM
 90
        0
 91
        0
280
     0
281
     0
  0
CLASS
  1
IMAGEDEF
  2
AcDbRasterImageDef
  3
ISM
 90
        0
 91
        0
280
     0
281
     0
  0
CLASS
  1
IMAGEDEF_REACTOR
  2
AcDbRasterImageDefReactor
  3
ISM
 90
        1
 91
        0
280
     0
281
     0
  0
CLASS
  1
IDBUFFER
  2
AcDbIdBuffer
  3
ObjectDBX Classes
 90
        0
 91
        0
280
     0
281
     0
  0
CLASS
  1
SPATIAL_FILTER
  2
AcDbSpatialFilter
  3
ObjectDBX Classes
 90
        0
 91
        0
280
     0
281
     0
  0
CLASS
  1
SORTENTSTABLE
  2
AcDbSortentsTable
  3
ObjectDBX Classes
 90
        0
 91
        0
280
     0
281
     0
  0
CLASS
  1
LAYER_INDEX
  2
AcDbLayerIndex
  3
ObjectDBX Classes
 90
        0
 91
        0
280
     0
281
     0
  0
CLASS
  1
SPATIAL_INDEX
  2
AcDbSpatialIndex
  3
ObjectDBX Classes
 90
        0
 91
        0
280
     0
281
     0
  0
CLASS
  1
OBJECT_PTR
  2
CAseDLPNTableRecord
  3
"ASE-LPNTableRecord"
 90
        1
 91
        0
280
     0
281
     0
  0
CLASS
  1
PLOTSETTINGS
  2
AcDbPlotSettings
  3
ObjectDBX Classes
 90
        0
 91
        0
280
     0
281
     0
  0
CLASS
  1
ACDBDICTIONARYWDFLT
  2
AcDbDictionaryWithDefault
  3
ObjectDBX Classes
 90
        0
 91
        1
280
     0
281
     0
  0
CLASS
  1
WIPEOUT
  2
AcDbWipeout
  3
"WipeOut|Product Desc: Object Enabler for WipeOut entity                        |Company: Autodesk, Inc.                        |WEB Address: www.autodesk.com"
 90
     2175
 91
        0
280
     0
281
     1
  0
CLASS
  1
WIPEOUTVARIABLES
  2
AcDbWipeoutVariables
  3
"WipeOut|Product Desc:     WipeOut Dbx Application|Company:          Autodesk, Inc.|WEB Address:      www.autodesk.com"
 90
        0
 91
        1
280
     0
281
     0
  0
CLASS
  1
RTEXT
  2
RText
  3
RText|AutoCAD Express Tool|expresstools@autodesk.com
 90
        0
 91
        0
280
     0
281
     1
  0
CLASS
  1
ARCALIGNEDTEXT
  2
AcDbArcAlignedText
  3
ATEXT|AutoCAD Express Tool|expresstools@autodesk.com
 90
        0
 91
        0
280
     0
281
     1
  0
CLASS
  1
MATERIAL
  2
AcDbMaterial
  3
ObjectDBX Classes
 90
     1153
 91
        3
280
     0
281
     0
  0
CLASS
  1
VISUALSTYLE
  2
AcDbVisualStyle
  3
ObjectDBX Classes
 90
     4095
 91
       16
280
     0
281
     0
  0
CLASS
  1
TABLESTYLE
  2
AcDbTableStyle
  3
ObjectDBX Classes
 90
     4095
 91
        1
280
     0
281
     0
  0
CLASS
  1
SCALE
  2
AcDbScale
  3
ObjectDBX Classes
 90
     1153
 91
       17
280
     0
281
     0
  0
CLASS
  1
MLEADERSTYLE
  2
AcDbMLeaderStyle
  3
ACDB_MLEADERSTYLE_CLASS
 90
     4095
 91
        1
280
     0
281
     0
  0
CLASS
  1
AEC_REFEDIT_STATUS_TRACKER
  2
AecDbRefEditStatusTracker
  3
AecArchBase50|Product Desc: Autodesk Architectural Desktop 2007 |Company: Autodesk,Inc. |WEB Address: www.autodesk.com
 90
      129
 91
        1
280
     0
281
     0
  0
CLASS
  1
NPOCOLLECTION
  2
AcDbImpNonPersistentObjectsCollection
  3
ObjectDBX Classes
 90
     1153
 91
        1
280
     0
281
     0
  0
CLASS
  1
CELLSTYLEMAP
  2
AcDbCellStyleMap
  3
ObjectDBX Classes
 90
     1152
 91
        1
280
     0
281
     0
  0
ENDSEC
  0
SECTION
  2
TABLES
  0
TABLE
  2
VPORT
  5
7
330
0
100
AcDbSymbolTable
 70
     1
  0
VPORT
  5
15
330
7
100
AcDbSymbolTableRecord
100
AcDbViewportTableRecord
  2
*ACTIVE
 70
     0
 10
0.0
 20
0.0
 11
1.0
 21
1.0
 12
193.9572127272994
 22
159.1051837334443
 13
0.0
 23
0.0
 14
1.0
 24
1.0
 15
0.0
 25
0.0
 16
0.0
 26
0.0
 36
1.0
 17
0.0
 27
0.0
 37
0.0
 40
54.84385120732781
 41
1.31063829787234
 42
50.0
 43
0.0
 44
0.0
 50
0.0
 51
0.0
 71
     0
 72
   100
 73
     1
 74
     1
 75
     0
 76
     0
 77
     0
 78
     0
281
     0
 65
     0
110
0.0
120
0.0
130
0.0
111
1.0
121
0.0
131
0.0
112
0.0
122
1.0
132
0.0
 79
     0
146
0.0
348
211
 60
     3
 61
     5
292
     1
282
     1
141
0.0
142
0.0
 63
   250
421
  3355443
  0
ENDTAB
  0
TABLE
  2
LTYPE
  5
4
330
0
100
AcDbSymbolTable
 70
     1
  0
LTYPE
  5
11
330
4
100
AcDbSymbolTableRecord
100
AcDbLinetypeTableRecord
  2
ByBlock
 70
     0
  3

 72
    65
 73
     0
 40
0.0
  0
LTYPE
  5
12
330
4
100
AcDbSymbolTableRecord
100
AcDbLinetypeTableRecord
  2
ByLayer
 70
     0
  3

 72
    65
 73
     0
 40
0.0
  0
LTYPE
  5
13
330
4
100
AcDbSymbolTableRecord
100
AcDbLinetypeTableRecord
  2
Continuous
 70
     0
  3
Solid line
 72
    65
 73
     0
 40
0.0
  0
ENDTAB
  0
TABLE
  2
LAYER
  5
2
330
0
100
AcDbSymbolTable
 70
     3
  0
LAYER
  5
14
102
{ACAD_XDICTIONARY
360
288
102
}
330
2
100
AcDbSymbolTableRecord
100
AcDbLayerTableRecord
  2
0
 70
     0
 62
     7
  6
Continuous
370
    -3
390
1D
347
203
  0
LAYER
  5
23A
330
2
100
AcDbSymbolTableRecord
100
AcDbLayerTableRecord
  2
Defpoints
 70
     0
 62
     7
  6
Continuous
290
     0
370
    -3
390
1D
347
203
  0
LAYER
  5
23B
102
{ACAD_XDICTIONARY
360
23C
102
}
330
2
100
AcDbSymbolTableRecord
100
AcDbLayerTableRecord
  2
Cotation-JacobDelafon
 70
     0
 62
     8
  6
Continuous
370
    -3
390
1D
347
203
  0
ENDTAB
  0
TABLE
  2
STYLE
  5
3
330
0
100
AcDbSymbolTable
 70
     7
  0
STYLE
  5
17
330
3
100
AcDbSymbolTableRecord
100
AcDbTextStyleTableRecord
  2
Standard
 70
     0
 40
0.0
 41
1.0
 50
0.0
 71
     0
 42
0.0
  3
txt
  4

  0
STYLE
  5
24
330
3
100
AcDbSymbolTableRecord
100
AcDbTextStyleTableRecord
  2
STD
 70
     0
 40
0.0
 41
1.0
 50
0.0
 71
     0
 42
0.0
  3
txt
  4

  0
STYLE
  5
25
330
3
100
AcDbSymbolTableRecord
100
AcDbTextStyleTableRecord
  2
TATESTD
 70
     4
 40
0.0
 41
1.0
 50
0.0
 71
     0
 42
0.0
  3
txt
  4

  0
STYLE
  5
26
330
3
100
AcDbSymbolTableRecord
100
AcDbTextStyleTableRecord
  2
KANJISTD
 70
     0
 40
0.0
 41
1.0
 50
0.0
 71
     0
 42
0.0
  3
txt
  4
extfont
  0
STYLE
  5
27
330
3
100
AcDbSymbolTableRecord
100
AcDbTextStyleTableRecord
  2
KANJITATE
 70
     4
 40
0.0
 41
1.0
 50
0.0
 71
     0
 42
0.0
  3
txt
  4
extfont
  0
STYLE
  5
23D
330
3
100
AcDbSymbolTableRecord
100
AcDbTextStyleTableRecord
  2
Annotative
 70
     0
 40
0.0
 41
1.0
 50
0.0
 71
     0
 42
0.2
  3
txt
  4

1001
AcadAnnotative
1000
AnnotativeData
1002
{
1070
     1
1070
     1
1002
}
  0
STYLE
  5
24B
330
3
100
AcDbSymbolTableRecord
100
AcDbTextStyleTableRecord
  2
Jacob-Delafon
 70
     0
 40
0.0
 41
1.0
 50
0.0
 71
     0
 42
2.5
  3
ARIAL.TTF
  4

1001
ACAD
1000
Arial
1071
       34
  0
ENDTAB
  0
TABLE
  2
VIEW
  5
5
330
0
100
AcDbSymbolTable
 70
     1
  0
ENDTAB
  0
TABLE
  2
UCS
  5
6
330
0
100
AcDbSymbolTable
 70
     0
  0
ENDTAB
  0
TABLE
  2
APPID
  5
8
330
0
100
AcDbSymbolTable
 70
     3
  0
APPID
  5
16
330
8
100
AcDbSymbolTableRecord
100
AcDbRegAppTableRecord
  2
ACAD
 70
     0
  0
APPID
  5
233
330
8
100
AcDbSymbolTableRecord
100
AcDbRegAppTableRecord
  2
ACAD_MLEADERVER
 70
     0
  0
APPID
  5
23F
330
8
100
AcDbSymbolTableRecord
100
AcDbRegAppTableRecord
  2
AcadAnnotative
 70
     0
  0
ENDTAB
  0
TABLE
  2
DIMSTYLE
  5
9
330
0
100
AcDbSymbolTable
 70
     3
100
AcDbDimStyleTable
 71
     1
340
24C
  0
DIMSTYLE
105
18
330
9
100
AcDbSymbolTableRecord
100
AcDbDimStyleTableRecord
  2
Standard
 70
     0
340
17
  0
DIMSTYLE
105
23E
330
9
100
AcDbSymbolTableRecord
100
AcDbDimStyleTableRecord
  2
Annotative
 70
     0
340
17
1001
AcadAnnotative
1000
AnnotativeData
1002
{
1070
     1
1070
     1
1002
}
  0
DIMSTYLE
105
24C
102
{ACAD_REACTORS
330
253
330
260
102
}
330
9
100
AcDbSymbolTableRecord
100
AcDbDimStyleTableRecord
  2
Cotation-Jacob-Delafon
 70
     0
 41
1.8
 42
0.625
 43
3.799999999999998
 44
1.8
 73
     0
 74
     0
 77
     1
 78
    12
 79
     3
140
3.0
141
0.9
147
0.9
271
     2
272
     2
279
     2
340
24B
341
247
342
247
  0
ENDTAB
  0
TABLE
  2
BLOCK_RECORD
  5
1
330
0
100
AcDbSymbolTable
 70
     5
  0
BLOCK_RECORD
  5
A
330
1
100
AcDbSymbolTableRecord
100
AcDbBlockTableRecord
  2
*MODEL_SPACE
340
20
 70
     0
280
     1
281
     0
  0
BLOCK_RECORD
  5
B
330
1
100
AcDbSymbolTableRecord
100
AcDbBlockTableRecord
  2
*PAPER_SPACE
340
21
 70
     0
280
     1
281
     0
  0
BLOCK_RECORD
  5
247
330
1
100
AcDbSymbolTableRecord
100
AcDbBlockTableRecord
  2
_Oblique
340
0
102
{BLKREFS
331
279
331
27A
331
282
331
283
102
}
 70
     0
280
     1
281
     0
  0
BLOCK_RECORD
  5
254
330
1
100
AcDbSymbolTableRecord
100
AcDbBlockTableRecord
  2
*D3
340
0
 70
     0
280
     1
281
     0
  0
BLOCK_RECORD
  5
261
330
1
100
AcDbSymbolTableRecord
100
AcDbBlockTableRecord
  2
*D4
340
0
 70
     0
280
     1
281
     0
  0
ENDTAB
  0
ENDSEC
  0
SECTION
  2
BLOCKS
  0
BLOCK
  5
D
330
A
100
AcDbEntity
  8
0
100
AcDbBlockBegin
  2
*MODEL_SPACE
 70
     0
 10
0.0
 20
0.0
 30
0.0
  3
*MODEL_SPACE
  1

  0
ENDBLK
  5
E
330
A
100
AcDbEntity
  8
0
100
AcDbBlockEnd
  0
BLOCK
  5
F
330
B
100
AcDbEntity
 67
     1
  8
0
100
AcDbBlockBegin
  2
*PAPER_SPACE
 70
     0
 10
0.0
 20
0.0
 30
0.0
  3
*PAPER_SPACE
  1

  0
ENDBLK
  5
10
330
B
100
AcDbEntity
 67
     1
  8
0
100
AcDbBlockEnd
  0
BLOCK
  5
248
330
247
100
AcDbEntity
  8
0
100
AcDbBlockBegin
  2
_Oblique
 70
     0
 10
0.0
 20
0.0
 30
0.0
  3
_Oblique
  1

  0
LINE
  5
249
330
247
100
AcDbEntity
  8
0
  6
ByBlock
 62
     0
370
    -2
380
     1
100
AcDbLine
 10
-0.5
 20
-0.5
 30
0.0
 11
0.5
 21
0.5
 31
0.0
  0
ENDBLK
  5
24A
330
247
100
AcDbEntity
  8
0
100
AcDbBlockEnd
  0
BLOCK
  5
255
330
254
100
AcDbEntity
  8
0
370
     0
100
AcDbBlockBegin
  2
*D3
 70
     1
 10
0.0
 20
0.0
 30
0.0
  3
*D3
  1

  0
LINE
  5
276
330
254
100
AcDbEntity
  8
Cotation-JacobDelafon
  6
Continuous
 62
     0
370
    -2
100
AcDbLine
 10
187.0003
 20
161.4003575803045
 30
0.0
 11
187.0003
 21
174.8491941792533
 31
0.0
  0
LINE
  5
277
330
254
100
AcDbEntity
  8
Cotation-JacobDelafon
  6
Continuous
 62
     0
370
    -2
100
AcDbLine
 10
213.0984545720821
 20
154.080405
 30
0.0
 11
213.0984545720821
 21
174.8491941792533
 31
0.0
  0
LINE
  5
278
330
254
100
AcDbEntity
  8
Cotation-JacobDelafon
  6
Continuous
 62
     0
370
    -2
100
AcDbLine
 10
187.0003
 20
173.0491941792533
 30
0.0
 11
213.0984545720821
 21
173.0491941792533
 31
0.0
  0
INSERT
  5
279
330
254
100
AcDbEntity
  8
Cotation-JacobDelafon
  6
Continuous
 62
     0
370
    -2
100
AcDbBlockReference
  2
_Oblique
 10
187.0003
 20
173.0491941792533
 30
0.0
 41
1.8
 42
1.8
 43
1.8
 50
180.0
  0
INSERT
  5
27A
330
254
100
AcDbEntity
  8
Cotation-JacobDelafon
  6
Continuous
 62
     0
370
    -2
100
AcDbBlockReference
  2
_Oblique
 10
213.0984545720821
 20
173.0491941792533
 30
0.0
 41
1.8
 42
1.8
 43
1.8
  0
MTEXT
  5
27B
330
254
100
AcDbEntity
  8
Cotation-JacobDelafon
  6
Continuous
 62
     0
370
     0
100
AcDbMText
 10
200.049377286041
 20
175.4809131424183
 30
0.0
 40
3.0
 41
0.0
 46
0.0
 71
     5
 72
     1
  1
\A1;26.1
  7
Jacob-Delafon
 73
     1
 44
1.0
  0
POINT
  5
27C
330
254
100
AcDbEntity
  8
Defpoints
  6
Continuous
 62
     0
370
     0
100
AcDbPoint
 10
187.0003
 20
160.7753575803045
 30
0.0
  0
POINT
  5
27D
330
254
100
AcDbEntity
  8
Defpoints
  6
Continuous
 62
     0
370
     0
100
AcDbPoint
 10
213.0984545720821
 20
153.455405
 30
0.0
  0
POINT
  5
27E
330
254
100
AcDbEntity
  8
Defpoints
  6
Continuous
 62
     0
370
     0
100
AcDbPoint
 10
213.0984545720821
 20
173.0491941792533
 30
0.0
  0
ENDBLK
  5
256
330
254
100
AcDbEntity
  8
0
370
     0
100
AcDbBlockEnd
  0
BLOCK
  5
262
330
261
100
AcDbEntity
  8
0
370
     0
100
AcDbBlockBegin
  2
*D4
 70
     1
 10
0.0
 20
0.0
 30
0.0
  3
*D4
  1

  0
LINE
  5
27F
330
261
100
AcDbEntity
  8
Cotation-JacobDelafon
  6
Continuous
 62
     0
370
    -2
100
AcDbLine
 10
186.3753
 20
160.61483
 30
0.0
 11
174.9059042768601
 21
160.61483
 31
0.0
  0
LINE
  5
280
330
261
100
AcDbEntity
  8
Cotation-JacobDelafon
  6
Continuous
 62
     0
370
    -2
100
AcDbLine
 10
199.383291
 20
139.385463
 30
0.0
 11
174.9059042768601
 21
139.385463
 31
0.0
  0
LINE
  5
281
330
261
100
AcDbEntity
  8
Cotation-JacobDelafon
  6
Continuous
 62
     0
370
    -2
100
AcDbLine
 10
176.7059042768601
 20
160.61483
 30
0.0
 11
176.7059042768601
 21
139.385463
 31
0.0
  0
INSERT
  5
282
330
261
100
AcDbEntity
  8
Cotation-JacobDelafon
  6
Continuous
 62
     0
370
    -2
100
AcDbBlockReference
  2
_Oblique
 10
176.7059042768601
 20
160.61483
 30
0.0
 41
1.8
 42
1.8
 43
1.8
 50
90.0
  0
INSERT
  5
283
330
261
100
AcDbEntity
  8
Cotation-JacobDelafon
  6
Continuous
 62
     0
370
    -2
100
AcDbBlockReference
  2
_Oblique
 10
176.7059042768601
 20
139.385463
 30
0.0
 41
1.8
 42
1.8
 43
1.8
 50
270.0
  0
MTEXT
  5
284
330
261
100
AcDbEntity
  8
Cotation-JacobDelafon
  6
Continuous
 62
     0
370
     0
100
AcDbMText
 10
174.2997651226991
 20
150.0001465
 30
0.0
 40
3.0
 41
0.0
 46
0.0
 71
     5
 72
     1
  1
\A1;21.2
  7
Jacob-Delafon
 11
0.0000000000000001
 21
1.0
 31
0.0
 73
     1
 44
1.0
  0
POINT
  5
285
330
261
100
AcDbEntity
  8
Defpoints
  6
Continuous
 62
     0
370
     0
100
AcDbPoint
 10
187.0003
 20
160.61483
 30
0.0
  0
POINT
  5
286
330
261
100
AcDbEntity
  8
Defpoints
  6
Continuous
 62
     0
370
     0
100
AcDbPoint
 10
200.008291
 20
139.385463
 30
0.0
  0
POINT
  5
287
330
261
100
AcDbEntity
  8
Defpoints
  6
Continuous
 62
     0
370
     0
100
AcDbPoint
 10
176.7059042768601
 20
139.385463
 30
0.0
  0
ENDBLK
  5
263
330
261
100
AcDbEntity
  8
0
370
     0
100
AcDbBlockEnd
  0
ENDSEC
  0
SECTION
  2
ENTITIES
  0
LINE
  5
1EF
330
A
100
AcDbEntity
  8
0
 62
     7
100
AcDbLine
 10
208.750393
 20
151.569043
 30
0.0
 11
208.803792
 21
151.518745
 31
0.0
  0
LINE
  5
1EE
330
A
100
AcDbEntity
  8
0
 62
     7
100
AcDbLine
 10
208.804481
 20
155.210164
 30
0.0
 11
208.750393
 21
155.159866
 31
0.0
  0
LINE
  5
1ED
330
A
100
AcDbEntity
  8
0
 62
     7
100
AcDbLine
 10
211.950198
 20
151.46569
 30
0.0
 11
212.000152
 21
151.514783
 31
0.0
  0
LINE
  5
1EC
330
A
100
AcDbEntity
  8
0
 62
     7
100
AcDbLine
 10
212.000152
 20
155.214815
 30
0.0
 11
211.950543
 21
155.259602
 31
0.0
  0
LINE
  5
1EB
330
A
100
AcDbEntity
  8
0
 62
     7
100
AcDbLine
 10
210.578706
 20
151.524429
 30
0.0
 11
210.612812
 21
151.493595
 31
0.0
  0
LINE
  5
1EA
330
A
100
AcDbEntity
  8
0
 62
     7
100
AcDbLine
 10
210.612812
 20
151.493595
 30
0.0
 11
210.657598
 21
151.482054
 31
0.0
  0
LINE
  5
1E9
330
A
100
AcDbEntity
  8
0
 62
     7
100
AcDbLine
 10
210.608333
 20
155.122142
 30
0.0
 11
210.562169
 21
155.103539
 31
0.0
  0
LINE
  5
1E8
330
A
100
AcDbEntity
  8
0
 62
     7
100
AcDbLine
 10
210.657598
 20
155.131961
 30
0.0
 11
210.608333
 21
155.122142
 31
0.0
  0
LINE
  5
1E7
330
A
100
AcDbEntity
  8
0
 62
     7
100
AcDbLine
 10
208.803792
 20
151.518745
 30
0.0
 11
210.493612
 21
151.637945
 31
0.0
  0
LINE
  5
1E6
330
A
100
AcDbEntity
  8
0
 62
     7
100
AcDbLine
 10
210.500502
 20
155.071499
 30
0.0
 11
208.804481
 21
155.210164
 31
0.0
  0
LINE
  5
1E5
330
A
100
AcDbEntity
  8
0
 62
     7
100
AcDbLine
 10
210.578706
 20
151.524429
 30
0.0
 11
210.529096
 21
151.586096
 31
0.0
  0
LINE
  5
1E4
330
A
100
AcDbEntity
  8
0
 62
     7
100
AcDbLine
 10
210.453304
 20
151.697028
 30
0.0
 11
210.529096
 21
151.586096
 31
0.0
  0
LINE
  5
1E3
330
A
100
AcDbEntity
  8
0
 62
     7
100
AcDbLine
 10
210.409207
 20
151.868422
 30
0.0
 11
210.453304
 21
151.697028
 31
0.0
  0
LINE
  5
1E2
330
A
100
AcDbEntity
  8
0
 62
     7
100
AcDbLine
 10
210.371311
 20
152.1412729999999
 30
0.0
 11
210.409207
 21
151.868422
 31
0.0
  0
LINE
  5
1E1
330
A
100
AcDbEntity
  8
0
 62
     7
100
AcDbLine
 10
210.342372
 20
152.496807
 30
0.0
 11
210.371311
 21
152.1412729999999
 31
0.0
  0
LINE
  5
1E0
330
A
100
AcDbEntity
  8
0
 62
     7
100
AcDbLine
 10
210.324113
 20
152.910735
 30
0.0
 11
210.342372
 21
152.496807
 31
0.0
  0
LINE
  5
1DF
330
A
100
AcDbEntity
  8
0
 62
     7
100
AcDbLine
 10
210.317912
 20
153.35498
 30
0.0
 11
210.324113
 21
152.910735
 31
0.0
  0
LINE
  5
1DE
330
A
100
AcDbEntity
  8
0
 62
     7
100
AcDbLine
 10
210.324113
 20
153.799226
 30
0.0
 11
210.317912
 21
153.35498
 31
0.0
  0
LINE
  5
1DD
330
A
100
AcDbEntity
  8
0
 62
     7
100
AcDbLine
 10
210.342372
 20
154.213326
 30
0.0
 11
210.324113
 21
153.799226
 31
0.0
  0
LINE
  5
1DC
330
A
100
AcDbEntity
  8
0
 62
     7
100
AcDbLine
 10
210.562169
 20
155.103539
 30
0.0
 11
210.500502
 21
155.071499
 31
0.0
  0
LINE
  5
1DB
330
A
100
AcDbEntity
  8
0
 62
     7
100
AcDbLine
 10
211.950198
 20
151.46569
 30
0.0
 11
211.950198
 21
151.530286
 31
0.0
  0
LINE
  5
1DA
330
A
100
AcDbEntity
  8
0
 62
     7
100
AcDbLine
 10
210.657598
 20
151.482054
 30
0.0
 11
211.950198
 21
151.46569
 31
0.0
  0
LINE
  5
1D9
330
A
100
AcDbEntity
  8
0
 62
     7
100
AcDbLine
 10
211.950198
 20
151.530286
 30
0.0
 11
211.950198
 21
151.719766
 31
0.0
  0
LINE
  5
1D8
330
A
100
AcDbEntity
  8
0
 62
     7
100
AcDbLine
 10
211.950198
 20
151.719766
 30
0.0
 11
211.950198
 21
152.021384
 31
0.0
  0
LINE
  5
1D7
330
A
100
AcDbEntity
  8
0
 62
     7
100
AcDbLine
 10
211.950198
 20
152.021384
 30
0.0
 11
211.950198
 21
152.414297
 31
0.0
  0
LINE
  5
1D6
330
A
100
AcDbEntity
  8
0
 62
     7
100
AcDbLine
 10
211.950198
 20
152.414297
 30
0.0
 11
211.950198
 21
152.871806
 31
0.0
  0
LINE
  5
1D5
330
A
100
AcDbEntity
  8
0
 62
     7
100
AcDbLine
 10
211.950198
 20
152.871806
 30
0.0
 11
211.950543
 21
153.362904
 31
0.0
  0
LINE
  5
1D4
330
A
100
AcDbEntity
  8
0
 62
     7
100
AcDbLine
 10
211.950543
 20
153.362904
 30
0.0
 11
211.950543
 21
153.854003
 31
0.0
  0
LINE
  5
1D3
330
A
100
AcDbEntity
  8
0
 62
     7
100
AcDbLine
 10
211.950543
 20
153.854003
 30
0.0
 11
211.950543
 21
154.311511
 31
0.0
  0
LINE
  5
1D2
330
A
100
AcDbEntity
  8
0
 62
     7
100
AcDbLine
 10
211.950543
 20
154.311511
 30
0.0
 11
211.950543
 21
154.704424
 31
0.0
  0
LINE
  5
1D1
330
A
100
AcDbEntity
  8
0
 62
     7
100
AcDbLine
 10
211.950543
 20
154.704424
 30
0.0
 11
211.950543
 21
155.00587
 31
0.0
  0
LINE
  5
1D0
330
A
100
AcDbEntity
  8
0
 62
     7
100
AcDbLine
 10
211.950543
 20
155.00587
 30
0.0
 11
211.950543
 21
155.195178
 31
0.0
  0
LINE
  5
1CF
330
A
100
AcDbEntity
  8
0
 62
     7
100
AcDbLine
 10
211.950543
 20
155.259602
 30
0.0
 11
210.657598
 21
155.131961
 31
0.0
  0
LINE
  5
1CE
330
A
100
AcDbEntity
  8
0
 62
     7
100
AcDbLine
 10
211.950543
 20
155.195178
 30
0.0
 11
211.950543
 21
155.259602
 31
0.0
  0
LINE
  5
1CD
330
A
100
AcDbEntity
  8
0
 62
     7
100
AcDbLine
 10
212.450426
 20
151.564909
 30
0.0
 11
212.494179
 21
151.575933
 31
0.0
  0
LINE
  5
1CC
330
A
100
AcDbEntity
  8
0
 62
     7
100
AcDbLine
 10
212.494179
 20
151.575933
 30
0.0
 11
212.527596
 21
151.606595
 31
0.0
  0
LINE
  5
1CB
330
A
100
AcDbEntity
  8
0
 62
     7
100
AcDbLine
 10
212.450426
 20
155.164861
 30
0.0
 11
212.494179
 21
155.153665
 31
0.0
  0
LINE
  5
1CA
330
A
100
AcDbEntity
  8
0
 62
     7
100
AcDbLine
 10
212.494179
 20
155.153665
 30
0.0
 11
212.527596
 21
155.123003
 31
0.0
  0
LINE
  5
1C9
330
A
100
AcDbEntity
  8
0
 62
     7
100
AcDbLine
 10
212.987861
 20
152.830637
 30
0.0
 11
213.000263
 21
153.014777
 31
0.0
  0
LINE
  5
1C8
330
A
100
AcDbEntity
  8
0
 62
     7
100
AcDbLine
 10
212.987861
 20
153.899133
 30
0.0
 11
213.000263
 21
153.714821
 31
0.0
  0
LINE
  5
1C7
330
A
100
AcDbEntity
  8
0
 62
     7
100
AcDbLine
 10
212.962023
 20
152.647875
 30
0.0
 11
212.987861
 21
152.830637
 31
0.0
  0
LINE
  5
1C6
330
A
100
AcDbEntity
  8
0
 62
     7
100
AcDbLine
 10
212.962023
 20
154.081896
 30
0.0
 11
212.987861
 21
153.899133
 31
0.0
  0
LINE
  5
1C5
330
A
100
AcDbEntity
  8
0
 62
     7
100
AcDbLine
 10
212.922748
 20
152.467352
 30
0.0
 11
212.962023
 21
152.647875
 31
0.0
  0
LINE
  5
1C4
330
A
100
AcDbEntity
  8
0
 62
     7
100
AcDbLine
 10
212.922748
 20
154.262246
 30
0.0
 11
212.962023
 21
154.081896
 31
0.0
  0
LINE
  5
1C3
330
A
100
AcDbEntity
  8
0
 62
     7
100
AcDbLine
 10
212.870383
 20
152.289757
 30
0.0
 11
212.922748
 21
152.467352
 31
0.0
  0
LINE
  5
1C2
330
A
100
AcDbEntity
  8
0
 62
     7
100
AcDbLine
 10
212.870383
 20
154.439841
 30
0.0
 11
212.922748
 21
154.262246
 31
0.0
  0
LINE
  5
1C1
330
A
100
AcDbEntity
  8
0
 62
     7
100
AcDbLine
 10
212.798036
 20
152.099243
 30
0.0
 11
212.870383
 21
152.289757
 31
0.0
  0
LINE
  5
1C0
330
A
100
AcDbEntity
  8
0
 62
     7
100
AcDbLine
 10
212.798036
 20
154.630355
 30
0.0
 11
212.870383
 21
154.439841
 31
0.0
  0
LINE
  5
1BF
330
A
100
AcDbEntity
  8
0
 62
     7
100
AcDbLine
 10
212.712253
 20
151.914586
 30
0.0
 11
212.798036
 21
152.099243
 31
0.0
  0
LINE
  5
1BE
330
A
100
AcDbEntity
  8
0
 62
     7
100
AcDbLine
 10
212.712253
 20
154.815184
 30
0.0
 11
212.798036
 21
154.630355
 31
0.0
  0
LINE
  5
1BD
330
A
100
AcDbEntity
  8
0
 62
     7
100
AcDbLine
 10
212.61269
 20
151.73613
 30
0.0
 11
212.712253
 21
151.914586
 31
0.0
  0
LINE
  5
1BC
330
A
100
AcDbEntity
  8
0
 62
     7
100
AcDbLine
 10
212.61269
 20
154.99364
 30
0.0
 11
212.712253
 21
154.815184
 31
0.0
  0
LINE
  5
1BB
330
A
100
AcDbEntity
  8
0
 62
     7
100
AcDbLine
 10
212.527596
 20
151.606595
 30
0.0
 11
212.61269
 21
151.73613
 31
0.0
  0
LINE
  5
1BA
330
A
100
AcDbEntity
  8
0
 62
     7
100
AcDbLine
 10
212.527596
 20
155.123003
 30
0.0
 11
212.61269
 21
154.99364
 31
0.0
  0
LINE
  5
1B9
330
A
100
AcDbEntity
  8
0
 62
     7
100
AcDbLine
 10
212.000152
 20
151.564909
 30
0.0
 11
212.450426
 21
151.564909
 31
0.0
  0
LINE
  5
1B8
330
A
100
AcDbEntity
  8
0
 62
     7
100
AcDbLine
 10
212.000152
 20
151.626232
 30
0.0
 11
212.000152
 21
151.564909
 31
0.0
  0
LINE
  5
1B7
330
A
100
AcDbEntity
  8
0
 62
     7
100
AcDbLine
 10
212.000152
 20
152.899022
 30
0.0
 11
212.000152
 21
152.436518
 31
0.0
  0
LINE
  5
1B6
330
A
100
AcDbEntity
  8
0
 62
     7
100
AcDbLine
 10
212.000152
 20
155.164861
 30
0.0
 11
212.450426
 21
155.164861
 31
0.0
  0
LINE
  5
1B5
330
A
100
AcDbEntity
  8
0
 62
     7
100
AcDbLine
 10
212.000152
 20
151.577828
 30
0.0
 11
212.000152
 21
151.514783
 31
0.0
  0
LINE
  5
1B4
330
A
100
AcDbEntity
  8
0
 62
     7
100
AcDbLine
 10
212.000152
 20
151.762657
 30
0.0
 11
212.000152
 21
151.577828
 31
0.0
  0
LINE
  5
1B3
330
A
100
AcDbEntity
  8
0
 62
     7
100
AcDbLine
 10
212.000152
 20
152.056696
 30
0.0
 11
212.000152
 21
151.762657
 31
0.0
  0
LINE
  5
1B2
330
A
100
AcDbEntity
  8
0
 62
     7
100
AcDbLine
 10
212.000152
 20
152.439791
 30
0.0
 11
212.000152
 21
152.056696
 31
0.0
  0
LINE
  5
1B1
330
A
100
AcDbEntity
  8
0
 62
     7
100
AcDbLine
 10
212.000152
 20
153.364799
 30
0.0
 11
212.000152
 21
152.886103
 31
0.0
  0
LINE
  5
1B0
330
A
100
AcDbEntity
  8
0
 62
     7
100
AcDbLine
 10
212.000152
 20
153.843667
 30
0.0
 11
212.000152
 21
153.364799
 31
0.0
  0
LINE
  5
1AF
330
A
100
AcDbEntity
  8
0
 62
     7
100
AcDbLine
 10
212.000152
 20
154.670835
 30
0.0
 11
212.000152
 21
153.843667
 31
0.0
  0
LINE
  5
1AE
330
A
100
AcDbEntity
  8
0
 62
     7
100
AcDbLine
 10
212.000152
 20
154.966941
 30
0.0
 11
212.000152
 21
154.672902
 31
0.0
  0
LINE
  5
1AD
330
A
100
AcDbEntity
  8
0
 62
     7
100
AcDbLine
 10
212.000152
 20
155.15177
 30
0.0
 11
212.000152
 21
154.966941
 31
0.0
  0
LINE
  5
1AC
330
A
100
AcDbEntity
  8
0
 62
     7
100
AcDbLine
 10
212.000152
 20
155.214815
 30
0.0
 11
212.000152
 21
155.15177
 31
0.0
  0
LINE
  5
1AB
330
A
100
AcDbEntity
  8
0
 62
     7
100
AcDbLine
 10
213.000263
 20
153.026835
 30
0.0
 11
213.000263
 21
153.014777
 31
0.0
  0
LINE
  5
1AA
330
A
100
AcDbEntity
  8
0
 62
     7
100
AcDbLine
 10
213.000263
 20
153.061803
 30
0.0
 11
213.000263
 21
153.026835
 31
0.0
  0
LINE
  5
1A9
330
A
100
AcDbEntity
  8
0
 62
     7
100
AcDbLine
 10
213.000263
 20
153.117269
 30
0.0
 11
213.000263
 21
153.061803
 31
0.0
  0
LINE
  5
1A8
330
A
100
AcDbEntity
  8
0
 62
     7
100
AcDbLine
 10
213.000263
 20
153.189788
 30
0.0
 11
213.000263
 21
153.117269
 31
0.0
  0
LINE
  5
1A7
330
A
100
AcDbEntity
  8
0
 62
     7
100
AcDbLine
 10
213.000263
 20
153.274193
 30
0.0
 11
213.000263
 21
153.189788
 31
0.0
  0
LINE
  5
1A6
330
A
100
AcDbEntity
  8
0
 62
     7
100
AcDbLine
 10
213.000263
 20
153.364799
 30
0.0
 11
213.000263
 21
153.274193
 31
0.0
  0
LINE
  5
1A5
330
A
100
AcDbEntity
  8
0
 62
     7
100
AcDbLine
 10
213.000263
 20
153.455405
 30
0.0
 11
213.000263
 21
153.364799
 31
0.0
  0
LINE
  5
1A4
330
A
100
AcDbEntity
  8
0
 62
     7
100
AcDbLine
 10
213.000263
 20
153.53981
 30
0.0
 11
213.000263
 21
153.455405
 31
0.0
  0
LINE
  5
1A3
330
A
100
AcDbEntity
  8
0
 62
     7
100
AcDbLine
 10
213.000263
 20
153.612329
 30
0.0
 11
213.000263
 21
153.53981
 31
0.0
  0
LINE
  5
1A2
330
A
100
AcDbEntity
  8
0
 62
     7
100
AcDbLine
 10
213.000263
 20
153.667967
 30
0.0
 11
213.000263
 21
153.612329
 31
0.0
  0
LINE
  5
1A1
330
A
100
AcDbEntity
  8
0
 62
     7
100
AcDbLine
 10
213.000263
 20
153.702935
 30
0.0
 11
213.000263
 21
153.667967
 31
0.0
  0
LINE
  5
1A0
330
A
100
AcDbEntity
  8
0
 62
     7
100
AcDbLine
 10
213.000263
 20
153.714821
 30
0.0
 11
213.000263
 21
153.702935
 31
0.0
  0
LINE
  5
19F
330
A
100
AcDbEntity
  8
0
 62
     7
100
AcDbLine
 10
208.700095
 20
155.264769
 30
0.0
 11
208.750393
 21
155.214471
 31
0.0
  0
LINE
  5
19E
330
A
100
AcDbEntity
  8
0
 62
     7
100
AcDbLine
 10
208.700095
 20
151.464829
 30
0.0
 11
208.750393
 21
151.515299
 31
0.0
  0
LINE
  5
19D
330
A
100
AcDbEntity
  8
0
 62
     7
100
AcDbLine
 10
208.05035
 20
151.464829
 30
0.0
 11
208.016243
 21
151.499108
 31
0.0
  0
LINE
  5
19C
330
A
100
AcDbEntity
  8
0
 62
     7
100
AcDbLine
 10
208.05035
 20
155.264769
 30
0.0
 11
208.016243
 21
155.23049
 31
0.0
  0
LINE
  5
19B
330
A
100
AcDbEntity
  8
0
 62
     7
100
AcDbLine
 10
208.750393
 20
152.057041
 30
0.0
 11
208.750393
 21
151.763002
 31
0.0
  0
LINE
  5
19A
330
A
100
AcDbEntity
  8
0
 62
     7
100
AcDbLine
 10
208.750393
 20
152.440135
 30
0.0
 11
208.750393
 21
152.057041
 31
0.0
  0
LINE
  5
199
330
A
100
AcDbEntity
  8
0
 62
     7
100
AcDbLine
 10
208.750393
 20
152.886103
 30
0.0
 11
208.750393
 21
152.440135
 31
0.0
  0
LINE
  5
198
330
A
100
AcDbEntity
  8
0
 62
     7
100
AcDbLine
 10
208.750393
 20
153.364799
 30
0.0
 11
208.750393
 21
152.886103
 31
0.0
  0
LINE
  5
197
330
A
100
AcDbEntity
  8
0
 62
     7
100
AcDbLine
 10
208.750393
 20
153.843495
 30
0.0
 11
208.750393
 21
153.364799
 31
0.0
  0
LINE
  5
196
330
A
100
AcDbEntity
  8
0
 62
     7
100
AcDbLine
 10
208.750393
 20
154.289635
 30
0.0
 11
208.750393
 21
153.843495
 31
0.0
  0
LINE
  5
195
330
A
100
AcDbEntity
  8
0
 62
     7
100
AcDbLine
 10
208.750393
 20
154.672729
 30
0.0
 11
208.750393
 21
154.289635
 31
0.0
  0
LINE
  5
194
330
A
100
AcDbEntity
  8
0
 62
     7
100
AcDbLine
 10
208.750393
 20
154.966596
 30
0.0
 11
208.750393
 21
154.672729
 31
0.0
  0
LINE
  5
193
330
A
100
AcDbEntity
  8
0
 62
     7
100
AcDbLine
 10
208.750393
 20
155.151426
 30
0.0
 11
208.750393
 21
154.966596
 31
0.0
  0
LINE
  5
192
330
A
100
AcDbEntity
  8
0
 62
     7
100
AcDbLine
 10
208.750393
 20
155.214471
 30
0.0
 11
208.750393
 21
155.151426
 31
0.0
  0
LINE
  5
191
330
A
100
AcDbEntity
  8
0
 62
     7
100
AcDbLine
 10
208.750393
 20
151.5783449999999
 30
0.0
 11
208.750393
 21
151.515299
 31
0.0
  0
LINE
  5
190
330
A
100
AcDbEntity
  8
0
 62
     7
100
AcDbLine
 10
208.750393
 20
151.763002
 30
0.0
 11
208.750393
 21
151.5783449999999
 31
0.0
  0
LINE
  5
18F
330
A
100
AcDbEntity
  8
0
 62
     7
100
AcDbLine
 10
208.05035
 20
155.264769
 30
0.0
 11
208.700095
 21
155.264769
 31
0.0
  0
LINE
  5
18E
330
A
100
AcDbEntity
  8
0
 62
     7
100
AcDbLine
 10
208.05035
 20
151.464829
 30
0.0
 11
208.700095
 21
151.464829
 31
0.0
  0
LINE
  5
18D
330
A
100
AcDbEntity
  8
0
 62
     7
100
AcDbLine
 10
191.196598
 20
151.518745
 30
0.0
 11
191.25017
 21
151.569043
 31
0.0
  0
LINE
  5
18C
330
A
100
AcDbEntity
  8
0
 62
     7
100
AcDbLine
 10
191.25017
 20
155.159866
 30
0.0
 11
191.196082
 21
155.210164
 31
0.0
  0
LINE
  5
18B
330
A
100
AcDbEntity
  8
0
 62
     7
100
AcDbLine
 10
188.000239
 20
151.577828
 30
0.0
 11
188.000239
 21
151.514783
 31
0.0
  0
LINE
  5
18A
330
A
100
AcDbEntity
  8
0
 62
     7
100
AcDbLine
 10
188.000239
 20
151.514783
 30
0.0
 11
188.050193
 21
151.46569
 31
0.0
  0
LINE
  5
189
330
A
100
AcDbEntity
  8
0
 62
     7
100
AcDbLine
 10
188.05002
 20
155.259602
 30
0.0
 11
188.000239
 21
155.214815
 31
0.0
  0
LINE
  5
188
330
A
100
AcDbEntity
  8
0
 62
     7
100
AcDbLine
 10
188.000239
 20
155.214815
 30
0.0
 11
188.000239
 21
155.15177
 31
0.0
  0
LINE
  5
187
330
A
100
AcDbEntity
  8
0
 62
     7
100
AcDbLine
 10
188.000239
 20
151.762657
 30
0.0
 11
188.000239
 21
151.577828
 31
0.0
  0
LINE
  5
186
330
A
100
AcDbEntity
  8
0
 62
     7
100
AcDbLine
 10
188.000239
 20
155.15177
 30
0.0
 11
188.000239
 21
154.966941
 31
0.0
  0
LINE
  5
185
330
A
100
AcDbEntity
  8
0
 62
     7
100
AcDbLine
 10
188.000239
 20
152.056696
 30
0.0
 11
188.000239
 21
151.762657
 31
0.0
  0
LINE
  5
184
330
A
100
AcDbEntity
  8
0
 62
     7
100
AcDbLine
 10
188.000239
 20
154.966941
 30
0.0
 11
188.000239
 21
154.672902
 31
0.0
  0
LINE
  5
183
330
A
100
AcDbEntity
  8
0
 62
     7
100
AcDbLine
 10
188.000239
 20
152.439791
 30
0.0
 11
188.000239
 21
152.056696
 31
0.0
  0
LINE
  5
182
330
A
100
AcDbEntity
  8
0
 62
     7
100
AcDbLine
 10
188.000239
 20
154.672902
 30
0.0
 11
188.000239
 21
154.289807
 31
0.0
  0
LINE
  5
181
330
A
100
AcDbEntity
  8
0
 62
     7
100
AcDbLine
 10
188.000239
 20
152.886103
 30
0.0
 11
188.000239
 21
152.439791
 31
0.0
  0
LINE
  5
180
330
A
100
AcDbEntity
  8
0
 62
     7
100
AcDbLine
 10
188.000239
 20
154.289807
 30
0.0
 11
188.000239
 21
153.843667
 31
0.0
  0
LINE
  5
17F
330
A
100
AcDbEntity
  8
0
 62
     7
100
AcDbLine
 10
188.000239
 20
153.364799
 30
0.0
 11
188.000239
 21
152.886103
 31
0.0
  0
LINE
  5
17E
330
A
100
AcDbEntity
  8
0
 62
     7
100
AcDbLine
 10
188.000239
 20
153.843667
 30
0.0
 11
188.000239
 21
153.364799
 31
0.0
  0
LINE
  5
17D
330
A
100
AcDbEntity
  8
0
 62
     7
100
AcDbLine
 10
189.387579
 20
151.493595
 30
0.0
 11
189.42203
 21
151.524429
 31
0.0
  0
LINE
  5
17C
330
A
100
AcDbEntity
  8
0
 62
     7
100
AcDbLine
 10
189.342792
 20
151.482054
 30
0.0
 11
189.387579
 21
151.493595
 31
0.0
  0
LINE
  5
17B
330
A
100
AcDbEntity
  8
0
 62
     7
100
AcDbLine
 10
189.438394
 20
155.103539
 30
0.0
 11
189.392057
 21
155.122142
 31
0.0
  0
LINE
  5
17A
330
A
100
AcDbEntity
  8
0
 62
     7
100
AcDbLine
 10
189.392057
 20
155.122142
 30
0.0
 11
189.342965
 21
155.131961
 31
0.0
  0
LINE
  5
179
330
A
100
AcDbEntity
  8
0
 62
     7
100
AcDbLine
 10
189.506951
 20
151.637945
 30
0.0
 11
191.196598
 21
151.518745
 31
0.0
  0
LINE
  5
178
330
A
100
AcDbEntity
  8
0
 62
     7
100
AcDbLine
 10
191.196082
 20
155.210164
 30
0.0
 11
189.500061
 21
155.071499
 31
0.0
  0
LINE
  5
177
330
A
100
AcDbEntity
  8
0
 62
     7
100
AcDbLine
 10
189.471639
 20
151.586096
 30
0.0
 11
189.42203
 21
151.524429
 31
0.0
  0
LINE
  5
176
330
A
100
AcDbEntity
  8
0
 62
     7
100
AcDbLine
 10
189.547431
 20
151.697028
 30
0.0
 11
189.591356
 21
151.868422
 31
0.0
  0
LINE
  5
175
330
A
100
AcDbEntity
  8
0
 62
     7
100
AcDbLine
 10
189.471639
 20
151.586096
 30
0.0
 11
189.547431
 21
151.697028
 31
0.0
  0
LINE
  5
174
330
A
100
AcDbEntity
  8
0
 62
     7
100
AcDbLine
 10
189.591356
 20
151.868422
 30
0.0
 11
189.629252
 21
152.1412729999999
 31
0.0
  0
LINE
  5
173
330
A
100
AcDbEntity
  8
0
 62
     7
100
AcDbLine
 10
189.629252
 20
152.1412729999999
 30
0.0
 11
189.658363
 21
152.496807
 31
0.0
  0
LINE
  5
172
330
A
100
AcDbEntity
  8
0
 62
     7
100
AcDbLine
 10
189.658363
 20
152.496807
 30
0.0
 11
189.67645
 21
152.910735
 31
0.0
  0
LINE
  5
171
330
A
100
AcDbEntity
  8
0
 62
     7
100
AcDbLine
 10
189.67645
 20
152.910735
 30
0.0
 11
189.682823
 21
153.35498
 31
0.0
  0
LINE
  5
170
330
A
100
AcDbEntity
  8
0
 62
     7
100
AcDbLine
 10
189.682823
 20
153.35498
 30
0.0
 11
189.67645
 21
153.799226
 31
0.0
  0
LINE
  5
16F
330
A
100
AcDbEntity
  8
0
 62
     7
100
AcDbLine
 10
189.67645
 20
153.799226
 30
0.0
 11
189.658363
 21
154.213326
 31
0.0
  0
LINE
  5
16E
330
A
100
AcDbEntity
  8
0
 62
     7
100
AcDbLine
 10
189.500061
 20
155.071499
 30
0.0
 11
189.438394
 21
155.103539
 31
0.0
  0
LINE
  5
16D
330
A
100
AcDbEntity
  8
0
 62
     7
100
AcDbLine
 10
188.050193
 20
151.46569
 30
0.0
 11
189.342792
 21
151.482054
 31
0.0
  0
LINE
  5
16C
330
A
100
AcDbEntity
  8
0
 62
     7
100
AcDbLine
 10
188.050193
 20
151.530286
 30
0.0
 11
188.050193
 21
151.46569
 31
0.0
  0
LINE
  5
16B
330
A
100
AcDbEntity
  8
0
 62
     7
100
AcDbLine
 10
188.050193
 20
151.719766
 30
0.0
 11
188.050193
 21
151.530286
 31
0.0
  0
LINE
  5
16A
330
A
100
AcDbEntity
  8
0
 62
     7
100
AcDbLine
 10
188.050193
 20
152.021384
 30
0.0
 11
188.050193
 21
151.719766
 31
0.0
  0
LINE
  5
169
330
A
100
AcDbEntity
  8
0
 62
     7
100
AcDbLine
 10
188.050193
 20
152.414297
 30
0.0
 11
188.050193
 21
152.021384
 31
0.0
  0
LINE
  5
168
330
A
100
AcDbEntity
  8
0
 62
     7
100
AcDbLine
 10
188.050193
 20
152.871806
 30
0.0
 11
188.050193
 21
152.414297
 31
0.0
  0
LINE
  5
167
330
A
100
AcDbEntity
  8
0
 62
     7
100
AcDbLine
 10
188.050193
 20
153.362904
 30
0.0
 11
188.050193
 21
152.871806
 31
0.0
  0
LINE
  5
166
330
A
100
AcDbEntity
  8
0
 62
     7
100
AcDbLine
 10
188.05002
 20
153.854003
 30
0.0
 11
188.050193
 21
153.362904
 31
0.0
  0
LINE
  5
165
330
A
100
AcDbEntity
  8
0
 62
     7
100
AcDbLine
 10
188.05002
 20
154.311511
 30
0.0
 11
188.05002
 21
153.854003
 31
0.0
  0
LINE
  5
164
330
A
100
AcDbEntity
  8
0
 62
     7
100
AcDbLine
 10
188.05002
 20
154.704424
 30
0.0
 11
188.05002
 21
154.311511
 31
0.0
  0
LINE
  5
163
330
A
100
AcDbEntity
  8
0
 62
     7
100
AcDbLine
 10
188.05002
 20
155.00587
 30
0.0
 11
188.05002
 21
154.704424
 31
0.0
  0
LINE
  5
162
330
A
100
AcDbEntity
  8
0
 62
     7
100
AcDbLine
 10
188.05002
 20
155.195178
 30
0.0
 11
188.05002
 21
155.00587
 31
0.0
  0
LINE
  5
161
330
A
100
AcDbEntity
  8
0
 62
     7
100
AcDbLine
 10
188.05002
 20
155.259602
 30
0.0
 11
188.05002
 21
155.195178
 31
0.0
  0
LINE
  5
160
330
A
100
AcDbEntity
  8
0
 62
     7
100
AcDbLine
 10
189.342965
 20
155.131961
 30
0.0
 11
188.05002
 21
155.259602
 31
0.0
  0
LINE
  5
15F
330
A
100
AcDbEntity
  8
0
 62
     7
100
AcDbLine
 10
187.506212
 20
151.575933
 30
0.0
 11
187.550309
 21
151.564909
 31
0.0
  0
LINE
  5
15E
330
A
100
AcDbEntity
  8
0
 62
     7
100
AcDbLine
 10
187.472795
 20
151.606595
 30
0.0
 11
187.506212
 21
151.575933
 31
0.0
  0
LINE
  5
15D
330
A
100
AcDbEntity
  8
0
 62
     7
100
AcDbLine
 10
187.506212
 20
155.153665
 30
0.0
 11
187.550309
 21
155.164861
 31
0.0
  0
LINE
  5
15C
330
A
100
AcDbEntity
  8
0
 62
     7
100
AcDbLine
 10
187.472795
 20
155.123003
 30
0.0
 11
187.506212
 21
155.153665
 31
0.0
  0
LINE
  5
15B
330
A
100
AcDbEntity
  8
0
 62
     7
100
AcDbLine
 10
187.0003
 20
153.014777
 30
0.0
 11
187.01253
 21
152.830637
 31
0.0
  0
LINE
  5
15A
330
A
100
AcDbEntity
  8
0
 62
     7
100
AcDbLine
 10
187.0003
 20
153.714821
 30
0.0
 11
187.01253
 21
153.899133
 31
0.0
  0
LINE
  5
159
330
A
100
AcDbEntity
  8
0
 62
     7
100
AcDbLine
 10
187.01253
 20
152.830637
 30
0.0
 11
187.038368
 21
152.647875
 31
0.0
  0
LINE
  5
158
330
A
100
AcDbEntity
  8
0
 62
     7
100
AcDbLine
 10
187.01253
 20
153.899133
 30
0.0
 11
187.038368
 21
154.081896
 31
0.0
  0
LINE
  5
157
330
A
100
AcDbEntity
  8
0
 62
     7
100
AcDbLine
 10
187.038368
 20
152.647875
 30
0.0
 11
187.077642
 21
152.467352
 31
0.0
  0
LINE
  5
156
330
A
100
AcDbEntity
  8
0
 62
     7
100
AcDbLine
 10
187.038368
 20
154.081896
 30
0.0
 11
187.077642
 21
154.262246
 31
0.0
  0
LINE
  5
155
330
A
100
AcDbEntity
  8
0
 62
     7
100
AcDbLine
 10
187.077642
 20
152.467352
 30
0.0
 11
187.13018
 21
152.289757
 31
0.0
  0
LINE
  5
154
330
A
100
AcDbEntity
  8
0
 62
     7
100
AcDbLine
 10
187.077642
 20
154.262246
 30
0.0
 11
187.13018
 21
154.439841
 31
0.0
  0
LINE
  5
153
330
A
100
AcDbEntity
  8
0
 62
     7
100
AcDbLine
 10
187.13018
 20
152.289757
 30
0.0
 11
187.202355
 21
152.099243
 31
0.0
  0
LINE
  5
152
330
A
100
AcDbEntity
  8
0
 62
     7
100
AcDbLine
 10
187.13018
 20
154.439841
 30
0.0
 11
187.202355
 21
154.630355
 31
0.0
  0
LINE
  5
151
330
A
100
AcDbEntity
  8
0
 62
     7
100
AcDbLine
 10
187.202355
 20
152.099243
 30
0.0
 11
187.28831
 21
151.914586
 31
0.0
  0
LINE
  5
150
330
A
100
AcDbEntity
  8
0
 62
     7
100
AcDbLine
 10
187.202355
 20
154.630355
 30
0.0
 11
187.28831
 21
154.815184
 31
0.0
  0
LINE
  5
14F
330
A
100
AcDbEntity
  8
0
 62
     7
100
AcDbLine
 10
187.28831
 20
151.914586
 30
0.0
 11
187.387701
 21
151.73613
 31
0.0
  0
LINE
  5
14E
330
A
100
AcDbEntity
  8
0
 62
     7
100
AcDbLine
 10
187.28831
 20
154.815184
 30
0.0
 11
187.387701
 21
154.99364
 31
0.0
  0
LINE
  5
14D
330
A
100
AcDbEntity
  8
0
 62
     7
100
AcDbLine
 10
187.387701
 20
151.73613
 30
0.0
 11
187.472795
 21
151.606595
 31
0.0
  0
LINE
  5
14C
330
A
100
AcDbEntity
  8
0
 62
     7
100
AcDbLine
 10
187.387701
 20
154.99364
 30
0.0
 11
187.472795
 21
155.123003
 31
0.0
  0
LINE
  5
14B
330
A
100
AcDbEntity
  8
0
 62
     7
100
AcDbLine
 10
187.550309
 20
151.564909
 30
0.0
 11
188.000239
 21
151.564909
 31
0.0
  0
LINE
  5
14A
330
A
100
AcDbEntity
  8
0
 62
     7
100
AcDbLine
 10
187.550309
 20
155.164861
 30
0.0
 11
188.000239
 21
155.164861
 31
0.0
  0
LINE
  5
149
330
A
100
AcDbEntity
  8
0
 62
     7
100
AcDbLine
 10
188.000239
 20
151.626232
 30
0.0
 11
188.000239
 21
151.564909
 31
0.0
  0
LINE
  5
148
330
A
100
AcDbEntity
  8
0
 62
     7
100
AcDbLine
 10
187.0003
 20
153.702935
 30
0.0
 11
187.0003
 21
153.714821
 31
0.0
  0
LINE
  5
147
330
A
100
AcDbEntity
  8
0
 62
     7
100
AcDbLine
 10
187.0003
 20
153.667967
 30
0.0
 11
187.0003
 21
153.702935
 31
0.0
  0
LINE
  5
146
330
A
100
AcDbEntity
  8
0
 62
     7
100
AcDbLine
 10
187.0003
 20
153.612329
 30
0.0
 11
187.0003
 21
153.667967
 31
0.0
  0
LINE
  5
145
330
A
100
AcDbEntity
  8
0
 62
     7
100
AcDbLine
 10
187.0003
 20
153.53981
 30
0.0
 11
187.0003
 21
153.612329
 31
0.0
  0
LINE
  5
144
330
A
100
AcDbEntity
  8
0
 62
     7
100
AcDbLine
 10
187.0003
 20
153.455405
 30
0.0
 11
187.0003
 21
153.53981
 31
0.0
  0
LINE
  5
143
330
A
100
AcDbEntity
  8
0
 62
     7
100
AcDbLine
 10
187.0003
 20
153.364799
 30
0.0
 11
187.0003
 21
153.455405
 31
0.0
  0
LINE
  5
142
330
A
100
AcDbEntity
  8
0
 62
     7
100
AcDbLine
 10
187.0003
 20
153.274193
 30
0.0
 11
187.0003
 21
153.364799
 31
0.0
  0
LINE
  5
141
330
A
100
AcDbEntity
  8
0
 62
     7
100
AcDbLine
 10
187.0003
 20
153.189788
 30
0.0
 11
187.0003
 21
153.274193
 31
0.0
  0
LINE
  5
140
330
A
100
AcDbEntity
  8
0
 62
     7
100
AcDbLine
 10
187.0003
 20
153.117269
 30
0.0
 11
187.0003
 21
153.189788
 31
0.0
  0
LINE
  5
13F
330
A
100
AcDbEntity
  8
0
 62
     7
100
AcDbLine
 10
187.0003
 20
153.061803
 30
0.0
 11
187.0003
 21
153.117269
 31
0.0
  0
LINE
  5
13E
330
A
100
AcDbEntity
  8
0
 62
     7
100
AcDbLine
 10
187.0003
 20
153.026835
 30
0.0
 11
187.0003
 21
153.061803
 31
0.0
  0
LINE
  5
13D
330
A
100
AcDbEntity
  8
0
 62
     7
100
AcDbLine
 10
187.0003
 20
153.014777
 30
0.0
 11
187.0003
 21
153.026835
 31
0.0
  0
LINE
  5
13C
330
A
100
AcDbEntity
  8
0
 62
     7
100
AcDbLine
 10
191.25017
 20
155.214471
 30
0.0
 11
191.300296
 21
155.264769
 31
0.0
  0
LINE
  5
13B
330
A
100
AcDbEntity
  8
0
 62
     7
100
AcDbLine
 10
191.25017
 20
151.515299
 30
0.0
 11
191.300296
 21
151.464829
 31
0.0
  0
LINE
  5
13A
330
A
100
AcDbEntity
  8
0
 62
     7
100
AcDbLine
 10
192.000339
 20
151.515299
 30
0.0
 11
191.950213
 21
151.464829
 31
0.0
  0
LINE
  5
139
330
A
100
AcDbEntity
  8
0
 62
     7
100
AcDbLine
 10
192.000339
 20
155.214471
 30
0.0
 11
191.950213
 21
155.264769
 31
0.0
  0
LINE
  5
138
330
A
100
AcDbEntity
  8
0
 62
     7
100
AcDbLine
 10
191.25017
 20
151.515299
 30
0.0
 11
191.25017
 21
151.5783449999999
 31
0.0
  0
LINE
  5
137
330
A
100
AcDbEntity
  8
0
 62
     7
100
AcDbLine
 10
191.25017
 20
155.151426
 30
0.0
 11
191.25017
 21
155.214471
 31
0.0
  0
LINE
  5
136
330
A
100
AcDbEntity
  8
0
 62
     7
100
AcDbLine
 10
191.25017
 20
154.966596
 30
0.0
 11
191.25017
 21
155.151426
 31
0.0
  0
LINE
  5
135
330
A
100
AcDbEntity
  8
0
 62
     7
100
AcDbLine
 10
191.25017
 20
154.672729
 30
0.0
 11
191.25017
 21
154.966596
 31
0.0
  0
LINE
  5
134
330
A
100
AcDbEntity
  8
0
 62
     7
100
AcDbLine
 10
191.25017
 20
154.289635
 30
0.0
 11
191.25017
 21
154.672729
 31
0.0
  0
LINE
  5
133
330
A
100
AcDbEntity
  8
0
 62
     7
100
AcDbLine
 10
191.25017
 20
153.843495
 30
0.0
 11
191.25017
 21
154.289635
 31
0.0
  0
LINE
  5
132
330
A
100
AcDbEntity
  8
0
 62
     7
100
AcDbLine
 10
191.25017
 20
153.364799
 30
0.0
 11
191.25017
 21
153.843495
 31
0.0
  0
LINE
  5
131
330
A
100
AcDbEntity
  8
0
 62
     7
100
AcDbLine
 10
191.25017
 20
152.886103
 30
0.0
 11
191.25017
 21
153.364799
 31
0.0
  0
LINE
  5
130
330
A
100
AcDbEntity
  8
0
 62
     7
100
AcDbLine
 10
191.25017
 20
152.440135
 30
0.0
 11
191.25017
 21
152.886103
 31
0.0
  0
LINE
  5
12F
330
A
100
AcDbEntity
  8
0
 62
     7
100
AcDbLine
 10
191.25017
 20
152.057041
 30
0.0
 11
191.25017
 21
152.440135
 31
0.0
  0
LINE
  5
12E
330
A
100
AcDbEntity
  8
0
 62
     7
100
AcDbLine
 10
191.25017
 20
151.763002
 30
0.0
 11
191.25017
 21
152.057041
 31
0.0
  0
LINE
  5
12D
330
A
100
AcDbEntity
  8
0
 62
     7
100
AcDbLine
 10
191.25017
 20
151.5783449999999
 30
0.0
 11
191.25017
 21
151.763002
 31
0.0
  0
LINE
  5
12C
330
A
100
AcDbEntity
  8
0
 62
     7
100
AcDbLine
 10
191.300296
 20
155.264769
 30
0.0
 11
191.950213
 21
155.264769
 31
0.0
  0
LINE
  5
12B
330
A
100
AcDbEntity
  8
0
 62
     7
100
AcDbLine
 10
191.300296
 20
151.464829
 30
0.0
 11
191.950213
 21
151.464829
 31
0.0
  0
LINE
  5
12A
330
A
100
AcDbEntity
  8
0
 62
     7
100
AcDbLine
 10
194.749181
 20
156.864844
 30
0.0
 11
194.749181
 21
157.864783
 31
0.0
  0
LINE
  5
129
330
A
100
AcDbEntity
  8
0
 62
     7
100
AcDbLine
 10
192.249075
 20
157.864783
 30
0.0
 11
192.249075
 21
156.864844
 31
0.0
  0
LINE
  5
128
330
A
100
AcDbEntity
  8
0
 62
     7
100
AcDbLine
 10
192.291622
 20
156.864844
 30
0.0
 11
192.249075
 21
156.864844
 31
0.0
  0
LINE
  5
127
330
A
100
AcDbEntity
  8
0
 62
     7
100
AcDbLine
 10
192.416507
 20
156.864844
 30
0.0
 11
192.291622
 21
156.864844
 31
0.0
  0
LINE
  5
126
330
A
100
AcDbEntity
  8
0
 62
     7
100
AcDbLine
 10
192.615289
 20
156.864844
 30
0.0
 11
192.416507
 21
156.864844
 31
0.0
  0
LINE
  5
125
330
A
100
AcDbEntity
  8
0
 62
     7
100
AcDbLine
 10
192.874188
 20
156.864844
 30
0.0
 11
192.615289
 21
156.864844
 31
0.0
  0
LINE
  5
124
330
A
100
AcDbEntity
  8
0
 62
     7
100
AcDbLine
 10
193.175633
 20
156.864844
 30
0.0
 11
192.874188
 21
156.864844
 31
0.0
  0
LINE
  5
123
330
A
100
AcDbEntity
  8
0
 62
     7
100
AcDbLine
 10
193.499128
 20
156.864844
 30
0.0
 11
193.175633
 21
156.864844
 31
0.0
  0
LINE
  5
122
330
A
100
AcDbEntity
  8
0
 62
     7
100
AcDbLine
 10
193.822622
 20
156.864844
 30
0.0
 11
193.499128
 21
156.864844
 31
0.0
  0
LINE
  5
121
330
A
100
AcDbEntity
  8
0
 62
     7
100
AcDbLine
 10
194.124068
 20
156.864844
 30
0.0
 11
193.822622
 21
156.864844
 31
0.0
  0
LINE
  5
120
330
A
100
AcDbEntity
  8
0
 62
     7
100
AcDbLine
 10
194.3829669999999
 20
156.864844
 30
0.0
 11
194.124068
 21
156.864844
 31
0.0
  0
LINE
  5
11F
330
A
100
AcDbEntity
  8
0
 62
     7
100
AcDbLine
 10
194.581577
 20
156.864844
 30
0.0
 11
194.3829669999999
 21
156.864844
 31
0.0
  0
LINE
  5
11E
330
A
100
AcDbEntity
  8
0
 62
     7
100
AcDbLine
 10
194.706462
 20
156.864844
 30
0.0
 11
194.581577
 21
156.864844
 31
0.0
  0
LINE
  5
11D
330
A
100
AcDbEntity
  8
0
 62
     7
100
AcDbLine
 10
194.749181
 20
156.864844
 30
0.0
 11
194.706462
 21
156.864844
 31
0.0
  0
LINE
  5
11C
330
A
100
AcDbEntity
  8
0
 62
     7
100
AcDbLine
 10
192.249075
 20
158.864894
 30
0.0
 11
192.249075
 21
159.11518
 31
0.0
  0
LINE
  5
11B
330
A
100
AcDbEntity
  8
0
 62
     7
100
AcDbLine
 10
194.749181
 20
158.864894
 30
0.0
 11
194.749181
 21
159.11518
 31
0.0
  0
LINE
  5
11A
330
A
100
AcDbEntity
  8
0
 62
     7
100
AcDbLine
 10
192.249075
 20
159.11518
 30
0.0
 11
192.097319
 21
159.307072
 31
0.0
  0
LINE
  5
119
330
A
100
AcDbEntity
  8
0
 62
     7
100
AcDbLine
 10
194.749181
 20
159.11518
 30
0.0
 11
194.900937
 21
159.307072
 31
0.0
  0
LINE
  5
118
330
A
100
AcDbEntity
  8
0
 62
     7
100
AcDbLine
 10
192.097319
 20
159.307072
 30
0.0
 11
191.686491
 21
159.440053
 31
0.0
  0
LINE
  5
117
330
A
100
AcDbEntity
  8
0
 62
     7
100
AcDbLine
 10
194.900937
 20
159.307072
 30
0.0
 11
195.311765
 21
159.440053
 31
0.0
  0
LINE
  5
116
330
A
100
AcDbEntity
  8
0
 62
     7
100
AcDbLine
 10
191.686491
 20
159.440053
 30
0.0
 11
191.260677
 21
159.539788
 31
0.0
  0
LINE
  5
115
330
A
100
AcDbEntity
  8
0
 62
     7
100
AcDbLine
 10
195.311765
 20
159.440053
 30
0.0
 11
195.737579
 21
159.539788
 31
0.0
  0
LINE
  5
114
330
A
100
AcDbEntity
  8
0
 62
     7
100
AcDbLine
 10
191.260677
 20
159.539788
 30
0.0
 11
190.9535469999999
 21
159.688444
 31
0.0
  0
LINE
  5
113
330
A
100
AcDbEntity
  8
0
 62
     7
100
AcDbLine
 10
195.737579
 20
159.539788
 30
0.0
 11
196.044709
 21
159.688444
 31
0.0
  0
LINE
  5
112
330
A
100
AcDbEntity
  8
0
 62
     7
100
AcDbLine
 10
190.9535469999999
 20
159.688444
 30
0.0
 11
190.692409
 21
159.897389
 31
0.0
  0
LINE
  5
111
330
A
100
AcDbEntity
  8
0
 62
     7
100
AcDbLine
 10
196.044709
 20
159.688444
 30
0.0
 11
196.305675
 21
159.897389
 31
0.0
  0
LINE
  5
110
330
A
100
AcDbEntity
  8
0
 62
     7
100
AcDbLine
 10
190.692409
 20
159.897389
 30
0.0
 11
190.487081
 21
160.234664
 31
0.0
  0
LINE
  5
10F
330
A
100
AcDbEntity
  8
0
 62
     7
100
AcDbLine
 10
196.305675
 20
159.897389
 30
0.0
 11
196.511175
 21
160.234664
 31
0.0
  0
LINE
  5
10E
330
A
100
AcDbEntity
  8
0
 62
     7
100
AcDbLine
 10
190.487081
 20
160.234664
 30
0.0
 11
190.399059
 21
160.61483
 31
0.0
  0
LINE
  5
10D
330
A
100
AcDbEntity
  8
0
 62
     7
100
AcDbLine
 10
196.511175
 20
160.234664
 30
0.0
 11
196.599025
 21
160.61483
 31
0.0
  0
LINE
  5
10C
330
A
100
AcDbEntity
  8
0
 62
     7
100
AcDbLine
 10
193.499128
 20
160.61483
 30
0.0
 11
194.301491
 21
160.61483
 31
0.0
  0
LINE
  5
10B
330
A
100
AcDbEntity
  8
0
 62
     7
100
AcDbLine
 10
192.696765
 20
160.61483
 30
0.0
 11
193.499128
 21
160.61483
 31
0.0
  0
LINE
  5
10A
330
A
100
AcDbEntity
  8
0
 62
     7
100
AcDbLine
 10
191.949179
 20
160.61483
 30
0.0
 11
192.696765
 21
160.61483
 31
0.0
  0
LINE
  5
109
330
A
100
AcDbEntity
  8
0
 62
     7
100
AcDbLine
 10
191.307014
 20
160.61483
 30
0.0
 11
191.949179
 21
160.61483
 31
0.0
  0
LINE
  5
108
330
A
100
AcDbEntity
  8
0
 62
     7
100
AcDbLine
 10
190.8143649999999
 20
160.61483
 30
0.0
 11
191.307014
 21
160.61483
 31
0.0
  0
LINE
  5
107
330
A
100
AcDbEntity
  8
0
 62
     7
100
AcDbLine
 10
190.504651
 20
160.61483
 30
0.0
 11
190.8143649999999
 21
160.61483
 31
0.0
  0
LINE
  5
106
330
A
100
AcDbEntity
  8
0
 62
     7
100
AcDbLine
 10
190.399059
 20
160.61483
 30
0.0
 11
190.504651
 21
160.61483
 31
0.0
  0
LINE
  5
105
330
A
100
AcDbEntity
  8
0
 62
     7
100
AcDbLine
 10
190.504651
 20
160.61483
 30
0.0
 11
190.399059
 21
160.61483
 31
0.0
  0
LINE
  5
104
330
A
100
AcDbEntity
  8
0
 62
     7
100
AcDbLine
 10
190.8143649999999
 20
160.61483
 30
0.0
 11
190.504651
 21
160.61483
 31
0.0
  0
LINE
  5
103
330
A
100
AcDbEntity
  8
0
 62
     7
100
AcDbLine
 10
191.307014
 20
160.61483
 30
0.0
 11
190.8143649999999
 21
160.61483
 31
0.0
  0
LINE
  5
102
330
A
100
AcDbEntity
  8
0
 62
     7
100
AcDbLine
 10
191.949179
 20
160.61483
 30
0.0
 11
191.307014
 21
160.61483
 31
0.0
  0
LINE
  5
101
330
A
100
AcDbEntity
  8
0
 62
     7
100
AcDbLine
 10
192.696765
 20
160.61483
 30
0.0
 11
191.949179
 21
160.61483
 31
0.0
  0
LINE
  5
100
330
A
100
AcDbEntity
  8
0
 62
     7
100
AcDbLine
 10
193.499128
 20
160.61483
 30
0.0
 11
192.696765
 21
160.61483
 31
0.0
  0
LINE
  5
FF
330
A
100
AcDbEntity
  8
0
 62
     7
100
AcDbLine
 10
194.301491
 20
160.61483
 30
0.0
 11
193.499128
 21
160.61483
 31
0.0
  0
LINE
  5
FE
330
A
100
AcDbEntity
  8
0
 62
     7
100
AcDbLine
 10
195.049076
 20
160.61483
 30
0.0
 11
194.301491
 21
160.61483
 31
0.0
  0
LINE
  5
FD
330
A
100
AcDbEntity
  8
0
 62
     7
100
AcDbLine
 10
195.69107
 20
160.61483
 30
0.0
 11
195.049076
 21
160.61483
 31
0.0
  0
LINE
  5
FC
330
A
100
AcDbEntity
  8
0
 62
     7
100
AcDbLine
 10
196.183719
 20
160.61483
 30
0.0
 11
195.69107
 21
160.61483
 31
0.0
  0
LINE
  5
FB
330
A
100
AcDbEntity
  8
0
 62
     7
100
AcDbLine
 10
196.493433
 20
160.61483
 30
0.0
 11
196.183719
 21
160.61483
 31
0.0
  0
LINE
  5
FA
330
A
100
AcDbEntity
  8
0
 62
     7
100
AcDbLine
 10
196.599025
 20
160.61483
 30
0.0
 11
196.493433
 21
160.61483
 31
0.0
  0
LINE
  5
F9
330
A
100
AcDbEntity
  8
0
 62
     7
100
AcDbLine
 10
196.493433
 20
160.61483
 30
0.0
 11
196.599025
 21
160.61483
 31
0.0
  0
LINE
  5
F8
330
A
100
AcDbEntity
  8
0
 62
     7
100
AcDbLine
 10
196.183719
 20
160.61483
 30
0.0
 11
196.493433
 21
160.61483
 31
0.0
  0
LINE
  5
F7
330
A
100
AcDbEntity
  8
0
 62
     7
100
AcDbLine
 10
195.69107
 20
160.61483
 30
0.0
 11
196.183719
 21
160.61483
 31
0.0
  0
LINE
  5
F6
330
A
100
AcDbEntity
  8
0
 62
     7
100
AcDbLine
 10
195.049076
 20
160.61483
 30
0.0
 11
195.69107
 21
160.61483
 31
0.0
  0
LINE
  5
F5
330
A
100
AcDbEntity
  8
0
 62
     7
100
AcDbLine
 10
194.301491
 20
160.61483
 30
0.0
 11
195.049076
 21
160.61483
 31
0.0
  0
LINE
  5
F4
330
A
100
AcDbEntity
  8
0
 62
     7
100
AcDbLine
 10
194.916268
 20
158.864894
 30
0.0
 11
194.984136
 21
158.815285
 31
0.0
  0
LINE
  5
F3
330
A
100
AcDbEntity
  8
0
 62
     7
100
AcDbLine
 10
192.081816
 20
158.864894
 30
0.0
 11
192.014119
 21
158.815285
 31
0.0
  0
LINE
  5
F2
330
A
100
AcDbEntity
  8
0
 62
     7
100
AcDbLine
 10
194.984136
 20
157.914392
 30
0.0
 11
194.916268
 21
157.864783
 31
0.0
  0
LINE
  5
F1
330
A
100
AcDbEntity
  8
0
 62
     7
100
AcDbLine
 10
192.014119
 20
157.914392
 30
0.0
 11
192.081816
 21
157.864783
 31
0.0
  0
LINE
  5
F0
330
A
100
AcDbEntity
  8
0
 62
     7
100
AcDbLine
 10
194.984136
 20
158.815285
 30
0.0
 11
194.984136
 21
157.914392
 31
0.0
  0
LINE
  5
EF
330
A
100
AcDbEntity
  8
0
 62
     7
100
AcDbLine
 10
192.014119
 20
158.815285
 30
0.0
 11
192.014119
 21
157.914392
 31
0.0
  0
LINE
  5
EE
330
A
100
AcDbEntity
  8
0
 62
     7
100
AcDbLine
 10
192.120228
 20
158.864894
 30
0.0
 11
194.892152
 21
158.864894
 31
0.0
  0
LINE
  5
ED
330
A
100
AcDbEntity
  8
0
 62
     7
100
AcDbLine
 10
192.081816
 20
158.864894
 30
0.0
 11
192.120228
 21
158.864894
 31
0.0
  0
LINE
  5
EC
330
A
100
AcDbEntity
  8
0
 62
     7
100
AcDbLine
 10
194.895081
 20
158.864894
 30
0.0
 11
194.916268
 21
158.864894
 31
0.0
  0
LINE
  5
EB
330
A
100
AcDbEntity
  8
0
 62
     7
100
AcDbLine
 10
192.120228
 20
157.864783
 30
0.0
 11
192.081816
 21
157.864783
 31
0.0
  0
LINE
  5
EA
330
A
100
AcDbEntity
  8
0
 62
     7
100
AcDbLine
 10
192.797534
 20
157.864783
 30
0.0
 11
192.120228
 21
157.864783
 31
0.0
  0
LINE
  5
E9
330
A
100
AcDbEntity
  8
0
 62
     7
100
AcDbLine
 10
192.885212
 20
157.864783
 30
0.0
 11
192.797534
 21
157.864783
 31
0.0
  0
LINE
  5
E8
330
A
100
AcDbEntity
  8
0
 62
     7
100
AcDbLine
 10
192.998556
 20
157.864783
 30
0.0
 11
192.885212
 21
157.864783
 31
0.0
  0
LINE
  5
E7
330
A
100
AcDbEntity
  8
0
 62
     7
100
AcDbLine
 10
194.193659
 20
157.864783
 30
0.0
 11
192.998556
 21
157.864783
 31
0.0
  0
LINE
  5
E6
330
A
100
AcDbEntity
  8
0
 62
     7
100
AcDbLine
 10
194.302352
 20
157.864783
 30
0.0
 11
194.193659
 21
157.864783
 31
0.0
  0
LINE
  5
E5
330
A
100
AcDbEntity
  8
0
 62
     7
100
AcDbLine
 10
194.377455
 20
157.864783
 30
0.0
 11
194.302352
 21
157.864783
 31
0.0
  0
LINE
  5
E4
330
A
100
AcDbEntity
  8
0
 62
     7
100
AcDbLine
 10
194.895081
 20
157.864783
 30
0.0
 11
194.377455
 21
157.864783
 31
0.0
  0
LINE
  5
E3
330
A
100
AcDbEntity
  8
0
 62
     7
100
AcDbLine
 10
194.916268
 20
157.864783
 30
0.0
 11
194.895081
 21
157.864783
 31
0.0
  0
LINE
  5
E2
330
A
100
AcDbEntity
  8
0
 62
     7
100
AcDbLine
 10
207.749249
 20
156.864844
 30
0.0
 11
207.749249
 21
157.864783
 31
0.0
  0
LINE
  5
E1
330
A
100
AcDbEntity
  8
0
 62
     7
100
AcDbLine
 10
205.249143
 20
157.864783
 30
0.0
 11
205.249143
 21
156.864844
 31
0.0
  0
LINE
  5
E0
330
A
100
AcDbEntity
  8
0
 62
     7
100
AcDbLine
 10
205.249143
 20
158.864894
 30
0.0
 11
205.249143
 21
159.11518
 31
0.0
  0
LINE
  5
DF
330
A
100
AcDbEntity
  8
0
 62
     7
100
AcDbLine
 10
207.749249
 20
158.864894
 30
0.0
 11
207.749249
 21
159.11518
 31
0.0
  0
LINE
  5
DE
330
A
100
AcDbEntity
  8
0
 62
     7
100
AcDbLine
 10
205.249143
 20
159.11518
 30
0.0
 11
205.097214
 21
159.307072
 31
0.0
  0
LINE
  5
DD
330
A
100
AcDbEntity
  8
0
 62
     7
100
AcDbLine
 10
207.749249
 20
159.11518
 30
0.0
 11
207.900833
 21
159.307072
 31
0.0
  0
LINE
  5
DC
330
A
100
AcDbEntity
  8
0
 62
     7
100
AcDbLine
 10
205.097214
 20
159.307072
 30
0.0
 11
204.686559
 21
159.440053
 31
0.0
  0
LINE
  5
DB
330
A
100
AcDbEntity
  8
0
 62
     7
100
AcDbLine
 10
207.900833
 20
159.307072
 30
0.0
 11
208.311833
 21
159.440053
 31
0.0
  0
LINE
  5
DA
330
A
100
AcDbEntity
  8
0
 62
     7
100
AcDbLine
 10
204.686559
 20
159.440053
 30
0.0
 11
204.260745
 21
159.539788
 31
0.0
  0
LINE
  5
D9
330
A
100
AcDbEntity
  8
0
 62
     7
100
AcDbLine
 10
208.311833
 20
159.440053
 30
0.0
 11
208.737646
 21
159.539788
 31
0.0
  0
LINE
  5
D8
330
A
100
AcDbEntity
  8
0
 62
     7
100
AcDbLine
 10
204.260745
 20
159.539788
 30
0.0
 11
203.953442
 21
159.688444
 31
0.0
  0
LINE
  5
D7
330
A
100
AcDbEntity
  8
0
 62
     7
100
AcDbLine
 10
208.737646
 20
159.539788
 30
0.0
 11
209.044604
 21
159.688444
 31
0.0
  0
LINE
  5
D6
330
A
100
AcDbEntity
  8
0
 62
     7
100
AcDbLine
 10
203.953442
 20
159.688444
 30
0.0
 11
203.692304
 21
159.897389
 31
0.0
  0
LINE
  5
D5
330
A
100
AcDbEntity
  8
0
 62
     7
100
AcDbLine
 10
209.044604
 20
159.688444
 30
0.0
 11
209.305743
 21
159.897389
 31
0.0
  0
LINE
  5
D4
330
A
100
AcDbEntity
  8
0
 62
     7
100
AcDbLine
 10
203.692304
 20
159.897389
 30
0.0
 11
203.486976
 21
160.234664
 31
0.0
  0
LINE
  5
D3
330
A
100
AcDbEntity
  8
0
 62
     7
100
AcDbLine
 10
209.305743
 20
159.897389
 30
0.0
 11
209.51107
 21
160.234664
 31
0.0
  0
LINE
  5
D2
330
A
100
AcDbEntity
  8
0
 62
     7
100
AcDbLine
 10
203.486976
 20
160.234664
 30
0.0
 11
203.399127
 21
160.61483
 31
0.0
  0
LINE
  5
D1
330
A
100
AcDbEntity
  8
0
 62
     7
100
AcDbLine
 10
209.51107
 20
160.234664
 30
0.0
 11
209.599265
 21
160.61483
 31
0.0
  0
LINE
  5
D0
330
A
100
AcDbEntity
  8
0
 62
     7
100
AcDbLine
 10
205.696661
 20
160.61483
 30
0.0
 11
206.499023
 21
160.61483
 31
0.0
  0
LINE
  5
CF
330
A
100
AcDbEntity
  8
0
 62
     7
100
AcDbLine
 10
204.949075
 20
160.61483
 30
0.0
 11
205.696661
 21
160.61483
 31
0.0
  0
LINE
  5
CE
330
A
100
AcDbEntity
  8
0
 62
     7
100
AcDbLine
 10
204.306909
 20
160.61483
 30
0.0
 11
204.949075
 21
160.61483
 31
0.0
  0
LINE
  5
CD
330
A
100
AcDbEntity
  8
0
 62
     7
100
AcDbLine
 10
203.814261
 20
160.61483
 30
0.0
 11
204.306909
 21
160.61483
 31
0.0
  0
LINE
  5
CC
330
A
100
AcDbEntity
  8
0
 62
     7
100
AcDbLine
 10
203.504891
 20
160.61483
 30
0.0
 11
203.814261
 21
160.61483
 31
0.0
  0
LINE
  5
CB
330
A
100
AcDbEntity
  8
0
 62
     7
100
AcDbLine
 10
203.399127
 20
160.61483
 30
0.0
 11
203.504891
 21
160.61483
 31
0.0
  0
LINE
  5
CA
330
A
100
AcDbEntity
  8
0
 62
     7
100
AcDbLine
 10
203.504891
 20
160.61483
 30
0.0
 11
203.399127
 21
160.61483
 31
0.0
  0
LINE
  5
C9
330
A
100
AcDbEntity
  8
0
 62
     7
100
AcDbLine
 10
203.814261
 20
160.61483
 30
0.0
 11
203.504891
 21
160.61483
 31
0.0
  0
LINE
  5
C8
330
A
100
AcDbEntity
  8
0
 62
     7
100
AcDbLine
 10
204.306909
 20
160.61483
 30
0.0
 11
203.814261
 21
160.61483
 31
0.0
  0
LINE
  5
C7
330
A
100
AcDbEntity
  8
0
 62
     7
100
AcDbLine
 10
204.949075
 20
160.61483
 30
0.0
 11
204.306909
 21
160.61483
 31
0.0
  0
LINE
  5
C6
330
A
100
AcDbEntity
  8
0
 62
     7
100
AcDbLine
 10
205.696661
 20
160.61483
 30
0.0
 11
204.949075
 21
160.61483
 31
0.0
  0
LINE
  5
C5
330
A
100
AcDbEntity
  8
0
 62
     7
100
AcDbLine
 10
206.499023
 20
160.61483
 30
0.0
 11
205.696661
 21
160.61483
 31
0.0
  0
LINE
  5
C4
330
A
100
AcDbEntity
  8
0
 62
     7
100
AcDbLine
 10
207.301386
 20
160.61483
 30
0.0
 11
206.499023
 21
160.61483
 31
0.0
  0
LINE
  5
C3
330
A
100
AcDbEntity
  8
0
 62
     7
100
AcDbLine
 10
208.048972
 20
160.61483
 30
0.0
 11
207.301386
 21
160.61483
 31
0.0
  0
LINE
  5
C2
330
A
100
AcDbEntity
  8
0
 62
     7
100
AcDbLine
 10
208.691138
 20
160.61483
 30
0.0
 11
208.048972
 21
160.61483
 31
0.0
  0
LINE
  5
C1
330
A
100
AcDbEntity
  8
0
 62
     7
100
AcDbLine
 10
209.183786
 20
160.61483
 30
0.0
 11
208.691138
 21
160.61483
 31
0.0
  0
LINE
  5
C0
330
A
100
AcDbEntity
  8
0
 62
     7
100
AcDbLine
 10
209.4935
 20
160.61483
 30
0.0
 11
209.599265
 21
160.61483
 31
0.0
  0
LINE
  5
BF
330
A
100
AcDbEntity
  8
0
 62
     7
100
AcDbLine
 10
209.183786
 20
160.61483
 30
0.0
 11
209.4935
 21
160.61483
 31
0.0
  0
LINE
  5
BE
330
A
100
AcDbEntity
  8
0
 62
     7
100
AcDbLine
 10
208.691138
 20
160.61483
 30
0.0
 11
209.183786
 21
160.61483
 31
0.0
  0
LINE
  5
BD
330
A
100
AcDbEntity
  8
0
 62
     7
100
AcDbLine
 10
208.048972
 20
160.61483
 30
0.0
 11
208.691138
 21
160.61483
 31
0.0
  0
LINE
  5
BC
330
A
100
AcDbEntity
  8
0
 62
     7
100
AcDbLine
 10
207.301386
 20
160.61483
 30
0.0
 11
208.048972
 21
160.61483
 31
0.0
  0
LINE
  5
BB
330
A
100
AcDbEntity
  8
0
 62
     7
100
AcDbLine
 10
206.499023
 20
160.61483
 30
0.0
 11
207.301386
 21
160.61483
 31
0.0
  0
LINE
  5
BA
330
A
100
AcDbEntity
  8
0
 62
     7
100
AcDbLine
 10
207.916336
 20
158.864894
 30
0.0
 11
207.984204
 21
158.815285
 31
0.0
  0
LINE
  5
B9
330
A
100
AcDbEntity
  8
0
 62
     7
100
AcDbLine
 10
205.081711
 20
158.864894
 30
0.0
 11
205.014187
 21
158.815285
 31
0.0
  0
LINE
  5
B8
330
A
100
AcDbEntity
  8
0
 62
     7
100
AcDbLine
 10
207.984204
 20
157.914392
 30
0.0
 11
207.916336
 21
157.864783
 31
0.0
  0
LINE
  5
B7
330
A
100
AcDbEntity
  8
0
 62
     7
100
AcDbLine
 10
205.014187
 20
157.914392
 30
0.0
 11
205.081711
 21
157.864783
 31
0.0
  0
LINE
  5
B6
330
A
100
AcDbEntity
  8
0
 62
     7
100
AcDbLine
 10
207.984204
 20
158.815285
 30
0.0
 11
207.984204
 21
157.914392
 31
0.0
  0
LINE
  5
B5
330
A
100
AcDbEntity
  8
0
 62
     7
100
AcDbLine
 10
205.014187
 20
158.815285
 30
0.0
 11
205.014187
 21
157.914392
 31
0.0
  0
LINE
  5
B4
330
A
100
AcDbEntity
  8
0
 62
     7
100
AcDbLine
 10
205.120296
 20
158.864894
 30
0.0
 11
207.900144
 21
158.864894
 31
0.0
  0
LINE
  5
B3
330
A
100
AcDbEntity
  8
0
 62
     7
100
AcDbLine
 10
205.081711
 20
158.864894
 30
0.0
 11
205.120296
 21
158.864894
 31
0.0
  0
LINE
  5
B2
330
A
100
AcDbEntity
  8
0
 62
     7
100
AcDbLine
 10
207.895321
 20
158.864894
 30
0.0
 11
207.916336
 21
158.864894
 31
0.0
  0
LINE
  5
B1
330
A
100
AcDbEntity
  8
0
 62
     7
100
AcDbLine
 10
207.901522
 20
157.864783
 30
0.0
 11
205.082745
 21
157.864783
 31
0.0
  0
LINE
  5
B0
330
A
100
AcDbEntity
  8
0
 62
     7
100
AcDbLine
 10
207.916336
 20
157.864783
 30
0.0
 11
207.895321
 21
157.864783
 31
0.0
  0
LINE
  5
AF
330
A
100
AcDbEntity
  8
0
 62
     7
100
AcDbLine
 10
198.071114
 20
142.422314
 30
0.0
 11
197.965177
 21
143.325963
 31
0.0
  0
LINE
  5
AE
330
A
100
AcDbEntity
  8
0
 62
     7
100
AcDbLine
 10
198.071114
 20
142.422314
 30
0.0
 11
198.268863
 21
140.85893
 31
0.0
  0
LINE
  5
AD
330
A
100
AcDbEntity
  8
0
 62
     7
100
AcDbLine
 10
197.965177
 20
143.325963
 30
0.0
 11
197.868715
 21
144.228923
 31
0.0
  0
LINE
  5
AC
330
A
100
AcDbEntity
  8
0
 62
     7
100
AcDbLine
 10
197.794473
 20
145.118446
 30
0.0
 11
197.716442
 21
146.018994
 31
0.0
  0
LINE
  5
AB
330
A
100
AcDbEntity
  8
0
 62
     7
100
AcDbLine
 10
197.868715
 20
144.228923
 30
0.0
 11
197.794473
 21
145.118446
 31
0.0
  0
LINE
  5
AA
330
A
100
AcDbEntity
  8
0
 62
     7
100
AcDbLine
 10
197.51232
 20
147.8132
 30
0.0
 11
197.401388
 21
148.483271
 31
0.0
  0
LINE
  5
A9
330
A
100
AcDbEntity
  8
0
 62
     7
100
AcDbLine
 10
197.401388
 20
148.483271
 30
0.0
 11
197.349711
 21
148.819857
 31
0.0
  0
LINE
  5
A8
330
A
100
AcDbEntity
  8
0
 62
     7
100
AcDbLine
 10
197.349711
 20
148.819857
 30
0.0
 11
197.289939
 21
149.156443
 31
0.0
  0
LINE
  5
A7
330
A
100
AcDbEntity
  8
0
 62
     7
100
AcDbLine
 10
197.289939
 20
149.156443
 30
0.0
 11
197.2125959999999
 21
149.48476
 31
0.0
  0
LINE
  5
A6
330
A
100
AcDbEntity
  8
0
 62
     7
100
AcDbLine
 10
197.2125959999999
 20
149.48476
 30
0.0
 11
197.104593
 21
149.804637
 31
0.0
  0
LINE
  5
A5
330
A
100
AcDbEntity
  8
0
 62
     7
100
AcDbLine
 10
197.104593
 20
149.804637
 30
0.0
 11
196.972301
 21
150.083001
 31
0.0
  0
LINE
  5
A4
330
A
100
AcDbEntity
  8
0
 62
     7
100
AcDbLine
 10
196.894958
 20
150.21202
 30
0.0
 11
196.78127
 21
150.39306
 31
0.0
  0
LINE
  5
A3
330
A
100
AcDbEntity
  8
0
 62
     7
100
AcDbLine
 10
196.78127
 20
150.39306
 30
0.0
 11
196.621073
 21
150.587191
 31
0.0
  0
LINE
  5
A2
330
A
100
AcDbEntity
  8
0
 62
     7
100
AcDbLine
 10
196.621073
 20
150.587191
 30
0.0
 11
196.439172
 21
150.758929
 31
0.0
  0
LINE
  5
A1
330
A
100
AcDbEntity
  8
0
 62
     7
100
AcDbLine
 10
198.273513
 20
140.826891
 30
0.0
 11
198.268863
 21
140.85893
 31
0.0
  0
LINE
  5
A0
330
A
100
AcDbEntity
  8
0
 62
     7
100
AcDbLine
 10
198.273513
 20
140.826891
 30
0.0
 11
198.333286
 21
140.535436
 31
0.0
  0
LINE
  5
9F
330
A
100
AcDbEntity
  8
0
 62
     7
100
AcDbLine
 10
198.333286
 20
140.535436
 30
0.0
 11
198.435605
 21
140.257072
 31
0.0
  0
LINE
  5
9E
330
A
100
AcDbEntity
  8
0
 62
     7
100
AcDbLine
 10
198.435605
 20
140.257072
 30
0.0
 11
198.618712
 21
140.011092
 31
0.0
  0
LINE
  5
9D
330
A
100
AcDbEntity
  8
0
 62
     7
100
AcDbLine
 10
198.618712
 20
140.011092
 30
0.0
 11
198.845744
 21
139.802664
 31
0.0
  0
LINE
  5
9C
330
A
100
AcDbEntity
  8
0
 62
     7
100
AcDbLine
 10
198.845744
 20
139.802664
 30
0.0
 11
199.115323
 21
139.6076709999999
 31
0.0
  0
LINE
  5
9B
330
A
100
AcDbEntity
  8
0
 62
     7
100
AcDbLine
 10
199.115323
 20
139.6076709999999
 30
0.0
 11
199.415046
 21
139.465044
 31
0.0
  0
LINE
  5
9A
330
A
100
AcDbEntity
  8
0
 62
     7
100
AcDbLine
 10
196.247281
 20
150.910685
 30
0.0
 11
196.439172
 21
150.758929
 31
0.0
  0
LINE
  5
99
330
A
100
AcDbEntity
  8
0
 62
     7
100
AcDbLine
 10
196.038336
 20
151.044527
 30
0.0
 11
196.247281
 21
150.910685
 31
0.0
  0
LINE
  5
98
330
A
100
AcDbEntity
  8
0
 62
     7
100
AcDbLine
 10
195.92637
 20
151.106022
 30
0.0
 11
196.038336
 21
151.044527
 31
0.0
  0
LINE
  5
97
330
A
100
AcDbEntity
  8
0
 62
     7
100
AcDbLine
 10
195.809581
 20
151.163038
 30
0.0
 11
195.92637
 21
151.106022
 31
0.0
  0
LINE
  5
96
330
A
100
AcDbEntity
  8
0
 62
     7
100
AcDbLine
 10
195.562912
 20
151.260362
 30
0.0
 11
195.659892
 21
151.203518
 31
0.0
  0
LINE
  5
95
330
A
100
AcDbEntity
  8
0
 62
     7
100
AcDbLine
 10
195.317966
 20
151.327714
 30
0.0
 11
195.562912
 21
151.260362
 31
0.0
  0
LINE
  5
94
330
A
100
AcDbEntity
  8
0
 62
     7
100
AcDbLine
 10
195.071814
 20
151.367849
 30
0.0
 11
195.317966
 21
151.327714
 31
0.0
  0
LINE
  5
93
330
A
100
AcDbEntity
  8
0
 62
     7
100
AcDbLine
 10
192.07527
 20
151.364921
 30
0.0
 11
195.071814
 21
151.367849
 31
0.0
  0
LINE
  5
92
330
A
100
AcDbEntity
  8
0
 62
     7
100
AcDbLine
 10
192.07527
 20
151.364921
 30
0.0
 11
192.022215
 21
151.3933429999999
 31
0.0
  0
LINE
  5
91
330
A
100
AcDbEntity
  8
0
 62
     7
100
AcDbLine
 10
192.000339
 20
151.44123
 30
0.0
 11
192.022215
 21
151.3933429999999
 31
0.0
  0
LINE
  5
90
330
A
100
AcDbEntity
  8
0
 62
     7
100
AcDbLine
 10
197.96001
 20
143.3635149999999
 30
0.0
 11
197.939167
 21
143.568498
 31
0.0
  0
LINE
  5
8F
330
A
100
AcDbEntity
  8
0
 62
     7
100
AcDbLine
 10
198.064568
 20
142.458143
 30
0.0
 11
197.96001
 21
143.3635149999999
 31
0.0
  0
LINE
  5
8E
330
A
100
AcDbEntity
  8
0
 62
     7
100
AcDbLine
 10
196.801252
 20
150.368255
 30
0.0
 11
196.978158
 21
150.073355
 31
0.0
  0
LINE
  5
8D
330
A
100
AcDbEntity
  8
0
 62
     7
100
AcDbLine
 10
192.07527
 20
156.864844
 30
0.0
 11
192.022215
 21
156.842795
 31
0.0
  0
LINE
  5
8C
330
A
100
AcDbEntity
  8
0
 62
     7
100
AcDbLine
 10
192.022215
 20
156.842795
 30
0.0
 11
192.000339
 21
156.7899129999999
 31
0.0
  0
LINE
  5
8B
330
A
100
AcDbEntity
  8
0
 62
     7
100
AcDbLine
 10
207.94114
 20
156.864844
 30
0.0
 11
192.07527
 21
156.864844
 31
0.0
  0
LINE
  5
8A
330
A
100
AcDbEntity
  8
0
 62
     7
100
AcDbLine
 10
192.000339
 20
156.780439
 30
0.0
 11
192.000339
 21
156.7899129999999
 31
0.0
  0
LINE
  5
89
330
A
100
AcDbEntity
  8
0
 62
     7
100
AcDbLine
 10
192.000339
 20
156.758046
 30
0.0
 11
192.000339
 21
156.780439
 31
0.0
  0
LINE
  5
88
330
A
100
AcDbEntity
  8
0
 62
     7
100
AcDbLine
 10
192.000339
 20
156.402512
 30
0.0
 11
192.000339
 21
156.758046
 31
0.0
  0
LINE
  5
87
330
A
100
AcDbEntity
  8
0
 62
     7
100
AcDbLine
 10
192.000339
 20
155.957061
 30
0.0
 11
192.000339
 21
156.402512
 31
0.0
  0
LINE
  5
86
330
A
100
AcDbEntity
  8
0
 62
     7
100
AcDbLine
 10
192.000339
 20
155.508165
 30
0.0
 11
192.000339
 21
155.957061
 31
0.0
  0
LINE
  5
85
330
A
100
AcDbEntity
  8
0
 62
     7
100
AcDbLine
 10
192.000339
 20
155.056169
 30
0.0
 11
192.000339
 21
155.508165
 31
0.0
  0
LINE
  5
84
330
A
100
AcDbEntity
  8
0
 62
     7
100
AcDbLine
 10
192.000339
 20
154.610546
 30
0.0
 11
192.000339
 21
155.056169
 31
0.0
  0
LINE
  5
83
330
A
100
AcDbEntity
  8
0
 62
     7
100
AcDbLine
 10
192.000339
 20
154.163717
 30
0.0
 11
192.000339
 21
154.610546
 31
0.0
  0
LINE
  5
82
330
A
100
AcDbEntity
  8
0
 62
     7
100
AcDbLine
 10
192.000339
 20
153.716371
 30
0.0
 11
192.000339
 21
154.163717
 31
0.0
  0
LINE
  5
81
330
A
100
AcDbEntity
  8
0
 62
     7
100
AcDbLine
 10
192.000339
 20
153.271265
 30
0.0
 11
192.000339
 21
153.716371
 31
0.0
  0
LINE
  5
80
330
A
100
AcDbEntity
  8
0
 62
     7
100
AcDbLine
 10
192.000339
 20
152.79343
 30
0.0
 11
192.000339
 21
153.271265
 31
0.0
  0
LINE
  5
7F
330
A
100
AcDbEntity
  8
0
 62
     7
100
AcDbLine
 10
192.000339
 20
152.353836
 30
0.0
 11
192.000339
 21
152.79343
 31
0.0
  0
LINE
  5
7E
330
A
100
AcDbEntity
  8
0
 62
     7
100
AcDbLine
 10
192.000339
 20
151.975909
 30
0.0
 11
192.000339
 21
152.353836
 31
0.0
  0
LINE
  5
7D
330
A
100
AcDbEntity
  8
0
 62
     7
100
AcDbLine
 10
192.000339
 20
151.685487
 30
0.0
 11
192.000339
 21
151.975909
 31
0.0
  0
LINE
  5
7C
330
A
100
AcDbEntity
  8
0
 62
     7
100
AcDbLine
 10
192.000339
 20
151.502725
 30
0.0
 11
192.000339
 21
151.685487
 31
0.0
  0
LINE
  5
7B
330
A
100
AcDbEntity
  8
0
 62
     7
100
AcDbLine
 10
192.000339
 20
151.442091
 30
0.0
 11
192.000339
 21
151.502725
 31
0.0
  0
LINE
  5
7A
330
A
100
AcDbEntity
  8
0
 62
     7
100
AcDbLine
 10
192.000339
 20
151.44123
 30
0.0
 11
192.000339
 21
151.442091
 31
0.0
  0
LINE
  5
79
330
A
100
AcDbEntity
  8
0
 62
     7
100
AcDbLine
 10
198.268863
 20
140.85893
 30
0.0
 11
198.064568
 21
142.458143
 31
0.0
  0
LINE
  5
78
330
A
100
AcDbEntity
  8
0
 62
     7
100
AcDbLine
 10
197.716442
 20
146.018994
 30
0.0
 11
197.626525
 21
146.910585
 31
0.0
  0
LINE
  5
77
330
A
100
AcDbEntity
  8
0
 62
     7
100
AcDbLine
 10
197.51232
 20
147.8132
 30
0.0
 11
197.626525
 21
146.910585
 31
0.0
  0
LINE
  5
76
330
A
100
AcDbEntity
  8
0
 62
     7
100
AcDbLine
 10
195.659892
 20
151.203518
 30
0.0
 11
195.809581
 21
151.163038
 31
0.0
  0
LINE
  5
75
330
A
100
AcDbEntity
  8
0
 62
     7
100
AcDbLine
 10
200.008291
 20
139.385463
 30
0.0
 11
199.7182139999999
 21
139.395109
 31
0.0
  0
LINE
  5
74
330
A
100
AcDbEntity
  8
0
 62
     7
100
AcDbLine
 10
199.415046
 20
139.465044
 30
0.0
 11
199.7182139999999
 21
139.395109
 31
0.0
  0
LINE
  5
73
330
A
100
AcDbEntity
  8
0
 62
     7
100
AcDbLine
 10
201.945296
 20
142.422314
 30
0.0
 11
201.747548
 21
140.85893
 31
0.0
  0
LINE
  5
72
330
A
100
AcDbEntity
  8
0
 62
     7
100
AcDbLine
 10
202.051405
 20
143.325963
 30
0.0
 11
201.945296
 21
142.422314
 31
0.0
  0
LINE
  5
71
330
A
100
AcDbEntity
  8
0
 62
     7
100
AcDbLine
 10
202.147868
 20
144.228923
 30
0.0
 11
202.051405
 21
143.325963
 31
0.0
  0
LINE
  5
70
330
A
100
AcDbEntity
  8
0
 62
     7
100
AcDbLine
 10
202.300141
 20
146.018994
 30
0.0
 11
202.221937
 21
145.118446
 31
0.0
  0
LINE
  5
6F
330
A
100
AcDbEntity
  8
0
 62
     7
100
AcDbLine
 10
202.221937
 20
145.118446
 30
0.0
 11
202.147868
 21
144.228923
 31
0.0
  0
LINE
  5
6E
330
A
100
AcDbEntity
  8
0
 62
     7
100
AcDbLine
 10
202.615023
 20
148.483271
 30
0.0
 11
202.504091
 21
147.8132
 31
0.0
  0
LINE
  5
6D
330
A
100
AcDbEntity
  8
0
 62
     7
100
AcDbLine
 10
202.666699
 20
148.819857
 30
0.0
 11
202.615023
 21
148.483271
 31
0.0
  0
LINE
  5
6C
330
A
100
AcDbEntity
  8
0
 62
     7
100
AcDbLine
 10
202.726644
 20
149.156443
 30
0.0
 11
202.666699
 21
148.819857
 31
0.0
  0
LINE
  5
6B
330
A
100
AcDbEntity
  8
0
 62
     7
100
AcDbLine
 10
202.803814
 20
149.48476
 30
0.0
 11
202.726644
 21
149.156443
 31
0.0
  0
LINE
  5
6A
330
A
100
AcDbEntity
  8
0
 62
     7
100
AcDbLine
 10
202.91199
 20
149.804637
 30
0.0
 11
202.803814
 21
149.48476
 31
0.0
  0
LINE
  5
69
330
A
100
AcDbEntity
  8
0
 62
     7
100
AcDbLine
 10
203.044282
 20
150.083001
 30
0.0
 11
202.91199
 21
149.804637
 31
0.0
  0
LINE
  5
68
330
A
100
AcDbEntity
  8
0
 62
     7
100
AcDbLine
 10
203.235484
 20
150.39306
 30
0.0
 11
203.121452
 21
150.21202
 31
0.0
  0
LINE
  5
67
330
A
100
AcDbEntity
  8
0
 62
     7
100
AcDbLine
 10
203.395337
 20
150.587191
 30
0.0
 11
203.235484
 21
150.39306
 31
0.0
  0
LINE
  5
66
330
A
100
AcDbEntity
  8
0
 62
     7
100
AcDbLine
 10
203.577238
 20
150.758929
 30
0.0
 11
203.395337
 21
150.587191
 31
0.0
  0
LINE
  5
65
330
A
100
AcDbEntity
  8
0
 62
     7
100
AcDbLine
 10
201.747548
 20
140.85893
 30
0.0
 11
201.743069
 21
140.826891
 31
0.0
  0
LINE
  5
64
330
A
100
AcDbEntity
  8
0
 62
     7
100
AcDbLine
 10
201.683124
 20
140.535436
 30
0.0
 11
201.743069
 21
140.826891
 31
0.0
  0
LINE
  5
63
330
A
100
AcDbEntity
  8
0
 62
     7
100
AcDbLine
 10
201.580805
 20
140.257072
 30
0.0
 11
201.683124
 21
140.535436
 31
0.0
  0
LINE
  5
62
330
A
100
AcDbEntity
  8
0
 62
     7
100
AcDbLine
 10
201.397871
 20
140.011092
 30
0.0
 11
201.580805
 21
140.257072
 31
0.0
  0
LINE
  5
61
330
A
100
AcDbEntity
  8
0
 62
     7
100
AcDbLine
 10
201.170839
 20
139.802664
 30
0.0
 11
201.397871
 21
140.011092
 31
0.0
  0
LINE
  5
60
330
A
100
AcDbEntity
  8
0
 62
     7
100
AcDbLine
 10
200.901088
 20
139.6076709999999
 30
0.0
 11
201.170839
 21
139.802664
 31
0.0
  0
LINE
  5
5F
330
A
100
AcDbEntity
  8
0
 62
     7
100
AcDbLine
 10
200.601364
 20
139.465044
 30
0.0
 11
200.901088
 21
139.6076709999999
 31
0.0
  0
LINE
  5
5E
330
A
100
AcDbEntity
  8
0
 62
     7
100
AcDbLine
 10
203.577238
 20
150.758929
 30
0.0
 11
203.76913
 21
150.910685
 31
0.0
  0
LINE
  5
5D
330
A
100
AcDbEntity
  8
0
 62
     7
100
AcDbLine
 10
203.76913
 20
150.910685
 30
0.0
 11
203.978247
 21
151.044527
 31
0.0
  0
LINE
  5
5C
330
A
100
AcDbEntity
  8
0
 62
     7
100
AcDbLine
 10
203.978247
 20
151.044527
 30
0.0
 11
204.090213
 21
151.106022
 31
0.0
  0
LINE
  5
5B
330
A
100
AcDbEntity
  8
0
 62
     7
100
AcDbLine
 10
204.090213
 20
151.106022
 30
0.0
 11
204.207001
 21
151.163038
 31
0.0
  0
LINE
  5
5A
330
A
100
AcDbEntity
  8
0
 62
     7
100
AcDbLine
 10
204.356519
 20
151.203518
 30
0.0
 11
204.45367
 21
151.260362
 31
0.0
  0
LINE
  5
59
330
A
100
AcDbEntity
  8
0
 62
     7
100
AcDbLine
 10
204.45367
 20
151.260362
 30
0.0
 11
204.698617
 21
151.327714
 31
0.0
  0
LINE
  5
58
330
A
100
AcDbEntity
  8
0
 62
     7
100
AcDbLine
 10
204.698617
 20
151.327714
 30
0.0
 11
204.944596
 21
151.367849
 31
0.0
  0
LINE
  5
57
330
A
100
AcDbEntity
  8
0
 62
     7
100
AcDbLine
 10
204.944596
 20
151.367849
 30
0.0
 11
207.94114
 21
151.364921
 31
0.0
  0
LINE
  5
56
330
A
100
AcDbEntity
  8
0
 62
     7
100
AcDbLine
 10
207.994195
 20
151.3933429999999
 30
0.0
 11
207.94114
 21
151.364921
 31
0.0
  0
LINE
  5
55
330
A
100
AcDbEntity
  8
0
 62
     7
100
AcDbLine
 10
207.994195
 20
151.3933429999999
 30
0.0
 11
208.016243
 21
151.44123
 31
0.0
  0
LINE
  5
54
330
A
100
AcDbEntity
  8
0
 62
     7
100
AcDbLine
 10
202.077243
 20
143.568498
 30
0.0
 11
202.056573
 21
143.3635149999999
 31
0.0
  0
LINE
  5
53
330
A
100
AcDbEntity
  8
0
 62
     7
100
AcDbLine
 10
202.056573
 20
143.3635149999999
 30
0.0
 11
201.951842
 21
142.458143
 31
0.0
  0
LINE
  5
52
330
A
100
AcDbEntity
  8
0
 62
     7
100
AcDbLine
 10
203.038425
 20
150.073355
 30
0.0
 11
203.215158
 21
150.368255
 31
0.0
  0
LINE
  5
51
330
A
100
AcDbEntity
  8
0
 62
     7
100
AcDbLine
 10
207.994195
 20
156.842795
 30
0.0
 11
207.94114
 21
156.864844
 31
0.0
  0
LINE
  5
50
330
A
100
AcDbEntity
  8
0
 62
     7
100
AcDbLine
 10
208.016243
 20
156.7899129999999
 30
0.0
 11
207.994195
 21
156.842795
 31
0.0
  0
LINE
  5
4F
330
A
100
AcDbEntity
  8
0
 62
     7
100
AcDbLine
 10
208.016243
 20
151.502725
 30
0.0
 11
208.016243
 21
151.442091
 31
0.0
  0
LINE
  5
4E
330
A
100
AcDbEntity
  8
0
 62
     7
100
AcDbLine
 10
208.016243
 20
151.685487
 30
0.0
 11
208.016243
 21
151.502725
 31
0.0
  0
LINE
  5
4D
330
A
100
AcDbEntity
  8
0
 62
     7
100
AcDbLine
 10
208.016243
 20
151.975909
 30
0.0
 11
208.016243
 21
151.685487
 31
0.0
  0
LINE
  5
4C
330
A
100
AcDbEntity
  8
0
 62
     7
100
AcDbLine
 10
208.016243
 20
152.353836
 30
0.0
 11
208.016243
 21
151.975909
 31
0.0
  0
LINE
  5
4B
330
A
100
AcDbEntity
  8
0
 62
     7
100
AcDbLine
 10
208.016243
 20
152.79343
 30
0.0
 11
208.016243
 21
152.353836
 31
0.0
  0
LINE
  5
4A
330
A
100
AcDbEntity
  8
0
 62
     7
100
AcDbLine
 10
208.016243
 20
153.271265
 30
0.0
 11
208.016243
 21
152.79343
 31
0.0
  0
LINE
  5
49
330
A
100
AcDbEntity
  8
0
 62
     7
100
AcDbLine
 10
208.016243
 20
153.716371
 30
0.0
 11
208.016243
 21
153.271265
 31
0.0
  0
LINE
  5
48
330
A
100
AcDbEntity
  8
0
 62
     7
100
AcDbLine
 10
208.016243
 20
154.163717
 30
0.0
 11
208.016243
 21
153.716371
 31
0.0
  0
LINE
  5
47
330
A
100
AcDbEntity
  8
0
 62
     7
100
AcDbLine
 10
208.016243
 20
154.610546
 30
0.0
 11
208.016243
 21
154.163717
 31
0.0
  0
LINE
  5
46
330
A
100
AcDbEntity
  8
0
 62
     7
100
AcDbLine
 10
208.016243
 20
155.056169
 30
0.0
 11
208.016243
 21
154.610546
 31
0.0
  0
LINE
  5
45
330
A
100
AcDbEntity
  8
0
 62
     7
100
AcDbLine
 10
208.016243
 20
155.508165
 30
0.0
 11
208.016243
 21
155.056169
 31
0.0
  0
LINE
  5
44
330
A
100
AcDbEntity
  8
0
 62
     7
100
AcDbLine
 10
208.016243
 20
155.957061
 30
0.0
 11
208.016243
 21
155.508165
 31
0.0
  0
LINE
  5
43
330
A
100
AcDbEntity
  8
0
 62
     7
100
AcDbLine
 10
208.016243
 20
156.402512
 30
0.0
 11
208.016243
 21
155.957061
 31
0.0
  0
LINE
  5
42
330
A
100
AcDbEntity
  8
0
 62
     7
100
AcDbLine
 10
208.016243
 20
156.758046
 30
0.0
 11
208.016243
 21
156.402512
 31
0.0
  0
LINE
  5
41
330
A
100
AcDbEntity
  8
0
 62
     7
100
AcDbLine
 10
208.016243
 20
156.780611
 30
0.0
 11
208.016243
 21
156.758046
 31
0.0
  0
LINE
  5
40
330
A
100
AcDbEntity
  8
0
 62
     7
100
AcDbLine
 10
208.016243
 20
156.7899129999999
 30
0.0
 11
208.016243
 21
156.780611
 31
0.0
  0
LINE
  5
3F
330
A
100
AcDbEntity
  8
0
 62
     7
100
AcDbLine
 10
208.016243
 20
151.442091
 30
0.0
 11
208.016243
 21
151.44123
 31
0.0
  0
LINE
  5
3E
330
A
100
AcDbEntity
  8
0
 62
     7
100
AcDbLine
 10
201.951842
 20
142.458143
 30
0.0
 11
201.747548
 21
140.85893
 31
0.0
  0
LINE
  5
3D
330
A
100
AcDbEntity
  8
0
 62
     7
100
AcDbLine
 10
202.390058
 20
146.910585
 30
0.0
 11
202.300141
 21
146.018994
 31
0.0
  0
LINE
  5
3C
330
A
100
AcDbEntity
  8
0
 62
     7
100
AcDbLine
 10
202.390058
 20
146.910585
 30
0.0
 11
202.504091
 21
147.8132
 31
0.0
  0
LINE
  5
3B
330
A
100
AcDbEntity
  8
0
 62
     7
100
AcDbLine
 10
204.356519
 20
151.203518
 30
0.0
 11
204.207001
 21
151.163038
 31
0.0
  0
LINE
  5
3A
330
A
100
AcDbEntity
  8
0
 62
     7
100
AcDbLine
 10
200.298196
 20
139.395109
 30
0.0
 11
200.008291
 21
139.385463
 31
0.0
  0
LINE
  5
39
330
A
100
AcDbEntity
  8
0
 62
     7
100
AcDbLine
 10
200.298196
 20
139.395109
 30
0.0
 11
200.601364
 21
139.465044
 31
0.0
  0
LINE
  5
38
330
A
100
AcDbEntity
  8
0
 62
     7
100
AcDbLine
 10
198.833858
 20
146.285989
 30
0.0
 11
198.965289
 21
145.862931
 31
0.0
  0
LINE
  5
37
330
A
100
AcDbEntity
  8
0
 62
     7
100
AcDbLine
 10
198.877611
 20
146.726272
 30
0.0
 11
198.833858
 21
146.285989
 31
0.0
  0
LINE
  5
36
330
A
100
AcDbEntity
  8
0
 62
     7
100
AcDbLine
 10
199.089829
 20
147.116602
 30
0.0
 11
198.877611
 21
146.726272
 31
0.0
  0
LINE
  5
35
330
A
100
AcDbEntity
  8
0
 62
     7
100
AcDbLine
 10
199.438128
 20
147.397377
 30
0.0
 11
199.089829
 21
147.116602
 31
0.0
  0
LINE
  5
34
330
A
100
AcDbEntity
  8
0
 62
     7
100
AcDbLine
 10
199.869454
 20
147.526223
 30
0.0
 11
199.438128
 21
147.397377
 31
0.0
  0
LINE
  5
33
330
A
100
AcDbEntity
  8
0
 62
     7
100
AcDbLine
 10
200.318178
 20
147.483504
 30
0.0
 11
199.869454
 21
147.526223
 31
0.0
  0
LINE
  5
32
330
A
100
AcDbEntity
  8
0
 62
     7
100
AcDbLine
 10
200.716086
 20
147.27542
 30
0.0
 11
200.318178
 21
147.483504
 31
0.0
  0
LINE
  5
31
330
A
100
AcDbEntity
  8
0
 62
     7
100
AcDbLine
 10
201.002718
 20
146.933667
 30
0.0
 11
200.716086
 21
147.27542
 31
0.0
  0
LINE
  5
30
330
A
100
AcDbEntity
  8
0
 62
     7
100
AcDbLine
 10
201.133976
 20
146.510609
 30
0.0
 11
201.002718
 21
146.933667
 31
0.0
  0
LINE
  5
2F
330
A
100
AcDbEntity
  8
0
 62
     7
100
AcDbLine
 10
201.090224
 20
146.070326
 30
0.0
 11
201.133976
 21
146.510609
 31
0.0
  0
LINE
  5
2E
330
A
100
AcDbEntity
  8
0
 62
     7
100
AcDbLine
 10
200.878006
 20
145.680341
 30
0.0
 11
201.090224
 21
146.070326
 31
0.0
  0
LINE
  5
2D
330
A
100
AcDbEntity
  8
0
 62
     7
100
AcDbLine
 10
200.529706
 20
145.399221
 30
0.0
 11
200.878006
 21
145.680341
 31
0.0
  0
LINE
  5
2C
330
A
100
AcDbEntity
  8
0
 62
     7
100
AcDbLine
 10
200.529706
 20
145.3981879999999
 30
0.0
 11
200.096658
 21
145.271408
 31
0.0
  0
LINE
  5
2B
330
A
100
AcDbEntity
  8
0
 62
     7
100
AcDbLine
 10
200.096658
 20
145.271408
 30
0.0
 11
199.646384
 21
145.313439
 31
0.0
  0
LINE
  5
2A
330
A
100
AcDbEntity
  8
0
 62
     7
100
AcDbLine
 10
199.251576
 20
145.521522
 30
0.0
 11
199.649485
 21
145.313439
 31
0.0
  0
LINE
  5
29
330
A
100
AcDbEntity
  8
0
 62
     7
100
AcDbLine
 10
198.965289
 20
145.862931
 30
0.0
 11
199.251576
 21
145.521522
 31
0.0
  0
DIMENSION
  5
253
330
A
100
AcDbEntity
  8
Cotation-JacobDelafon
  6
Continuous
370
     0
100
AcDbDimension
  2
*D3
 10
213.0984545720821
 20
173.0491941792533
 30
0.0
 11
200.049377286041
 21
175.4809131424183
 31
0.0
 70
    32
 71
     5
 42
26.09815457208208
 73
     0
 74
     0
 75
     0
  3
Cotation-Jacob-Delafon
100
AcDbAlignedDimension
 13
187.0003
 23
160.7753575803045
 33
0.0
 14
213.0984545720821
 24
153.455405
 34
0.0
100
AcDbRotatedDimension
  0
DIMENSION
  5
260
330
A
100
AcDbEntity
  8
Cotation-JacobDelafon
  6
Continuous
370
     0
100
AcDbDimension
  2
*D4
 10
176.7059042768601
 20
139.385463
 30
0.0
 11
174.2997651226991
 21
150.0001465
 31
0.0
 70
    32
  1
21.2
 71
     5
 42
21.229367
 73
     0
 74
     0
 75
     0
  3
Cotation-Jacob-Delafon
100
AcDbAlignedDimension
 13
187.0003
 23
160.61483
 33
0.0
 14
200.008291
 24
139.385463
 34
0.0
 50
90.0
100
AcDbRotatedDimension
  0
ENDSEC
  0
SECTION
  2
OBJECTS
  0
DICTIONARY
  5
19
330
0
100
AcDbDictionary
281
     1
  3
ACAD_COLOR
350
21C
  3
ACAD_GROUP
350
1A
  3
ACAD_LAYOUT
350
1E
  3
ACAD_MATERIAL
350
1F2
  3
ACAD_MLEADERSTYLE
350
231
  3
ACAD_MLINESTYLE
350
1B
  3
ACAD_PLOTSETTINGS
350
22
  3
ACAD_PLOTSTYLENAME
350
1F
  3
ACAD_SCALELIST
350
21F
  3
ACAD_TABLESTYLE
350
21D
  3
ACAD_VISUALSTYLE
350
20B
  3
ACAD_WIPEOUT_VARS
350
23
  3
ACDB_RECOMPOSE_DATA
350
295
  3
AcDbVariableDictionary
350
28B
  3
AEC_PROPERTY_SET_DEFS
350
243
  0
DICTIONARY
  5
288
330
14
100
AcDbDictionary
280
     1
281
     1
  3
ADSK_XREC_LAYER_RECONCILED
360
289
  0
DICTIONARY
  5
23C
330
23B
100
AcDbDictionary
280
     1
281
     1
  3
ADSK_XREC_LAYER_RECONCILED
360
28A
  0
DICTIONARY
  5
21C
102
{ACAD_REACTORS
330
19
102
}
330
19
100
AcDbDictionary
281
     1
  0
DICTIONARY
  5
1A
102
{ACAD_REACTORS
330
19
102
}
330
19
100
AcDbDictionary
281
     1
  0
DICTIONARY
  5
1E
102
{ACAD_REACTORS
330
19
102
}
330
19
100
AcDbDictionary
281
     1
  3
Layout1
350
21
  3
Model
350
20
  0
DICTIONARY
  5
1F2
102
{ACAD_REACTORS
330
19
102
}
330
19
100
AcDbDictionary
281
     1
  3
ByBlock
350
1FB
  3
ByLayer
350
1F3
  3
Global
350
203
  0
DICTIONARY
  5
231
102
{ACAD_REACTORS
330
19
102
}
330
19
100
AcDbDictionary
281
     1
  3
Standard
350
232
  0
DICTIONARY
  5
1B
102
{ACAD_REACTORS
330
19
102
}
330
19
100
AcDbDictionary
281
     1
  3
Standard
350
1C
  0
DICTIONARY
  5
22
102
{ACAD_REACTORS
330
19
102
}
330
19
100
AcDbDictionary
281
     1
  0
ACDBDICTIONARYWDFLT
  5
1F
102
{ACAD_REACTORS
330
19
102
}
330
19
100
AcDbDictionary
281
     1
  3
Normal
350
1D
100
AcDbDictionaryWithDefault
340
1D
  0
DICTIONARY
  5
21F
102
{ACAD_REACTORS
330
19
102
}
330
19
100
AcDbDictionary
281
     1
  3
A0
350
220
  3
A1
350
221
  3
A2
350
222
  3
A3
350
223
  3
A4
350
224
  3
A5
350
225
  3
A6
350
226
  3
A7
350
227
  3
A8
350
228
  3
A9
350
229
  3
B0
350
22A
  3
B1
350
22B
  3
B2
350
22C
  3
B3
350
22D
  3
B4
350
22E
  3
B5
350
22F
  3
B6
350
230
  0
DICTIONARY
  5
21D
102
{ACAD_REACTORS
330
19
102
}
330
19
100
AcDbDictionary
281
     1
  3
Standard
350
21E
  0
DICTIONARY
  5
20B
102
{ACAD_REACTORS
330
19
102
}
330
19
100
AcDbDictionary
281
     1
  3
2dWireframe
350
211
  3
3D Hidden
350
213
  3
3dWireframe
350
212
  3
Basic
350
210
  3
Brighten
350
217
  3
ColorChange
350
21B
  3
Conceptual
350
214
  3
Dim
350
216
  3
Facepattern
350
21A
  3
Flat
350
20C
  3
FlatWithEdges
350
20D
  3
Gouraud
350
20E
  3
GouraudWithEdges
350
20F
  3
Linepattern
350
219
  3
Realistic
350
215
  3
Thicken
350
218
  0
WIPEOUTVARIABLES
  5
23
330
19
100
AcDbWipeoutVariables
 70
     1
  0
XRECORD
  5
295
102
{ACAD_REACTORS
330
19
102
}
330
19
100
AcDbXrecord
280
     1
 90
        1
330
21E
  0
DICTIONARY
  5
28B
102
{ACAD_REACTORS
330
19
102
}
330
19
100
AcDbDictionary
281
     1
  3
CANNOSCALE
350
28F
  3
CMLEADERSTYLE
350
28D
  3
CTABLESTYLE
350
28C
  3
LAYEREVAL
350
291
  3
LAYERNOTIFY
350
292
  3
LIGHTINGUNITS
350
290
  3
MSLTSCALE
350
28E
  0
DICTIONARY
  5
243
102
{ACAD_REACTORS
330
19
102
}
330
19
100
AcDbDictionary
281
     1
  0
XRECORD
  5
289
102
{ACAD_REACTORS
330
288
102
}
330
288
100
AcDbXrecord
280
     1
290
     1
  0
XRECORD
  5
28A
102
{ACAD_REACTORS
330
23C
102
}
330
23C
100
AcDbXrecord
280
     1
290
     1
  0
LAYOUT
  5
21
102
{ACAD_REACTORS
330
1E
102
}
330
1E
100
AcDbPlotSettings
  1

  2

  4

  6

 40
0.0
 41
0.0
 42
0.0
 43
0.0
 44
0.0
 45
0.0
 46
0.0
 47
0.0
 48
0.0
 49
0.0
140
0.0
141
0.0
142
1.0
143
1.0
 70
     0
 72
     0
 73
     0
 74
     0
  7

 75
     0
147
1.0
 76
     0
 77
     2
 78
   300
148
0.0
149
0.0
100
AcDbLayout
  1
Layout1
 70
     0
 71
     1
 10
0.0
 20
0.0
 11
12.0
 21
9.0
 12
0.0
 22
0.0
 32
0.0
 14
1.000000000000000E+20
 24
1.000000000000000E+20
 34
1.000000000000000E+20
 15
-1.000000000000000E+20
 25
-1.000000000000000E+20
 35
-1.000000000000000E+20
146
0.0
 13
0.0
 23
0.0
 33
0.0
 16
1.0
 26
0.0
 36
0.0
 17
0.0
 27
1.0
 37
0.0
 76
     0
330
B
  0
LAYOUT
  5
20
102
{ACAD_REACTORS
330
1E
102
}
330
1E
100
AcDbPlotSettings
  1

  2

  4

  6

 40
0.0
 41
0.0
 42
0.0
 43
0.0
 44
0.0
 45
0.0
 46
0.0
 47
0.0
 48
0.0
 49
0.0
140
0.0
141
0.0
142
1.0
143
1.0
 70
  1024
 72
     0
 73
     0
 74
     0
  7

 75
     0
147
1.0
 76
     0
 77
     2
 78
   300
148
0.0
149
0.0
100
AcDbLayout
  1
Model
 70
     0
 71
     0
 10
0.0
 20
0.0
 11
0.0
 21
0.0
 12
0.0
 22
0.0
 32
0.0
 14
0.0
 24
0.0
 34
0.0
 15
0.0
 25
0.0
 35
0.0
146
0.0
 13
0.0
 23
0.0
 33
0.0
 16
0.0
 26
0.0
 36
0.0
 17
0.0
 27
0.0
 37
0.0
 76
     0
330
A
331
15
  0
MATERIAL
  5
1FB
102
{ACAD_XDICTIONARY
360
1FC
102
}
102
{ACAD_REACTORS
330
1F2
102
}
330
1F2
100
AcDbMaterial
  1
ByBlock
 72
     0
 43
0.0208333333333333
 43
0.0
 43
0.0
 43
0.0
 43
0.0
 43
0.0208333333333333
 43
0.0
 43
0.0
 43
0.0
 43
0.0
 43
1.0
 43
0.0
 43
0.0
 43
0.0
 43
0.0
 43
1.0
 77
     0
 47
0.0208333333333333
 47
0.0
 47
0.0
 47
0.0
 47
0.0
 47
0.0208333333333333
 47
0.0
 47
0.0
 47
0.0
 47
0.0
 47
1.0
 47
0.0
 47
0.0
 47
0.0
 47
0.0
 47
1.0
171
     0
 49
0.0208333333333333
 49
0.0
 49
0.0
 49
0.0
 49
0.0
 49
0.0208333333333333
 49
0.0
 49
0.0
 49
0.0
 49
0.0
 49
1.0
 49
0.0
 49
0.0
 49
0.0
 49
0.0
 49
1.0
175
     0
142
0.0208333333333333
142
0.0
142
0.0
142
0.0
142
0.0
142
0.0208333333333333
142
0.0
142
0.0
142
0.0
142
0.0
142
1.0
142
0.0
142
0.0
142
0.0
142
0.0
142
1.0
179
     0
144
0.0208333333333333
144
0.0
144
0.0
144
0.0
144
0.0
144
0.0208333333333333
144
0.0
144
0.0
144
0.0
144
0.0
144
1.0
144
0.0
144
0.0
144
0.0
144
0.0
144
1.0
147
0.0208333333333333
147
0.0
147
0.0
147
0.0
147
0.0
147
0.0208333333333333
147
0.0
147
0.0
147
0.0
147
0.0
147
1.0
147
0.0
147
0.0
147
0.0
147
0.0
147
1.0
  0
MATERIAL
  5
1F3
102
{ACAD_XDICTIONARY
360
1F4
102
}
102
{ACAD_REACTORS
330
1F2
102
}
330
1F2
100
AcDbMaterial
  1
ByLayer
 72
     0
 43
0.0208333333333333
 43
0.0
 43
0.0
 43
0.0
 43
0.0
 43
0.0208333333333333
 43
0.0
 43
0.0
 43
0.0
 43
0.0
 43
1.0
 43
0.0
 43
0.0
 43
0.0
 43
0.0
 43
1.0
 77
     0
 47
0.0208333333333333
 47
0.0
 47
0.0
 47
0.0
 47
0.0
 47
0.0208333333333333
 47
0.0
 47
0.0
 47
0.0
 47
0.0
 47
1.0
 47
0.0
 47
0.0
 47
0.0
 47
0.0
 47
1.0
171
     0
 49
0.0208333333333333
 49
0.0
 49
0.0
 49
0.0
 49
0.0
 49
0.0208333333333333
 49
0.0
 49
0.0
 49
0.0
 49
0.0
 49
1.0
 49
0.0
 49
0.0
 49
0.0
 49
0.0
 49
1.0
175
     0
142
0.0208333333333333
142
0.0
142
0.0
142
0.0
142
0.0
142
0.0208333333333333
142
0.0
142
0.0
142
0.0
142
0.0
142
1.0
142
0.0
142
0.0
142
0.0
142
0.0
142
1.0
179
     0
144
0.0208333333333333
144
0.0
144
0.0
144
0.0
144
0.0
144
0.0208333333333333
144
0.0
144
0.0
144
0.0
144
0.0
144
1.0
144
0.0
144
0.0
144
0.0
144
0.0
144
1.0
147
0.0208333333333333
147
0.0
147
0.0
147
0.0
147
0.0
147
0.0208333333333333
147
0.0
147
0.0
147
0.0
147
0.0
147
1.0
147
0.0
147
0.0
147
0.0
147
0.0
147
1.0
  0
MATERIAL
  5
203
102
{ACAD_XDICTIONARY
360
204
102
}
102
{ACAD_REACTORS
330
1F2
102
}
330
1F2
100
AcDbMaterial
  1
Global
 72
     0
 43
0.0208333333333333
 43
0.0
 43
0.0
 43
0.0
 43
0.0
 43
0.0208333333333333
 43
0.0
 43
0.0
 43
0.0
 43
0.0
 43
1.0
 43
0.0
 43
0.0
 43
0.0
 43
0.0
 43
1.0
 77
     0
 47
0.0208333333333333
 47
0.0
 47
0.0
 47
0.0
 47
0.0
 47
0.0208333333333333
 47
0.0
 47
0.0
 47
0.0
 47
0.0
 47
1.0
 47
0.0
 47
0.0
 47
0.0
 47
0.0
 47
1.0
171
     0
 49
0.0208333333333333
 49
0.0
 49
0.0
 49
0.0
 49
0.0
 49
0.0208333333333333
 49
0.0
 49
0.0
 49
0.0
 49
0.0
 49
1.0
 49
0.0
 49
0.0
 49
0.0
 49
0.0
 49
1.0
175
     0
142
0.0208333333333333
142
0.0
142
0.0
142
0.0
142
0.0
142
0.0208333333333333
142
0.0
142
0.0
142
0.0
142
0.0
142
1.0
142
0.0
142
0.0
142
0.0
142
0.0
142
1.0
179
     0
144
0.0208333333333333
144
0.0
144
0.0
144
0.0
144
0.0
144
0.0208333333333333
144
0.0
144
0.0
144
0.0
144
0.0
144
1.0
144
0.0
144
0.0
144
0.0
144
0.0
144
1.0
147
0.0208333333333333
147
0.0
147
0.0
147
0.0
147
0.0
147
0.0208333333333333
147
0.0
147
0.0
147
0.0
147
0.0
147
1.0
147
0.0
147
0.0
147
0.0
147
0.0
147
1.0
  0
MLEADERSTYLE
  5
232
102
{ACAD_REACTORS
330
231
102
}
330
231
100
AcDbMLeaderStyle
170
     2
171
     1
172
     0
 90
        2
 40
0.0
 41
0.0
173
     1
 91
-1056964608
340
11
 92
       -2
290
     1
 42
2.0
291
     1
 43
0.36
  3
Standard
 44
4.0
300

342
17
174
     1
178
     6
175
     1
176
     0
 93
-1056964608
 45
4.0
292
     0
297
     0
 46
4.0
 94
-1056964608
 47
1.0
 49
1.0
140
1.0
293
     1
141
0.0
294
     1
177
     0
142
1.0
295
     0
296
     0
143
0.125
1001
ACAD_MLEADERVER
1070
     2
  0
MLINESTYLE
  5
1C
102
{ACAD_REACTORS
330
1B
102
}
330
1B
100
AcDbMlineStyle
  2
STANDARD
 70
     0
  3

 62
     0
 51
90.0
 52
90.0
 71
     2
 49
0.5
 62
   256
  6
BYLAYER
 49
-0.5
 62
   256
  6
BYLAYER
  0
ACDBPLACEHOLDER
  5
1D
102
{ACAD_REACTORS
330
1F
102
}
330
1F
  0
SCALE
  5
220
102
{ACAD_REACTORS
330
21F
102
}
330
21F
100
AcDbScale
 70
     0
300
1:1
140
1.0
141
1.0
290
     1
  0
SCALE
  5
221
102
{ACAD_REACTORS
330
21F
102
}
330
21F
100
AcDbScale
 70
     0
300
1:2
140
1.0
141
2.0
290
     0
  0
SCALE
  5
222
102
{ACAD_REACTORS
330
21F
102
}
330
21F
100
AcDbScale
 70
     0
300
1:4
140
1.0
141
4.0
290
     0
  0
SCALE
  5
223
102
{ACAD_REACTORS
330
21F
102
}
330
21F
100
AcDbScale
 70
     0
300
1:5
140
1.0
141
5.0
290
     0
  0
SCALE
  5
224
102
{ACAD_REACTORS
330
21F
102
}
330
21F
100
AcDbScale
 70
     0
300
1:8
140
1.0
141
8.0
290
     0
  0
SCALE
  5
225
102
{ACAD_REACTORS
330
21F
102
}
330
21F
100
AcDbScale
 70
     0
300
1:10
140
1.0
141
10.0
290
     0
  0
SCALE
  5
226
102
{ACAD_REACTORS
330
21F
102
}
330
21F
100
AcDbScale
 70
     0
300
1:16
140
1.0
141
16.0
290
     0
  0
SCALE
  5
227
102
{ACAD_REACTORS
330
21F
102
}
330
21F
100
AcDbScale
 70
     0
300
1:20
140
1.0
141
20.0
290
     0
  0
SCALE
  5
228
102
{ACAD_REACTORS
330
21F
102
}
330
21F
100
AcDbScale
 70
     0
300
1:30
140
1.0
141
30.0
290
     0
  0
SCALE
  5
229
102
{ACAD_REACTORS
330
21F
102
}
330
21F
100
AcDbScale
 70
     0
300
1:40
140
1.0
141
40.0
290
     0
  0
SCALE
  5
22A
102
{ACAD_REACTORS
330
21F
102
}
330
21F
100
AcDbScale
 70
     0
300
1:50
140
1.0
141
50.0
290
     0
  0
SCALE
  5
22B
102
{ACAD_REACTORS
330
21F
102
}
330
21F
100
AcDbScale
 70
     0
300
1:100
140
1.0
141
100.0
290
     0
  0
SCALE
  5
22C
102
{ACAD_REACTORS
330
21F
102
}
330
21F
100
AcDbScale
 70
     0
300
2:1
140
2.0
141
1.0
290
     0
  0
SCALE
  5
22D
102
{ACAD_REACTORS
330
21F
102
}
330
21F
100
AcDbScale
 70
     0
300
4:1
140
4.0
141
1.0
290
     0
  0
SCALE
  5
22E
102
{ACAD_REACTORS
330
21F
102
}
330
21F
100
AcDbScale
 70
     0
300
8:1
140
8.0
141
1.0
290
     0
  0
SCALE
  5
22F
102
{ACAD_REACTORS
330
21F
102
}
330
21F
100
AcDbScale
 70
     0
300
10:1
140
10.0
141
1.0
290
     0
  0
SCALE
  5
230
102
{ACAD_REACTORS
330
21F
102
}
330
21F
100
AcDbScale
 70
     0
300
100:1
140
100.0
141
1.0
290
     0
  0
TABLESTYLE
  5
21E
102
{ACAD_XDICTIONARY
360
293
102
}
102
{ACAD_REACTORS
330
21D
102
}
330
21D
100
AcDbTableStyle
  3
Standard
 70
     0
 71
     0
 40
1.5
 41
1.5
280
     0
281
     0
  7
Standard
140
4.5
170
     2
 62
     0
 63
     7
283
     0
 90
      512
 91
        0
  1

274
    -2
284
     1
 64
     0
275
    -2
285
     1
 65
     0
276
    -2
286
     1
 66
     0
277
    -2
287
     1
 67
     0
278
    -2
288
     1
 68
     0
279
    -2
289
     1
 69
     0
  7
Standard
140
6.0
170
     5
 62
     0
 63
     7
283
     0
 90
      512
 91
        0
  1

274
    -2
284
     1
 64
     0
275
    -2
285
     1
 65
     0
276
    -2
286
     1
 66
     0
277
    -2
287
     1
 67
     0
278
    -2
288
     1
 68
     0
279
    -2
289
     1
 69
     0
  7
Standard
140
4.5
170
     5
 62
     0
 63
     7
283
     0
 90
      512
 91
        0
  1

274
    -2
284
     1
 64
     0
275
    -2
285
     1
 65
     0
276
    -2
286
     1
 66
     0
277
    -2
287
     1
 67
     0
278
    -2
288
     1
 68
     0
279
    -2
289
     1
 69
     0
  0
VISUALSTYLE
  5
211
102
{ACAD_REACTORS
330
20B
102
}
330
20B
100
AcDbVisualStyle
  2
2dWireframe
 70
     4
 71
     0
 72
     2
 73
     0
 90
        0
 40
-0.6
 41
-30.0
 62
     5
 63
     7
421
 16777215
 74
     1
 91
        4
 64
     7
 65
   257
 75
     1
175
     1
 42
1.0
 92
        0
 66
   257
 43
1.0
 76
     1
 77
     6
 78
     2
 67
     7
 79
     5
170
     0
171
     0
290
     0
174
     0
 93
        1
 44
0.0
173
     0
291
     0
 45
0.0
  0
VISUALSTYLE
  5
213
102
{ACAD_REACTORS
330
20B
102
}
330
20B
100
AcDbVisualStyle
  2
3D Hidden
 70
     6
 71
     1
 72
     2
 73
     2
 90
        0
 40
-0.6
 41
-30.0
 62
     5
 63
     7
421
 16777215
 74
     2
 91
        2
 64
     7
 65
   257
 75
     2
175
     1
 42
40.0
 92
        0
 66
   257
 43
1.0
 76
     1
 77
     6
 78
     2
 67
     7
 79
     3
170
     0
171
     0
290
     0
174
     0
 93
        1
 44
0.0
173
     0
291
     0
 45
0.0
  0
VISUALSTYLE
  5
212
102
{ACAD_REACTORS
330
20B
102
}
330
20B
100
AcDbVisualStyle
  2
3dWireframe
 70
     5
 71
     0
 72
     2
 73
     0
 90
        0
 40
-0.6
 41
-30.0
 62
     5
 63
     7
421
 16777215
 74
     1
 91
        4
 64
     7
 65
   257
 75
     1
175
     1
 42
1.0
 92
        0
 66
   257
 43
1.0
 76
     1
 77
     6
 78
     2
 67
     7
 79
     5
170
     0
171
     0
290
     0
174
     0
 93
        1
 44
0.0
173
     0
291
     0
 45
0.0
  0
VISUALSTYLE
  5
210
102
{ACAD_REACTORS
330
20B
102
}
330
20B
100
AcDbVisualStyle
  2
Basic
 70
     7
 71
     1
 72
     0
 73
     1
 90
        0
 40
-0.6
 41
-30.0
 62
     5
 63
     7
421
 16777215
 74
     0
 91
        4
 64
     7
 65
   257
 75
     1
175
     1
 42
1.0
 92
        8
 66
     7
 43
1.0
 76
     1
 77
     6
 78
     2
 67
     7
 79
     5
170
     0
171
     0
290
     0
174
     0
 93
        1
 44
0.0
173
     0
291
     1
 45
0.0
  0
VISUALSTYLE
  5
217
102
{ACAD_REACTORS
330
20B
102
}
330
20B
100
AcDbVisualStyle
  2
Brighten
 70
    12
 71
     2
 72
     2
 73
     0
 90
        0
 40
-0.6
 41
-30.0
 62
     5
 63
     7
421
 16777215
 74
     1
 91
        4
 64
     7
 65
   257
 75
     1
175
     1
 42
1.0
 92
        8
 66
     7
 43
1.0
 76
     1
 77
     6
 78
     2
 67
     7
 79
     5
170
     0
171
     0
290
     0
174
     0
 93
        1
 44
50.0
173
     0
291
     1
 45
0.0
  0
VISUALSTYLE
  5
21B
102
{ACAD_REACTORS
330
20B
102
}
330
20B
100
AcDbVisualStyle
  2
ColorChange
 70
    16
 71
     2
 72
     2
 73
     3
 90
        0
 40
-0.6
 41
-30.0
 62
     5
 63
     8
421
  8421504
 74
     1
 91
        4
 64
     7
 65
   257
 75
     1
175
     1
 42
1.0
 92
        8
 66
     8
424
  8421504
 43
1.0
 76
     1
 77
     6
 78
     2
 67
     7
 79
     5
170
     0
171
     0
290
     0
174
     0
 93
        1
 44
0.0
173
     0
291
     1
 45
0.0
  0
VISUALSTYLE
  5
214
102
{ACAD_REACTORS
330
20B
102
}
330
20B
100
AcDbVisualStyle
  2
Conceptual
 70
     9
 71
     3
 72
     2
 73
     0
 90
        0
 40
-0.6
 41
-30.0
 62
     5
 63
     7
421
 16777215
 74
     2
 91
        2
 64
     7
 65
   257
 75
     1
175
     1
 42
40.0
 92
        8
 66
     7
 43
1.0
 76
     1
 77
     6
 78
     2
 67
     7
 79
     3
170
     0
171
     0
290
     0
174
     0
 93
        1
 44
0.0
173
     0
291
     0
 45
0.0
  0
VISUALSTYLE
  5
216
102
{ACAD_REACTORS
330
20B
102
}
330
20B
100
AcDbVisualStyle
  2
Dim
 70
    11
 71
     2
 72
     2
 73
     0
 90
        0
 40
-0.6
 41
-30.0
 62
     5
 63
     7
421
 16777215
 74
     1
 91
        4
 64
     7
 65
   257
 75
     1
175
     1
 42
1.0
 92
        8
 66
     7
 43
1.0
 76
     1
 77
     6
 78
     2
 67
     7
 79
     5
170
     0
171
     0
290
     0
174
     0
 93
        1
 44
-50.0
173
     0
291
     1
 45
0.0
  0
VISUALSTYLE
  5
21A
102
{ACAD_REACTORS
330
20B
102
}
330
20B
100
AcDbVisualStyle
  2
Facepattern
 70
    15
 71
     2
 72
     2
 73
     0
 90
        0
 40
-0.6
 41
-30.0
 62
     5
 63
     7
421
 16777215
 74
     1
 91
        4
 64
     7
 65
   257
 75
     1
175
     1
 42
1.0
 92
        8
 66
     7
 43
1.0
 76
     1
 77
     6
 78
     2
 67
     7
 79
     5
170
     0
171
     0
290
     0
174
     0
 93
        1
 44
0.0
173
     0
291
     1
 45
0.0
  0
VISUALSTYLE
  5
20C
102
{ACAD_REACTORS
330
20B
102
}
330
20B
100
AcDbVisualStyle
  2
Flat
 70
     0
 71
     2
 72
     1
 73
     1
 90
        2
 40
-0.6
 41
30.0
 62
     5
 63
     7
421
 16777215
 74
     0
 91
        4
 64
     7
 65
   257
 75
     1
175
     1
 42
1.0
 92
        8
 66
     7
 43
1.0
 76
     1
 77
     6
 78
     2
 67
     7
 79
     5
170
     0
171
     0
290
     0
174
     0
 93
       13
 44
0.0
173
     0
291
     1
 45
0.0
  0
VISUALSTYLE
  5
20D
102
{ACAD_REACTORS
330
20B
102
}
330
20B
100
AcDbVisualStyle
  2
FlatWithEdges
 70
     1
 71
     2
 72
     1
 73
     1
 90
        2
 40
-0.6
 41
30.0
 62
     5
 63
     7
421
 16777215
 74
     1
 91
        4
 64
     7
 65
   257
 75
     1
175
     1
 42
1.0
 92
        0
 66
   257
 43
1.0
 76
     1
 77
     6
 78
     2
 67
     7
 79
     5
170
     0
171
     0
290
     0
174
     0
 93
       13
 44
0.0
173
     0
291
     1
 45
0.0
  0
VISUALSTYLE
  5
20E
102
{ACAD_REACTORS
330
20B
102
}
330
20B
100
AcDbVisualStyle
  2
Gouraud
 70
     2
 71
     2
 72
     2
 73
     1
 90
        2
 40
-0.6
 41
30.0
 62
     5
 63
     7
421
 16777215
 74
     0
 91
        4
 64
     7
 65
   257
 75
     1
175
     1
 42
1.0
 92
        0
 66
     7
 43
1.0
 76
     1
 77
     6
 78
     2
 67
     7
 79
     5
170
     0
171
     0
290
     0
174
     0
 93
       13
 44
0.0
173
     0
291
     1
 45
0.0
  0
VISUALSTYLE
  5
20F
102
{ACAD_REACTORS
330
20B
102
}
330
20B
100
AcDbVisualStyle
  2
GouraudWithEdges
 70
     3
 71
     2
 72
     2
 73
     1
 90
        2
 40
-0.6
 41
30.0
 62
     5
 63
     7
421
 16777215
 74
     1
 91
        4
 64
     7
 65
   257
 75
     1
175
     1
 42
1.0
 92
        0
 66
   257
 43
1.0
 76
     1
 77
     6
 78
     2
 67
     7
 79
     5
170
     0
171
     0
290
     0
174
     0
 93
       13
 44
0.0
173
     0
291
     1
 45
0.0
  0
VISUALSTYLE
  5
219
102
{ACAD_REACTORS
330
20B
102
}
330
20B
100
AcDbVisualStyle
  2
Linepattern
 70
    14
 71
     2
 72
     2
 73
     0
 90
        0
 40
-0.6
 41
-30.0
 62
     5
 63
     7
421
 16777215
 74
     1
 91
        4
 64
     7
 65
   257
 75
     7
175
     7
 42
1.0
 92
        8
 66
     7
 43
1.0
 76
     1
 77
     6
 78
     2
 67
     7
 79
     5
170
     0
171
     0
290
     0
174
     0
 93
        1
 44
0.0
173
     0
291
     1
 45
0.0
  0
VISUALSTYLE
  5
215
102
{ACAD_REACTORS
330
20B
102
}
330
20B
100
AcDbVisualStyle
  2
Realistic
 70
     8
 71
     2
 72
     2
 73
     0
 90
        0
 40
-0.6
 41
-30.0
 62
     5
 63
     7
421
 16777215
 74
     1
 91
        0
 64
     7
 65
   257
 75
     1
175
     1
 42
1.0
 92
        8
 66
     8
424
  7895160
 43
1.0
 76
     1
 77
     6
 78
     2
 67
     7
 79
     5
170
     0
171
     0
290
     0
174
     0
 93
       13
 44
0.0
173
     0
291
     0
 45
0.0
  0
VISUALSTYLE
  5
218
102
{ACAD_REACTORS
330
20B
102
}
330
20B
100
AcDbVisualStyle
  2
Thicken
 70
    13
 71
     2
 72
     2
 73
     0
 90
        0
 40
-0.6
 41
-30.0
 62
     5
 63
     7
421
 16777215
 74
     1
 91
        4
 64
     7
 65
   257
 75
     1
175
     1
 42
1.0
 92
       12
 66
     7
 43
1.0
 76
     1
 77
     6
 78
     2
 67
     7
 79
     5
170
     0
171
     0
290
     0
174
     0
 93
        1
 44
0.0
173
     0
291
     1
 45
0.0
  0
DICTIONARYVAR
  5
28F
102
{ACAD_REACTORS
330
28B
102
}
330
28B
100
DictionaryVariables
280
     0
  1
1:1
  0
DICTIONARYVAR
  5
28D
102
{ACAD_REACTORS
330
28B
102
}
330
28B
100
DictionaryVariables
280
     0
  1
STANDARD
  0
DICTIONARYVAR
  5
28C
102
{ACAD_REACTORS
330
28B
102
}
330
28B
100
DictionaryVariables
280
     0
  1
STANDARD
  0
DICTIONARYVAR
  5
291
102
{ACAD_REACTORS
330
28B
102
}
330
28B
100
DictionaryVariables
280
     0
  1
1
  0
DICTIONARYVAR
  5
292
102
{ACAD_REACTORS
330
28B
102
}
330
28B
100
DictionaryVariables
280
     0
  1
15
  0
DICTIONARYVAR
  5
290
102
{ACAD_REACTORS
330
28B
102
}
330
28B
100
DictionaryVariables
280
     0
  1
0
  0
DICTIONARYVAR
  5
28E
102
{ACAD_REACTORS
330
28B
102
}
330
28B
100
DictionaryVariables
280
     0
  1
0
  0
DICTIONARY
  5
1FC
330
1FB
100
AcDbDictionary
280
     1
281
     1
  3
BUMPTILE
360
1FE
  3
DIFFUSETILE
360
1FD
  3
OPACITYTILE
360
201
  3
REFLECTIONTILE
360
200
  3
REFRACTIONTILE
360
202
  3
SPECULARTILE
360
1FF
  0
DICTIONARY
  5
1F4
330
1F3
100
AcDbDictionary
280
     1
281
     1
  3
BUMPTILE
360
1F6
  3
DIFFUSETILE
360
1F5
  3
OPACITYTILE
360
1F9
  3
REFLECTIONTILE
360
1F8
  3
REFRACTIONTILE
360
1FA
  3
SPECULARTILE
360
1F7
  0
DICTIONARY
  5
204
330
203
100
AcDbDictionary
280
     1
281
     1
  3
BUMPTILE
360
206
  3
DIFFUSETILE
360
205
  3
OPACITYTILE
360
209
  3
REFLECTIONTILE
360
208
  3
REFRACTIONTILE
360
20A
  3
SPECULARTILE
360
207
  0
DICTIONARY
  5
293
330
21E
100
AcDbDictionary
280
     1
281
     1
  3
ACAD_ROUNDTRIP_2008_TABLESTYLE_CELLSTYLEMAP
360
294
  0
XRECORD
  5
1FE
102
{ACAD_REACTORS
330
1FC
102
}
330
1FC
100
AcDbXrecord
280
     1
270
     1
271
     1
  0
XRECORD
  5
1FD
102
{ACAD_REACTORS
330
1FC
102
}
330
1FC
100
AcDbXrecord
280
     1
270
     1
271
     1
  0
XRECORD
  5
201
102
{ACAD_REACTORS
330
1FC
102
}
330
1FC
100
AcDbXrecord
280
     1
270
     1
271
     1
  0
XRECORD
  5
200
102
{ACAD_REACTORS
330
1FC
102
}
330
1FC
100
AcDbXrecord
280
     1
270
     1
271
     1
  0
XRECORD
  5
202
102
{ACAD_REACTORS
330
1FC
102
}
330
1FC
100
AcDbXrecord
280
     1
270
     1
271
     1
  0
XRECORD
  5
1FF
102
{ACAD_REACTORS
330
1FC
102
}
330
1FC
100
AcDbXrecord
280
     1
270
     1
271
     1
  0
XRECORD
  5
1F6
102
{ACAD_REACTORS
330
1F4
102
}
330
1F4
100
AcDbXrecord
280
     1
270
     1
271
     1
  0
XRECORD
  5
1F5
102
{ACAD_REACTORS
330
1F4
102
}
330
1F4
100
AcDbXrecord
280
     1
270
     1
271
     1
  0
XRECORD
  5
1F9
102
{ACAD_REACTORS
330
1F4
102
}
330
1F4
100
AcDbXrecord
280
     1
270
     1
271
     1
  0
XRECORD
  5
1F8
102
{ACAD_REACTORS
330
1F4
102
}
330
1F4
100
AcDbXrecord
280
     1
270
     1
271
     1
  0
XRECORD
  5
1FA
102
{ACAD_REACTORS
330
1F4
102
}
330
1F4
100
AcDbXrecord
280
     1
270
     1
271
     1
  0
XRECORD
  5
1F7
102
{ACAD_REACTORS
330
1F4
102
}
330
1F4
100
AcDbXrecord
280
     1
270
     1
271
     1
  0
XRECORD
  5
206
102
{ACAD_REACTORS
330
204
102
}
330
204
100
AcDbXrecord
280
     1
270
     1
271
     1
  0
XRECORD
  5
205
102
{ACAD_REACTORS
330
204
102
}
330
204
100
AcDbXrecord
280
     1
270
     1
271
     1
  0
XRECORD
  5
209
102
{ACAD_REACTORS
330
204
102
}
330
204
100
AcDbXrecord
280
     1
270
     1
271
     1
  0
XRECORD
  5
208
102
{ACAD_REACTORS
330
204
102
}
330
204
100
AcDbXrecord
280
     1
270
     1
271
     1
  0
XRECORD
  5
20A
102
{ACAD_REACTORS
330
204
102
}
330
204
100
AcDbXrecord
280
     1
270
     1
271
     1
  0
XRECORD
  5
207
102
{ACAD_REACTORS
330
204
102
}
330
204
100
AcDbXrecord
280
     1
270
     1
271
     1
  0
CELLSTYLEMAP
  5
294
102
{ACAD_REACTORS
330
293
102
}
330
293
100
AcDbCellStyleMap
 90
        3
300
CELLSTYLE
  1
TABLEFORMAT_BEGIN
 90
        5
170
     1
 91
        0
 92
    32768
 62
   257
 93
        1
300
CONTENTFORMAT
  1
CONTENTFORMAT_BEGIN
 90
        0
 91
        0
 92
      512
 93
        0
300

 40
0.0
140
1.0
 94
        5
 62
     0
340
17
144
6.0
309
CONTENTFORMAT_END
171
     1
301
MARGIN
  1
CELLMARGIN_BEGIN
 40
1.5
 40
1.5
 40
1.5
 40
1.5
 40
4.5
 40
4.5
309
CELLMARGIN_END
 94
        6
 95
        1
302
GRIDFORMAT
  1
GRIDFORMAT_BEGIN
 90
        0
 91
        1
 62
     0
 92
       -2
340
0
 93
        0
 40
1.125
309
GRIDFORMAT_END
 95
        2
302
GRIDFORMAT
  1
GRIDFORMAT_BEGIN
 90
        0
 91
        1
 62
     0
 92
       -2
340
0
 93
        0
 40
1.125
309
GRIDFORMAT_END
 95
        4
302
GRIDFORMAT
  1
GRIDFORMAT_BEGIN
 90
        0
 91
        1
 62
     0
 92
       -2
340
0
 93
        0
 40
1.125
309
GRIDFORMAT_END
 95
        8
302
GRIDFORMAT
  1
GRIDFORMAT_BEGIN
 90
        0
 91
        1
 62
     0
 92
       -2
340
0
 93
        0
 40
1.125
309
GRIDFORMAT_END
 95
       16
302
GRIDFORMAT
  1
GRIDFORMAT_BEGIN
 90
        0
 91
        1
 62
     0
 92
       -2
340
0
 93
        0
 40
1.125
309
GRIDFORMAT_END
 95
       32
302
GRIDFORMAT
  1
GRIDFORMAT_BEGIN
 90
        0
 91
        1
 62
     0
 92
       -2
340
0
 93
        0
 40
1.125
309
GRIDFORMAT_END
309
TABLEFORMAT_END
  1
CELLSTYLE_BEGIN
 90
        1
 91
        1
300
_TITLE
309
CELLSTYLE_END
300
CELLSTYLE
  1
TABLEFORMAT_BEGIN
 90
        5
170
     1
 91
        0
 92
        0
 62
   257
 93
        1
300
CONTENTFORMAT
  1
CONTENTFORMAT_BEGIN
 90
        0
 91
        0
 92
      512
 93
        0
300

 40
0.0
140
1.0
 94
        5
 62
     0
340
17
144
4.5
309
CONTENTFORMAT_END
171
     1
301
MARGIN
  1
CELLMARGIN_BEGIN
 40
1.5
 40
1.5
 40
1.5
 40
1.5
 40
4.5
 40
4.5
309
CELLMARGIN_END
 94
        6
 95
        1
302
GRIDFORMAT
  1
GRIDFORMAT_BEGIN
 90
        0
 91
        1
 62
     0
 92
       -2
340
0
 93
        0
 40
1.125
309
GRIDFORMAT_END
 95
        2
302
GRIDFORMAT
  1
GRIDFORMAT_BEGIN
 90
        0
 91
        1
 62
     0
 92
       -2
340
0
 93
        0
 40
1.125
309
GRIDFORMAT_END
 95
        4
302
GRIDFORMAT
  1
GRIDFORMAT_BEGIN
 90
        0
 91
        1
 62
     0
 92
       -2
340
0
 93
        0
 40
1.125
309
GRIDFORMAT_END
 95
        8
302
GRIDFORMAT
  1
GRIDFORMAT_BEGIN
 90
        0
 91
        1
 62
     0
 92
       -2
340
0
 93
        0
 40
1.125
309
GRIDFORMAT_END
 95
       16
302
GRIDFORMAT
  1
GRIDFORMAT_BEGIN
 90
        0
 91
        1
 62
     0
 92
       -2
340
0
 93
        0
 40
1.125
309
GRIDFORMAT_END
 95
       32
302
GRIDFORMAT
  1
GRIDFORMAT_BEGIN
 90
        0
 91
        1
 62
     0
 92
       -2
340
0
 93
        0
 40
1.125
309
GRIDFORMAT_END
309
TABLEFORMAT_END
  1
CELLSTYLE_BEGIN
 90
        2
 91
        1
300
_HEADER
309
CELLSTYLE_END
300
CELLSTYLE
  1
TABLEFORMAT_BEGIN
 90
        5
170
     1
 91
        0
 92
        0
 62
   257
 93
        1
300
CONTENTFORMAT
  1
CONTENTFORMAT_BEGIN
 90
        0
 91
        0
 92
      512
 93
        0
300

 40
0.0
140
1.0
 94
        2
 62
     0
340
17
144
4.5
309
CONTENTFORMAT_END
171
     1
301
MARGIN
  1
CELLMARGIN_BEGIN
 40
1.5
 40
1.5
 40
1.5
 40
1.5
 40
4.5
 40
4.5
309
CELLMARGIN_END
 94
        6
 95
        1
302
GRIDFORMAT
  1
GRIDFORMAT_BEGIN
 90
        0
 91
        1
 62
     0
 92
       -2
340
0
 93
        0
 40
1.125
309
GRIDFORMAT_END
 95
        2
302
GRIDFORMAT
  1
GRIDFORMAT_BEGIN
 90
        0
 91
        1
 62
     0
 92
       -2
340
0
 93
        0
 40
1.125
309
GRIDFORMAT_END
 95
        4
302
GRIDFORMAT
  1
GRIDFORMAT_BEGIN
 90
        0
 91
        1
 62
     0
 92
       -2
340
0
 93
        0
 40
1.125
309
GRIDFORMAT_END
 95
        8
302
GRIDFORMAT
  1
GRIDFORMAT_BEGIN
 90
        0
 91
        1
 62
     0
 92
       -2
340
0
 93
        0
 40
1.125
309
GRIDFORMAT_END
 95
       16
302
GRIDFORMAT
  1
GRIDFORMAT_BEGIN
 90
        0
 91
        1
 62
     0
 92
       -2
340
0
 93
        0
 40
1.125
309
GRIDFORMAT_END
 95
       32
302
GRIDFORMAT
  1
GRIDFORMAT_BEGIN
 90
        0
 91
        1
 62
     0
 92
       -2
340
0
 93
        0
 40
1.125
309
GRIDFORMAT_END
309
TABLEFORMAT_END
  1
CELLSTYLE_BEGIN
 90
        3
 91
        2
300
_DATA
309
CELLSTYLE_END
  0
ENDSEC
  0
EOF
