  0
SECTION
  2
HEADER
  9
$ACADVER
  1
AC1009
  9
$INSBASE
 10
0.0
 20
-0.0000000000000284
 30
0.0
  9
$EXTMIN
 10
-8.8860332360976422
 20
-4.2550373692028733
 30
0.0
  9
$EXTMAX
 10
19.604048750475322
 20
10.40663991918294
 30
0.0
  9
$LIMMIN
 10
0.0
 20
0.0
  9
$LIMMAX
 10
12.0
 20
9.0
  9
$ORTHOMODE
 70
     1
  9
$REGENMODE
 70
     1
  9
$FILLMODE
 70
     1
  9
$QTEXTMODE
 70
     0
  9
$MIRRTEXT
 70
     1
  9
$DRAGMODE
 70
     2
  9
$LTSCALE
 40
1.0
  9
$OSMODE
 70
     1
  9
$ATTMODE
 70
     1
  9
$TEXTSIZE
 40
0.2
  9
$TRACEWID
 40
0.05
  9
$TEXTSTYLE
  7
STANDARD
  9
$CLAYER
  8
0
  9
$CELTYPE
  6
CONTINUOUS
  9
$CECOLOR
 62
   256
  9
$DIMSCALE
 40
1.0
  9
$DIMASZ
 40
0.18
  9
$DIMEXO
 40
0.0625
  9
$DIMDLI
 40
0.38
  9
$DIMRND
 40
0.0
  9
$DIMDLE
 40
0.0
  9
$DIMEXE
 40
0.18
  9
$DIMTP
 40
0.0
  9
$DIMTM
 40
0.0
  9
$DIMTXT
 40
0.18
  9
$DIMCEN
 40
0.09
  9
$DIMTSZ
 40
0.0
  9
$DIMTOL
 70
     0
  9
$DIMLIM
 70
     0
  9
$DIMTIH
 70
     1
  9
$DIMTOH
 70
     1
  9
$DIMSE1
 70
     0
  9
$DIMSE2
 70
     0
  9
$DIMTAD
 70
     0
  9
$DIMZIN
 70
     0
  9
$DIMBLK
  1

  9
$DIMASO
 70
     1
  9
$DIMSHO
 70
     1
  9
$DIMPOST
  1

  9
$DIMAPOST
  1

  9
$DIMALT
 70
     0
  9
$DIMALTD
 70
     2
  9
$DIMALTF
 40
25.399999999999999
  9
$DIMLFAC
 40
1.0
  9
$DIMTOFL
 70
     0
  9
$DIMTVP
 40
0.0
  9
$DIMTIX
 70
     0
  9
$DIMSOXD
 70
     0
  9
$DIMSAH
 70
     0
  9
$DIMBLK1
  1

  9
$DIMBLK2
  1

  9
$DIMSTYLE
  2
STANDARD
  9
$DIMCLRD
 70
     0
  9
$DIMCLRE
 70
     0
  9
$DIMCLRT
 70
     0
  9
$DIMTFAC
 40
1.0
  9
$DIMGAP
 40
0.09
  9
$LUNITS
 70
     2
  9
$LUPREC
 70
     4
  9
$SKETCHINC
 40
0.1
  9
$FILLETRAD
 40
0.0
  9
$AUNITS
 70
     0
  9
$AUPREC
 70
     2
  9
$MENU
  1
.
  9
$ELEVATION
 40
0.0
  9
$PELEVATION
 40
0.0
  9
$THICKNESS
 40
0.0
  9
$LIMCHECK
 70
     0
  9
$BLIPMODE
 70
     0
  9
$CHAMFERA
 40
0.0
  9
$CHAMFERB
 40
0.0
  9
$SKPOLY
 70
     0
  9
$TDCREATE
 40
2453067.5527260532
  9
$TDUPDATE
 40
2453077.639906805
  9
$TDINDWG
 40
0.045102419
  9
$TDUSRTIMER
 40
0.045102419
  9
$USRTIMER
 70
     1
  9
$ANGBASE
 50
0.0
  9
$ANGDIR
 70
     0
  9
$PDMODE
 70
     0
  9
$PDSIZE
 40
0.0
  9
$PLINEWID
 40
0.0
  9
$COORDS
 70
     1
  9
$SPLFRAME
 70
     0
  9
$SPLINETYPE
 70
     6
  9
$SPLINESEGS
 70
     8
  9
$ATTDIA
 70
     1
  9
$ATTREQ
 70
     1
  9
$HANDLING
 70
 22529
  9
$HANDSEED
  5
2E0
  9
$SURFTAB1
 70
     6
  9
$SURFTAB2
 70
     6
  9
$SURFTYPE
 70
     6
  9
$SURFU
 70
     6
  9
$SURFV
 70
     6
  9
$UCSNAME
  2

  9
$UCSORG
 10
0.0
 20
0.0
 30
0.0
  9
$UCSXDIR
 10
1.0
 20
0.0
 30
0.0
  9
$UCSYDIR
 10
0.0
 20
1.0
 30
0.0
  9
$PUCSNAME
  2

  9
$PUCSORG
 10
0.0
 20
0.0
 30
0.0
  9
$PUCSXDIR
 10
1.0
 20
0.0
 30
0.0
  9
$PUCSYDIR
 10
0.0
 20
1.0
 30
0.0
  9
$USERI1
 70
     0
  9
$USERI2
 70
     0
  9
$USERI3
 70
     0
  9
$USERI4
 70
     0
  9
$USERI5
 70
     0
  9
$USERR1
 40
0.0
  9
$USERR2
 40
0.0
  9
$USERR3
 40
0.0
  9
$USERR4
 40
0.0
  9
$USERR5
 40
0.0
  9
$WORLDVIEW
 70
     1
  9
$SHADEDGE
 70
     3
  9
$SHADEDIF
 70
    70
  9
$TILEMODE
 70
     1
  9
$MAXACTVP
 70
    64
  9
$PLIMCHECK
 70
     0
  9
$PEXTMIN
 10
-3.1284534789247891
 20
-2.2473459184709959
 30
0.0
  9
$PEXTMAX
 10
293.87154652107517
 20
440.06966220030017
 30
0.0
  9
$PLIMMIN
 10
-0.1979161059762549
 20
-0.2679166643638311
  9
$PLIMMAX
 10
11.493750144177531
 20
7.9987497780266699
  9
$UNITMODE
 70
     0
  9
$VISRETAIN
 70
     1
  9
$PLINEGEN
 70
     0
  9
$PSLTSCALE
 70
     1
  0
ENDSEC
  0
SECTION
  2
TABLES
  0
TABLE
  2
VPORT
 70
     2
  0
VPORT
  2
*ACTIVE
 70
     0
 10
0.0
 20
0.0
 11
1.0
 21
1.0
 12
8.0629613965309836
 22
3.1243167276930599
 13
0.0
 23
0.0
 14
1.0
 24
1.0
 15
0.0
 25
0.0
 16
0.0
 26
0.0
 36
1.0
 17
-1.5385050920793399
 27
-0.0485154185661492
 37
0.2274496586815575
 40
16.08311957938573
 41
1.928853754940711
 42
50.0
 43
0.0
 44
0.0
 50
0.0
 51
0.0
 71
     0
 72
   100
 73
     1
 74
     1
 75
     0
 76
     0
 77
     0
 78
     0
  0
ENDTAB
  0
TABLE
  2
LTYPE
 70
     1
  0
LTYPE
  2
CONTINUOUS
 70
     0
  3
Solid line
 72
    65
 73
     0
 40
0.0
  0
ENDTAB
  0
TABLE
  2
LAYER
 70
     3
  0
LAYER
  2
0
 70
     0
 62
     7
  6
CONTINUOUS
  0
LAYER
  2
DEFPOINTS
 70
     0
 62
     7
  6
CONTINUOUS
  0
LAYER
  2
COTATION-JACOBDELAFON
 70
     0
 62
     8
  6
CONTINUOUS
  0
ENDTAB
  0
TABLE
  2
STYLE
 70
     2
  0
STYLE
  2
STANDARD
 70
     0
 40
0.0
 41
1.0
 50
0.0
 71
     0
 42
0.2
  3
txt
  4

  0
STYLE
  2
JACOB-DELAFON
 70
     0
 40
0.0
 41
1.0
 50
0.0
 71
     0
 42
2.5
  3
txt
  4

  0
ENDTAB
  0
TABLE
  2
VIEW
 70
     0
  0
ENDTAB
  0
TABLE
  2
UCS
 70
     0
  0
ENDTAB
  0
TABLE
  2
APPID
 70
     9
  0
APPID
  2
ACAD
 70
     0
  0
APPID
  2
ADCADD_ZZ
 70
     0
  0
APPID
  2
SDSK_PMN
 70
     0
  0
APPID
  2
ACAECLAYERSTANDARD
 70
     0
  0
APPID
  2
AECBASE
 70
     0
  0
APPID
  2
AEC_DWGVARSSETUP_DATA
 70
     0
  0
APPID
  2
AEC_DISPREPCONFIG_DATA
 70
     0
  0
APPID
  2
AEC_DISPREPSET_DATA
 70
     0
  0
APPID
  2
DCO15
 70
     0
  0
ENDTAB
  0
TABLE
  2
DIMSTYLE
 70
     2
  0
DIMSTYLE
  2
STANDARD
 70
     0
  3

  4

  5

  6

  7

 40
1.0
 41
0.18
 42
0.0625
 43
0.38
 44
0.18
 45
0.0
 46
0.0
 47
0.0
 48
0.0
140
0.18
141
0.09
142
0.0
143
25.399999999999999
144
1.0
145
0.0
146
1.0
147
0.09
 71
     0
 72
     0
 73
     1
 74
     1
 75
     0
 76
     0
 77
     0
 78
     0
170
     0
171
     2
172
     0
173
     0
174
     0
175
     0
176
     0
177
     0
178
     0
  0
DIMSTYLE
  2
COTATION-JACOB-DELAFON
 70
     0
  3

  4

  5
OBLIQUE
  6

  7

 40
1.0
 41
1.8
 42
0.625
 43
3.7999999999999989
 44
1.8
 45
0.0
 46
0.0
 47
0.0
 48
0.0
140
3.0
141
0.9
142
0.0
143
25.399999999999999
144
1.0
145
0.0
146
1.0
147
0.9
 71
     0
 72
     0
 73
     0
 74
     0
 75
     0
 76
     0
 77
     1
 78
    12
170
     0
171
     2
172
     0
173
     0
174
     0
175
     0
176
     0
177
     0
178
     0
  0
ENDTAB
  0
ENDSEC
  0
SECTION
  2
BLOCKS
  0
BLOCK
  8
0
  2
$MODEL_SPACE
 70
     0
 10
0.0
 20
0.0
 30
0.0
  3
$MODEL_SPACE
  1

  0
ENDBLK
  5
9
  8
0
  0
BLOCK
 67
     1
  8
0
  2
$PAPER_SPACE
 70
     0
 10
0.0
 20
0.0
 30
0.0
  3
$PAPER_SPACE
  1

  0
ENDBLK
  5
E
 67
     1
  8
0
  0
BLOCK
  8
0
  2
*D0
 70
     1
 10
0.0
 20
0.0
 30
0.0
  3
*D0
  1

  0
LINE
  5
CB
  8
COTATION-JACOBDELAFON
 62
     0
 10
18.704048750475319
 20
-0.9509503013771337
 30
0.0
 11
18.704048750475319
 21
7.45534387552674
 31
0.0
  0
LINE
  5
CC
  8
COTATION-JACOBDELAFON
 62
     0
 10
0.0
 20
2.6481742931142089
 30
0.0
 11
0.0000000000000003
 21
7.4553438755267392
 31
0.0
  0
LINE
  5
CD
  8
COTATION-JACOBDELAFON
 62
     0
 10
18.704048750475319
 20
5.6553438755267393
 30
0.0
 11
0.0000000000000002
 21
5.6553438755267393
 31
0.0
  0
INSERT
  5
CE
  8
COTATION-JACOBDELAFON
 62
     0
  2
_OBLIQUE
 10
18.704048750475319
 20
5.6553438755267393
 30
0.0
 41
1.8
 42
1.8
 43
1.8
  0
INSERT
  5
CF
  8
COTATION-JACOBDELAFON
 62
     0
  2
_OBLIQUE
 10
0.0000000000000002
 20
5.6553438755267393
 30
0.0
 41
1.8
 42
1.8
 43
1.8
 50
180.0
  0
TEXT
  5
D0
  8
0
  6
CONTINUOUS
 62
     0
 10
5.1405646208038283
 20
6.6126426476959059
 30
0.0
 40
3.0
  1
18.7
  7
JACOB-DELAFON
  0
POINT
  5
D1
  8
DEFPOINTS
 62
     0
 10
18.704048750475319
 20
-1.575950301377133
 30
0.0
  0
POINT
  5
D2
  8
DEFPOINTS
 62
     0
 10
0.0
 20
2.0231742931142089
 30
0.0
  0
POINT
  5
D3
  8
DEFPOINTS
 62
     0
 10
0.0000000000000002
 20
5.6553438755267393
 30
0.0
  0
ENDBLK
  5
63
  8
0
  0
BLOCK
  8
0
  2
*D1
 70
     1
 10
0.0
 20
0.0
 30
0.0
  3
*D1
  1

  0
LINE
  5
D4
  8
COTATION-JACOBDELAFON
 62
     0
 10
6.5567697979567461
 20
3.3457992499382949
 30
0.0
 11
-3.6847371924414332
 21
3.345799249938298
 31
0.0
  0
LINE
  5
D5
  8
COTATION-JACOBDELAFON
 62
     0
 10
6.5567697979567461
 20
-3.3550373692028752
 30
0.0
 11
-3.6847371924414349
 21
-3.3550373692028721
 31
0.0
  0
LINE
  5
D6
  8
COTATION-JACOBDELAFON
 62
     0
 10
-1.8847371924414329
 20
3.345799249938298
 30
0.0
 11
-1.884737192441434
 21
-3.3550373692028721
 31
0.0
  0
TEXT
  5
D7
  8
0
  6
CONTINUOUS
 62
     0
 10
-5.0920359646106022
 20
-2.9012766312557519
 30
0.0
 40
3.0
  1
6.7
 50
90.0
  7
JACOB-DELAFON
  0
INSERT
  5
D8
  8
COTATION-JACOBDELAFON
 62
     0
  2
_OBLIQUE
 10
-1.8847371924414329
 20
3.345799249938298
 30
0.0
 41
1.8
 42
1.8
 43
1.8
 50
90.0
  0
INSERT
  5
D9
  8
COTATION-JACOBDELAFON
 62
     0
  2
_OBLIQUE
 10
-1.884737192441434
 20
-3.3550373692028721
 30
0.0
 41
1.8
 42
1.8
 43
1.8
 50
270.0
  0
POINT
  5
DA
  8
DEFPOINTS
 62
     0
 10
7.1817697979567461
 20
3.3457992499382949
 30
0.0
  0
POINT
  5
DB
  8
DEFPOINTS
 62
     0
 10
7.1817697979567461
 20
-3.3550373692028752
 30
0.0
  0
POINT
  5
DC
  8
DEFPOINTS
 62
     0
 10
-1.884737192441434
 20
-3.3550373692028721
 30
0.0
  0
ENDBLK
  5
72
  8
0
  0
BLOCK
  8
0
  2
_OBLIQUE
 70
     0
 10
0.0
 20
0.0
 30
0.0
  3
_OBLIQUE
  1

  0
LINE
  5
80
  8
0
  6
BYBLOCK
 62
     0
 10
-0.5
 20
-0.5
 30
0.0
 11
0.5
 21
0.5
 31
0.0
  0
ENDBLK
  5
82
  8
0
  0
BLOCK
  8
0
  2
ADCADD_ZZ
 70
     0
 10
0.0
 20
0.0
 30
0.0
  3
ADCADD_ZZ
  1

  0
ENDBLK
  5
F8
  8
0
  0
ENDSEC
  0
SECTION
  2
ENTITIES
  0
LINE
  5
24
  8
0
  6
CONTINUOUS
 10
7.5370264518487877
 20
0.820164611763289
 30
0.0
 11
15.61863712237647
 21
0.820164611763289
 31
0.0
  0
LINE
  5
25
  8
0
  6
CONTINUOUS
 10
15.52237230100766
 20
-0.8201646117633458
 30
0.0
 11
7.5370264518487877
 21
-0.8201646117633458
 31
0.0
  0
POLYLINE
  5
26
  8
0
  6
CONTINUOUS
 66
     1
 10
0.0
 20
0.0
 30
0.0
 70
     1
  0
VERTEX
  5
260
  8
0
  6
CONTINUOUS
 10
6.826513144064676
 20
3.2315171396136289
 30
0.0
  0
VERTEX
  5
261
  8
0
  6
CONTINUOUS
 10
6.8505808374551966
 20
3.2711349378595278
 30
0.0
  0
VERTEX
  5
262
  8
0
  6
CONTINUOUS
 10
6.9088989388319533
 20
3.3160859012538699
 30
0.0
  0
VERTEX
  5
263
  8
0
  6
CONTINUOUS
 10
7.0042664670688728
 20
3.3457992499382949
 30
0.0
  0
VERTEX
  5
264
  8
0
  6
CONTINUOUS
 10
7.3592731288445909
 20
3.3457992499382949
 30
0.0
  0
VERTEX
  5
265
  8
0
  6
CONTINUOUS
 10
7.4546406570815398
 20
3.3160859012538699
 30
0.0
  0
VERTEX
  5
266
  8
0
  6
CONTINUOUS
 10
7.5129602465065943
 20
3.2711349378595278
 30
0.0
  0
VERTEX
  5
267
  8
0
  6
CONTINUOUS
 10
7.5370264518487877
 20
3.2315171396136289
 30
0.0
  0
VERTEX
  5
268
  8
0
  6
CONTINUOUS
 10
7.5370264518487877
 20
-3.2407552588782091
 30
0.0
  0
VERTEX
  5
269
  8
0
  6
CONTINUOUS
 10
7.5129602465065943
 20
-3.2803730571240521
 30
0.0
  0
VERTEX
  5
26A
  8
0
  6
CONTINUOUS
 10
7.4546406570815398
 20
-3.3260859012539181
 30
0.0
  0
VERTEX
  5
26B
  8
0
  6
CONTINUOUS
 10
7.3592731288445909
 20
-3.3550373692028752
 30
0.0
  0
VERTEX
  5
26C
  8
0
  6
CONTINUOUS
 10
7.0042664670688728
 20
-3.3550373692028752
 30
0.0
  0
VERTEX
  5
26D
  8
0
  6
CONTINUOUS
 10
6.9088989388319533
 20
-3.3260859012539181
 30
0.0
  0
VERTEX
  5
26E
  8
0
  6
CONTINUOUS
 10
6.8505808374551966
 20
-3.2803730571240521
 30
0.0
  0
VERTEX
  5
26F
  8
0
  6
CONTINUOUS
 10
6.826513144064676
 20
-3.2407552588782091
 30
0.0
  0
SEQEND
  5
270
  8
0
  6
CONTINUOUS
  0
POLYLINE
  5
27
  8
0
  6
CONTINUOUS
 66
     1
 10
0.0
 20
0.0
 30
0.0
  0
VERTEX
  5
271
  8
0
  6
CONTINUOUS
 10
6.826513144064676
 20
-3.2407552588782091
 30
0.0
  0
VERTEX
  5
272
  8
0
  6
CONTINUOUS
 10
6.8438890841982811
 20
-3.2407552588782091
 30
0.0
  0
VERTEX
  5
273
  8
0
  6
CONTINUOUS
 10
6.8944187407125517
 20
-3.2407552588782091
 30
0.0
  0
VERTEX
  5
274
  8
0
  6
CONTINUOUS
 10
6.9730100122854131
 20
-3.2407552588782091
 30
0.0
  0
VERTEX
  5
275
  8
0
  6
CONTINUOUS
 10
7.0719726652430088
 20
-3.2407552588782091
 30
0.0
  0
VERTEX
  5
276
  8
0
  6
CONTINUOUS
 10
7.181720692362461
 20
-3.2407552588782091
 30
0.0
  0
VERTEX
  5
277
  8
0
  6
CONTINUOUS
 10
7.2915669306704842
 20
-3.2407552588782091
 30
0.0
  0
VERTEX
  5
278
  8
0
  6
CONTINUOUS
 10
7.3905295836280507
 20
-3.2407552588782091
 30
0.0
  0
VERTEX
  5
279
  8
0
  6
CONTINUOUS
 10
7.4691208552009414
 20
-3.2407552588782091
 30
0.0
  0
VERTEX
  5
27A
  8
0
  6
CONTINUOUS
 10
7.5195508124783137
 20
-3.2407552588782091
 30
0.0
  0
VERTEX
  5
27B
  8
0
  6
CONTINUOUS
 10
7.5370264518487877
 20
-3.2407552588782091
 30
0.0
  0
SEQEND
  5
27C
  8
0
  6
CONTINUOUS
  0
POLYLINE
  5
28
  8
0
  6
CONTINUOUS
 66
     1
 10
0.0
 20
0.0
 30
0.0
 70
     1
  0
VERTEX
  5
27D
  8
0
  6
CONTINUOUS
 10
0.0
 20
2.0231742931142089
 30
0.0
  0
VERTEX
  5
27E
  8
0
  6
CONTINUOUS
 10
0.3302410737271089
 20
2.0231742931142089
 30
0.0
  0
VERTEX
  5
27F
  8
0
  6
CONTINUOUS
 10
0.3435226489315539
 20
1.924891678234985
 30
0.0
  0
VERTEX
  5
280
  8
0
  6
CONTINUOUS
 10
0.3997440902373626
 20
1.7405165402445839
 30
0.0
  0
VERTEX
  5
281
  8
0
  6
CONTINUOUS
 10
0.5065956313184757
 20
1.594235439028977
 30
0.0
  0
VERTEX
  5
282
  8
0
  6
CONTINUOUS
 10
0.6517941773873872
 20
1.4982384663562689
 30
0.0
  0
VERTEX
  5
283
  8
0
  6
CONTINUOUS
 10
0.8229561903957289
 20
1.4631919525234021
 30
0.0
  0
VERTEX
  5
284
  8
0
  6
CONTINUOUS
 10
2.008309434506315
 20
1.4631919525234021
 30
0.0
  0
VERTEX
  5
285
  8
0
  6
CONTINUOUS
 10
4.6969731576430434
 20
1.4631919525234021
 30
0.0
  0
VERTEX
  5
286
  8
0
  6
CONTINUOUS
 10
4.6969731576430434
 20
-1.462430071787935
 30
0.0
  0
VERTEX
  5
287
  8
0
  6
CONTINUOUS
 10
2.008309434506315
 20
-1.462430071787935
 30
0.0
  0
VERTEX
  5
288
  8
0
  6
CONTINUOUS
 10
0.8229561903957289
 20
-1.462430071787935
 30
0.0
  0
VERTEX
  5
289
  8
0
  6
CONTINUOUS
 10
0.6517941773873872
 20
-1.4974765856208589
 30
0.0
  0
VERTEX
  5
28A
  8
0
  6
CONTINUOUS
 10
0.5065956313184757
 20
-1.5942354390290341
 30
0.0
  0
VERTEX
  5
28B
  8
0
  6
CONTINUOUS
 10
0.3997440902373626
 20
-1.740516540244641
 30
0.0
  0
VERTEX
  5
28C
  8
0
  6
CONTINUOUS
 10
0.3435226489315539
 20
-1.9241297974995739
 30
0.0
  0
VERTEX
  5
28D
  8
0
  6
CONTINUOUS
 10
0.3302410737271089
 20
-2.0231742931142662
 30
0.0
  0
VERTEX
  5
28E
  8
0
  6
CONTINUOUS
 10
0.0
 20
-2.0231742931142662
 30
0.0
  0
SEQEND
  5
28F
  8
0
  6
CONTINUOUS
  0
POLYLINE
  5
29
  8
0
  6
CONTINUOUS
 66
     1
 10
0.0
 20
0.0
 30
0.0
  0
VERTEX
  5
290
  8
0
  6
CONTINUOUS
 10
0.3302410737271089
 20
-2.0231742931142662
 30
0.0
  0
VERTEX
  5
291
  8
0
  6
CONTINUOUS
 10
0.3302410737271089
 20
2.0231742931142089
 30
0.0
  0
SEQEND
  5
292
  8
0
  6
CONTINUOUS
  0
LINE
  5
2A
  8
0
  6
CONTINUOUS
 10
6.826513144064676
 20
-0.8201646117633458
 30
0.0
 11
4.8036041964185747
 21
-0.8201646117633458
 31
0.0
  0
LINE
  5
2B
  8
0
  6
CONTINUOUS
 10
4.8037967068820251
 20
0.820164611763289
 30
0.0
 11
6.826513144064676
 21
0.820164611763289
 31
0.0
  0
POLYLINE
  5
2C
  8
0
  6
CONTINUOUS
 66
     1
 10
0.0
 20
0.0
 30
0.0
  0
VERTEX
  5
293
  8
0
  6
CONTINUOUS
 10
6.826513144064676
 20
-0.3485604364902883
 30
0.0
  0
VERTEX
  5
294
  8
0
  6
CONTINUOUS
 10
5.0916244025342499
 20
-0.3485604364902883
 30
0.0
  0
VERTEX
  5
295
  8
0
  6
CONTINUOUS
 10
4.9508208071534048
 20
-0.4064633723880889
 30
0.0
  0
VERTEX
  5
296
  8
0
  6
CONTINUOUS
 10
4.8750255783578487
 20
-0.5375068588937211
 30
0.0
  0
VERTEX
  5
297
  8
0
  6
CONTINUOUS
 10
4.7017661612544543
 20
-1.2231995208416599
 30
0.0
  0
VERTEX
  5
298
  8
0
  6
CONTINUOUS
 10
4.6969731576430434
 20
-1.2288562673447809
 30
0.0
  0
SEQEND
  5
299
  8
0
  6
CONTINUOUS
  0
POLYLINE
  5
2D
  8
0
  6
CONTINUOUS
 66
     1
 10
0.0
 20
0.0
 30
0.0
  0
VERTEX
  5
29A
  8
0
  6
CONTINUOUS
 10
4.6969731576430434
 20
1.2296181480801911
 30
0.0
  0
VERTEX
  5
29B
  8
0
  6
CONTINUOUS
 10
4.7017661612544543
 20
1.223961401577071
 30
0.0
  0
VERTEX
  5
29C
  8
0
  6
CONTINUOUS
 10
4.8750255783578487
 20
0.5382687396291317
 30
0.0
  0
VERTEX
  5
29D
  8
0
  6
CONTINUOUS
 10
4.9508208071534048
 20
0.4064633723879752
 30
0.0
  0
VERTEX
  5
29E
  8
0
  6
CONTINUOUS
 10
5.0916244025342499
 20
0.3493223172256989
 30
0.0
  0
VERTEX
  5
29F
  8
0
  6
CONTINUOUS
 10
6.826513144064676
 20
0.3493223172256989
 30
0.0
  0
SEQEND
  5
2A0
  8
0
  6
CONTINUOUS
  0
POLYLINE
  5
2E
  8
0
  6
CONTINUOUS
 66
     1
 10
0.0
 20
0.0
 30
0.0
  0
VERTEX
  5
2A1
  8
0
  6
CONTINUOUS
 10
5.0916244025342499
 20
0.3493223172256989
 30
0.0
  0
VERTEX
  5
2A2
  8
0
  6
CONTINUOUS
 10
5.0916244025342499
 20
-0.3485604364902883
 30
0.0
  0
SEQEND
  5
2A3
  8
0
  6
CONTINUOUS
  0
POLYLINE
  5
2F
  8
0
  6
CONTINUOUS
 66
     1
 10
0.0
 20
0.0
 30
0.0
  0
VERTEX
  5
2A4
  8
0
  6
CONTINUOUS
 10
2.008309434506315
 20
1.4631919525234021
 30
0.0
  0
VERTEX
  5
2A5
  8
0
  6
CONTINUOUS
 10
2.008309434506315
 20
-1.462430071787935
 30
0.0
  0
SEQEND
  5
2A6
  8
0
  6
CONTINUOUS
  0
POLYLINE
  5
30
  8
0
  6
CONTINUOUS
 66
     1
 10
0.0
 20
0.0
 30
0.0
  0
VERTEX
  5
2A7
  8
0
  6
CONTINUOUS
 10
0.8229561903957289
 20
1.4631919525234021
 30
0.0
  0
VERTEX
  5
2A8
  8
0
  6
CONTINUOUS
 10
0.8229561903957289
 20
-1.462430071787935
 30
0.0
  0
SEQEND
  5
2A9
  8
0
  6
CONTINUOUS
  0
POLYLINE
  5
31
  8
0
  6
CONTINUOUS
 66
     1
 10
0.0
 20
0.0
 30
0.0
 70
     1
  0
VERTEX
  5
2AA
  8
0
  6
CONTINUOUS
 10
7.0381195661559266
 20
0.1039967203954006
 30
0.0
  0
VERTEX
  5
2AB
  8
0
  6
CONTINUOUS
 10
7.0774650515608073
 20
0.1428526379057757
 30
0.0
  0
VERTEX
  5
2AC
  8
0
  6
CONTINUOUS
 10
7.1268965284211561
 20
0.167994702177225
 30
0.0
  0
VERTEX
  5
2AD
  8
0
  6
CONTINUOUS
 10
7.181720692362461
 20
0.1763753902677081
 30
0.0
  0
VERTEX
  5
2AE
  8
0
  6
CONTINUOUS
 10
7.2366430674923086
 20
0.167994702177225
 30
0.0
  0
VERTEX
  5
2AF
  8
0
  6
CONTINUOUS
 10
7.2860745443526582
 20
0.1428526379057757
 30
0.0
  0
VERTEX
  5
2B0
  8
0
  6
CONTINUOUS
 10
7.325420029757538
 20
0.1039967203954006
 30
0.0
  0
VERTEX
  5
2B1
  8
0
  6
CONTINUOUS
 10
7.350585902801952
 20
0.0544744725880264
 30
0.0
  0
VERTEX
  5
2B2
  8
0
  6
CONTINUOUS
 10
7.3592731288445909
 20
0.0003809403676769
 30
0.0
  0
VERTEX
  5
2B3
  8
0
  6
CONTINUOUS
 10
7.350585902801952
 20
-0.0544744725881401
 30
0.0
  0
VERTEX
  5
2B4
  8
0
  6
CONTINUOUS
 10
7.325420029757538
 20
-0.10323483965999
 30
0.0
  0
VERTEX
  5
2B5
  8
0
  6
CONTINUOUS
 10
7.2860745443526582
 20
-0.1428526379058894
 30
0.0
  0
VERTEX
  5
2B6
  8
0
  6
CONTINUOUS
 10
7.2366430674923086
 20
-0.1672328214417575
 30
0.0
  0
VERTEX
  5
2B7
  8
0
  6
CONTINUOUS
 10
7.181720692362461
 20
-0.1763753902677649
 30
0.0
  0
VERTEX
  5
2B8
  8
0
  6
CONTINUOUS
 10
7.1268965284211561
 20
-0.1672328214417575
 30
0.0
  0
VERTEX
  5
2B9
  8
0
  6
CONTINUOUS
 10
7.0774650515608073
 20
-0.1428526379058894
 30
0.0
  0
VERTEX
  5
2BA
  8
0
  6
CONTINUOUS
 10
7.0381195661559266
 20
-0.10323483965999
 30
0.0
  0
VERTEX
  5
2BB
  8
0
  6
CONTINUOUS
 10
7.0129551811598381
 20
-0.0544744725881401
 30
0.0
  0
VERTEX
  5
2BC
  8
0
  6
CONTINUOUS
 10
7.0042664670688728
 20
0.0003809403676769
 30
0.0
  0
VERTEX
  5
2BD
  8
0
  6
CONTINUOUS
 10
7.0129551811598381
 20
0.0544744725880264
 30
0.0
  0
SEQEND
  5
2BE
  8
0
  6
CONTINUOUS
  0
POLYLINE
  5
32
  8
0
  6
CONTINUOUS
 66
     1
 10
0.0
 20
0.0
 30
0.0
 70
     1
  0
VERTEX
  5
2BF
  8
0
  6
CONTINUOUS
 10
6.826513144064676
 20
0.0003809403676769
 30
0.0
  0
VERTEX
  5
2C0
  8
0
  6
CONTINUOUS
 10
6.8438890841982811
 20
0.1093298855439002
 30
0.0
  0
VERTEX
  5
2C1
  8
0
  6
CONTINUOUS
 10
6.8944187407125517
 20
0.2076125004231244
 30
0.0
  0
VERTEX
  5
2C2
  8
0
  6
CONTINUOUS
 10
6.9730100122854131
 20
0.286086216179342
 30
0.0
  0
VERTEX
  5
2C3
  8
0
  6
CONTINUOUS
 10
7.0719726652430088
 20
0.3356084639867163
 30
0.0
  0
VERTEX
  5
2C4
  8
0
  6
CONTINUOUS
 10
7.181720692362461
 20
0.3531317209032068
 30
0.0
  0
VERTEX
  5
2C5
  8
0
  6
CONTINUOUS
 10
7.2915669306704842
 20
0.3356084639867163
 30
0.0
  0
VERTEX
  5
2C6
  8
0
  6
CONTINUOUS
 10
7.3905295836280507
 20
0.286086216179342
 30
0.0
  0
VERTEX
  5
2C7
  8
0
  6
CONTINUOUS
 10
7.4691208552009414
 20
0.2076125004231244
 30
0.0
  0
VERTEX
  5
2C8
  8
0
  6
CONTINUOUS
 10
7.5195508124783137
 20
0.1093298855439002
 30
0.0
  0
VERTEX
  5
2C9
  8
0
  6
CONTINUOUS
 10
7.5370264518487877
 20
0.0003809403676769
 30
0.0
  0
VERTEX
  5
2CA
  8
0
  6
CONTINUOUS
 10
7.5195508124783137
 20
-0.1085680048084896
 30
0.0
  0
VERTEX
  5
2CB
  8
0
  6
CONTINUOUS
 10
7.4691208552009414
 20
-0.2076125004231812
 30
0.0
  0
VERTEX
  5
2CC
  8
0
  6
CONTINUOUS
 10
7.3905295836280507
 20
-0.2853243354439314
 30
0.0
  0
VERTEX
  5
2CD
  8
0
  6
CONTINUOUS
 10
7.2915669306704842
 20
-0.3356084639867731
 30
0.0
  0
VERTEX
  5
2CE
  8
0
  6
CONTINUOUS
 10
7.181720692362461
 20
-0.3523698401677393
 30
0.0
  0
VERTEX
  5
2CF
  8
0
  6
CONTINUOUS
 10
7.0719726652430088
 20
-0.3356084639867731
 30
0.0
  0
VERTEX
  5
2D0
  8
0
  6
CONTINUOUS
 10
6.9730100122854131
 20
-0.2853243354439314
 30
0.0
  0
VERTEX
  5
2D1
  8
0
  6
CONTINUOUS
 10
6.8944187407125517
 20
-0.2076125004231812
 30
0.0
  0
VERTEX
  5
2D2
  8
0
  6
CONTINUOUS
 10
6.8438890841982811
 20
-0.1085680048084896
 30
0.0
  0
SEQEND
  5
2D3
  8
0
  6
CONTINUOUS
  0
POLYLINE
  5
33
  8
0
  6
CONTINUOUS
 66
     1
 10
0.0
 20
0.0
 30
0.0
  0
VERTEX
  5
2D4
  8
0
  6
CONTINUOUS
 10
6.826513144064676
 20
3.2315171396136289
 30
0.0
  0
VERTEX
  5
2D5
  8
0
  6
CONTINUOUS
 10
6.8438890841982811
 20
3.2315171396136289
 30
0.0
  0
VERTEX
  5
2D6
  8
0
  6
CONTINUOUS
 10
6.8944187407125517
 20
3.2315171396136289
 30
0.0
  0
VERTEX
  5
2D7
  8
0
  6
CONTINUOUS
 10
6.9730100122854131
 20
3.2315171396136289
 30
0.0
  0
VERTEX
  5
2D8
  8
0
  6
CONTINUOUS
 10
7.0719726652430088
 20
3.2315171396136289
 30
0.0
  0
VERTEX
  5
2D9
  8
0
  6
CONTINUOUS
 10
7.181720692362461
 20
3.2315171396136289
 30
0.0
  0
VERTEX
  5
2DA
  8
0
  6
CONTINUOUS
 10
7.2915669306704842
 20
3.2315171396136289
 30
0.0
  0
VERTEX
  5
2DB
  8
0
  6
CONTINUOUS
 10
7.3905295836280507
 20
3.2315171396136289
 30
0.0
  0
VERTEX
  5
2DC
  8
0
  6
CONTINUOUS
 10
7.4691208552009414
 20
3.2315171396136289
 30
0.0
  0
VERTEX
  5
2DD
  8
0
  6
CONTINUOUS
 10
7.5195508124783137
 20
3.2315171396136289
 30
0.0
  0
VERTEX
  5
2DE
  8
0
  6
CONTINUOUS
 10
7.5370264518487877
 20
3.2315171396136289
 30
0.0
  0
SEQEND
  5
2DF
  8
0
  6
CONTINUOUS
  0
LINE
  5
34
  8
0
  6
CONTINUOUS
 10
18.704048750475319
 20
-1.575950301377133
 30
0.0
 11
17.292611118226539
 21
-2.4269710829281048
 31
0.0
  0
LINE
  5
35
  8
0
  6
CONTINUOUS
 10
18.006219566498618
 20
-0.4338910788659974
 30
0.0
 11
18.704048750475319
 21
-1.575950301377133
 31
0.0
  0
LINE
  5
36
  8
0
  6
CONTINUOUS
 10
17.596988424251151
 20
0.0742833717109761
 30
0.0
 11
18.006219566498618
 21
-0.4338910788659974
 31
0.0
  0
LINE
  5
37
  8
0
  6
CONTINUOUS
 10
16.229689281018629
 20
-0.9786358047468866
 30
0.0
 11
15.926109568889011
 21
-0.8666393366287366
 31
0.0
  0
LINE
  5
38
  8
0
  6
CONTINUOUS
 10
15.926109568889011
 20
-0.8666393366287366
 30
0.0
 11
15.52237230100766
 21
-0.8201646117633458
 31
0.0
  0
LINE
  5
39
  8
0
  6
CONTINUOUS
 10
17.292611118226539
 20
-2.4269710829281048
 30
0.0
 11
16.65030399284921
 21
-1.3755756679412341
 31
0.0
  0
LINE
  5
3A
  8
0
  6
CONTINUOUS
 10
16.45727138978236
 20
-1.1355832362594349
 30
0.0
 11
16.229689281018629
 21
-0.9786358047468866
 31
0.0
  0
LINE
  5
3B
  8
0
  6
CONTINUOUS
 10
16.65030399284921
 20
-1.3755756679412341
 30
0.0
 11
16.45727138978236
 21
-1.1355832362594349
 31
0.0
  0
LINE
  5
3C
  8
0
  6
CONTINUOUS
 10
15.61863712237647
 20
0.820164611763289
 30
0.0
 11
16.313671751624149
 21
0.7394052538004985
 31
0.0
  0
LINE
  5
3D
  8
0
  6
CONTINUOUS
 10
17.000019154829172
 20
0.4872227303507657
 30
0.0
 11
17.596988424251151
 21
0.0742833717109761
 31
0.0
  0
LINE
  5
3E
  8
0
  6
CONTINUOUS
 10
16.313671751624149
 20
0.7394052538004985
 30
0.0
 11
17.000019154829172
 21
0.4872227303507657
 31
0.0
  0
DIMENSION
  5
55
  8
COTATION-JACOBDELAFON
  2
*D0
 10
0.0000000000000002
 20
5.6553438755267393
 30
0.0
 11
9.3520243752376615
 21
8.0870628386918142
 31
0.0
 70
     0
 13
18.704048750475319
 23
-1.575950301377133
 33
0.0
 14
0.0
 24
2.0231742931142089
 34
0.0
  0
DIMENSION
  5
64
  8
COTATION-JACOBDELAFON
  2
*D1
 10
-1.884737192441434
 20
-3.3550373692028721
 30
0.0
 11
-6.5664561556065086
 21
-0.0046190596322875
 31
0.0
 70
     0
 13
7.1817697979567461
 23
3.3457992499382949
 33
0.0
 14
7.1817697979567461
 24
-3.3550373692028752
 34
0.0
 50
90.0
  0
INSERT
  5
F9
 67
     1
  8
0
  6
CONTINUOUS
  2
ADCADD_ZZ
 10
0.0
 20
0.0
 30
0.0
1001
ADCADD_ZZ
1070
   205
1070
    14
1070
   209
1070
     1
1070
   231
1070
     0
1070
   235
1070
     0
1070
   236
1070
     4
1070
   237
1070
     2
1070
   238
1070
     4
1070
   239
1070
     2
1070
   240
1070
     0
1070
   241
1070
  4096
1070
   242
1070
     2
1070
   244
1070
     0
1070
   245
1070
     1
1070
   303
1040
0.1
1070
   304
1040
4.0
1070
   305
1040
1.0
1070
   306
1040
1.0
1070
   337
1040
0.0
1070
   338
1040
0.3048
1070
   339
1040
0.0625
1070
   340
1040
96.0
1070
   341
1040
4.0
1070
   342
1040
1.0
1070
   530
1010
0.0
1020
0.0
1030
0.0
1070
   531
1010
0.0
1020
0.0
1030
0.0
1070
   107
1000

1070
   108
1000
Architectural Desktop
1070
   135
1000
L120
1070
   136
1000
'
1070
   137
1000
m
1001
SDSK_PMN
1070
   100
1000
ACADARCH
1070
   300
1040
2453077.639936469
  0
ENDSEC
  0
EOF
