  0
SECTION
  2
HEADER
  9
$ACADVER
  1
AC1021
  9
$ACADMAINTVER
 70
    50
  9
$DWGCODEPAGE
  3
ANSI_1252
  9
$LASTSAVEDBY
  1
François
  9
$INSBASE
 10
148.4916779520123
 20
100.4074183874445
 30
0.0
  9
$EXTMIN
 10
119.3315840589499
 20
99.46734499999999
 30
0.0
  9
$EXTMAX
 10
165.215207
 20
124.3658400709789
 30
0.0
  9
$LIMMIN
 10
132.552288
 20
100.323248
  9
$LIMMAX
 10
164.359993
 20
109.676854
  9
$ORTHOMODE
 70
     0
  9
$REGENMODE
 70
     1
  9
$FILLMODE
 70
     1
  9
$QTEXTMODE
 70
     0
  9
$MIRRTEXT
 70
     1
  9
$LTSCALE
 40
1.0
  9
$ATTMODE
 70
     1
  9
$TEXTSIZE
 40
0.0
  9
$TRACEWID
 40
0.05
  9
$TEXTSTYLE
  7
Standard
  9
$CLAYER
  8
Cotation-JacobDelafon
  9
$CELTYPE
  6
Continuous
  9
$CECOLOR
 62
   256
  9
$CELTSCALE
 40
1.0
  9
$DISPSILH
 70
     0
  9
$DIMSCALE
 40
1.0
  9
$DIMASZ
 40
1.8
  9
$DIMEXO
 40
0.625
  9
$DIMDLI
 40
3.799999999999999
  9
$DIMRND
 40
0.0
  9
$DIMDLE
 40
0.0
  9
$DIMEXE
 40
1.8
  9
$DIMTP
 40
0.0
  9
$DIMTM
 40
0.0
  9
$DIMTXT
 40
3.0
  9
$DIMCEN
 40
0.9
  9
$DIMTSZ
 40
0.0
  9
$DIMTOL
 70
     0
  9
$DIMLIM
 70
     0
  9
$DIMTIH
 70
     0
  9
$DIMTOH
 70
     0
  9
$DIMSE1
 70
     0
  9
$DIMSE2
 70
     0
  9
$DIMTAD
 70
     1
  9
$DIMZIN
 70
    12
  9
$DIMBLK
  1
Oblique
  9
$DIMASO
 70
     1
  9
$DIMSHO
 70
     1
  9
$DIMPOST
  1

  9
$DIMAPOST
  1

  9
$DIMALT
 70
     0
  9
$DIMALTD
 70
     2
  9
$DIMALTF
 40
25.4
  9
$DIMLFAC
 40
1.0
  9
$DIMTOFL
 70
     0
  9
$DIMTVP
 40
0.0
  9
$DIMTIX
 70
     0
  9
$DIMSOXD
 70
     0
  9
$DIMSAH
 70
     0
  9
$DIMBLK1
  1

  9
$DIMBLK2
  1

  9
$DIMSTYLE
  2
Cotation-Jacob-Delafon
  9
$DIMCLRD
 70
     0
  9
$DIMCLRE
 70
     0
  9
$DIMCLRT
 70
     0
  9
$DIMTFAC
 40
1.0
  9
$DIMGAP
 40
0.9
  9
$DIMJUST
 70
     0
  9
$DIMSD1
 70
     0
  9
$DIMSD2
 70
     0
  9
$DIMTOLJ
 70
     1
  9
$DIMTZIN
 70
     0
  9
$DIMALTZ
 70
     0
  9
$DIMALTTZ
 70
     0
  9
$DIMUPT
 70
     0
  9
$DIMDEC
 70
     2
  9
$DIMTDEC
 70
     2
  9
$DIMALTU
 70
     2
  9
$DIMALTTD
 70
     2
  9
$DIMTXSTY
  7
Jacob-Delafon
  9
$DIMAUNIT
 70
     0
  9
$DIMADEC
 70
     0
  9
$DIMALTRND
 40
0.0
  9
$DIMAZIN
 70
     3
  9
$DIMDSEP
 70
    46
  9
$DIMATFIT
 70
     3
  9
$DIMFRAC
 70
     0
  9
$DIMLDRBLK
  1
Oblique
  9
$DIMLUNIT
 70
     2
  9
$DIMLWD
 70
    -2
  9
$DIMLWE
 70
    -2
  9
$DIMTMOVE
 70
     2
  9
$DIMFXL
 40
1.0
  9
$DIMFXLON
 70
     0
  9
$DIMJOGANG
 40
0.7853981633974483
  9
$DIMTFILL
 70
     0
  9
$DIMTFILLCLR
 70
     0
  9
$DIMARCSYM
 70
     0
  9
$DIMLTYPE
  6

  9
$DIMLTEX1
  6

  9
$DIMLTEX2
  6

  9
$LUNITS
 70
     2
  9
$LUPREC
 70
     4
  9
$SKETCHINC
 40
0.1
  9
$FILLETRAD
 40
0.0
  9
$AUNITS
 70
     0
  9
$AUPREC
 70
     0
  9
$MENU
  1
acad
  9
$ELEVATION
 40
0.0
  9
$PELEVATION
 40
0.0
  9
$THICKNESS
 40
0.0
  9
$LIMCHECK
 70
     0
  9
$CHAMFERA
 40
0.0
  9
$CHAMFERB
 40
0.0
  9
$CHAMFERC
 40
0.0
  9
$CHAMFERD
 40
0.0
  9
$SKPOLY
 70
     0
  9
$TDCREATE
 40
2454970.357625497
  9
$TDUCREATE
 40
2454970.274292165
  9
$TDUPDATE
 40
2455006.689804862
  9
$TDUUPDATE
 40
2455006.606471528
  9
$TDINDWG
 40
0.0048336227
  9
$TDUSRTIMER
 40
0.0048334375
  9
$USRTIMER
 70
     1
  9
$ANGBASE
 50
0.0
  9
$ANGDIR
 70
     0
  9
$PDMODE
 70
     0
  9
$PDSIZE
 40
0.0
  9
$PLINEWID
 40
0.0
  9
$SPLFRAME
 70
     0
  9
$SPLINETYPE
 70
     6
  9
$SPLINESEGS
 70
     8
  9
$HANDSEED
  5
1EE
  9
$SURFTAB1
 70
     6
  9
$SURFTAB2
 70
     6
  9
$SURFTYPE
 70
     6
  9
$SURFU
 70
     6
  9
$SURFV
 70
     6
  9
$UCSBASE
  2

  9
$UCSNAME
  2

  9
$UCSORG
 10
0.0
 20
0.0
 30
0.0
  9
$UCSXDIR
 10
1.0
 20
0.0
 30
0.0
  9
$UCSYDIR
 10
0.0
 20
1.0
 30
0.0
  9
$UCSORTHOREF
  2

  9
$UCSORTHOVIEW
 70
     0
  9
$UCSORGTOP
 10
0.0
 20
0.0
 30
0.0
  9
$UCSORGBOTTOM
 10
0.0
 20
0.0
 30
0.0
  9
$UCSORGLEFT
 10
0.0
 20
0.0
 30
0.0
  9
$UCSORGRIGHT
 10
0.0
 20
0.0
 30
0.0
  9
$UCSORGFRONT
 10
0.0
 20
0.0
 30
0.0
  9
$UCSORGBACK
 10
0.0
 20
0.0
 30
0.0
  9
$PUCSBASE
  2

  9
$PUCSNAME
  2

  9
$PUCSORG
 10
0.0
 20
0.0
 30
0.0
  9
$PUCSXDIR
 10
1.0
 20
0.0
 30
0.0
  9
$PUCSYDIR
 10
0.0
 20
1.0
 30
0.0
  9
$PUCSORTHOREF
  2

  9
$PUCSORTHOVIEW
 70
     0
  9
$PUCSORGTOP
 10
0.0
 20
0.0
 30
0.0
  9
$PUCSORGBOTTOM
 10
0.0
 20
0.0
 30
0.0
  9
$PUCSORGLEFT
 10
0.0
 20
0.0
 30
0.0
  9
$PUCSORGRIGHT
 10
0.0
 20
0.0
 30
0.0
  9
$PUCSORGFRONT
 10
0.0
 20
0.0
 30
0.0
  9
$PUCSORGBACK
 10
0.0
 20
0.0
 30
0.0
  9
$USERI1
 70
     0
  9
$USERI2
 70
     0
  9
$USERI3
 70
     0
  9
$USERI4
 70
     0
  9
$USERI5
 70
     0
  9
$USERR1
 40
0.0
  9
$USERR2
 40
0.0
  9
$USERR3
 40
0.0
  9
$USERR4
 40
0.0
  9
$USERR5
 40
0.0
  9
$WORLDVIEW
 70
     1
  9
$SHADEDGE
 70
     3
  9
$SHADEDIF
 70
    70
  9
$TILEMODE
 70
     1
  9
$MAXACTVP
 70
    16
  9
$PINSBASE
 10
0.0
 20
0.0
 30
0.0
  9
$PLIMCHECK
 70
     0
  9
$PEXTMIN
 10
1.000000000000000E+20
 20
1.000000000000000E+20
 30
1.000000000000000E+20
  9
$PEXTMAX
 10
-1.000000000000000E+20
 20
-1.000000000000000E+20
 30
-1.000000000000000E+20
  9
$PLIMMIN
 10
0.0
 20
0.0
  9
$PLIMMAX
 10
12.0
 20
9.0
  9
$UNITMODE
 70
     0
  9
$VISRETAIN
 70
     0
  9
$PLINEGEN
 70
     1
  9
$PSLTSCALE
 70
     0
  9
$TREEDEPTH
 70
  3020
  9
$CMLSTYLE
  2
Standard
  9
$CMLJUST
 70
     0
  9
$CMLSCALE
 40
1.0
  9
$PROXYGRAPHICS
 70
     0
  9
$MEASUREMENT
 70
     1
  9
$CELWEIGHT
370
     0
  9
$ENDCAPS
280
     0
  9
$JOINSTYLE
280
     0
  9
$LWDISPLAY
290
     0
  9
$INSUNITS
 70
     0
  9
$HYPERLINKBASE
  1

  9
$STYLESHEET
  1

  9
$XEDIT
290
     1
  9
$CEPSNTYPE
380
     0
  9
$PSTYLEMODE
290
     1
  9
$FINGERPRINTGUID
  2

  9
$VERSIONGUID
  2
{5F5F6B12-6C7C-4DF4-8100-85F2ABC8733B}
  9
$EXTNAMES
290
     1
  9
$PSVPSCALE
 40
0.0
  9
$OLESTARTUP
290
     0
  9
$SORTENTS
280
   127
  9
$INDEXCTL
280
     0
  9
$HIDETEXT
280
     0
  9
$XCLIPFRAME
290
     0
  9
$HALOGAP
280
     0
  9
$OBSCOLOR
 70
   257
  9
$OBSLTYPE
280
     0
  9
$INTERSECTIONDISPLAY
280
     0
  9
$INTERSECTIONCOLOR
 70
   257
  9
$DIMASSOC
280
     1
  9
$PROJECTNAME
  1

  9
$CAMERADISPLAY
290
     0
  9
$LENSLENGTH
 40
50.0
  9
$CAMERAHEIGHT
 40
0.0
  9
$STEPSPERSEC
 40
2.0
  9
$STEPSIZE
 40
6.0
  9
$3DDWFPREC
 40
2.0
  9
$PSOLWIDTH
 40
0.25
  9
$PSOLHEIGHT
 40
4.0
  9
$LOFTANG1
 40
1.570796326794896
  9
$LOFTANG2
 40
1.570796326794896
  9
$LOFTMAG1
 40
0.0
  9
$LOFTMAG2
 40
0.0
  9
$LOFTPARAM
 70
     7
  9
$LOFTNORMALS
280
     1
  9
$LATITUDE
 40
37.795
  9
$LONGITUDE
 40
-122.394
  9
$NORTHDIRECTION
 40
0.0
  9
$TIMEZONE
 70
 -8000
  9
$LIGHTGLYPHDISPLAY
280
     1
  9
$TILEMODELIGHTSYNCH
280
     1
  9
$CMATERIAL
347
14F
  9
$SOLIDHIST
280
     1
  9
$SHOWHIST
280
     1
  9
$DWFFRAME
280
     2
  9
$DGNFRAME
280
     0
  9
$REALWORLDSCALE
290
     1
  9
$INTERFERECOLOR
 62
     1
  9
$INTERFEREOBJVS
345
171
  9
$INTERFEREVPVS
346
16E
  9
$CSHADOW
280
     0
  9
$SHADOWPLANELOCATION
 40
0.0
  0
ENDSEC
  0
SECTION
  2
CLASSES
  0
CLASS
  1
IMAGE
  2
AcDbRasterImage
  3
ISM
 90
     2175
 91
        0
280
     0
281
     1
  0
CLASS
  1
DICTIONARYVAR
  2
AcDbDictionaryVar
  3
ObjectDBX Classes
 90
        0
 91
        7
280
     0
281
     0
  0
CLASS
  1
RASTERVARIABLES
  2
AcDbRasterVariables
  3
ISM
 90
        0
 91
        0
280
     0
281
     0
  0
CLASS
  1
IMAGEDEF
  2
AcDbRasterImageDef
  3
ISM
 90
        0
 91
        0
280
     0
281
     0
  0
CLASS
  1
IMAGEDEF_REACTOR
  2
AcDbRasterImageDefReactor
  3
ISM
 90
        1
 91
        0
280
     0
281
     0
  0
CLASS
  1
IDBUFFER
  2
AcDbIdBuffer
  3
ObjectDBX Classes
 90
        0
 91
        0
280
     0
281
     0
  0
CLASS
  1
SPATIAL_FILTER
  2
AcDbSpatialFilter
  3
ObjectDBX Classes
 90
        0
 91
        0
280
     0
281
     0
  0
CLASS
  1
SORTENTSTABLE
  2
AcDbSortentsTable
  3
ObjectDBX Classes
 90
        0
 91
        0
280
     0
281
     0
  0
CLASS
  1
LAYER_INDEX
  2
AcDbLayerIndex
  3
ObjectDBX Classes
 90
        0
 91
        0
280
     0
281
     0
  0
CLASS
  1
SPATIAL_INDEX
  2
AcDbSpatialIndex
  3
ObjectDBX Classes
 90
        0
 91
        0
280
     0
281
     0
  0
CLASS
  1
OBJECT_PTR
  2
CAseDLPNTableRecord
  3
"ASE-LPNTableRecord"
 90
        1
 91
        0
280
     0
281
     0
  0
CLASS
  1
PLOTSETTINGS
  2
AcDbPlotSettings
  3
ObjectDBX Classes
 90
        0
 91
        0
280
     0
281
     0
  0
CLASS
  1
ACDBDICTIONARYWDFLT
  2
AcDbDictionaryWithDefault
  3
ObjectDBX Classes
 90
        0
 91
        1
280
     0
281
     0
  0
CLASS
  1
WIPEOUT
  2
AcDbWipeout
  3
"WipeOut|Product Desc: Object Enabler for WipeOut entity                        |Company: Autodesk, Inc.                        |WEB Address: www.autodesk.com"
 90
     2175
 91
        0
280
     0
281
     1
  0
CLASS
  1
WIPEOUTVARIABLES
  2
AcDbWipeoutVariables
  3
"WipeOut|Product Desc:     WipeOut Dbx Application|Company:          Autodesk, Inc.|WEB Address:      www.autodesk.com"
 90
        0
 91
        1
280
     0
281
     0
  0
CLASS
  1
RTEXT
  2
RText
  3
RText|AutoCAD Express Tool|expresstools@autodesk.com
 90
        0
 91
        0
280
     0
281
     1
  0
CLASS
  1
ARCALIGNEDTEXT
  2
AcDbArcAlignedText
  3
ATEXT|AutoCAD Express Tool|expresstools@autodesk.com
 90
        0
 91
        0
280
     0
281
     1
  0
CLASS
  1
MATERIAL
  2
AcDbMaterial
  3
ObjectDBX Classes
 90
     1153
 91
        3
280
     0
281
     0
  0
CLASS
  1
VISUALSTYLE
  2
AcDbVisualStyle
  3
ObjectDBX Classes
 90
     4095
 91
       16
280
     0
281
     0
  0
CLASS
  1
TABLESTYLE
  2
AcDbTableStyle
  3
ObjectDBX Classes
 90
     4095
 91
        1
280
     0
281
     0
  0
CLASS
  1
SCALE
  2
AcDbScale
  3
ObjectDBX Classes
 90
     1153
 91
       17
280
     0
281
     0
  0
CLASS
  1
MLEADERSTYLE
  2
AcDbMLeaderStyle
  3
ACDB_MLEADERSTYLE_CLASS
 90
     4095
 91
        1
280
     0
281
     0
  0
CLASS
  1
AEC_REFEDIT_STATUS_TRACKER
  2
AecDbRefEditStatusTracker
  3
AecArchBase50|Product Desc: Autodesk Architectural Desktop 2007 |Company: Autodesk,Inc. |WEB Address: www.autodesk.com
 90
      129
 91
        0
280
     0
281
     0
  0
CLASS
  1
NPOCOLLECTION
  2
AcDbImpNonPersistentObjectsCollection
  3
ObjectDBX Classes
 90
     1153
 91
        0
280
     0
281
     0
  0
CLASS
  1
CELLSTYLEMAP
  2
AcDbCellStyleMap
  3
ObjectDBX Classes
 90
     1152
 91
        2
280
     0
281
     0
  0
ENDSEC
  0
SECTION
  2
TABLES
  0
TABLE
  2
VPORT
  5
7
330
0
100
AcDbSymbolTable
 70
     1
  0
VPORT
  5
15
330
7
100
AcDbSymbolTableRecord
100
AcDbViewportTableRecord
  2
*ACTIVE
 70
     0
 10
0.0
 20
0.0
 11
1.0
 21
1.0
 12
142.4724454158813
 22
111.3287618049258
 13
0.0
 23
0.0
 14
1.0
 24
1.0
 15
0.0
 25
0.0
 16
0.0
 26
0.0
 36
1.0
 17
0.0
 27
0.0
 37
0.0
 40
41.89530060594606
 41
1.226824457593688
 42
50.0
 43
0.0
 44
0.0
 50
0.0
 51
0.0
 71
     0
 72
   100
 73
     1
 74
     1
 75
     0
 76
     0
 77
     0
 78
     0
281
     0
 65
     0
110
0.0
120
0.0
130
0.0
111
1.0
121
0.0
131
0.0
112
0.0
122
1.0
132
0.0
 79
     0
146
0.0
348
16D
 60
     3
 61
     5
292
     1
282
     1
141
0.0
142
0.0
 63
   250
421
  3355443
  0
ENDTAB
  0
TABLE
  2
LTYPE
  5
4
330
0
100
AcDbSymbolTable
 70
     1
  0
LTYPE
  5
11
330
4
100
AcDbSymbolTableRecord
100
AcDbLinetypeTableRecord
  2
ByBlock
 70
     0
  3

 72
    65
 73
     0
 40
0.0
  0
LTYPE
  5
12
330
4
100
AcDbSymbolTableRecord
100
AcDbLinetypeTableRecord
  2
ByLayer
 70
     0
  3

 72
    65
 73
     0
 40
0.0
  0
LTYPE
  5
13
330
4
100
AcDbSymbolTableRecord
100
AcDbLinetypeTableRecord
  2
Continuous
 70
     0
  3
Solid line
 72
    65
 73
     0
 40
0.0
  0
ENDTAB
  0
TABLE
  2
LAYER
  5
2
330
0
100
AcDbSymbolTable
 70
     3
  0
LAYER
  5
14
102
{ACAD_XDICTIONARY
360
1D8
102
}
330
2
100
AcDbSymbolTableRecord
100
AcDbLayerTableRecord
  2
0
 70
     0
 62
     7
  6
Continuous
370
    -3
390
1D
347
15F
  0
LAYER
  5
197
330
2
100
AcDbSymbolTableRecord
100
AcDbLayerTableRecord
  2
Defpoints
 70
     0
 62
     7
  6
Continuous
290
     0
370
    -3
390
1D
347
15F
  0
LAYER
  5
1A5
102
{ACAD_XDICTIONARY
360
1A6
102
}
330
2
100
AcDbSymbolTableRecord
100
AcDbLayerTableRecord
  2
Cotation-JacobDelafon
 70
     0
 62
     8
  6
Continuous
370
    -3
390
1D
347
15F
  0
ENDTAB
  0
TABLE
  2
STYLE
  5
3
330
0
100
AcDbSymbolTable
 70
     7
  0
STYLE
  5
17
330
3
100
AcDbSymbolTableRecord
100
AcDbTextStyleTableRecord
  2
Standard
 70
     0
 40
0.0
 41
1.0
 50
0.0
 71
     0
 42
0.0
  3
txt
  4

  0
STYLE
  5
24
330
3
100
AcDbSymbolTableRecord
100
AcDbTextStyleTableRecord
  2
STD
 70
     0
 40
0.0
 41
1.0
 50
0.0
 71
     0
 42
0.0
  3
txt
  4

  0
STYLE
  5
25
330
3
100
AcDbSymbolTableRecord
100
AcDbTextStyleTableRecord
  2
TATESTD
 70
     4
 40
0.0
 41
1.0
 50
0.0
 71
     0
 42
0.0
  3
txt
  4

  0
STYLE
  5
26
330
3
100
AcDbSymbolTableRecord
100
AcDbTextStyleTableRecord
  2
KANJISTD
 70
     0
 40
0.0
 41
1.0
 50
0.0
 71
     0
 42
0.0
  3
txt
  4
extfont
  0
STYLE
  5
27
330
3
100
AcDbSymbolTableRecord
100
AcDbTextStyleTableRecord
  2
KANJITATE
 70
     4
 40
0.0
 41
1.0
 50
0.0
 71
     0
 42
0.0
  3
txt
  4
extfont
  0
STYLE
  5
198
330
3
100
AcDbSymbolTableRecord
100
AcDbTextStyleTableRecord
  2
Annotative
 70
     0
 40
0.0
 41
1.0
 50
0.0
 71
     0
 42
0.2
  3
txt
  4

1001
AcadAnnotative
1000
AnnotativeData
1002
{
1070
     1
1070
     1
1002
}
  0
STYLE
  5
199
330
3
100
AcDbSymbolTableRecord
100
AcDbTextStyleTableRecord
  2
Jacob-Delafon
 70
     0
 40
0.0
 41
1.0
 50
0.0
 71
     0
 42
2.5
  3
ARIAL.TTF
  4

1001
ACAD
1000
Arial
1071
       34
  0
ENDTAB
  0
TABLE
  2
VIEW
  5
5
330
0
100
AcDbSymbolTable
 70
     0
  0
ENDTAB
  0
TABLE
  2
UCS
  5
6
330
0
100
AcDbSymbolTable
 70
     0
  0
ENDTAB
  0
TABLE
  2
APPID
  5
8
330
0
100
AcDbSymbolTable
 70
     3
  0
APPID
  5
16
330
8
100
AcDbSymbolTableRecord
100
AcDbRegAppTableRecord
  2
ACAD
 70
     0
  0
APPID
  5
18F
330
8
100
AcDbSymbolTableRecord
100
AcDbRegAppTableRecord
  2
ACAD_MLEADERVER
 70
     0
  0
APPID
  5
19C
330
8
100
AcDbSymbolTableRecord
100
AcDbRegAppTableRecord
  2
AcadAnnotative
 70
     0
  0
ENDTAB
  0
TABLE
  2
DIMSTYLE
  5
9
330
0
100
AcDbSymbolTable
 70
     3
100
AcDbDimStyleTable
 71
     1
340
19B
  0
DIMSTYLE
105
18
330
9
100
AcDbSymbolTableRecord
100
AcDbDimStyleTableRecord
  2
Standard
 70
     0
340
17
  0
DIMSTYLE
105
19A
330
9
100
AcDbSymbolTableRecord
100
AcDbDimStyleTableRecord
  2
Annotative
 70
     0
340
17
1001
AcadAnnotative
1000
AnnotativeData
1002
{
1070
     1
1070
     1
1002
}
  0
DIMSTYLE
105
19B
102
{ACAD_REACTORS
330
1AC
330
1B9
102
}
330
9
100
AcDbSymbolTableRecord
100
AcDbDimStyleTableRecord
  2
Cotation-Jacob-Delafon
 70
     0
 41
1.8
 42
0.625
 43
3.799999999999999
 44
1.8
 73
     0
 74
     0
 77
     1
 78
    12
 79
     3
140
3.0
141
0.9
147
0.9
271
     2
272
     2
279
     2
340
199
341
193
342
193
  0
ENDTAB
  0
TABLE
  2
BLOCK_RECORD
  5
1
330
0
100
AcDbSymbolTable
 70
     3
  0
BLOCK_RECORD
  5
A
330
1
100
AcDbSymbolTableRecord
100
AcDbBlockTableRecord
  2
*MODEL_SPACE
340
20
 70
     0
280
     1
281
     0
  0
BLOCK_RECORD
  5
B
330
1
100
AcDbSymbolTableRecord
100
AcDbBlockTableRecord
  2
*PAPER_SPACE
340
21
 70
     0
280
     1
281
     0
  0
BLOCK_RECORD
  5
193
330
1
100
AcDbSymbolTableRecord
100
AcDbBlockTableRecord
  2
_Oblique
340
0
102
{BLKREFS
331
1C9
331
1CA
331
1D2
331
1D3
102
}
 70
     0
280
     1
281
     0
  0
BLOCK_RECORD
  5
1AD
330
1
100
AcDbSymbolTableRecord
100
AcDbBlockTableRecord
  2
*D1
340
0
 70
     0
280
     1
281
     0
  0
BLOCK_RECORD
  5
1BA
330
1
100
AcDbSymbolTableRecord
100
AcDbBlockTableRecord
  2
*D2
340
0
 70
     0
280
     1
281
     0
  0
ENDTAB
  0
ENDSEC
  0
SECTION
  2
BLOCKS
  0
BLOCK
  5
D
330
A
100
AcDbEntity
  8
0
100
AcDbBlockBegin
  2
*MODEL_SPACE
 70
     0
 10
0.0
 20
0.0
 30
0.0
  3
*MODEL_SPACE
  1

  0
ENDBLK
  5
E
330
A
100
AcDbEntity
  8
0
100
AcDbBlockEnd
  0
BLOCK
  5
F
330
B
100
AcDbEntity
 67
     1
  8
0
100
AcDbBlockBegin
  2
*PAPER_SPACE
 70
     0
 10
0.0
 20
0.0
 30
0.0
  3
*PAPER_SPACE
  1

  0
ENDBLK
  5
10
330
B
100
AcDbEntity
 67
     1
  8
0
100
AcDbBlockEnd
  0
BLOCK
  5
194
330
193
100
AcDbEntity
  8
0
100
AcDbBlockBegin
  2
_Oblique
 70
     0
 10
0.0
 20
0.0
 30
0.0
  3
_Oblique
  1

  0
LINE
  5
195
330
193
100
AcDbEntity
  8
0
  6
ByBlock
 62
     0
370
    -2
380
     1
100
AcDbLine
 10
-0.5
 20
-0.5
 30
0.0
 11
0.5
 21
0.5
 31
0.0
  0
ENDBLK
  5
196
330
193
100
AcDbEntity
  8
0
100
AcDbBlockEnd
  0
BLOCK
  5
1AE
330
1AD
100
AcDbEntity
  8
0
370
     0
100
AcDbBlockBegin
  2
*D1
 70
     1
 10
0.0
 20
0.0
 30
0.0
  3
*D1
  1

  0
LINE
  5
1C6
330
1AD
100
AcDbEntity
  8
Cotation-JacobDelafon
  6
Continuous
 62
     0
370
    -2
100
AcDbLine
 10
132.597074
 20
109.548756
 30
0.0
 11
132.597074
 21
121.4124976426023
 31
0.0
  0
LINE
  5
1C7
330
1AD
100
AcDbEntity
  8
Cotation-JacobDelafon
  6
Continuous
 62
     0
370
    -2
100
AcDbLine
 10
164.315207
 20
109.724801
 30
0.0
 11
164.315207
 21
121.4124976426023
 31
0.0
  0
LINE
  5
1C8
330
1AD
100
AcDbEntity
  8
Cotation-JacobDelafon
  6
Continuous
 62
     0
370
    -2
100
AcDbLine
 10
132.597074
 20
119.6124976426023
 30
0.0
 11
164.315207
 21
119.6124976426023
 31
0.0
  0
INSERT
  5
1C9
330
1AD
100
AcDbEntity
  8
Cotation-JacobDelafon
  6
Continuous
 62
     0
370
    -2
100
AcDbBlockReference
  2
_Oblique
 10
132.597074
 20
119.6124976426023
 30
0.0
 41
1.8
 42
1.8
 43
1.8
 50
180.0
  0
INSERT
  5
1CA
330
1AD
100
AcDbEntity
  8
Cotation-JacobDelafon
  6
Continuous
 62
     0
370
    -2
100
AcDbBlockReference
  2
_Oblique
 10
164.315207
 20
119.6124976426023
 30
0.0
 41
1.8
 42
1.8
 43
1.8
  0
MTEXT
  5
1CB
330
1AD
100
AcDbEntity
  8
Cotation-JacobDelafon
  6
Continuous
 62
     0
370
     0
100
AcDbMText
 10
148.4561405
 20
122.0452397981276
 30
0.0
 40
3.0
 41
0.0
 46
0.0
 71
     5
 72
     1
  1
\A1;31.7
  7
Jacob-Delafon
 73
     1
 44
1.0
  0
POINT
  5
1CC
330
1AD
100
AcDbEntity
  8
Defpoints
  6
Continuous
 62
     0
370
     0
100
AcDbPoint
 10
132.597074
 20
108.923756
 30
0.0
  0
POINT
  5
1CD
330
1AD
100
AcDbEntity
  8
Defpoints
  6
Continuous
 62
     0
370
     0
100
AcDbPoint
 10
164.315207
 20
109.099801
 30
0.0
  0
POINT
  5
1CE
330
1AD
100
AcDbEntity
  8
Defpoints
  6
Continuous
 62
     0
370
     0
100
AcDbPoint
 10
164.315207
 20
119.6124976426023
 30
0.0
  0
ENDBLK
  5
1AF
330
1AD
100
AcDbEntity
  8
0
370
     0
100
AcDbBlockEnd
  0
BLOCK
  5
1BB
330
1BA
100
AcDbEntity
  8
0
370
     0
100
AcDbBlockBegin
  2
*D2
 70
     1
 10
0.0
 20
0.0
 30
0.0
  3
*D2
  1

  0
LINE
  5
1CF
330
1BA
100
AcDbEntity
  8
Cotation-JacobDelafon
  6
Continuous
 62
     0
370
    -2
100
AcDbLine
 10
131.972074
 20
109.548756
 30
0.0
 11
122.2849264873265
 21
109.548756
 31
0.0
  0
LINE
  5
1D0
330
1BA
100
AcDbEntity
  8
Cotation-JacobDelafon
  6
Continuous
 62
     0
370
    -2
100
AcDbLine
 10
138.435763
 20
100.367345
 30
0.0
 11
122.2849264873265
 21
100.367345
 31
0.0
  0
LINE
  5
1D1
330
1BA
100
AcDbEntity
  8
Cotation-JacobDelafon
  6
Continuous
 62
     0
370
    -2
100
AcDbLine
 10
124.0849264873265
 20
109.548756
 30
0.0
 11
124.0849264873265
 21
100.367345
 31
0.0
  0
INSERT
  5
1D2
330
1BA
100
AcDbEntity
  8
Cotation-JacobDelafon
  6
Continuous
 62
     0
370
    -2
100
AcDbBlockReference
  2
_Oblique
 10
124.0849264873265
 20
109.548756
 30
0.0
 41
1.8
 42
1.8
 43
1.8
 50
90.0
  0
INSERT
  5
1D3
330
1BA
100
AcDbEntity
  8
Cotation-JacobDelafon
  6
Continuous
 62
     0
370
    -2
100
AcDbBlockReference
  2
_Oblique
 10
124.0849264873265
 20
100.367345
 30
0.0
 41
1.8
 42
1.8
 43
1.8
 50
270.0
  0
MTEXT
  5
1D4
330
1BA
100
AcDbEntity
  8
Cotation-JacobDelafon
  6
Continuous
 62
     0
370
     0
100
AcDbMText
 10
121.6521843318012
 20
104.9580505
 30
0.0
 40
3.0
 41
0.0
 46
0.0
 71
     5
 72
     1
  1
\A1;9.3
  7
Jacob-Delafon
 11
0.0000000000000001
 21
1.0
 31
0.0
 73
     1
 44
1.0
  0
POINT
  5
1D5
330
1BA
100
AcDbEntity
  8
Defpoints
  6
Continuous
 62
     0
370
     0
100
AcDbPoint
 10
132.597074
 20
109.548756
 30
0.0
  0
POINT
  5
1D6
330
1BA
100
AcDbEntity
  8
Defpoints
  6
Continuous
 62
     0
370
     0
100
AcDbPoint
 10
139.060763
 20
100.367345
 30
0.0
  0
POINT
  5
1D7
330
1BA
100
AcDbEntity
  8
Defpoints
  6
Continuous
 62
     0
370
     0
100
AcDbPoint
 10
124.0849264873265
 20
100.367345
 30
0.0
  0
ENDBLK
  5
1BC
330
1BA
100
AcDbEntity
  8
0
370
     0
100
AcDbBlockEnd
  0
ENDSEC
  0
SECTION
  2
ENTITIES
  0
LINE
  5
14B
330
A
100
AcDbEntity
  8
0
 62
     7
100
AcDbLine
 10
147.349318
 20
105.122438
 30
0.0
 11
147.349318
 21
103.674981
 31
0.0
  0
LINE
  5
14A
330
A
100
AcDbEntity
  8
0
 62
     7
100
AcDbLine
 10
149.542982
 20
103.674981
 30
0.0
 11
149.542982
 21
105.120199
 31
0.0
  0
LINE
  5
149
330
A
100
AcDbEntity
  8
0
 62
     7
100
AcDbLine
 10
147.432689
 20
103.674981
 30
0.0
 11
147.349318
 21
103.674981
 31
0.0
  0
LINE
  5
148
330
A
100
AcDbEntity
  8
0
 62
     7
100
AcDbLine
 10
147.670573
 20
103.674981
 30
0.0
 11
147.432689
 21
103.674981
 31
0.0
  0
LINE
  5
147
330
A
100
AcDbEntity
  8
0
 62
     7
100
AcDbLine
 10
148.026279
 20
103.674981
 30
0.0
 11
147.670573
 21
103.674981
 31
0.0
  0
LINE
  5
146
330
A
100
AcDbEntity
  8
0
 62
     7
100
AcDbLine
 10
148.4460639999999
 20
103.674981
 30
0.0
 11
148.026279
 21
103.674981
 31
0.0
  0
LINE
  5
145
330
A
100
AcDbEntity
  8
0
 62
     7
100
AcDbLine
 10
148.865677
 20
103.674981
 30
0.0
 11
148.4460639999999
 21
103.674981
 31
0.0
  0
LINE
  5
144
330
A
100
AcDbEntity
  8
0
 62
     7
100
AcDbLine
 10
149.221555
 20
103.674981
 30
0.0
 11
148.865677
 21
103.674981
 31
0.0
  0
LINE
  5
143
330
A
100
AcDbEntity
  8
0
 62
     7
100
AcDbLine
 10
149.459266
 20
103.674981
 30
0.0
 11
149.221555
 21
103.674981
 31
0.0
  0
LINE
  5
142
330
A
100
AcDbEntity
  8
0
 62
     7
100
AcDbLine
 10
149.542982
 20
103.674981
 30
0.0
 11
149.459266
 21
103.674981
 31
0.0
  0
LINE
  5
141
330
A
100
AcDbEntity
  8
0
 62
     7
100
AcDbLine
 10
140.908539
 20
100.367345
 30
0.0
 11
140.143212
 21
100.367345
 31
0.0
  0
LINE
  5
140
330
A
100
AcDbEntity
  8
0
 62
     7
100
AcDbLine
 10
140.143212
 20
100.367345
 30
0.0
 11
139.494328
 21
100.367345
 31
0.0
  0
LINE
  5
13F
330
A
100
AcDbEntity
  8
0
 62
     7
100
AcDbLine
 10
139.494328
 20
100.367345
 30
0.0
 11
139.060763
 21
100.367345
 31
0.0
  0
LINE
  5
13E
330
A
100
AcDbEntity
  8
0
 62
     7
100
AcDbLine
 10
139.060763
 20
100.367345
 30
0.0
 11
138.908489
 21
100.367345
 31
0.0
  0
LINE
  5
13D
330
A
100
AcDbEntity
  8
0
 62
     7
100
AcDbLine
 10
138.9443179999999
 20
105.132773
 30
0.0
 11
138.923131
 21
104.913665
 31
0.0
  0
LINE
  5
13C
330
A
100
AcDbEntity
  8
0
 62
     7
100
AcDbLine
 10
138.923131
 20
104.913665
 30
0.0
 11
138.908489
 21
100.367345
 31
0.0
  0
LINE
  5
13B
330
A
100
AcDbEntity
  8
0
 62
     7
100
AcDbLine
 10
139.494328
 20
100.367345
 30
0.0
 11
140.143212
 21
100.367345
 31
0.0
  0
LINE
  5
13A
330
A
100
AcDbEntity
  8
0
 62
     7
100
AcDbLine
 10
142.322751
 20
100.367345
 30
0.0
 11
142.756316
 21
100.367345
 31
0.0
  0
LINE
  5
139
330
A
100
AcDbEntity
  8
0
 62
     7
100
AcDbLine
 10
142.87345
 20
105.126572
 30
0.0
 11
142.893948
 21
104.913665
 31
0.0
  0
LINE
  5
138
330
A
100
AcDbEntity
  8
0
 62
     7
100
AcDbLine
 10
142.90859
 20
100.367345
 30
0.0
 11
142.756316
 21
100.367345
 31
0.0
  0
LINE
  5
137
330
A
100
AcDbEntity
  8
0
 62
     7
100
AcDbLine
 10
142.893948
 20
104.913665
 30
0.0
 11
142.90859
 21
100.367345
 31
0.0
  0
LINE
  5
136
330
A
100
AcDbEntity
  8
0
 62
     7
100
AcDbLine
 10
142.756316
 20
100.367345
 30
0.0
 11
142.322751
 21
100.367345
 31
0.0
  0
LINE
  5
135
330
A
100
AcDbEntity
  8
0
 62
     7
100
AcDbLine
 10
142.322751
 20
100.367345
 30
0.0
 11
141.673867
 21
100.367345
 31
0.0
  0
LINE
  5
134
330
A
100
AcDbEntity
  8
0
 62
     7
100
AcDbLine
 10
141.673867
 20
100.367345
 30
0.0
 11
140.908539
 21
100.367345
 31
0.0
  0
LINE
  5
133
330
A
100
AcDbEntity
  8
0
 62
     7
100
AcDbLine
 10
155.908485
 20
100.367345
 30
0.0
 11
155.14333
 21
100.367345
 31
0.0
  0
LINE
  5
132
330
A
100
AcDbEntity
  8
0
 62
     7
100
AcDbLine
 10
155.14333
 20
100.367345
 30
0.0
 11
154.494274
 21
100.367345
 31
0.0
  0
LINE
  5
131
330
A
100
AcDbEntity
  8
0
 62
     7
100
AcDbLine
 10
154.553874
 20
105.123127
 30
0.0
 11
154.552496
 21
105.116064
 31
0.0
  0
LINE
  5
130
330
A
100
AcDbEntity
  8
0
 62
     7
100
AcDbLine
 10
154.494274
 20
100.367345
 30
0.0
 11
154.060881
 21
100.367345
 31
0.0
  0
LINE
  5
12F
330
A
100
AcDbEntity
  8
0
 62
     7
100
AcDbLine
 10
154.060881
 20
100.367345
 30
0.0
 11
153.908607
 21
100.367345
 31
0.0
  0
LINE
  5
12E
330
A
100
AcDbEntity
  8
0
 62
     7
100
AcDbLine
 10
153.943403
 20
105.122438
 30
0.0
 11
153.923077
 21
104.913665
 31
0.0
  0
LINE
  5
12D
330
A
100
AcDbEntity
  8
0
 62
     7
100
AcDbLine
 10
153.908607
 20
100.367345
 30
0.0
 11
154.060881
 21
100.367345
 31
0.0
  0
LINE
  5
12C
330
A
100
AcDbEntity
  8
0
 62
     7
100
AcDbLine
 10
153.923077
 20
104.913665
 30
0.0
 11
153.908607
 21
100.367345
 31
0.0
  0
LINE
  5
12B
330
A
100
AcDbEntity
  8
0
 62
     7
100
AcDbLine
 10
154.060881
 20
100.367345
 30
0.0
 11
154.494274
 21
100.367345
 31
0.0
  0
LINE
  5
12A
330
A
100
AcDbEntity
  8
0
 62
     7
100
AcDbLine
 10
154.494274
 20
100.367345
 30
0.0
 11
155.14333
 21
100.367345
 31
0.0
  0
LINE
  5
129
330
A
100
AcDbEntity
  8
0
 62
     7
100
AcDbLine
 10
156.673985
 20
100.367345
 30
0.0
 11
157.322697
 21
100.367345
 31
0.0
  0
LINE
  5
128
330
A
100
AcDbEntity
  8
0
 62
     7
100
AcDbLine
 10
157.322697
 20
100.367345
 30
0.0
 11
157.756434
 21
100.367345
 31
0.0
  0
LINE
  5
127
330
A
100
AcDbEntity
  8
0
 62
     7
100
AcDbLine
 10
157.873568
 20
105.127089
 30
0.0
 11
157.893894
 21
104.913665
 31
0.0
  0
LINE
  5
126
330
A
100
AcDbEntity
  8
0
 62
     7
100
AcDbLine
 10
157.908708
 20
100.367345
 30
0.0
 11
157.756434
 21
100.367345
 31
0.0
  0
LINE
  5
125
330
A
100
AcDbEntity
  8
0
 62
     7
100
AcDbLine
 10
157.893894
 20
104.913665
 30
0.0
 11
157.908708
 21
100.367345
 31
0.0
  0
LINE
  5
124
330
A
100
AcDbEntity
  8
0
 62
     7
100
AcDbLine
 10
157.756434
 20
100.367345
 30
0.0
 11
157.322697
 21
100.367345
 31
0.0
  0
LINE
  5
123
330
A
100
AcDbEntity
  8
0
 62
     7
100
AcDbLine
 10
157.322697
 20
100.367345
 30
0.0
 11
156.673985
 21
100.367345
 31
0.0
  0
LINE
  5
122
330
A
100
AcDbEntity
  8
0
 62
     7
100
AcDbLine
 10
156.673985
 20
100.367345
 30
0.0
 11
155.908485
 21
100.367345
 31
0.0
  0
LINE
  5
121
330
A
100
AcDbEntity
  8
0
 62
     7
100
AcDbLine
 10
162.909608
 20
108.861917
 30
0.0
 11
162.52548
 21
109.129601
 31
0.0
  0
LINE
  5
120
330
A
100
AcDbEntity
  8
0
 62
     7
100
AcDbLine
 10
161.788919
 20
109.198158
 30
0.0
 11
162.167535
 21
109.221929
 31
0.0
  0
LINE
  5
11F
330
A
100
AcDbEntity
  8
0
 62
     7
100
AcDbLine
 10
164.263531
 20
109.151994
 30
0.0
 11
164.141919
 21
109.026592
 31
0.0
  0
LINE
  5
11E
330
A
100
AcDbEntity
  8
0
 62
     7
100
AcDbLine
 10
164.141919
 20
109.026592
 30
0.0
 11
164.06406
 21
108.923756
 31
0.0
  0
LINE
  5
11D
330
A
100
AcDbEntity
  8
0
 62
     7
100
AcDbLine
 10
163.987579
 20
108.746162
 30
0.0
 11
164.06406
 21
108.923756
 31
0.0
  0
LINE
  5
11C
330
A
100
AcDbEntity
  8
0
 62
     7
100
AcDbLine
 10
163.987579
 20
108.746162
 30
0.0
 11
163.946927
 21
108.595094
 31
0.0
  0
LINE
  5
11B
330
A
100
AcDbEntity
  8
0
 62
     7
100
AcDbLine
 10
164.280067
 20
105.16464
 30
0.0
 11
164.1953179999999
 21
105.129156
 31
0.0
  0
LINE
  5
11A
330
A
100
AcDbEntity
  8
0
 62
     7
100
AcDbLine
 10
164.315207
 20
105.250423
 30
0.0
 11
164.280067
 21
105.16464
 31
0.0
  0
LINE
  5
119
330
A
100
AcDbEntity
  8
0
 62
     7
100
AcDbLine
 10
164.280067
 20
109.593311
 30
0.0
 11
164.1953179999999
 21
109.628967
 31
0.0
  0
LINE
  5
118
330
A
100
AcDbEntity
  8
0
 62
     7
100
AcDbLine
 10
164.315207
 20
109.507528
 30
0.0
 11
164.280067
 21
109.593311
 31
0.0
  0
LINE
  5
117
330
A
100
AcDbEntity
  8
0
 62
     7
100
AcDbLine
 10
161.137451
 20
106.254152
 30
0.0
 11
161.136073
 21
108.59475
 31
0.0
  0
LINE
  5
116
330
A
100
AcDbEntity
  8
0
 62
     7
100
AcDbLine
 10
163.129061
 20
106.257425
 30
0.0
 11
163.127683
 21
108.598022
 31
0.0
  0
LINE
  5
115
330
A
100
AcDbEntity
  8
0
 62
     7
100
AcDbLine
 10
162.911675
 20
108.861572
 30
0.0
 11
163.1256159999999
 21
108.593544
 31
0.0
  0
LINE
  5
114
330
A
100
AcDbEntity
  8
0
 62
     7
100
AcDbLine
 10
164.315207
 20
109.403314
 30
0.0
 11
164.315207
 21
109.099801
 31
0.0
  0
LINE
  5
113
330
A
100
AcDbEntity
  8
0
 62
     7
100
AcDbLine
 10
164.315207
 20
109.507528
 30
0.0
 11
164.315207
 21
109.403314
 31
0.0
  0
LINE
  5
112
330
A
100
AcDbEntity
  8
0
 62
     7
100
AcDbLine
 10
164.315207
 20
109.403314
 30
0.0
 11
164.315207
 21
109.507528
 31
0.0
  0
LINE
  5
111
330
A
100
AcDbEntity
  8
0
 62
     7
100
AcDbLine
 10
164.315207
 20
105.657461
 30
0.0
 11
164.315207
 21
109.403314
 31
0.0
  0
LINE
  5
110
330
A
100
AcDbEntity
  8
0
 62
     7
100
AcDbLine
 10
164.315552
 20
105.358599
 30
0.0
 11
164.315207
 21
105.250423
 31
0.0
  0
LINE
  5
10F
330
A
100
AcDbEntity
  8
0
 62
     7
100
AcDbLine
 10
164.315896
 20
105.665557
 30
0.0
 11
164.315552
 21
105.358599
 31
0.0
  0
LINE
  5
10E
330
A
100
AcDbEntity
  8
0
 62
     7
100
AcDbLine
 10
159.316718
 20
106.25019
 30
0.0
 11
161.138829
 21
106.247951
 31
0.0
  0
LINE
  5
10D
330
A
100
AcDbEntity
  8
0
 62
     7
100
AcDbLine
 10
159.31534
 20
108.596644
 30
0.0
 11
161.136073
 21
108.596644
 31
0.0
  0
LINE
  5
10C
330
A
100
AcDbEntity
  8
0
 62
     7
100
AcDbLine
 10
163.124582
 20
106.259836
 30
0.0
 11
163.949338
 21
106.257597
 31
0.0
  0
LINE
  5
10B
330
A
100
AcDbEntity
  8
0
 62
     7
100
AcDbLine
 10
163.123893
 20
108.596644
 30
0.0
 11
163.948305
 21
108.596644
 31
0.0
  0
LINE
  5
10A
330
A
100
AcDbEntity
  8
0
 62
     7
100
AcDbLine
 10
159.31534
 20
109.628795
 30
0.0
 11
162.173391
 21
109.631896
 31
0.0
  0
LINE
  5
109
330
A
100
AcDbEntity
  8
0
 62
     7
100
AcDbLine
 10
162.173391
 20
109.631896
 30
0.0
 11
164.1953179999999
 21
109.628967
 31
0.0
  0
LINE
  5
108
330
A
100
AcDbEntity
  8
0
 62
     7
100
AcDbLine
 10
162.173391
 20
105.131912
 30
0.0
 11
159.31534
 21
105.128811
 31
0.0
  0
LINE
  5
107
330
A
100
AcDbEntity
  8
0
 62
     7
100
AcDbLine
 10
164.1953179999999
 20
105.129156
 30
0.0
 11
162.173391
 21
105.131912
 31
0.0
  0
LINE
  5
106
330
A
100
AcDbEntity
  8
0
 62
     7
100
AcDbLine
 10
161.371373
 20
108.944944
 30
0.0
 11
161.788919
 21
109.198158
 31
0.0
  0
LINE
  5
105
330
A
100
AcDbEntity
  8
0
 62
     7
100
AcDbLine
 10
162.167535
 20
109.221929
 30
0.0
 11
162.52548
 21
109.129601
 31
0.0
  0
LINE
  5
104
330
A
100
AcDbEntity
  8
0
 62
     7
100
AcDbLine
 10
161.371029
 20
108.94391
 30
0.0
 11
161.138829
 21
108.59785
 31
0.0
  0
LINE
  5
103
330
A
100
AcDbEntity
  8
0
 62
     7
100
AcDbLine
 10
164.263531
 20
109.151994
 30
0.0
 11
164.314863
 21
109.187478
 31
0.0
  0
LINE
  5
102
330
A
100
AcDbEntity
  8
0
 62
     7
100
AcDbLine
 10
162.909608
 20
105.990257
 30
0.0
 11
162.52548
 21
105.722574
 31
0.0
  0
LINE
  5
101
330
A
100
AcDbEntity
  8
0
 62
     7
100
AcDbLine
 10
161.788919
 20
105.654016
 30
0.0
 11
162.167535
 21
105.630245
 31
0.0
  0
LINE
  5
100
330
A
100
AcDbEntity
  8
0
 62
     7
100
AcDbLine
 10
164.263531
 20
105.70018
 30
0.0
 11
164.141919
 21
105.825582
 31
0.0
  0
LINE
  5
FF
330
A
100
AcDbEntity
  8
0
 62
     7
100
AcDbLine
 10
164.141919
 20
105.825582
 30
0.0
 11
164.06406
 21
105.928418
 31
0.0
  0
LINE
  5
FE
330
A
100
AcDbEntity
  8
0
 62
     7
100
AcDbLine
 10
163.987579
 20
106.106013
 30
0.0
 11
164.06406
 21
105.928418
 31
0.0
  0
LINE
  5
FD
330
A
100
AcDbEntity
  8
0
 62
     7
100
AcDbLine
 10
163.987579
 20
106.106013
 30
0.0
 11
163.946927
 21
106.25708
 31
0.0
  0
LINE
  5
FC
330
A
100
AcDbEntity
  8
0
 62
     7
100
AcDbLine
 10
162.911675
 20
105.990602
 30
0.0
 11
163.1256159999999
 21
106.25863
 31
0.0
  0
LINE
  5
FB
330
A
100
AcDbEntity
  8
0
 62
     7
100
AcDbLine
 10
161.371373
 20
105.907231
 30
0.0
 11
161.788919
 21
105.654016
 31
0.0
  0
LINE
  5
FA
330
A
100
AcDbEntity
  8
0
 62
     7
100
AcDbLine
 10
162.167535
 20
105.630245
 30
0.0
 11
162.52548
 21
105.722574
 31
0.0
  0
LINE
  5
F9
330
A
100
AcDbEntity
  8
0
 62
     7
100
AcDbLine
 10
161.371029
 20
105.908264
 30
0.0
 11
161.138829
 21
106.254324
 31
0.0
  0
LINE
  5
F8
330
A
100
AcDbEntity
  8
0
 62
     7
100
AcDbLine
 10
164.263531
 20
105.70018
 30
0.0
 11
164.314863
 21
105.664696
 31
0.0
  0
LINE
  5
F7
330
A
100
AcDbEntity
  8
0
 62
     7
100
AcDbLine
 10
159.316718
 20
106.180082
 30
0.0
 11
159.316718
 21
106.25019
 31
0.0
  0
LINE
  5
F6
330
A
100
AcDbEntity
  8
0
 62
     7
100
AcDbLine
 10
159.316718
 20
106.149593
 30
0.0
 11
159.316718
 21
106.180082
 31
0.0
  0
LINE
  5
F5
330
A
100
AcDbEntity
  8
0
 62
     7
100
AcDbLine
 10
159.316718
 20
106.145459
 30
0.0
 11
159.316718
 21
106.149593
 31
0.0
  0
LINE
  5
F4
330
A
100
AcDbEntity
  8
0
 62
     7
100
AcDbLine
 10
159.316374
 20
106.073973
 30
0.0
 11
159.316718
 21
106.145459
 31
0.0
  0
LINE
  5
F3
330
A
100
AcDbEntity
  8
0
 62
     7
100
AcDbLine
 10
159.31534
 20
105.25094
 30
0.0
 11
159.315685
 21
105.5740899999999
 31
0.0
  0
LINE
  5
F2
330
A
100
AcDbEntity
  8
0
 62
     7
100
AcDbLine
 10
159.31534
 20
105.128811
 30
0.0
 11
159.31534
 21
105.25094
 31
0.0
  0
LINE
  5
F1
330
A
100
AcDbEntity
  8
0
 62
     7
100
AcDbLine
 10
159.316374
 20
105.89724
 30
0.0
 11
159.316374
 21
106.073973
 31
0.0
  0
LINE
  5
F0
330
A
100
AcDbEntity
  8
0
 62
     7
100
AcDbLine
 10
159.316029
 20
105.83075
 30
0.0
 11
159.316374
 21
105.89724
 31
0.0
  0
LINE
  5
EF
330
A
100
AcDbEntity
  8
0
 62
     7
100
AcDbLine
 10
159.316029
 20
105.723607
 30
0.0
 11
159.316029
 21
105.83075
 31
0.0
  0
LINE
  5
EE
330
A
100
AcDbEntity
  8
0
 62
     7
100
AcDbLine
 10
159.315685
 20
105.5740899999999
 30
0.0
 11
159.316029
 21
105.723607
 31
0.0
  0
LINE
  5
ED
330
A
100
AcDbEntity
  8
0
 62
     7
100
AcDbLine
 10
159.31534
 20
109.05088
 30
0.0
 11
159.31534
 21
109.199019
 31
0.0
  0
LINE
  5
EC
330
A
100
AcDbEntity
  8
0
 62
     7
100
AcDbLine
 10
159.31534
 20
108.944255
 30
0.0
 11
159.31534
 21
109.05088
 31
0.0
  0
LINE
  5
EB
330
A
100
AcDbEntity
  8
0
 62
     7
100
AcDbLine
 10
159.31534
 20
108.877936
 30
0.0
 11
159.31534
 21
108.944255
 31
0.0
  0
LINE
  5
EA
330
A
100
AcDbEntity
  8
0
 62
     7
100
AcDbLine
 10
159.31534
 20
108.701375
 30
0.0
 11
159.31534
 21
108.877936
 31
0.0
  0
LINE
  5
E9
330
A
100
AcDbEntity
  8
0
 62
     7
100
AcDbLine
 10
159.31534
 20
105.341029
 30
0.0
 11
159.31534
 21
105.238882
 31
0.0
  0
LINE
  5
E8
330
A
100
AcDbEntity
  8
0
 62
     7
100
AcDbLine
 10
159.31534
 20
109.518724
 30
0.0
 11
159.31534
 21
109.628795
 31
0.0
  0
LINE
  5
E7
330
A
100
AcDbEntity
  8
0
 62
     7
100
AcDbLine
 10
159.31534
 20
109.199019
 30
0.0
 11
159.31534
 21
109.518724
 31
0.0
  0
LINE
  5
E6
330
A
100
AcDbEntity
  8
0
 62
     7
100
AcDbLine
 10
159.31534
 20
108.630234
 30
0.0
 11
159.31534
 21
108.701375
 31
0.0
  0
LINE
  5
E5
330
A
100
AcDbEntity
  8
0
 62
     7
100
AcDbLine
 10
159.31534
 20
108.626617
 30
0.0
 11
159.31534
 21
108.630234
 31
0.0
  0
LINE
  5
E4
330
A
100
AcDbEntity
  8
0
 62
     7
100
AcDbLine
 10
159.31534
 20
108.596644
 30
0.0
 11
159.31534
 21
108.626617
 31
0.0
  0
LINE
  5
E3
330
A
100
AcDbEntity
  8
0
 62
     7
100
AcDbLine
 10
159.31534
 20
108.526709
 30
0.0
 11
159.31534
 21
108.596644
 31
0.0
  0
LINE
  5
E2
330
A
100
AcDbEntity
  8
0
 62
     7
100
AcDbLine
 10
159.316718
 20
106.25019
 30
0.0
 11
159.31534
 21
108.526709
 31
0.0
  0
LINE
  5
E1
330
A
100
AcDbEntity
  8
0
 62
     7
100
AcDbLine
 10
137.604176
 20
106.180082
 30
0.0
 11
137.604348
 21
106.149593
 31
0.0
  0
LINE
  5
E0
330
A
100
AcDbEntity
  8
0
 62
     7
100
AcDbLine
 10
137.604176
 20
106.25019
 30
0.0
 11
137.604176
 21
106.180082
 31
0.0
  0
LINE
  5
DF
330
A
100
AcDbEntity
  8
0
 62
     7
100
AcDbLine
 10
137.604348
 20
106.149593
 30
0.0
 11
137.604348
 21
106.145459
 31
0.0
  0
LINE
  5
DE
330
A
100
AcDbEntity
  8
0
 62
     7
100
AcDbLine
 10
137.604348
 20
106.145459
 30
0.0
 11
137.604348
 21
106.073973
 31
0.0
  0
LINE
  5
DD
330
A
100
AcDbEntity
  8
0
 62
     7
100
AcDbLine
 10
137.604865
 20
105.723607
 30
0.0
 11
137.60521
 21
105.5740899999999
 31
0.0
  0
LINE
  5
DC
330
A
100
AcDbEntity
  8
0
 62
     7
100
AcDbLine
 10
137.604693
 20
105.83075
 30
0.0
 11
137.604865
 21
105.723607
 31
0.0
  0
LINE
  5
DB
330
A
100
AcDbEntity
  8
0
 62
     7
100
AcDbLine
 10
137.604693
 20
105.89724
 30
0.0
 11
137.604693
 21
105.83075
 31
0.0
  0
LINE
  5
DA
330
A
100
AcDbEntity
  8
0
 62
     7
100
AcDbLine
 10
137.604348
 20
106.073973
 30
0.0
 11
137.604693
 21
105.89724
 31
0.0
  0
LINE
  5
D9
330
A
100
AcDbEntity
  8
0
 62
     7
100
AcDbLine
 10
137.605554
 20
105.25094
 30
0.0
 11
137.605554
 21
105.128811
 31
0.0
  0
LINE
  5
D8
330
A
100
AcDbEntity
  8
0
 62
     7
100
AcDbLine
 10
137.60521
 20
105.5740899999999
 30
0.0
 11
137.605554
 21
105.25094
 31
0.0
  0
LINE
  5
D7
330
A
100
AcDbEntity
  8
0
 62
     7
100
AcDbLine
 10
137.605554
 20
105.238882
 30
0.0
 11
137.605554
 21
105.341029
 31
0.0
  0
LINE
  5
D6
330
A
100
AcDbEntity
  8
0
 62
     7
100
AcDbLine
 10
137.605554
 20
108.877936
 30
0.0
 11
137.605554
 21
108.701375
 31
0.0
  0
LINE
  5
D5
330
A
100
AcDbEntity
  8
0
 62
     7
100
AcDbLine
 10
137.605554
 20
108.944255
 30
0.0
 11
137.605554
 21
108.877936
 31
0.0
  0
LINE
  5
D4
330
A
100
AcDbEntity
  8
0
 62
     7
100
AcDbLine
 10
137.605554
 20
109.05088
 30
0.0
 11
137.605554
 21
108.944255
 31
0.0
  0
LINE
  5
D3
330
A
100
AcDbEntity
  8
0
 62
     7
100
AcDbLine
 10
137.605554
 20
109.199019
 30
0.0
 11
137.605554
 21
109.05088
 31
0.0
  0
LINE
  5
D2
330
A
100
AcDbEntity
  8
0
 62
     7
100
AcDbLine
 10
137.605554
 20
109.518724
 30
0.0
 11
137.605554
 21
109.199019
 31
0.0
  0
LINE
  5
D1
330
A
100
AcDbEntity
  8
0
 62
     7
100
AcDbLine
 10
137.605554
 20
109.628795
 30
0.0
 11
137.605554
 21
109.518724
 31
0.0
  0
LINE
  5
D0
330
A
100
AcDbEntity
  8
0
 62
     7
100
AcDbLine
 10
137.605554
 20
108.701375
 30
0.0
 11
137.605554
 21
108.630234
 31
0.0
  0
LINE
  5
CF
330
A
100
AcDbEntity
  8
0
 62
     7
100
AcDbLine
 10
137.605554
 20
108.526709
 30
0.0
 11
137.604176
 21
106.25019
 31
0.0
  0
LINE
  5
CE
330
A
100
AcDbEntity
  8
0
 62
     7
100
AcDbLine
 10
137.605554
 20
108.596644
 30
0.0
 11
137.605554
 21
108.526709
 31
0.0
  0
LINE
  5
CD
330
A
100
AcDbEntity
  8
0
 62
     7
100
AcDbLine
 10
137.605554
 20
108.626617
 30
0.0
 11
137.605554
 21
108.596644
 31
0.0
  0
LINE
  5
CC
330
A
100
AcDbEntity
  8
0
 62
     7
100
AcDbLine
 10
137.605554
 20
108.630234
 30
0.0
 11
137.605554
 21
108.626617
 31
0.0
  0
LINE
  5
CB
330
A
100
AcDbEntity
  8
0
 62
     7
100
AcDbLine
 10
159.115869
 20
109.199019
 30
0.0
 11
159.115869
 21
109.518724
 31
0.0
  0
LINE
  5
CA
330
A
100
AcDbEntity
  8
0
 62
     7
100
AcDbLine
 10
159.115869
 20
106.13099
 30
0.0
 11
159.115869
 21
106.160273
 31
0.0
  0
LINE
  5
C9
330
A
100
AcDbEntity
  8
0
 62
     7
100
AcDbLine
 10
159.115869
 20
106.160273
 30
0.0
 11
159.115869
 21
106.230897
 31
0.0
  0
LINE
  5
C8
330
A
100
AcDbEntity
  8
0
 62
     7
100
AcDbLine
 10
159.115869
 20
108.630234
 30
0.0
 11
159.115869
 21
108.701375
 31
0.0
  0
LINE
  5
C7
330
A
100
AcDbEntity
  8
0
 62
     7
100
AcDbLine
 10
159.115869
 20
108.701375
 30
0.0
 11
159.115869
 21
108.877936
 31
0.0
  0
LINE
  5
C6
330
A
100
AcDbEntity
  8
0
 62
     7
100
AcDbLine
 10
159.115869
 20
108.877936
 30
0.0
 11
159.115869
 21
108.944255
 31
0.0
  0
LINE
  5
C5
330
A
100
AcDbEntity
  8
0
 62
     7
100
AcDbLine
 10
159.115869
 20
108.944255
 30
0.0
 11
159.115869
 21
109.05088
 31
0.0
  0
LINE
  5
C4
330
A
100
AcDbEntity
  8
0
 62
     7
100
AcDbLine
 10
159.115869
 20
109.05088
 30
0.0
 11
159.115869
 21
109.199019
 31
0.0
  0
LINE
  5
C3
330
A
100
AcDbEntity
  8
0
 62
     7
100
AcDbLine
 10
146.544888
 20
108.601123
 30
0.0
 11
146.105811
 21
108.600951
 31
0.0
  0
LINE
  5
C2
330
A
100
AcDbEntity
  8
0
 62
     7
100
AcDbLine
 10
146.906278
 20
108.601295
 30
0.0
 11
146.544888
 21
108.601123
 31
0.0
  0
LINE
  5
C1
330
A
100
AcDbEntity
  8
0
 62
     7
100
AcDbLine
 10
147.149674
 20
108.601468
 30
0.0
 11
146.906278
 21
108.601295
 31
0.0
  0
LINE
  5
C0
330
A
100
AcDbEntity
  8
0
 62
     7
100
AcDbLine
 10
149.667006
 20
108.601468
 30
0.0
 11
147.144507
 21
108.601468
 31
0.0
  0
LINE
  5
BF
330
A
100
AcDbEntity
  8
0
 62
     7
100
AcDbLine
 10
146.10271
 20
106.226591
 30
0.0
 11
146.533347
 21
106.226419
 31
0.0
  0
LINE
  5
BE
330
A
100
AcDbEntity
  8
0
 62
     7
100
AcDbLine
 10
146.533347
 20
106.226419
 30
0.0
 11
146.884919
 21
106.226246
 31
0.0
  0
LINE
  5
BD
330
A
100
AcDbEntity
  8
0
 62
     7
100
AcDbLine
 10
146.884919
 20
106.226246
 30
0.0
 11
147.122114
 21
106.226246
 31
0.0
  0
LINE
  5
BC
330
A
100
AcDbEntity
  8
0
 62
     7
100
AcDbLine
 10
147.122114
 20
106.226246
 30
0.0
 11
147.20893
 21
106.226074
 31
0.0
  0
LINE
  5
BB
330
A
100
AcDbEntity
  8
0
 62
     7
100
AcDbLine
 10
147.20893
 20
106.226074
 30
0.0
 11
147.20893
 21
108.589926
 31
0.0
  0
LINE
  5
BA
330
A
100
AcDbEntity
  8
0
 62
     7
100
AcDbLine
 10
159.115869
 20
108.596644
 30
0.0
 11
159.115869
 21
108.626617
 31
0.0
  0
LINE
  5
B9
330
A
100
AcDbEntity
  8
0
 62
     7
100
AcDbLine
 10
157.865644
 20
108.596644
 30
0.0
 11
150.812155
 21
108.596989
 31
0.0
  0
LINE
  5
B8
330
A
100
AcDbEntity
  8
0
 62
     7
100
AcDbLine
 10
158.025841
 20
108.596644
 30
0.0
 11
157.865644
 21
108.596644
 31
0.0
  0
LINE
  5
B7
330
A
100
AcDbEntity
  8
0
 62
     7
100
AcDbLine
 10
159.115869
 20
108.596644
 30
0.0
 11
158.025841
 21
108.596644
 31
0.0
  0
LINE
  5
B6
330
A
100
AcDbEntity
  8
0
 62
     7
100
AcDbLine
 10
159.115869
 20
108.526709
 30
0.0
 11
159.115869
 21
108.596644
 31
0.0
  0
LINE
  5
B5
330
A
100
AcDbEntity
  8
0
 62
     7
100
AcDbLine
 10
150.812155
 20
108.596989
 30
0.0
 11
150.372906
 21
108.597161
 31
0.0
  0
LINE
  5
B4
330
A
100
AcDbEntity
  8
0
 62
     7
100
AcDbLine
 10
150.372906
 20
108.597161
 30
0.0
 11
150.01186
 21
108.597333
 31
0.0
  0
LINE
  5
B3
330
A
100
AcDbEntity
  8
0
 62
     7
100
AcDbLine
 10
150.01186
 20
108.597333
 30
0.0
 11
149.768292
 21
108.597506
 31
0.0
  0
LINE
  5
B2
330
A
100
AcDbEntity
  8
0
 62
     7
100
AcDbLine
 10
149.768292
 20
108.597506
 30
0.0
 11
149.679064
 21
108.597506
 31
0.0
  0
LINE
  5
B1
330
A
100
AcDbEntity
  8
0
 62
     7
100
AcDbLine
 10
159.115869
 20
106.230897
 30
0.0
 11
159.115869
 21
108.526709
 31
0.0
  0
LINE
  5
B0
330
A
100
AcDbEntity
  8
0
 62
     7
100
AcDbLine
 10
150.815256
 20
106.222629
 30
0.0
 11
159.111735
 21
106.230897
 31
0.0
  0
LINE
  5
AF
330
A
100
AcDbEntity
  8
0
 62
     7
100
AcDbLine
 10
150.384619
 20
106.222457
 30
0.0
 11
150.815256
 21
106.222629
 31
0.0
  0
LINE
  5
AE
330
A
100
AcDbEntity
  8
0
 62
     7
100
AcDbLine
 10
150.032875
 20
106.222285
 30
0.0
 11
150.384619
 21
106.222457
 31
0.0
  0
LINE
  5
AD
330
A
100
AcDbEntity
  8
0
 62
     7
100
AcDbLine
 10
147.217543
 20
106.222112
 30
0.0
 11
150.032875
 21
106.222285
 31
0.0
  0
LINE
  5
AC
330
A
100
AcDbEntity
  8
0
 62
     7
100
AcDbLine
 10
149.679064
 20
108.596817
 30
0.0
 11
149.679064
 21
108.499148
 31
0.0
  0
LINE
  5
AB
330
A
100
AcDbEntity
  8
0
 62
     7
100
AcDbLine
 10
149.679064
 20
108.499148
 30
0.0
 11
149.679064
 21
108.237493
 31
0.0
  0
LINE
  5
AA
330
A
100
AcDbEntity
  8
0
 62
     7
100
AcDbLine
 10
149.679064
 20
108.237493
 30
0.0
 11
149.679064
 21
107.850092
 31
0.0
  0
LINE
  5
A9
330
A
100
AcDbEntity
  8
0
 62
     7
100
AcDbLine
 10
149.679064
 20
107.850092
 30
0.0
 11
149.679064
 21
107.375875
 31
0.0
  0
LINE
  5
A8
330
A
100
AcDbEntity
  8
0
 62
     7
100
AcDbLine
 10
149.679064
 20
107.375875
 30
0.0
 11
149.679064
 21
106.901657
 31
0.0
  0
LINE
  5
A7
330
A
100
AcDbEntity
  8
0
 62
     7
100
AcDbLine
 10
149.679064
 20
106.901657
 30
0.0
 11
149.679064
 21
106.514256
 31
0.0
  0
LINE
  5
A6
330
A
100
AcDbEntity
  8
0
 62
     7
100
AcDbLine
 10
149.679064
 20
106.514256
 30
0.0
 11
149.679064
 21
106.252774
 31
0.0
  0
LINE
  5
A5
330
A
100
AcDbEntity
  8
0
 62
     7
100
AcDbLine
 10
138.892297
 20
108.600606
 30
0.0
 11
137.802097
 21
108.600606
 31
0.0
  0
LINE
  5
A4
330
A
100
AcDbEntity
  8
0
 62
     7
100
AcDbLine
 10
139.05215
 20
108.600606
 30
0.0
 11
138.892297
 21
108.600606
 31
0.0
  0
LINE
  5
A3
330
A
100
AcDbEntity
  8
0
 62
     7
100
AcDbLine
 10
146.105811
 20
108.600951
 30
0.0
 11
139.05215
 21
108.600606
 31
0.0
  0
LINE
  5
A2
330
A
100
AcDbEntity
  8
0
 62
     7
100
AcDbLine
 10
138.892297
 20
106.234859
 30
0.0
 11
139.05215
 21
106.234859
 31
0.0
  0
LINE
  5
A1
330
A
100
AcDbEntity
  8
0
 62
     7
100
AcDbLine
 10
137.802097
 20
106.234859
 30
0.0
 11
138.892297
 21
106.234859
 31
0.0
  0
LINE
  5
A0
330
A
100
AcDbEntity
  8
0
 62
     7
100
AcDbLine
 10
139.05215
 20
106.234859
 30
0.0
 11
146.10271
 21
106.226591
 31
0.0
  0
LINE
  5
9F
330
A
100
AcDbEntity
  8
0
 62
     7
100
AcDbLine
 10
159.115869
 20
108.626617
 30
0.0
 11
159.115869
 21
108.630234
 31
0.0
  0
LINE
  5
9E
330
A
100
AcDbEntity
  8
0
 62
     7
100
AcDbLine
 10
159.115869
 20
109.518724
 30
0.0
 11
159.115869
 21
109.628795
 31
0.0
  0
LINE
  5
9D
330
A
100
AcDbEntity
  8
0
 62
     7
100
AcDbLine
 10
158.025841
 20
109.628795
 30
0.0
 11
159.115869
 21
109.628795
 31
0.0
  0
LINE
  5
9C
330
A
100
AcDbEntity
  8
0
 62
     7
100
AcDbLine
 10
157.864955
 20
109.628795
 30
0.0
 11
158.025841
 21
109.628795
 31
0.0
  0
LINE
  5
9B
330
A
100
AcDbEntity
  8
0
 62
     7
100
AcDbLine
 10
150.804232
 20
109.620527
 30
0.0
 11
157.864955
 21
109.628795
 31
0.0
  0
LINE
  5
9A
330
A
100
AcDbEntity
  8
0
 62
     7
100
AcDbLine
 10
157.877702
 20
105.127089
 30
0.0
 11
157.873223
 21
105.12795
 31
0.0
  0
LINE
  5
99
330
A
100
AcDbEntity
  8
0
 62
     7
100
AcDbLine
 10
150.813189
 20
105.118821
 30
0.0
 11
157.876324
 21
105.127089
 31
0.0
  0
LINE
  5
98
330
A
100
AcDbEntity
  8
0
 62
     7
100
AcDbLine
 10
159.115869
 20
105.128811
 30
0.0
 11
159.115869
 21
105.238882
 31
0.0
  0
LINE
  5
97
330
A
100
AcDbEntity
  8
0
 62
     7
100
AcDbLine
 10
158.025841
 20
105.128811
 30
0.0
 11
159.115869
 21
105.128811
 31
0.0
  0
LINE
  5
96
330
A
100
AcDbEntity
  8
0
 62
     7
100
AcDbLine
 10
157.94557
 20
105.128811
 30
0.0
 11
158.025841
 21
105.128811
 31
0.0
  0
LINE
  5
95
330
A
100
AcDbEntity
  8
0
 62
     7
100
AcDbLine
 10
157.8684
 20
105.128811
 30
0.0
 11
157.94557
 21
105.128811
 31
0.0
  0
LINE
  5
94
330
A
100
AcDbEntity
  8
0
 62
     7
100
AcDbLine
 10
159.115869
 20
105.87967
 30
0.0
 11
159.115869
 21
106.056231
 31
0.0
  0
LINE
  5
93
330
A
100
AcDbEntity
  8
0
 62
     7
100
AcDbLine
 10
159.115869
 20
106.127372
 30
0.0
 11
159.115869
 21
106.13099
 31
0.0
  0
LINE
  5
92
330
A
100
AcDbEntity
  8
0
 62
     7
100
AcDbLine
 10
138.892297
 20
109.632757
 30
0.0
 11
139.053356
 21
109.632757
 31
0.0
  0
LINE
  5
91
330
A
100
AcDbEntity
  8
0
 62
     7
100
AcDbLine
 10
137.802097
 20
109.632757
 30
0.0
 11
138.892297
 21
109.632757
 31
0.0
  0
LINE
  5
90
330
A
100
AcDbEntity
  8
0
 62
     7
100
AcDbLine
 10
146.115285
 20
109.624489
 30
0.0
 11
150.804232
 21
109.620527
 31
0.0
  0
LINE
  5
8F
330
A
100
AcDbEntity
  8
0
 62
     7
100
AcDbLine
 10
139.053356
 20
109.632757
 30
0.0
 11
146.115285
 21
109.624489
 31
0.0
  0
LINE
  5
8E
330
A
100
AcDbEntity
  8
0
 62
     7
100
AcDbLine
 10
149.520934
 20
105.119854
 30
0.0
 11
150.813189
 21
105.118821
 31
0.0
  0
LINE
  5
8D
330
A
100
AcDbEntity
  8
0
 62
     7
100
AcDbLine
 10
138.892297
 20
105.132773
 30
0.0
 11
147.347078
 21
105.132773
 31
0.0
  0
LINE
  5
8C
330
A
100
AcDbEntity
  8
0
 62
     7
100
AcDbLine
 10
137.802097
 20
105.132773
 30
0.0
 11
138.892297
 21
105.132773
 31
0.0
  0
LINE
  5
8B
330
A
100
AcDbEntity
  8
0
 62
     7
100
AcDbLine
 10
159.115869
 20
105.238882
 30
0.0
 11
159.115869
 21
105.558587
 31
0.0
  0
LINE
  5
8A
330
A
100
AcDbEntity
  8
0
 62
     7
100
AcDbLine
 10
159.115869
 20
105.558587
 30
0.0
 11
159.115869
 21
105.706726
 31
0.0
  0
LINE
  5
89
330
A
100
AcDbEntity
  8
0
 62
     7
100
AcDbLine
 10
159.115869
 20
105.706726
 30
0.0
 11
159.115869
 21
105.813352
 31
0.0
  0
LINE
  5
88
330
A
100
AcDbEntity
  8
0
 62
     7
100
AcDbLine
 10
159.115869
 20
105.813352
 30
0.0
 11
159.115869
 21
105.87967
 31
0.0
  0
LINE
  5
87
330
A
100
AcDbEntity
  8
0
 62
     7
100
AcDbLine
 10
159.115869
 20
106.056231
 30
0.0
 11
159.115869
 21
106.127372
 31
0.0
  0
LINE
  5
86
330
A
100
AcDbEntity
  8
0
 62
     7
100
AcDbLine
 10
137.802097
 20
106.164235
 30
0.0
 11
137.802097
 21
106.234859
 31
0.0
  0
LINE
  5
85
330
A
100
AcDbEntity
  8
0
 62
     7
100
AcDbLine
 10
137.802097
 20
106.134951
 30
0.0
 11
137.802097
 21
106.164235
 31
0.0
  0
LINE
  5
84
330
A
100
AcDbEntity
  8
0
 62
     7
100
AcDbLine
 10
137.802097
 20
106.131334
 30
0.0
 11
137.802097
 21
106.134951
 31
0.0
  0
LINE
  5
83
330
A
100
AcDbEntity
  8
0
 62
     7
100
AcDbLine
 10
137.802097
 20
106.060365
 30
0.0
 11
137.802097
 21
106.131334
 31
0.0
  0
LINE
  5
82
330
A
100
AcDbEntity
  8
0
 62
     7
100
AcDbLine
 10
137.802097
 20
105.883632
 30
0.0
 11
137.802097
 21
106.060365
 31
0.0
  0
LINE
  5
81
330
A
100
AcDbEntity
  8
0
 62
     7
100
AcDbLine
 10
137.802097
 20
105.817314
 30
0.0
 11
137.802097
 21
105.883632
 31
0.0
  0
LINE
  5
80
330
A
100
AcDbEntity
  8
0
 62
     7
100
AcDbLine
 10
137.802097
 20
105.71086
 30
0.0
 11
137.802097
 21
105.817314
 31
0.0
  0
LINE
  5
7F
330
A
100
AcDbEntity
  8
0
 62
     7
100
AcDbLine
 10
137.802097
 20
105.562549
 30
0.0
 11
137.802097
 21
105.71086
 31
0.0
  0
LINE
  5
7E
330
A
100
AcDbEntity
  8
0
 62
     7
100
AcDbLine
 10
137.802097
 20
105.242844
 30
0.0
 11
137.802097
 21
105.562549
 31
0.0
  0
LINE
  5
7D
330
A
100
AcDbEntity
  8
0
 62
     7
100
AcDbLine
 10
137.802097
 20
105.132773
 30
0.0
 11
137.802097
 21
105.242844
 31
0.0
  0
LINE
  5
7C
330
A
100
AcDbEntity
  8
0
 62
     7
100
AcDbLine
 10
137.802097
 20
109.522686
 30
0.0
 11
137.802097
 21
109.632757
 31
0.0
  0
LINE
  5
7B
330
A
100
AcDbEntity
  8
0
 62
     7
100
AcDbLine
 10
137.802097
 20
109.203153
 30
0.0
 11
137.802097
 21
109.522686
 31
0.0
  0
LINE
  5
7A
330
A
100
AcDbEntity
  8
0
 62
     7
100
AcDbLine
 10
137.802097
 20
109.054842
 30
0.0
 11
137.802097
 21
109.203153
 31
0.0
  0
LINE
  5
79
330
A
100
AcDbEntity
  8
0
 62
     7
100
AcDbLine
 10
137.802097
 20
108.948216
 30
0.0
 11
137.802097
 21
109.054842
 31
0.0
  0
LINE
  5
78
330
A
100
AcDbEntity
  8
0
 62
     7
100
AcDbLine
 10
137.802097
 20
108.881898
 30
0.0
 11
137.802097
 21
108.948216
 31
0.0
  0
LINE
  5
77
330
A
100
AcDbEntity
  8
0
 62
     7
100
AcDbLine
 10
137.802097
 20
108.705337
 30
0.0
 11
137.802097
 21
108.881898
 31
0.0
  0
LINE
  5
76
330
A
100
AcDbEntity
  8
0
 62
     7
100
AcDbLine
 10
137.802097
 20
108.634196
 30
0.0
 11
137.802097
 21
108.705337
 31
0.0
  0
LINE
  5
75
330
A
100
AcDbEntity
  8
0
 62
     7
100
AcDbLine
 10
137.802097
 20
108.630751
 30
0.0
 11
137.802097
 21
108.634196
 31
0.0
  0
LINE
  5
74
330
A
100
AcDbEntity
  8
0
 62
     7
100
AcDbLine
 10
137.802097
 20
108.600606
 30
0.0
 11
137.802097
 21
108.630751
 31
0.0
  0
LINE
  5
73
330
A
100
AcDbEntity
  8
0
 62
     7
100
AcDbLine
 10
137.802097
 20
108.530671
 30
0.0
 11
137.802097
 21
108.600606
 31
0.0
  0
LINE
  5
72
330
A
100
AcDbEntity
  8
0
 62
     7
100
AcDbLine
 10
137.802097
 20
106.234859
 30
0.0
 11
137.802097
 21
108.530671
 31
0.0
  0
LINE
  5
71
330
A
100
AcDbEntity
  8
0
 62
     7
100
AcDbLine
 10
159.31534
 20
105.341029
 30
0.0
 11
159.115869
 21
105.341029
 31
0.0
  0
LINE
  5
70
330
A
100
AcDbEntity
  8
0
 62
     7
100
AcDbLine
 10
159.115869
 20
109.419678
 30
0.0
 11
159.314996
 21
109.419678
 31
0.0
  0
LINE
  5
6F
330
A
100
AcDbEntity
  8
0
 62
     7
100
AcDbLine
 10
137.802097
 20
105.341029
 30
0.0
 11
137.605554
 21
105.341029
 31
0.0
  0
LINE
  5
6E
330
A
100
AcDbEntity
  8
0
 62
     7
100
AcDbLine
 10
137.605726
 20
109.419678
 30
0.0
 11
137.802097
 21
109.419678
 31
0.0
  0
LINE
  5
6D
330
A
100
AcDbEntity
  8
0
 62
     7
100
AcDbLine
 10
147.371194
 20
105.121749
 30
0.0
 11
147.349318
 21
105.122438
 31
0.0
  0
LINE
  5
6C
330
A
100
AcDbEntity
  8
0
 62
     7
100
AcDbLine
 10
147.432689
 20
105.123127
 30
0.0
 11
147.371194
 21
105.121749
 31
0.0
  0
LINE
  5
6B
330
A
100
AcDbEntity
  8
0
 62
     7
100
AcDbLine
 10
147.670573
 20
105.123644
 30
0.0
 11
147.432689
 21
105.123127
 31
0.0
  0
LINE
  5
6A
330
A
100
AcDbEntity
  8
0
 62
     7
100
AcDbLine
 10
147.670573
 20
105.123644
 30
0.0
 11
147.759112
 21
105.123127
 31
0.0
  0
LINE
  5
69
330
A
100
AcDbEntity
  8
0
 62
     7
100
AcDbLine
 10
147.759112
 20
105.123127
 30
0.0
 11
148.026279
 21
105.152066
 31
0.0
  0
LINE
  5
68
330
A
100
AcDbEntity
  8
0
 62
     7
100
AcDbLine
 10
148.026279
 20
105.152066
 30
0.0
 11
148.4460639999999
 21
105.164985
 31
0.0
  0
LINE
  5
67
330
A
100
AcDbEntity
  8
0
 62
     7
100
AcDbLine
 10
148.4460639999999
 20
105.164985
 30
0.0
 11
148.865677
 21
105.151377
 31
0.0
  0
LINE
  5
66
330
A
100
AcDbEntity
  8
0
 62
     7
100
AcDbLine
 10
149.133016
 20
105.121921
 30
0.0
 11
149.221555
 21
105.122093
 31
0.0
  0
LINE
  5
65
330
A
100
AcDbEntity
  8
0
 62
     7
100
AcDbLine
 10
148.865677
 20
105.151377
 30
0.0
 11
149.133016
 21
105.121921
 31
0.0
  0
LINE
  5
64
330
A
100
AcDbEntity
  8
0
 62
     7
100
AcDbLine
 10
149.221555
 20
105.122093
 30
0.0
 11
149.459266
 21
105.120888
 31
0.0
  0
LINE
  5
63
330
A
100
AcDbEntity
  8
0
 62
     7
100
AcDbLine
 10
149.520934
 20
105.119854
 30
0.0
 11
149.542982
 21
105.120199
 31
0.0
  0
LINE
  5
62
330
A
100
AcDbEntity
  8
0
 62
     7
100
AcDbLine
 10
149.459266
 20
105.120888
 30
0.0
 11
149.520934
 21
105.119854
 31
0.0
  0
LINE
  5
61
330
A
100
AcDbEntity
  8
0
 62
     7
100
AcDbLine
 10
159.316374
 20
106.51529
 30
0.0
 11
159.316374
 21
106.589187
 31
0.0
  0
LINE
  5
60
330
A
100
AcDbEntity
  8
0
 62
     7
100
AcDbLine
 10
159.31534
 20
109.264476
 30
0.0
 11
159.314996
 21
109.419678
 31
0.0
  0
LINE
  5
5F
330
A
100
AcDbEntity
  8
0
 62
     7
100
AcDbLine
 10
159.31534
 20
108.82247
 30
0.0
 11
159.31534
 21
109.264476
 31
0.0
  0
LINE
  5
5E
330
A
100
AcDbEntity
  8
0
 62
     7
100
AcDbLine
 10
159.315685
 20
105.938409
 30
0.0
 11
159.316374
 21
106.51529
 31
0.0
  0
LINE
  5
5D
330
A
100
AcDbEntity
  8
0
 62
     7
100
AcDbLine
 10
159.315685
 20
105.938409
 30
0.0
 11
159.31534
 21
105.496231
 31
0.0
  0
LINE
  5
5C
330
A
100
AcDbEntity
  8
0
 62
     7
100
AcDbLine
 10
159.31534
 20
105.496231
 30
0.0
 11
159.31534
 21
105.341029
 31
0.0
  0
LINE
  5
5B
330
A
100
AcDbEntity
  8
0
 62
     7
100
AcDbLine
 10
159.316374
 20
106.589187
 30
0.0
 11
159.316374
 21
106.600039
 31
0.0
  0
LINE
  5
5A
330
A
100
AcDbEntity
  8
0
 62
     7
100
AcDbLine
 10
137.604521
 20
106.51529
 30
0.0
 11
137.604521
 21
106.589187
 31
0.0
  0
LINE
  5
59
330
A
100
AcDbEntity
  8
0
 62
     7
100
AcDbLine
 10
137.605554
 20
109.264476
 30
0.0
 11
137.605726
 21
109.419678
 31
0.0
  0
LINE
  5
58
330
A
100
AcDbEntity
  8
0
 62
     7
100
AcDbLine
 10
137.60521
 20
105.938409
 30
0.0
 11
137.604521
 21
106.51529
 31
0.0
  0
LINE
  5
57
330
A
100
AcDbEntity
  8
0
 62
     7
100
AcDbLine
 10
137.60521
 20
105.938409
 30
0.0
 11
137.605382
 21
105.496231
 31
0.0
  0
LINE
  5
56
330
A
100
AcDbEntity
  8
0
 62
     7
100
AcDbLine
 10
137.604521
 20
106.600039
 30
0.0
 11
137.604865
 21
107.380353
 31
0.0
  0
LINE
  5
55
330
A
100
AcDbEntity
  8
0
 62
     7
100
AcDbLine
 10
137.604521
 20
106.589187
 30
0.0
 11
137.604521
 21
106.600039
 31
0.0
  0
LINE
  5
54
330
A
100
AcDbEntity
  8
0
 62
     7
100
AcDbLine
 10
163.945549
 20
106.250707
 30
0.0
 11
163.943826
 21
108.591305
 31
0.0
  0
LINE
  5
53
330
A
100
AcDbEntity
  8
0
 62
     7
100
AcDbLine
 10
134.002673
 20
108.861917
 30
0.0
 11
134.386801
 21
109.129601
 31
0.0
  0
LINE
  5
52
330
A
100
AcDbEntity
  8
0
 62
     7
100
AcDbLine
 10
135.123191
 20
109.198158
 30
0.0
 11
134.744575
 21
109.221929
 31
0.0
  0
LINE
  5
51
330
A
100
AcDbEntity
  8
0
 62
     7
100
AcDbLine
 10
132.648579
 20
109.151994
 30
0.0
 11
132.770018
 21
109.026592
 31
0.0
  0
LINE
  5
50
330
A
100
AcDbEntity
  8
0
 62
     7
100
AcDbLine
 10
132.770018
 20
109.026592
 30
0.0
 11
132.84805
 21
108.923756
 31
0.0
  0
LINE
  5
4F
330
A
100
AcDbEntity
  8
0
 62
     7
100
AcDbLine
 10
132.924531
 20
108.746162
 30
0.0
 11
132.84805
 21
108.923756
 31
0.0
  0
LINE
  5
4E
330
A
100
AcDbEntity
  8
0
 62
     7
100
AcDbLine
 10
132.924531
 20
108.746162
 30
0.0
 11
132.965183
 21
108.595094
 31
0.0
  0
LINE
  5
4D
330
A
100
AcDbEntity
  8
0
 62
     7
100
AcDbLine
 10
132.632042
 20
105.16464
 30
0.0
 11
132.716791
 21
105.129156
 31
0.0
  0
LINE
  5
4C
330
A
100
AcDbEntity
  8
0
 62
     7
100
AcDbLine
 10
132.596902
 20
105.250423
 30
0.0
 11
132.632042
 21
105.16464
 31
0.0
  0
LINE
  5
4B
330
A
100
AcDbEntity
  8
0
 62
     7
100
AcDbLine
 10
132.63187
 20
109.593311
 30
0.0
 11
132.716619
 21
109.628967
 31
0.0
  0
LINE
  5
4A
330
A
100
AcDbEntity
  8
0
 62
     7
100
AcDbLine
 10
132.596902
 20
109.507528
 30
0.0
 11
132.63187
 21
109.593311
 31
0.0
  0
LINE
  5
49
330
A
100
AcDbEntity
  8
0
 62
     7
100
AcDbLine
 10
135.774658
 20
106.254152
 30
0.0
 11
135.776036
 21
108.59475
 31
0.0
  0
LINE
  5
48
330
A
100
AcDbEntity
  8
0
 62
     7
100
AcDbLine
 10
133.783049
 20
106.257425
 30
0.0
 11
133.784427
 21
108.598022
 31
0.0
  0
LINE
  5
47
330
A
100
AcDbEntity
  8
0
 62
     7
100
AcDbLine
 10
134.000434
 20
108.861572
 30
0.0
 11
133.786494
 21
108.593544
 31
0.0
  0
LINE
  5
46
330
A
100
AcDbEntity
  8
0
 62
     7
100
AcDbLine
 10
132.596902
 20
109.403314
 30
0.0
 11
132.597074
 21
109.099801
 31
0.0
  0
LINE
  5
45
330
A
100
AcDbEntity
  8
0
 62
     7
100
AcDbLine
 10
132.596902
 20
109.507528
 30
0.0
 11
132.596902
 21
109.403314
 31
0.0
  0
LINE
  5
44
330
A
100
AcDbEntity
  8
0
 62
     7
100
AcDbLine
 10
132.596902
 20
109.403314
 30
0.0
 11
132.596902
 21
109.507528
 31
0.0
  0
LINE
  5
43
330
A
100
AcDbEntity
  8
0
 62
     7
100
AcDbLine
 10
132.596902
 20
105.657461
 30
0.0
 11
132.596902
 21
109.403314
 31
0.0
  0
LINE
  5
42
330
A
100
AcDbEntity
  8
0
 62
     7
100
AcDbLine
 10
132.59673
 20
105.358599
 30
0.0
 11
132.596902
 21
105.250423
 31
0.0
  0
LINE
  5
41
330
A
100
AcDbEntity
  8
0
 62
     7
100
AcDbLine
 10
132.596385
 20
105.665557
 30
0.0
 11
132.59673
 21
105.358599
 31
0.0
  0
LINE
  5
40
330
A
100
AcDbEntity
  8
0
 62
     7
100
AcDbLine
 10
137.595391
 20
106.25019
 30
0.0
 11
135.77328
 21
106.247951
 31
0.0
  0
LINE
  5
3F
330
A
100
AcDbEntity
  8
0
 62
     7
100
AcDbLine
 10
137.596769
 20
108.596644
 30
0.0
 11
135.776036
 21
108.596644
 31
0.0
  0
LINE
  5
3E
330
A
100
AcDbEntity
  8
0
 62
     7
100
AcDbLine
 10
133.787527
 20
106.259836
 30
0.0
 11
132.962599
 21
106.257597
 31
0.0
  0
LINE
  5
3D
330
A
100
AcDbEntity
  8
0
 62
     7
100
AcDbLine
 10
133.788216
 20
108.596644
 30
0.0
 11
132.963977
 21
108.596644
 31
0.0
  0
LINE
  5
3C
330
A
100
AcDbEntity
  8
0
 62
     7
100
AcDbLine
 10
137.596769
 20
109.628795
 30
0.0
 11
134.73889
 21
109.631896
 31
0.0
  0
LINE
  5
3B
330
A
100
AcDbEntity
  8
0
 62
     7
100
AcDbLine
 10
134.73889
 20
109.631896
 30
0.0
 11
132.716619
 21
109.628967
 31
0.0
  0
LINE
  5
3A
330
A
100
AcDbEntity
  8
0
 62
     7
100
AcDbLine
 10
134.73889
 20
105.131912
 30
0.0
 11
137.596769
 21
105.128811
 31
0.0
  0
LINE
  5
39
330
A
100
AcDbEntity
  8
0
 62
     7
100
AcDbLine
 10
132.716791
 20
105.129156
 30
0.0
 11
134.73889
 21
105.131912
 31
0.0
  0
LINE
  5
38
330
A
100
AcDbEntity
  8
0
 62
     7
100
AcDbLine
 10
135.540908
 20
108.944944
 30
0.0
 11
135.123191
 21
109.198158
 31
0.0
  0
LINE
  5
37
330
A
100
AcDbEntity
  8
0
 62
     7
100
AcDbLine
 10
134.744575
 20
109.221929
 30
0.0
 11
134.386801
 21
109.129601
 31
0.0
  0
LINE
  5
36
330
A
100
AcDbEntity
  8
0
 62
     7
100
AcDbLine
 10
135.541253
 20
108.94391
 30
0.0
 11
135.77328
 21
108.59785
 31
0.0
  0
LINE
  5
35
330
A
100
AcDbEntity
  8
0
 62
     7
100
AcDbLine
 10
132.648579
 20
109.151994
 30
0.0
 11
132.597247
 21
109.187478
 31
0.0
  0
LINE
  5
34
330
A
100
AcDbEntity
  8
0
 62
     7
100
AcDbLine
 10
134.002673
 20
105.990257
 30
0.0
 11
134.386801
 21
105.722574
 31
0.0
  0
LINE
  5
33
330
A
100
AcDbEntity
  8
0
 62
     7
100
AcDbLine
 10
135.123191
 20
105.654016
 30
0.0
 11
134.744575
 21
105.630245
 31
0.0
  0
LINE
  5
32
330
A
100
AcDbEntity
  8
0
 62
     7
100
AcDbLine
 10
132.648579
 20
105.70018
 30
0.0
 11
132.770018
 21
105.825582
 31
0.0
  0
LINE
  5
31
330
A
100
AcDbEntity
  8
0
 62
     7
100
AcDbLine
 10
132.770018
 20
105.825582
 30
0.0
 11
132.84805
 21
105.928418
 31
0.0
  0
LINE
  5
30
330
A
100
AcDbEntity
  8
0
 62
     7
100
AcDbLine
 10
132.924531
 20
106.106013
 30
0.0
 11
132.84805
 21
105.928418
 31
0.0
  0
LINE
  5
2F
330
A
100
AcDbEntity
  8
0
 62
     7
100
AcDbLine
 10
132.924531
 20
106.106013
 30
0.0
 11
132.965183
 21
106.25708
 31
0.0
  0
LINE
  5
2E
330
A
100
AcDbEntity
  8
0
 62
     7
100
AcDbLine
 10
134.000434
 20
105.990602
 30
0.0
 11
133.786494
 21
106.25863
 31
0.0
  0
LINE
  5
2D
330
A
100
AcDbEntity
  8
0
 62
     7
100
AcDbLine
 10
135.540908
 20
105.907231
 30
0.0
 11
135.123191
 21
105.654016
 31
0.0
  0
LINE
  5
2C
330
A
100
AcDbEntity
  8
0
 62
     7
100
AcDbLine
 10
134.744575
 20
105.630245
 30
0.0
 11
134.386801
 21
105.722574
 31
0.0
  0
LINE
  5
2B
330
A
100
AcDbEntity
  8
0
 62
     7
100
AcDbLine
 10
135.541253
 20
105.908264
 30
0.0
 11
135.77328
 21
106.254324
 31
0.0
  0
LINE
  5
2A
330
A
100
AcDbEntity
  8
0
 62
     7
100
AcDbLine
 10
132.648579
 20
105.70018
 30
0.0
 11
132.597247
 21
105.664696
 31
0.0
  0
LINE
  5
29
330
A
100
AcDbEntity
  8
0
 62
     7
100
AcDbLine
 10
132.966733
 20
106.250707
 30
0.0
 11
132.968111
 21
108.591305
 31
0.0
  0
DIMENSION
  5
1AC
330
A
100
AcDbEntity
  8
Cotation-JacobDelafon
  6
Continuous
370
     0
100
AcDbDimension
  2
*D1
 10
164.315207
 20
119.6124976426023
 30
0.0
 11
148.4561405
 21
122.0452397981276
 31
0.0
 70
    32
  1
31.7
 71
     5
 42
31.71813300000002
 73
     0
 74
     0
 75
     0
  3
Cotation-Jacob-Delafon
100
AcDbAlignedDimension
 13
132.597074
 23
108.923756
 33
0.0
 14
164.315207
 24
109.099801
 34
0.0
100
AcDbRotatedDimension
  0
DIMENSION
  5
1B9
330
A
100
AcDbEntity
  8
Cotation-JacobDelafon
  6
Continuous
370
     0
100
AcDbDimension
  2
*D2
 10
124.0849264873265
 20
100.367345
 30
0.0
 11
121.6521843318012
 21
104.9580505
 31
0.0
 70
    32
  1
9.3
 71
     5
 42
9.181411000000011
 73
     0
 74
     0
 75
     0
  3
Cotation-Jacob-Delafon
100
AcDbAlignedDimension
 13
132.597074
 23
109.548756
 33
0.0
 14
139.060763
 24
100.367345
 34
0.0
 50
90.0
100
AcDbRotatedDimension
  0
ENDSEC
  0
SECTION
  2
OBJECTS
  0
DICTIONARY
  5
19
330
0
100
AcDbDictionary
281
     1
  3
ACAD_COLOR
350
178
  3
ACAD_GROUP
350
1A
  3
ACAD_LAYOUT
350
1E
  3
ACAD_MATERIAL
350
14E
  3
ACAD_MLEADERSTYLE
350
18D
  3
ACAD_MLINESTYLE
350
1B
  3
ACAD_PLOTSETTINGS
350
22
  3
ACAD_PLOTSTYLENAME
350
1F
  3
ACAD_SCALELIST
350
17B
  3
ACAD_TABLESTYLE
350
179
  3
ACAD_VISUALSTYLE
350
167
  3
ACAD_WIPEOUT_VARS
350
23
  3
ACDB_RECOMPOSE_DATA
350
1DD
  3
AcDbVariableDictionary
350
1DE
  3
AEC_PROPERTY_SET_DEFS
350
1A0
  0
DICTIONARY
  5
1D8
330
14
100
AcDbDictionary
280
     1
281
     1
  3
ADSK_XREC_LAYER_RECONCILED
360
1D9
  0
DICTIONARY
  5
1A6
330
1A5
100
AcDbDictionary
280
     1
281
     1
  3
ADSK_XREC_LAYER_RECONCILED
360
1DA
  0
DICTIONARY
  5
178
102
{ACAD_REACTORS
330
19
102
}
330
19
100
AcDbDictionary
281
     1
  0
DICTIONARY
  5
1A
102
{ACAD_REACTORS
330
19
102
}
330
19
100
AcDbDictionary
281
     1
  0
DICTIONARY
  5
1E
102
{ACAD_REACTORS
330
19
102
}
330
19
100
AcDbDictionary
281
     1
  3
Layout1
350
21
  3
Model
350
20
  0
DICTIONARY
  5
14E
102
{ACAD_REACTORS
330
19
102
}
330
19
100
AcDbDictionary
281
     1
  3
ByBlock
350
157
  3
ByLayer
350
14F
  3
Global
350
15F
  0
DICTIONARY
  5
18D
102
{ACAD_REACTORS
330
19
102
}
330
19
100
AcDbDictionary
281
     1
  3
Standard
350
18E
  0
DICTIONARY
  5
1B
102
{ACAD_REACTORS
330
19
102
}
330
19
100
AcDbDictionary
281
     1
  3
Standard
350
1C
  0
DICTIONARY
  5
22
102
{ACAD_REACTORS
330
19
102
}
330
19
100
AcDbDictionary
281
     1
  0
ACDBDICTIONARYWDFLT
  5
1F
102
{ACAD_REACTORS
330
19
102
}
330
19
100
AcDbDictionary
281
     1
  3
Normal
350
1D
100
AcDbDictionaryWithDefault
340
1D
  0
DICTIONARY
  5
17B
102
{ACAD_REACTORS
330
19
102
}
330
19
100
AcDbDictionary
281
     1
  3
A0
350
17C
  3
A1
350
17D
  3
A2
350
17E
  3
A3
350
17F
  3
A4
350
180
  3
A5
350
181
  3
A6
350
182
  3
A7
350
183
  3
A8
350
184
  3
A9
350
185
  3
B0
350
186
  3
B1
350
187
  3
B2
350
188
  3
B3
350
189
  3
B4
350
18A
  3
B5
350
18B
  3
B6
350
18C
  0
DICTIONARY
  5
179
102
{ACAD_REACTORS
330
19
102
}
330
19
100
AcDbDictionary
281
     1
  3
Standard
350
17A
  0
DICTIONARY
  5
167
102
{ACAD_REACTORS
330
19
102
}
330
19
100
AcDbDictionary
281
     1
  3
2dWireframe
350
16D
  3
3D Hidden
350
16F
  3
3dWireframe
350
16E
  3
Basic
350
16C
  3
Brighten
350
173
  3
ColorChange
350
177
  3
Conceptual
350
170
  3
Dim
350
172
  3
Facepattern
350
176
  3
Flat
350
168
  3
FlatWithEdges
350
169
  3
Gouraud
350
16A
  3
GouraudWithEdges
350
16B
  3
Linepattern
350
175
  3
Realistic
350
171
  3
Thicken
350
174
  0
WIPEOUTVARIABLES
  5
23
330
19
100
AcDbWipeoutVariables
 70
     1
  0
XRECORD
  5
1DD
102
{ACAD_REACTORS
330
19
102
}
330
19
100
AcDbXrecord
280
     1
 90
        1
330
17A
  0
DICTIONARY
  5
1DE
102
{ACAD_REACTORS
330
19
102
}
330
19
100
AcDbDictionary
281
     1
  3
CANNOSCALE
350
1E2
  3
CMLEADERSTYLE
350
1E0
  3
CTABLESTYLE
350
1DF
  3
LAYEREVAL
350
1E4
  3
LAYERNOTIFY
350
1E5
  3
LIGHTINGUNITS
350
1E3
  3
MSLTSCALE
350
1E1
  0
DICTIONARY
  5
1A0
102
{ACAD_REACTORS
330
19
102
}
330
19
100
AcDbDictionary
281
     1
  0
XRECORD
  5
1D9
102
{ACAD_REACTORS
330
1D8
102
}
330
1D8
100
AcDbXrecord
280
     1
290
     1
  0
XRECORD
  5
1DA
102
{ACAD_REACTORS
330
1A6
102
}
330
1A6
100
AcDbXrecord
280
     1
290
     1
  0
LAYOUT
  5
21
102
{ACAD_REACTORS
330
1E
102
}
330
1E
100
AcDbPlotSettings
  1

  2

  4

  6

 40
0.0
 41
0.0
 42
0.0
 43
0.0
 44
0.0
 45
0.0
 46
0.0
 47
0.0
 48
0.0
 49
0.0
140
0.0
141
0.0
142
1.0
143
1.0
 70
     0
 72
     0
 73
     0
 74
     0
  7

 75
     0
147
1.0
 76
     0
 77
     2
 78
   300
148
0.0
149
0.0
100
AcDbLayout
  1
Layout1
 70
     0
 71
     1
 10
0.0
 20
0.0
 11
12.0
 21
9.0
 12
0.0
 22
0.0
 32
0.0
 14
1.000000000000000E+20
 24
1.000000000000000E+20
 34
1.000000000000000E+20
 15
-1.000000000000000E+20
 25
-1.000000000000000E+20
 35
-1.000000000000000E+20
146
0.0
 13
0.0
 23
0.0
 33
0.0
 16
1.0
 26
0.0
 36
0.0
 17
0.0
 27
1.0
 37
0.0
 76
     0
330
B
  0
LAYOUT
  5
20
102
{ACAD_REACTORS
330
1E
102
}
330
1E
100
AcDbPlotSettings
  1

  2

  4

  6

 40
0.0
 41
0.0
 42
0.0
 43
0.0
 44
0.0
 45
0.0
 46
0.0
 47
0.0
 48
0.0
 49
0.0
140
0.0
141
0.0
142
1.0
143
1.0
 70
  1024
 72
     0
 73
     0
 74
     0
  7

 75
     0
147
1.0
 76
     0
 77
     2
 78
   300
148
0.0
149
0.0
100
AcDbLayout
  1
Model
 70
     0
 71
     0
 10
0.0
 20
0.0
 11
0.0
 21
0.0
 12
0.0
 22
0.0
 32
0.0
 14
0.0
 24
0.0
 34
0.0
 15
0.0
 25
0.0
 35
0.0
146
0.0
 13
0.0
 23
0.0
 33
0.0
 16
0.0
 26
0.0
 36
0.0
 17
0.0
 27
0.0
 37
0.0
 76
     0
330
A
331
15
  0
MATERIAL
  5
157
102
{ACAD_XDICTIONARY
360
158
102
}
102
{ACAD_REACTORS
330
14E
102
}
330
14E
100
AcDbMaterial
  1
ByBlock
 72
     0
 43
0.0208333333333333
 43
0.0
 43
0.0
 43
0.0
 43
0.0
 43
0.0208333333333333
 43
0.0
 43
0.0
 43
0.0
 43
0.0
 43
1.0
 43
0.0
 43
0.0
 43
0.0
 43
0.0
 43
1.0
 77
     0
 47
0.0208333333333333
 47
0.0
 47
0.0
 47
0.0
 47
0.0
 47
0.0208333333333333
 47
0.0
 47
0.0
 47
0.0
 47
0.0
 47
1.0
 47
0.0
 47
0.0
 47
0.0
 47
0.0
 47
1.0
171
     0
 49
0.0208333333333333
 49
0.0
 49
0.0
 49
0.0
 49
0.0
 49
0.0208333333333333
 49
0.0
 49
0.0
 49
0.0
 49
0.0
 49
1.0
 49
0.0
 49
0.0
 49
0.0
 49
0.0
 49
1.0
175
     0
142
0.0208333333333333
142
0.0
142
0.0
142
0.0
142
0.0
142
0.0208333333333333
142
0.0
142
0.0
142
0.0
142
0.0
142
1.0
142
0.0
142
0.0
142
0.0
142
0.0
142
1.0
179
     0
144
0.0208333333333333
144
0.0
144
0.0
144
0.0
144
0.0
144
0.0208333333333333
144
0.0
144
0.0
144
0.0
144
0.0
144
1.0
144
0.0
144
0.0
144
0.0
144
0.0
144
1.0
147
0.0208333333333333
147
0.0
147
0.0
147
0.0
147
0.0
147
0.0208333333333333
147
0.0
147
0.0
147
0.0
147
0.0
147
1.0
147
0.0
147
0.0
147
0.0
147
0.0
147
1.0
  0
MATERIAL
  5
14F
102
{ACAD_XDICTIONARY
360
150
102
}
102
{ACAD_REACTORS
330
14E
102
}
330
14E
100
AcDbMaterial
  1
ByLayer
 72
     0
 43
0.0208333333333333
 43
0.0
 43
0.0
 43
0.0
 43
0.0
 43
0.0208333333333333
 43
0.0
 43
0.0
 43
0.0
 43
0.0
 43
1.0
 43
0.0
 43
0.0
 43
0.0
 43
0.0
 43
1.0
 77
     0
 47
0.0208333333333333
 47
0.0
 47
0.0
 47
0.0
 47
0.0
 47
0.0208333333333333
 47
0.0
 47
0.0
 47
0.0
 47
0.0
 47
1.0
 47
0.0
 47
0.0
 47
0.0
 47
0.0
 47
1.0
171
     0
 49
0.0208333333333333
 49
0.0
 49
0.0
 49
0.0
 49
0.0
 49
0.0208333333333333
 49
0.0
 49
0.0
 49
0.0
 49
0.0
 49
1.0
 49
0.0
 49
0.0
 49
0.0
 49
0.0
 49
1.0
175
     0
142
0.0208333333333333
142
0.0
142
0.0
142
0.0
142
0.0
142
0.0208333333333333
142
0.0
142
0.0
142
0.0
142
0.0
142
1.0
142
0.0
142
0.0
142
0.0
142
0.0
142
1.0
179
     0
144
0.0208333333333333
144
0.0
144
0.0
144
0.0
144
0.0
144
0.0208333333333333
144
0.0
144
0.0
144
0.0
144
0.0
144
1.0
144
0.0
144
0.0
144
0.0
144
0.0
144
1.0
147
0.0208333333333333
147
0.0
147
0.0
147
0.0
147
0.0
147
0.0208333333333333
147
0.0
147
0.0
147
0.0
147
0.0
147
1.0
147
0.0
147
0.0
147
0.0
147
0.0
147
1.0
  0
MATERIAL
  5
15F
102
{ACAD_XDICTIONARY
360
160
102
}
102
{ACAD_REACTORS
330
14E
102
}
330
14E
100
AcDbMaterial
  1
Global
 72
     0
 43
0.0208333333333333
 43
0.0
 43
0.0
 43
0.0
 43
0.0
 43
0.0208333333333333
 43
0.0
 43
0.0
 43
0.0
 43
0.0
 43
1.0
 43
0.0
 43
0.0
 43
0.0
 43
0.0
 43
1.0
 77
     0
 47
0.0208333333333333
 47
0.0
 47
0.0
 47
0.0
 47
0.0
 47
0.0208333333333333
 47
0.0
 47
0.0
 47
0.0
 47
0.0
 47
1.0
 47
0.0
 47
0.0
 47
0.0
 47
0.0
 47
1.0
171
     0
 49
0.0208333333333333
 49
0.0
 49
0.0
 49
0.0
 49
0.0
 49
0.0208333333333333
 49
0.0
 49
0.0
 49
0.0
 49
0.0
 49
1.0
 49
0.0
 49
0.0
 49
0.0
 49
0.0
 49
1.0
175
     0
142
0.0208333333333333
142
0.0
142
0.0
142
0.0
142
0.0
142
0.0208333333333333
142
0.0
142
0.0
142
0.0
142
0.0
142
1.0
142
0.0
142
0.0
142
0.0
142
0.0
142
1.0
179
     0
144
0.0208333333333333
144
0.0
144
0.0
144
0.0
144
0.0
144
0.0208333333333333
144
0.0
144
0.0
144
0.0
144
0.0
144
1.0
144
0.0
144
0.0
144
0.0
144
0.0
144
1.0
147
0.0208333333333333
147
0.0
147
0.0
147
0.0
147
0.0
147
0.0208333333333333
147
0.0
147
0.0
147
0.0
147
0.0
147
1.0
147
0.0
147
0.0
147
0.0
147
0.0
147
1.0
  0
MLEADERSTYLE
  5
18E
102
{ACAD_REACTORS
330
18D
102
}
330
18D
100
AcDbMLeaderStyle
170
     2
171
     1
172
     0
 90
        2
 40
0.0
 41
0.0
173
     1
 91
-1056964608
340
11
 92
       -2
290
     1
 42
2.0
291
     1
 43
0.36
  3
Standard
 44
4.0
300

342
17
174
     1
178
     6
175
     1
176
     0
 93
-1056964608
 45
4.0
292
     0
297
     0
 46
4.0
 94
-1056964608
 47
1.0
 49
1.0
140
1.0
293
     1
141
0.0
294
     1
177
     0
142
1.0
295
     0
296
     0
143
0.125
1001
ACAD_MLEADERVER
1070
     2
  0
MLINESTYLE
  5
1C
102
{ACAD_REACTORS
330
1B
102
}
330
1B
100
AcDbMlineStyle
  2
STANDARD
 70
     0
  3

 62
     0
 51
90.0
 52
90.0
 71
     2
 49
0.5
 62
   256
  6
BYLAYER
 49
-0.5
 62
   256
  6
BYLAYER
  0
ACDBPLACEHOLDER
  5
1D
102
{ACAD_REACTORS
330
1F
102
}
330
1F
  0
SCALE
  5
17C
102
{ACAD_REACTORS
330
17B
102
}
330
17B
100
AcDbScale
 70
     0
300
1:1
140
1.0
141
1.0
290
     1
  0
SCALE
  5
17D
102
{ACAD_REACTORS
330
17B
102
}
330
17B
100
AcDbScale
 70
     0
300
1:2
140
1.0
141
2.0
290
     0
  0
SCALE
  5
17E
102
{ACAD_REACTORS
330
17B
102
}
330
17B
100
AcDbScale
 70
     0
300
1:4
140
1.0
141
4.0
290
     0
  0
SCALE
  5
17F
102
{ACAD_REACTORS
330
17B
102
}
330
17B
100
AcDbScale
 70
     0
300
1:5
140
1.0
141
5.0
290
     0
  0
SCALE
  5
180
102
{ACAD_REACTORS
330
17B
102
}
330
17B
100
AcDbScale
 70
     0
300
1:8
140
1.0
141
8.0
290
     0
  0
SCALE
  5
181
102
{ACAD_REACTORS
330
17B
102
}
330
17B
100
AcDbScale
 70
     0
300
1:10
140
1.0
141
10.0
290
     0
  0
SCALE
  5
182
102
{ACAD_REACTORS
330
17B
102
}
330
17B
100
AcDbScale
 70
     0
300
1:16
140
1.0
141
16.0
290
     0
  0
SCALE
  5
183
102
{ACAD_REACTORS
330
17B
102
}
330
17B
100
AcDbScale
 70
     0
300
1:20
140
1.0
141
20.0
290
     0
  0
SCALE
  5
184
102
{ACAD_REACTORS
330
17B
102
}
330
17B
100
AcDbScale
 70
     0
300
1:30
140
1.0
141
30.0
290
     0
  0
SCALE
  5
185
102
{ACAD_REACTORS
330
17B
102
}
330
17B
100
AcDbScale
 70
     0
300
1:40
140
1.0
141
40.0
290
     0
  0
SCALE
  5
186
102
{ACAD_REACTORS
330
17B
102
}
330
17B
100
AcDbScale
 70
     0
300
1:50
140
1.0
141
50.0
290
     0
  0
SCALE
  5
187
102
{ACAD_REACTORS
330
17B
102
}
330
17B
100
AcDbScale
 70
     0
300
1:100
140
1.0
141
100.0
290
     0
  0
SCALE
  5
188
102
{ACAD_REACTORS
330
17B
102
}
330
17B
100
AcDbScale
 70
     0
300
2:1
140
2.0
141
1.0
290
     0
  0
SCALE
  5
189
102
{ACAD_REACTORS
330
17B
102
}
330
17B
100
AcDbScale
 70
     0
300
4:1
140
4.0
141
1.0
290
     0
  0
SCALE
  5
18A
102
{ACAD_REACTORS
330
17B
102
}
330
17B
100
AcDbScale
 70
     0
300
8:1
140
8.0
141
1.0
290
     0
  0
SCALE
  5
18B
102
{ACAD_REACTORS
330
17B
102
}
330
17B
100
AcDbScale
 70
     0
300
10:1
140
10.0
141
1.0
290
     0
  0
SCALE
  5
18C
102
{ACAD_REACTORS
330
17B
102
}
330
17B
100
AcDbScale
 70
     0
300
100:1
140
100.0
141
1.0
290
     0
  0
TABLESTYLE
  5
17A
102
{ACAD_XDICTIONARY
360
1DB
102
}
102
{ACAD_REACTORS
330
179
102
}
330
179
100
AcDbTableStyle
  3
Standard
 70
     0
 71
     0
 40
1.5
 41
1.5
280
     0
281
     0
  7
Standard
140
4.5
170
     2
 62
     0
 63
     7
283
     0
 90
      512
 91
        0
  1

274
    -2
284
     1
 64
     0
275
    -2
285
     1
 65
     0
276
    -2
286
     1
 66
     0
277
    -2
287
     1
 67
     0
278
    -2
288
     1
 68
     0
279
    -2
289
     1
 69
     0
  7
Standard
140
6.0
170
     5
 62
     0
 63
     7
283
     0
 90
      512
 91
        0
  1

274
    -2
284
     1
 64
     0
275
    -2
285
     1
 65
     0
276
    -2
286
     1
 66
     0
277
    -2
287
     1
 67
     0
278
    -2
288
     1
 68
     0
279
    -2
289
     1
 69
     0
  7
Standard
140
4.5
170
     5
 62
     0
 63
     7
283
     0
 90
      512
 91
        0
  1

274
    -2
284
     1
 64
     0
275
    -2
285
     1
 65
     0
276
    -2
286
     1
 66
     0
277
    -2
287
     1
 67
     0
278
    -2
288
     1
 68
     0
279
    -2
289
     1
 69
     0
  0
VISUALSTYLE
  5
16D
102
{ACAD_REACTORS
330
167
102
}
330
167
100
AcDbVisualStyle
  2
2dWireframe
 70
     4
 71
     0
 72
     2
 73
     0
 90
        0
 40
-0.6
 41
-30.0
 62
     5
 63
     7
421
 16777215
 74
     1
 91
        4
 64
     7
 65
   257
 75
     1
175
     1
 42
1.0
 92
        0
 66
   257
 43
1.0
 76
     1
 77
     6
 78
     2
 67
     7
 79
     5
170
     0
171
     0
290
     0
174
     0
 93
        1
 44
0.0
173
     0
291
     0
 45
0.0
  0
VISUALSTYLE
  5
16F
102
{ACAD_REACTORS
330
167
102
}
330
167
100
AcDbVisualStyle
  2
3D Hidden
 70
     6
 71
     1
 72
     2
 73
     2
 90
        0
 40
-0.6
 41
-30.0
 62
     5
 63
     7
421
 16777215
 74
     2
 91
        2
 64
     7
 65
   257
 75
     2
175
     1
 42
40.0
 92
        0
 66
   257
 43
1.0
 76
     1
 77
     6
 78
     2
 67
     7
 79
     3
170
     0
171
     0
290
     0
174
     0
 93
        1
 44
0.0
173
     0
291
     0
 45
0.0
  0
VISUALSTYLE
  5
16E
102
{ACAD_REACTORS
330
167
102
}
330
167
100
AcDbVisualStyle
  2
3dWireframe
 70
     5
 71
     0
 72
     2
 73
     0
 90
        0
 40
-0.6
 41
-30.0
 62
     5
 63
     7
421
 16777215
 74
     1
 91
        4
 64
     7
 65
   257
 75
     1
175
     1
 42
1.0
 92
        0
 66
   257
 43
1.0
 76
     1
 77
     6
 78
     2
 67
     7
 79
     5
170
     0
171
     0
290
     0
174
     0
 93
        1
 44
0.0
173
     0
291
     0
 45
0.0
  0
VISUALSTYLE
  5
16C
102
{ACAD_REACTORS
330
167
102
}
330
167
100
AcDbVisualStyle
  2
Basic
 70
     7
 71
     1
 72
     0
 73
     1
 90
        0
 40
-0.6
 41
-30.0
 62
     5
 63
     7
421
 16777215
 74
     0
 91
        4
 64
     7
 65
   257
 75
     1
175
     1
 42
1.0
 92
        8
 66
     7
 43
1.0
 76
     1
 77
     6
 78
     2
 67
     7
 79
     5
170
     0
171
     0
290
     0
174
     0
 93
        1
 44
0.0
173
     0
291
     1
 45
0.0
  0
VISUALSTYLE
  5
173
102
{ACAD_REACTORS
330
167
102
}
330
167
100
AcDbVisualStyle
  2
Brighten
 70
    12
 71
     2
 72
     2
 73
     0
 90
        0
 40
-0.6
 41
-30.0
 62
     5
 63
     7
421
 16777215
 74
     1
 91
        4
 64
     7
 65
   257
 75
     1
175
     1
 42
1.0
 92
        8
 66
     7
 43
1.0
 76
     1
 77
     6
 78
     2
 67
     7
 79
     5
170
     0
171
     0
290
     0
174
     0
 93
        1
 44
50.0
173
     0
291
     1
 45
0.0
  0
VISUALSTYLE
  5
177
102
{ACAD_REACTORS
330
167
102
}
330
167
100
AcDbVisualStyle
  2
ColorChange
 70
    16
 71
     2
 72
     2
 73
     3
 90
        0
 40
-0.6
 41
-30.0
 62
     5
 63
     8
421
  8421504
 74
     1
 91
        4
 64
     7
 65
   257
 75
     1
175
     1
 42
1.0
 92
        8
 66
     8
424
  8421504
 43
1.0
 76
     1
 77
     6
 78
     2
 67
     7
 79
     5
170
     0
171
     0
290
     0
174
     0
 93
        1
 44
0.0
173
     0
291
     1
 45
0.0
  0
VISUALSTYLE
  5
170
102
{ACAD_REACTORS
330
167
102
}
330
167
100
AcDbVisualStyle
  2
Conceptual
 70
     9
 71
     3
 72
     2
 73
     0
 90
        0
 40
-0.6
 41
-30.0
 62
     5
 63
     7
421
 16777215
 74
     2
 91
        2
 64
     7
 65
   257
 75
     1
175
     1
 42
40.0
 92
        8
 66
     7
 43
1.0
 76
     1
 77
     6
 78
     2
 67
     7
 79
     3
170
     0
171
     0
290
     0
174
     0
 93
        1
 44
0.0
173
     0
291
     0
 45
0.0
  0
VISUALSTYLE
  5
172
102
{ACAD_REACTORS
330
167
102
}
330
167
100
AcDbVisualStyle
  2
Dim
 70
    11
 71
     2
 72
     2
 73
     0
 90
        0
 40
-0.6
 41
-30.0
 62
     5
 63
     7
421
 16777215
 74
     1
 91
        4
 64
     7
 65
   257
 75
     1
175
     1
 42
1.0
 92
        8
 66
     7
 43
1.0
 76
     1
 77
     6
 78
     2
 67
     7
 79
     5
170
     0
171
     0
290
     0
174
     0
 93
        1
 44
-50.0
173
     0
291
     1
 45
0.0
  0
VISUALSTYLE
  5
176
102
{ACAD_REACTORS
330
167
102
}
330
167
100
AcDbVisualStyle
  2
Facepattern
 70
    15
 71
     2
 72
     2
 73
     0
 90
        0
 40
-0.6
 41
-30.0
 62
     5
 63
     7
421
 16777215
 74
     1
 91
        4
 64
     7
 65
   257
 75
     1
175
     1
 42
1.0
 92
        8
 66
     7
 43
1.0
 76
     1
 77
     6
 78
     2
 67
     7
 79
     5
170
     0
171
     0
290
     0
174
     0
 93
        1
 44
0.0
173
     0
291
     1
 45
0.0
  0
VISUALSTYLE
  5
168
102
{ACAD_REACTORS
330
167
102
}
330
167
100
AcDbVisualStyle
  2
Flat
 70
     0
 71
     2
 72
     1
 73
     1
 90
        2
 40
-0.6
 41
30.0
 62
     5
 63
     7
421
 16777215
 74
     0
 91
        4
 64
     7
 65
   257
 75
     1
175
     1
 42
1.0
 92
        8
 66
     7
 43
1.0
 76
     1
 77
     6
 78
     2
 67
     7
 79
     5
170
     0
171
     0
290
     0
174
     0
 93
       13
 44
0.0
173
     0
291
     1
 45
0.0
  0
VISUALSTYLE
  5
169
102
{ACAD_REACTORS
330
167
102
}
330
167
100
AcDbVisualStyle
  2
FlatWithEdges
 70
     1
 71
     2
 72
     1
 73
     1
 90
        2
 40
-0.6
 41
30.0
 62
     5
 63
     7
421
 16777215
 74
     1
 91
        4
 64
     7
 65
   257
 75
     1
175
     1
 42
1.0
 92
        0
 66
   257
 43
1.0
 76
     1
 77
     6
 78
     2
 67
     7
 79
     5
170
     0
171
     0
290
     0
174
     0
 93
       13
 44
0.0
173
     0
291
     1
 45
0.0
  0
VISUALSTYLE
  5
16A
102
{ACAD_REACTORS
330
167
102
}
330
167
100
AcDbVisualStyle
  2
Gouraud
 70
     2
 71
     2
 72
     2
 73
     1
 90
        2
 40
-0.6
 41
30.0
 62
     5
 63
     7
421
 16777215
 74
     0
 91
        4
 64
     7
 65
   257
 75
     1
175
     1
 42
1.0
 92
        0
 66
     7
 43
1.0
 76
     1
 77
     6
 78
     2
 67
     7
 79
     5
170
     0
171
     0
290
     0
174
     0
 93
       13
 44
0.0
173
     0
291
     1
 45
0.0
  0
VISUALSTYLE
  5
16B
102
{ACAD_REACTORS
330
167
102
}
330
167
100
AcDbVisualStyle
  2
GouraudWithEdges
 70
     3
 71
     2
 72
     2
 73
     1
 90
        2
 40
-0.6
 41
30.0
 62
     5
 63
     7
421
 16777215
 74
     1
 91
        4
 64
     7
 65
   257
 75
     1
175
     1
 42
1.0
 92
        0
 66
   257
 43
1.0
 76
     1
 77
     6
 78
     2
 67
     7
 79
     5
170
     0
171
     0
290
     0
174
     0
 93
       13
 44
0.0
173
     0
291
     1
 45
0.0
  0
VISUALSTYLE
  5
175
102
{ACAD_REACTORS
330
167
102
}
330
167
100
AcDbVisualStyle
  2
Linepattern
 70
    14
 71
     2
 72
     2
 73
     0
 90
        0
 40
-0.6
 41
-30.0
 62
     5
 63
     7
421
 16777215
 74
     1
 91
        4
 64
     7
 65
   257
 75
     7
175
     7
 42
1.0
 92
        8
 66
     7
 43
1.0
 76
     1
 77
     6
 78
     2
 67
     7
 79
     5
170
     0
171
     0
290
     0
174
     0
 93
        1
 44
0.0
173
     0
291
     1
 45
0.0
  0
VISUALSTYLE
  5
171
102
{ACAD_REACTORS
330
167
102
}
330
167
100
AcDbVisualStyle
  2
Realistic
 70
     8
 71
     2
 72
     2
 73
     0
 90
        0
 40
-0.6
 41
-30.0
 62
     5
 63
     7
421
 16777215
 74
     1
 91
        0
 64
     7
 65
   257
 75
     1
175
     1
 42
1.0
 92
        8
 66
     8
424
  7895160
 43
1.0
 76
     1
 77
     6
 78
     2
 67
     7
 79
     5
170
     0
171
     0
290
     0
174
     0
 93
       13
 44
0.0
173
     0
291
     0
 45
0.0
  0
VISUALSTYLE
  5
174
102
{ACAD_REACTORS
330
167
102
}
330
167
100
AcDbVisualStyle
  2
Thicken
 70
    13
 71
     2
 72
     2
 73
     0
 90
        0
 40
-0.6
 41
-30.0
 62
     5
 63
     7
421
 16777215
 74
     1
 91
        4
 64
     7
 65
   257
 75
     1
175
     1
 42
1.0
 92
       12
 66
     7
 43
1.0
 76
     1
 77
     6
 78
     2
 67
     7
 79
     5
170
     0
171
     0
290
     0
174
     0
 93
        1
 44
0.0
173
     0
291
     1
 45
0.0
  0
DICTIONARYVAR
  5
1E2
102
{ACAD_REACTORS
330
1DE
102
}
330
1DE
100
DictionaryVariables
280
     0
  1
1:1
  0
DICTIONARYVAR
  5
1E0
102
{ACAD_REACTORS
330
1DE
102
}
330
1DE
100
DictionaryVariables
280
     0
  1
STANDARD
  0
DICTIONARYVAR
  5
1DF
102
{ACAD_REACTORS
330
1DE
102
}
330
1DE
100
DictionaryVariables
280
     0
  1
STANDARD
  0
DICTIONARYVAR
  5
1E4
102
{ACAD_REACTORS
330
1DE
102
}
330
1DE
100
DictionaryVariables
280
     0
  1
1
  0
DICTIONARYVAR
  5
1E5
102
{ACAD_REACTORS
330
1DE
102
}
330
1DE
100
DictionaryVariables
280
     0
  1
15
  0
DICTIONARYVAR
  5
1E3
102
{ACAD_REACTORS
330
1DE
102
}
330
1DE
100
DictionaryVariables
280
     0
  1
0
  0
DICTIONARYVAR
  5
1E1
102
{ACAD_REACTORS
330
1DE
102
}
330
1DE
100
DictionaryVariables
280
     0
  1
0
  0
DICTIONARY
  5
158
330
157
100
AcDbDictionary
280
     1
281
     1
  3
BUMPTILE
360
15A
  3
DIFFUSETILE
360
159
  3
OPACITYTILE
360
15D
  3
REFLECTIONTILE
360
15C
  3
REFRACTIONTILE
360
15E
  3
SPECULARTILE
360
15B
  0
DICTIONARY
  5
150
330
14F
100
AcDbDictionary
280
     1
281
     1
  3
BUMPTILE
360
152
  3
DIFFUSETILE
360
151
  3
OPACITYTILE
360
155
  3
REFLECTIONTILE
360
154
  3
REFRACTIONTILE
360
156
  3
SPECULARTILE
360
153
  0
DICTIONARY
  5
160
330
15F
100
AcDbDictionary
280
     1
281
     1
  3
BUMPTILE
360
162
  3
DIFFUSETILE
360
161
  3
OPACITYTILE
360
165
  3
REFLECTIONTILE
360
164
  3
REFRACTIONTILE
360
166
  3
SPECULARTILE
360
163
  0
DICTIONARY
  5
1DB
330
17A
100
AcDbDictionary
280
     1
281
     1
  3
ACAD_ROUNDTRIP_2008_TABLESTYLE_CELLSTYLEMAP
360
1ED
  0
XRECORD
  5
15A
102
{ACAD_REACTORS
330
158
102
}
330
158
100
AcDbXrecord
280
     1
270
     1
271
     1
  0
XRECORD
  5
159
102
{ACAD_REACTORS
330
158
102
}
330
158
100
AcDbXrecord
280
     1
270
     1
271
     1
  0
XRECORD
  5
15D
102
{ACAD_REACTORS
330
158
102
}
330
158
100
AcDbXrecord
280
     1
270
     1
271
     1
  0
XRECORD
  5
15C
102
{ACAD_REACTORS
330
158
102
}
330
158
100
AcDbXrecord
280
     1
270
     1
271
     1
  0
XRECORD
  5
15E
102
{ACAD_REACTORS
330
158
102
}
330
158
100
AcDbXrecord
280
     1
270
     1
271
     1
  0
XRECORD
  5
15B
102
{ACAD_REACTORS
330
158
102
}
330
158
100
AcDbXrecord
280
     1
270
     1
271
     1
  0
XRECORD
  5
152
102
{ACAD_REACTORS
330
150
102
}
330
150
100
AcDbXrecord
280
     1
270
     1
271
     1
  0
XRECORD
  5
151
102
{ACAD_REACTORS
330
150
102
}
330
150
100
AcDbXrecord
280
     1
270
     1
271
     1
  0
XRECORD
  5
155
102
{ACAD_REACTORS
330
150
102
}
330
150
100
AcDbXrecord
280
     1
270
     1
271
     1
  0
XRECORD
  5
154
102
{ACAD_REACTORS
330
150
102
}
330
150
100
AcDbXrecord
280
     1
270
     1
271
     1
  0
XRECORD
  5
156
102
{ACAD_REACTORS
330
150
102
}
330
150
100
AcDbXrecord
280
     1
270
     1
271
     1
  0
XRECORD
  5
153
102
{ACAD_REACTORS
330
150
102
}
330
150
100
AcDbXrecord
280
     1
270
     1
271
     1
  0
XRECORD
  5
162
102
{ACAD_REACTORS
330
160
102
}
330
160
100
AcDbXrecord
280
     1
270
     1
271
     1
  0
XRECORD
  5
161
102
{ACAD_REACTORS
330
160
102
}
330
160
100
AcDbXrecord
280
     1
270
     1
271
     1
  0
XRECORD
  5
165
102
{ACAD_REACTORS
330
160
102
}
330
160
100
AcDbXrecord
280
     1
270
     1
271
     1
  0
XRECORD
  5
164
102
{ACAD_REACTORS
330
160
102
}
330
160
100
AcDbXrecord
280
     1
270
     1
271
     1
  0
XRECORD
  5
166
102
{ACAD_REACTORS
330
160
102
}
330
160
100
AcDbXrecord
280
     1
270
     1
271
     1
  0
XRECORD
  5
163
102
{ACAD_REACTORS
330
160
102
}
330
160
100
AcDbXrecord
280
     1
270
     1
271
     1
  0
CELLSTYLEMAP
  5
1ED
102
{ACAD_REACTORS
330
1DB
102
}
330
1DB
100
AcDbCellStyleMap
 90
        3
300
CELLSTYLE
  1
TABLEFORMAT_BEGIN
 90
        5
170
     1
 91
        0
 92
    32768
 62
   257
 93
        1
300
CONTENTFORMAT
  1
CONTENTFORMAT_BEGIN
 90
        0
 91
        0
 92
      512
 93
        0
300

 40
0.0
140
1.0
 94
        5
 62
     0
340
17
144
6.0
309
CONTENTFORMAT_END
171
     1
301
MARGIN
  1
CELLMARGIN_BEGIN
 40
1.5
 40
1.5
 40
1.5
 40
1.5
 40
4.5
 40
4.5
309
CELLMARGIN_END
 94
        6
 95
        1
302
GRIDFORMAT
  1
GRIDFORMAT_BEGIN
 90
        0
 91
        1
 62
     0
 92
       -2
340
0
 93
        0
 40
1.125
309
GRIDFORMAT_END
 95
        2
302
GRIDFORMAT
  1
GRIDFORMAT_BEGIN
 90
        0
 91
        1
 62
     0
 92
       -2
340
0
 93
        0
 40
1.125
309
GRIDFORMAT_END
 95
        4
302
GRIDFORMAT
  1
GRIDFORMAT_BEGIN
 90
        0
 91
        1
 62
     0
 92
       -2
340
0
 93
        0
 40
1.125
309
GRIDFORMAT_END
 95
        8
302
GRIDFORMAT
  1
GRIDFORMAT_BEGIN
 90
        0
 91
        1
 62
     0
 92
       -2
340
0
 93
        0
 40
1.125
309
GRIDFORMAT_END
 95
       16
302
GRIDFORMAT
  1
GRIDFORMAT_BEGIN
 90
        0
 91
        1
 62
     0
 92
       -2
340
0
 93
        0
 40
1.125
309
GRIDFORMAT_END
 95
       32
302
GRIDFORMAT
  1
GRIDFORMAT_BEGIN
 90
        0
 91
        1
 62
     0
 92
       -2
340
0
 93
        0
 40
1.125
309
GRIDFORMAT_END
309
TABLEFORMAT_END
  1
CELLSTYLE_BEGIN
 90
        1
 91
        1
300
_TITLE
309
CELLSTYLE_END
300
CELLSTYLE
  1
TABLEFORMAT_BEGIN
 90
        5
170
     1
 91
        0
 92
        0
 62
   257
 93
        1
300
CONTENTFORMAT
  1
CONTENTFORMAT_BEGIN
 90
        0
 91
        0
 92
      512
 93
        0
300

 40
0.0
140
1.0
 94
        5
 62
     0
340
17
144
4.5
309
CONTENTFORMAT_END
171
     1
301
MARGIN
  1
CELLMARGIN_BEGIN
 40
1.5
 40
1.5
 40
1.5
 40
1.5
 40
4.5
 40
4.5
309
CELLMARGIN_END
 94
        6
 95
        1
302
GRIDFORMAT
  1
GRIDFORMAT_BEGIN
 90
        0
 91
        1
 62
     0
 92
       -2
340
0
 93
        0
 40
1.125
309
GRIDFORMAT_END
 95
        2
302
GRIDFORMAT
  1
GRIDFORMAT_BEGIN
 90
        0
 91
        1
 62
     0
 92
       -2
340
0
 93
        0
 40
1.125
309
GRIDFORMAT_END
 95
        4
302
GRIDFORMAT
  1
GRIDFORMAT_BEGIN
 90
        0
 91
        1
 62
     0
 92
       -2
340
0
 93
        0
 40
1.125
309
GRIDFORMAT_END
 95
        8
302
GRIDFORMAT
  1
GRIDFORMAT_BEGIN
 90
        0
 91
        1
 62
     0
 92
       -2
340
0
 93
        0
 40
1.125
309
GRIDFORMAT_END
 95
       16
302
GRIDFORMAT
  1
GRIDFORMAT_BEGIN
 90
        0
 91
        1
 62
     0
 92
       -2
340
0
 93
        0
 40
1.125
309
GRIDFORMAT_END
 95
       32
302
GRIDFORMAT
  1
GRIDFORMAT_BEGIN
 90
        0
 91
        1
 62
     0
 92
       -2
340
0
 93
        0
 40
1.125
309
GRIDFORMAT_END
309
TABLEFORMAT_END
  1
CELLSTYLE_BEGIN
 90
        2
 91
        1
300
_HEADER
309
CELLSTYLE_END
300
CELLSTYLE
  1
TABLEFORMAT_BEGIN
 90
        5
170
     1
 91
        0
 92
        0
 62
   257
 93
        1
300
CONTENTFORMAT
  1
CONTENTFORMAT_BEGIN
 90
        0
 91
        0
 92
      512
 93
        0
300

 40
0.0
140
1.0
 94
        2
 62
     0
340
17
144
4.5
309
CONTENTFORMAT_END
171
     1
301
MARGIN
  1
CELLMARGIN_BEGIN
 40
1.5
 40
1.5
 40
1.5
 40
1.5
 40
4.5
 40
4.5
309
CELLMARGIN_END
 94
        6
 95
        1
302
GRIDFORMAT
  1
GRIDFORMAT_BEGIN
 90
        0
 91
        1
 62
     0
 92
       -2
340
0
 93
        0
 40
1.125
309
GRIDFORMAT_END
 95
        2
302
GRIDFORMAT
  1
GRIDFORMAT_BEGIN
 90
        0
 91
        1
 62
     0
 92
       -2
340
0
 93
        0
 40
1.125
309
GRIDFORMAT_END
 95
        4
302
GRIDFORMAT
  1
GRIDFORMAT_BEGIN
 90
        0
 91
        1
 62
     0
 92
       -2
340
0
 93
        0
 40
1.125
309
GRIDFORMAT_END
 95
        8
302
GRIDFORMAT
  1
GRIDFORMAT_BEGIN
 90
        0
 91
        1
 62
     0
 92
       -2
340
0
 93
        0
 40
1.125
309
GRIDFORMAT_END
 95
       16
302
GRIDFORMAT
  1
GRIDFORMAT_BEGIN
 90
        0
 91
        1
 62
     0
 92
       -2
340
0
 93
        0
 40
1.125
309
GRIDFORMAT_END
 95
       32
302
GRIDFORMAT
  1
GRIDFORMAT_BEGIN
 90
        0
 91
        1
 62
     0
 92
       -2
340
0
 93
        0
 40
1.125
309
GRIDFORMAT_END
309
TABLEFORMAT_END
  1
CELLSTYLE_BEGIN
 90
        3
 91
        2
300
_DATA
309
CELLSTYLE_END
  0
ENDSEC
  0
EOF
