  0
SECTION
  2
HEADER
  9
$ACADVER
  1
AC1021
  9
$ACADMAINTVER
 70
    50
  9
$DWGCODEPAGE
  3
ANSI_1252
  9
$LASTSAVEDBY
  1
François
  9
$INSBASE
 10
148.446753
 20
101.721956
 30
0.0
  9
$EXTMIN
 10
116.545766052588
 20
100.949425
 30
0.0
  9
$EXTMAX
 10
165.215896
 20
122.951432641061
 30
0.0
  9
$LIMMIN
 10
132.552977
 20
101.677859
  9
$LIMMAX
 10
164.360683
 20
108.293648
  9
$ORTHOMODE
 70
     0
  9
$REGENMODE
 70
     1
  9
$FILLMODE
 70
     1
  9
$QTEXTMODE
 70
     0
  9
$MIRRTEXT
 70
     1
  9
$LTSCALE
 40
1.0
  9
$ATTMODE
 70
     1
  9
$TEXTSIZE
 40
0.0
  9
$TRACEWID
 40
0.05
  9
$TEXTSTYLE
  7
Standard
  9
$CLAYER
  8
Cotation-JacobDelafon
  9
$CELTYPE
  6
Continuous
  9
$CECOLOR
 62
   256
  9
$CELTSCALE
 40
1.0
  9
$DISPSILH
 70
     0
  9
$DIMSCALE
 40
1.0
  9
$DIMASZ
 40
1.8
  9
$DIMEXO
 40
0.625
  9
$DIMDLI
 40
3.799999999999999
  9
$DIMRND
 40
0.0
  9
$DIMDLE
 40
0.0
  9
$DIMEXE
 40
1.8
  9
$DIMTP
 40
0.0
  9
$DIMTM
 40
0.0
  9
$DIMTXT
 40
3.0
  9
$DIMCEN
 40
0.9
  9
$DIMTSZ
 40
0.0
  9
$DIMTOL
 70
     0
  9
$DIMLIM
 70
     0
  9
$DIMTIH
 70
     0
  9
$DIMTOH
 70
     0
  9
$DIMSE1
 70
     0
  9
$DIMSE2
 70
     0
  9
$DIMTAD
 70
     1
  9
$DIMZIN
 70
    12
  9
$DIMBLK
  1
Oblique
  9
$DIMASO
 70
     1
  9
$DIMSHO
 70
     1
  9
$DIMPOST
  1

  9
$DIMAPOST
  1

  9
$DIMALT
 70
     0
  9
$DIMALTD
 70
     2
  9
$DIMALTF
 40
25.4
  9
$DIMLFAC
 40
1.0
  9
$DIMTOFL
 70
     0
  9
$DIMTVP
 40
0.0
  9
$DIMTIX
 70
     0
  9
$DIMSOXD
 70
     0
  9
$DIMSAH
 70
     0
  9
$DIMBLK1
  1

  9
$DIMBLK2
  1

  9
$DIMSTYLE
  2
Cotation-Jacob-Delafon
  9
$DIMCLRD
 70
     0
  9
$DIMCLRE
 70
     0
  9
$DIMCLRT
 70
     0
  9
$DIMTFAC
 40
1.0
  9
$DIMGAP
 40
0.9
  9
$DIMJUST
 70
     0
  9
$DIMSD1
 70
     0
  9
$DIMSD2
 70
     0
  9
$DIMTOLJ
 70
     1
  9
$DIMTZIN
 70
     0
  9
$DIMALTZ
 70
     0
  9
$DIMALTTZ
 70
     0
  9
$DIMUPT
 70
     0
  9
$DIMDEC
 70
     2
  9
$DIMTDEC
 70
     2
  9
$DIMALTU
 70
     2
  9
$DIMALTTD
 70
     2
  9
$DIMTXSTY
  7
Jacob-Delafon
  9
$DIMAUNIT
 70
     0
  9
$DIMADEC
 70
     0
  9
$DIMALTRND
 40
0.0
  9
$DIMAZIN
 70
     3
  9
$DIMDSEP
 70
    46
  9
$DIMATFIT
 70
     3
  9
$DIMFRAC
 70
     0
  9
$DIMLDRBLK
  1
Oblique
  9
$DIMLUNIT
 70
     2
  9
$DIMLWD
 70
    -2
  9
$DIMLWE
 70
    -2
  9
$DIMTMOVE
 70
     2
  9
$DIMFXL
 40
1.0
  9
$DIMFXLON
 70
     0
  9
$DIMJOGANG
 40
0.7853981633974483
  9
$DIMTFILL
 70
     0
  9
$DIMTFILLCLR
 70
     0
  9
$DIMARCSYM
 70
     0
  9
$DIMLTYPE
  6

  9
$DIMLTEX1
  6

  9
$DIMLTEX2
  6

  9
$LUNITS
 70
     2
  9
$LUPREC
 70
     4
  9
$SKETCHINC
 40
0.1
  9
$FILLETRAD
 40
0.0
  9
$AUNITS
 70
     0
  9
$AUPREC
 70
     0
  9
$MENU
  1
acad
  9
$ELEVATION
 40
0.0
  9
$PELEVATION
 40
0.0
  9
$THICKNESS
 40
0.0
  9
$LIMCHECK
 70
     0
  9
$CHAMFERA
 40
0.0
  9
$CHAMFERB
 40
0.0
  9
$CHAMFERC
 40
0.0
  9
$CHAMFERD
 40
0.0
  9
$SKPOLY
 70
     0
  9
$TDCREATE
 40
2454970.383296979
  9
$TDUCREATE
 40
2454970.299963646
  9
$TDUPDATE
 40
2455006.688928484
  9
$TDUUPDATE
 40
2455006.605595151
  9
$TDINDWG
 40
0.0028915278
  9
$TDUSRTIMER
 40
0.0028913426
  9
$USRTIMER
 70
     1
  9
$ANGBASE
 50
0.0
  9
$ANGDIR
 70
     0
  9
$PDMODE
 70
     0
  9
$PDSIZE
 40
0.0
  9
$PLINEWID
 40
0.0
  9
$SPLFRAME
 70
     0
  9
$SPLINETYPE
 70
     6
  9
$SPLINESEGS
 70
     8
  9
$HANDSEED
  5
1E3
  9
$SURFTAB1
 70
     6
  9
$SURFTAB2
 70
     6
  9
$SURFTYPE
 70
     6
  9
$SURFU
 70
     6
  9
$SURFV
 70
     6
  9
$UCSBASE
  2

  9
$UCSNAME
  2

  9
$UCSORG
 10
0.0
 20
0.0
 30
0.0
  9
$UCSXDIR
 10
1.0
 20
0.0
 30
0.0
  9
$UCSYDIR
 10
0.0
 20
1.0
 30
0.0
  9
$UCSORTHOREF
  2

  9
$UCSORTHOVIEW
 70
     0
  9
$UCSORGTOP
 10
0.0
 20
0.0
 30
0.0
  9
$UCSORGBOTTOM
 10
0.0
 20
0.0
 30
0.0
  9
$UCSORGLEFT
 10
0.0
 20
0.0
 30
0.0
  9
$UCSORGRIGHT
 10
0.0
 20
0.0
 30
0.0
  9
$UCSORGFRONT
 10
0.0
 20
0.0
 30
0.0
  9
$UCSORGBACK
 10
0.0
 20
0.0
 30
0.0
  9
$PUCSBASE
  2

  9
$PUCSNAME
  2

  9
$PUCSORG
 10
0.0
 20
0.0
 30
0.0
  9
$PUCSXDIR
 10
1.0
 20
0.0
 30
0.0
  9
$PUCSYDIR
 10
0.0
 20
1.0
 30
0.0
  9
$PUCSORTHOREF
  2

  9
$PUCSORTHOVIEW
 70
     0
  9
$PUCSORGTOP
 10
0.0
 20
0.0
 30
0.0
  9
$PUCSORGBOTTOM
 10
0.0
 20
0.0
 30
0.0
  9
$PUCSORGLEFT
 10
0.0
 20
0.0
 30
0.0
  9
$PUCSORGRIGHT
 10
0.0
 20
0.0
 30
0.0
  9
$PUCSORGFRONT
 10
0.0
 20
0.0
 30
0.0
  9
$PUCSORGBACK
 10
0.0
 20
0.0
 30
0.0
  9
$USERI1
 70
     0
  9
$USERI2
 70
     0
  9
$USERI3
 70
     0
  9
$USERI4
 70
     0
  9
$USERI5
 70
     0
  9
$USERR1
 40
0.0
  9
$USERR2
 40
0.0
  9
$USERR3
 40
0.0
  9
$USERR4
 40
0.0
  9
$USERR5
 40
0.0
  9
$WORLDVIEW
 70
     1
  9
$SHADEDGE
 70
     3
  9
$SHADEDIF
 70
    70
  9
$TILEMODE
 70
     1
  9
$MAXACTVP
 70
    16
  9
$PINSBASE
 10
0.0
 20
0.0
 30
0.0
  9
$PLIMCHECK
 70
     0
  9
$PEXTMIN
 10
1.000000000000000E+20
 20
1.000000000000000E+20
 30
1.000000000000000E+20
  9
$PEXTMAX
 10
-1.000000000000000E+20
 20
-1.000000000000000E+20
 30
-1.000000000000000E+20
  9
$PLIMMIN
 10
0.0
 20
0.0
  9
$PLIMMAX
 10
12.0
 20
9.0
  9
$UNITMODE
 70
     0
  9
$VISRETAIN
 70
     0
  9
$PLINEGEN
 70
     1
  9
$PSLTSCALE
 70
     0
  9
$TREEDEPTH
 70
  3020
  9
$CMLSTYLE
  2
Standard
  9
$CMLJUST
 70
     0
  9
$CMLSCALE
 40
1.0
  9
$PROXYGRAPHICS
 70
     0
  9
$MEASUREMENT
 70
     1
  9
$CELWEIGHT
370
     0
  9
$ENDCAPS
280
     0
  9
$JOINSTYLE
280
     0
  9
$LWDISPLAY
290
     0
  9
$INSUNITS
 70
     0
  9
$HYPERLINKBASE
  1

  9
$STYLESHEET
  1

  9
$XEDIT
290
     1
  9
$CEPSNTYPE
380
     0
  9
$PSTYLEMODE
290
     1
  9
$FINGERPRINTGUID
  2

  9
$VERSIONGUID
  2
{27996E77-32BD-4FF5-93F5-E96F42D455DA}
  9
$EXTNAMES
290
     1
  9
$PSVPSCALE
 40
0.0
  9
$OLESTARTUP
290
     0
  9
$SORTENTS
280
   127
  9
$INDEXCTL
280
     0
  9
$HIDETEXT
280
     0
  9
$XCLIPFRAME
290
     0
  9
$HALOGAP
280
     0
  9
$OBSCOLOR
 70
   257
  9
$OBSLTYPE
280
     0
  9
$INTERSECTIONDISPLAY
280
     0
  9
$INTERSECTIONCOLOR
 70
   257
  9
$DIMASSOC
280
     1
  9
$PROJECTNAME
  1

  9
$CAMERADISPLAY
290
     0
  9
$LENSLENGTH
 40
50.0
  9
$CAMERAHEIGHT
 40
0.0
  9
$STEPSPERSEC
 40
2.0
  9
$STEPSIZE
 40
6.0
  9
$3DDWFPREC
 40
2.0
  9
$PSOLWIDTH
 40
0.25
  9
$PSOLHEIGHT
 40
4.0
  9
$LOFTANG1
 40
1.570796326794896
  9
$LOFTANG2
 40
1.570796326794896
  9
$LOFTMAG1
 40
0.0
  9
$LOFTMAG2
 40
0.0
  9
$LOFTPARAM
 70
     7
  9
$LOFTNORMALS
280
     1
  9
$LATITUDE
 40
37.795
  9
$LONGITUDE
 40
-122.394
  9
$NORTHDIRECTION
 40
0.0
  9
$TIMEZONE
 70
 -8000
  9
$LIGHTGLYPHDISPLAY
280
     1
  9
$TILEMODELIGHTSYNCH
280
     1
  9
$CMATERIAL
347
144
  9
$SOLIDHIST
280
     1
  9
$SHOWHIST
280
     1
  9
$DWFFRAME
280
     2
  9
$DGNFRAME
280
     0
  9
$REALWORLDSCALE
290
     1
  9
$INTERFERECOLOR
 62
     1
  9
$INTERFEREOBJVS
345
166
  9
$INTERFEREVPVS
346
163
  9
$CSHADOW
280
     0
  9
$SHADOWPLANELOCATION
 40
0.0
  0
ENDSEC
  0
SECTION
  2
CLASSES
  0
CLASS
  1
IMAGE
  2
AcDbRasterImage
  3
ISM
 90
     2175
 91
        0
280
     0
281
     1
  0
CLASS
  1
DICTIONARYVAR
  2
AcDbDictionaryVar
  3
ObjectDBX Classes
 90
        0
 91
        7
280
     0
281
     0
  0
CLASS
  1
RASTERVARIABLES
  2
AcDbRasterVariables
  3
ISM
 90
        0
 91
        0
280
     0
281
     0
  0
CLASS
  1
IMAGEDEF
  2
AcDbRasterImageDef
  3
ISM
 90
        0
 91
        0
280
     0
281
     0
  0
CLASS
  1
IMAGEDEF_REACTOR
  2
AcDbRasterImageDefReactor
  3
ISM
 90
        1
 91
        0
280
     0
281
     0
  0
CLASS
  1
IDBUFFER
  2
AcDbIdBuffer
  3
ObjectDBX Classes
 90
        0
 91
        0
280
     0
281
     0
  0
CLASS
  1
SPATIAL_FILTER
  2
AcDbSpatialFilter
  3
ObjectDBX Classes
 90
        0
 91
        0
280
     0
281
     0
  0
CLASS
  1
SORTENTSTABLE
  2
AcDbSortentsTable
  3
ObjectDBX Classes
 90
        0
 91
        0
280
     0
281
     0
  0
CLASS
  1
LAYER_INDEX
  2
AcDbLayerIndex
  3
ObjectDBX Classes
 90
        0
 91
        0
280
     0
281
     0
  0
CLASS
  1
SPATIAL_INDEX
  2
AcDbSpatialIndex
  3
ObjectDBX Classes
 90
        0
 91
        0
280
     0
281
     0
  0
CLASS
  1
OBJECT_PTR
  2
CAseDLPNTableRecord
  3
"ASE-LPNTableRecord"
 90
        1
 91
        0
280
     0
281
     0
  0
CLASS
  1
PLOTSETTINGS
  2
AcDbPlotSettings
  3
ObjectDBX Classes
 90
        0
 91
        0
280
     0
281
     0
  0
CLASS
  1
ACDBDICTIONARYWDFLT
  2
AcDbDictionaryWithDefault
  3
ObjectDBX Classes
 90
        0
 91
        1
280
     0
281
     0
  0
CLASS
  1
WIPEOUT
  2
AcDbWipeout
  3
"WipeOut|Product Desc: Object Enabler for WipeOut entity                        |Company: Autodesk, Inc.                        |WEB Address: www.autodesk.com"
 90
     2175
 91
        0
280
     0
281
     1
  0
CLASS
  1
WIPEOUTVARIABLES
  2
AcDbWipeoutVariables
  3
"WipeOut|Product Desc:     WipeOut Dbx Application|Company:          Autodesk, Inc.|WEB Address:      www.autodesk.com"
 90
        0
 91
        1
280
     0
281
     0
  0
CLASS
  1
RTEXT
  2
RText
  3
RText|AutoCAD Express Tool|expresstools@autodesk.com
 90
        0
 91
        0
280
     0
281
     1
  0
CLASS
  1
ARCALIGNEDTEXT
  2
AcDbArcAlignedText
  3
ATEXT|AutoCAD Express Tool|expresstools@autodesk.com
 90
        0
 91
        0
280
     0
281
     1
  0
CLASS
  1
MATERIAL
  2
AcDbMaterial
  3
ObjectDBX Classes
 90
     1153
 91
        3
280
     0
281
     0
  0
CLASS
  1
VISUALSTYLE
  2
AcDbVisualStyle
  3
ObjectDBX Classes
 90
     4095
 91
       16
280
     0
281
     0
  0
CLASS
  1
TABLESTYLE
  2
AcDbTableStyle
  3
ObjectDBX Classes
 90
     4095
 91
        1
280
     0
281
     0
  0
CLASS
  1
SCALE
  2
AcDbScale
  3
ObjectDBX Classes
 90
     1153
 91
       17
280
     0
281
     0
  0
CLASS
  1
MLEADERSTYLE
  2
AcDbMLeaderStyle
  3
ACDB_MLEADERSTYLE_CLASS
 90
     4095
 91
        1
280
     0
281
     0
  0
CLASS
  1
AEC_REFEDIT_STATUS_TRACKER
  2
AecDbRefEditStatusTracker
  3
AecArchBase50|Product Desc: Autodesk Architectural Desktop 2007 |Company: Autodesk,Inc. |WEB Address: www.autodesk.com
 90
      129
 91
        0
280
     0
281
     0
  0
CLASS
  1
NPOCOLLECTION
  2
AcDbImpNonPersistentObjectsCollection
  3
ObjectDBX Classes
 90
     1153
 91
        0
280
     0
281
     0
  0
CLASS
  1
CELLSTYLEMAP
  2
AcDbCellStyleMap
  3
ObjectDBX Classes
 90
     1152
 91
        2
280
     0
281
     0
  0
ENDSEC
  0
SECTION
  2
TABLES
  0
TABLE
  2
VPORT
  5
7
330
0
100
AcDbSymbolTable
 70
     1
  0
VPORT
  5
15
330
7
100
AcDbSymbolTableRecord
100
AcDbViewportTableRecord
  2
*ACTIVE
 70
     0
 10
0.0
 20
0.0
 11
1.0
 21
1.0
 12
141.5223057640899
 22
111.727709061549
 13
0.0
 23
0.0
 14
1.0
 24
1.0
 15
0.0
 25
0.0
 16
0.0
 26
0.0
 36
1.0
 17
0.0
 27
0.0
 37
0.0
 40
41.8798663253777
 41
1.226824457593688
 42
50.0
 43
0.0
 44
0.0
 50
0.0
 51
0.0
 71
     0
 72
   100
 73
     1
 74
     1
 75
     0
 76
     0
 77
     0
 78
     0
281
     0
 65
     0
110
0.0
120
0.0
130
0.0
111
1.0
121
0.0
131
0.0
112
0.0
122
1.0
132
0.0
 79
     0
146
0.0
348
162
 60
     3
 61
     5
292
     1
282
     1
141
0.0
142
0.0
 63
   250
421
  3355443
  0
ENDTAB
  0
TABLE
  2
LTYPE
  5
4
330
0
100
AcDbSymbolTable
 70
     1
  0
LTYPE
  5
11
330
4
100
AcDbSymbolTableRecord
100
AcDbLinetypeTableRecord
  2
ByBlock
 70
     0
  3

 72
    65
 73
     0
 40
0.0
  0
LTYPE
  5
12
330
4
100
AcDbSymbolTableRecord
100
AcDbLinetypeTableRecord
  2
ByLayer
 70
     0
  3

 72
    65
 73
     0
 40
0.0
  0
LTYPE
  5
13
330
4
100
AcDbSymbolTableRecord
100
AcDbLinetypeTableRecord
  2
Continuous
 70
     0
  3
Solid line
 72
    65
 73
     0
 40
0.0
  0
ENDTAB
  0
TABLE
  2
LAYER
  5
2
330
0
100
AcDbSymbolTable
 70
     3
  0
LAYER
  5
14
102
{ACAD_XDICTIONARY
360
1CD
102
}
330
2
100
AcDbSymbolTableRecord
100
AcDbLayerTableRecord
  2
0
 70
     0
 62
     7
  6
Continuous
370
    -3
390
1D
347
154
  0
LAYER
  5
188
330
2
100
AcDbSymbolTableRecord
100
AcDbLayerTableRecord
  2
Defpoints
 70
     0
 62
     7
  6
Continuous
290
     0
370
    -3
390
1D
347
154
  0
LAYER
  5
189
102
{ACAD_XDICTIONARY
360
18A
102
}
330
2
100
AcDbSymbolTableRecord
100
AcDbLayerTableRecord
  2
Cotation-JacobDelafon
 70
     0
 62
     8
  6
Continuous
370
    -3
390
1D
347
154
  0
ENDTAB
  0
TABLE
  2
STYLE
  5
3
330
0
100
AcDbSymbolTable
 70
     7
  0
STYLE
  5
17
330
3
100
AcDbSymbolTableRecord
100
AcDbTextStyleTableRecord
  2
Standard
 70
     0
 40
0.0
 41
1.0
 50
0.0
 71
     0
 42
0.0
  3
txt
  4

  0
STYLE
  5
24
330
3
100
AcDbSymbolTableRecord
100
AcDbTextStyleTableRecord
  2
STD
 70
     0
 40
0.0
 41
1.0
 50
0.0
 71
     0
 42
0.0
  3
txt
  4

  0
STYLE
  5
25
330
3
100
AcDbSymbolTableRecord
100
AcDbTextStyleTableRecord
  2
TATESTD
 70
     4
 40
0.0
 41
1.0
 50
0.0
 71
     0
 42
0.0
  3
txt
  4

  0
STYLE
  5
26
330
3
100
AcDbSymbolTableRecord
100
AcDbTextStyleTableRecord
  2
KANJISTD
 70
     0
 40
0.0
 41
1.0
 50
0.0
 71
     0
 42
0.0
  3
txt
  4
extfont
  0
STYLE
  5
27
330
3
100
AcDbSymbolTableRecord
100
AcDbTextStyleTableRecord
  2
KANJITATE
 70
     4
 40
0.0
 41
1.0
 50
0.0
 71
     0
 42
0.0
  3
txt
  4
extfont
  0
STYLE
  5
18B
330
3
100
AcDbSymbolTableRecord
100
AcDbTextStyleTableRecord
  2
Annotative
 70
     0
 40
0.0
 41
1.0
 50
0.0
 71
     0
 42
0.2
  3
txt
  4

1001
AcadAnnotative
1000
AnnotativeData
1002
{
1070
     1
1070
     1
1002
}
  0
STYLE
  5
199
330
3
100
AcDbSymbolTableRecord
100
AcDbTextStyleTableRecord
  2
Jacob-Delafon
 70
     0
 40
0.0
 41
1.0
 50
0.0
 71
     0
 42
2.5
  3
ARIAL.TTF
  4

1001
ACAD
1000
Arial
1071
       34
  0
ENDTAB
  0
TABLE
  2
VIEW
  5
5
330
0
100
AcDbSymbolTable
 70
     0
  0
ENDTAB
  0
TABLE
  2
UCS
  5
6
330
0
100
AcDbSymbolTable
 70
     0
  0
ENDTAB
  0
TABLE
  2
APPID
  5
8
330
0
100
AcDbSymbolTable
 70
     3
  0
APPID
  5
16
330
8
100
AcDbSymbolTableRecord
100
AcDbRegAppTableRecord
  2
ACAD
 70
     0
  0
APPID
  5
184
330
8
100
AcDbSymbolTableRecord
100
AcDbRegAppTableRecord
  2
ACAD_MLEADERVER
 70
     0
  0
APPID
  5
18D
330
8
100
AcDbSymbolTableRecord
100
AcDbRegAppTableRecord
  2
AcadAnnotative
 70
     0
  0
ENDTAB
  0
TABLE
  2
DIMSTYLE
  5
9
330
0
100
AcDbSymbolTable
 70
     3
100
AcDbDimStyleTable
 71
     1
340
19A
  0
DIMSTYLE
105
18
330
9
100
AcDbSymbolTableRecord
100
AcDbDimStyleTableRecord
  2
Standard
 70
     0
340
17
  0
DIMSTYLE
105
18C
330
9
100
AcDbSymbolTableRecord
100
AcDbDimStyleTableRecord
  2
Annotative
 70
     0
340
17
1001
AcadAnnotative
1000
AnnotativeData
1002
{
1070
     1
1070
     1
1002
}
  0
DIMSTYLE
105
19A
102
{ACAD_REACTORS
330
1A1
330
1AE
102
}
330
9
100
AcDbSymbolTableRecord
100
AcDbDimStyleTableRecord
  2
Cotation-Jacob-Delafon
 70
     0
 41
1.8
 42
0.625
 43
3.799999999999999
 44
1.8
 73
     0
 74
     0
 77
     1
 78
    12
 79
     3
140
3.0
141
0.9
147
0.9
271
     2
272
     2
279
     2
340
199
341
195
342
195
  0
ENDTAB
  0
TABLE
  2
BLOCK_RECORD
  5
1
330
0
100
AcDbSymbolTable
 70
     3
  0
BLOCK_RECORD
  5
A
330
1
100
AcDbSymbolTableRecord
100
AcDbBlockTableRecord
  2
*MODEL_SPACE
340
20
 70
     0
280
     1
281
     0
  0
BLOCK_RECORD
  5
B
330
1
100
AcDbSymbolTableRecord
100
AcDbBlockTableRecord
  2
*PAPER_SPACE
340
21
 70
     0
280
     1
281
     0
  0
BLOCK_RECORD
  5
195
330
1
100
AcDbSymbolTableRecord
100
AcDbBlockTableRecord
  2
_Oblique
340
0
102
{BLKREFS
331
1BF
331
1C0
331
1C7
331
1C8
102
}
 70
     0
280
     1
281
     0
  0
BLOCK_RECORD
  5
1A2
330
1
100
AcDbSymbolTableRecord
100
AcDbBlockTableRecord
  2
*D1
340
0
 70
     0
280
     1
281
     0
  0
BLOCK_RECORD
  5
1AF
330
1
100
AcDbSymbolTableRecord
100
AcDbBlockTableRecord
  2
*D2
340
0
 70
     0
280
     1
281
     0
  0
ENDTAB
  0
ENDSEC
  0
SECTION
  2
BLOCKS
  0
BLOCK
  5
D
330
A
100
AcDbEntity
  8
0
100
AcDbBlockBegin
  2
*MODEL_SPACE
 70
     0
 10
0.0
 20
0.0
 30
0.0
  3
*MODEL_SPACE
  1

  0
ENDBLK
  5
E
330
A
100
AcDbEntity
  8
0
100
AcDbBlockEnd
  0
BLOCK
  5
F
330
B
100
AcDbEntity
 67
     1
  8
0
100
AcDbBlockBegin
  2
*PAPER_SPACE
 70
     0
 10
0.0
 20
0.0
 30
0.0
  3
*PAPER_SPACE
  1

  0
ENDBLK
  5
10
330
B
100
AcDbEntity
 67
     1
  8
0
100
AcDbBlockEnd
  0
BLOCK
  5
196
330
195
100
AcDbEntity
  8
0
100
AcDbBlockBegin
  2
_Oblique
 70
     0
 10
0.0
 20
0.0
 30
0.0
  3
_Oblique
  1

  0
LINE
  5
197
330
195
100
AcDbEntity
  8
0
  6
ByBlock
 62
     0
370
    -2
380
     1
100
AcDbLine
 10
-0.5
 20
-0.5
 30
0.0
 11
0.5
 21
0.5
 31
0.0
  0
ENDBLK
  5
198
330
195
100
AcDbEntity
  8
0
100
AcDbBlockEnd
  0
BLOCK
  5
1A3
330
1A2
100
AcDbEntity
  8
0
370
     0
100
AcDbBlockBegin
  2
*D1
 70
     1
 10
0.0
 20
0.0
 30
0.0
  3
*D1
  1

  0
LINE
  5
1C4
330
1A2
100
AcDbEntity
  8
Cotation-JacobDelafon
  6
Continuous
 62
     0
370
    -2
100
AcDbLine
 10
132.597591
 20
108.301115
 30
0.0
 11
132.597591
 21
119.9980902126845
 31
0.0
  0
LINE
  5
1C5
330
1A2
100
AcDbEntity
  8
Cotation-JacobDelafon
  6
Continuous
 62
     0
370
    -2
100
AcDbLine
 10
164.315896
 20
107.771948
 30
0.0
 11
164.315896
 21
119.9980902126845
 31
0.0
  0
LINE
  5
1C6
330
1A2
100
AcDbEntity
  8
Cotation-JacobDelafon
  6
Continuous
 62
     0
370
    -2
100
AcDbLine
 10
132.597591
 20
118.1980902126845
 30
0.0
 11
164.315896
 21
118.1980902126845
 31
0.0
  0
INSERT
  5
1C7
330
1A2
100
AcDbEntity
  8
Cotation-JacobDelafon
  6
Continuous
 62
     0
370
    -2
100
AcDbBlockReference
  2
_Oblique
 10
132.597591
 20
118.1980902126845
 30
0.0
 41
1.8
 42
1.8
 43
1.8
 50
180.0
  0
INSERT
  5
1C8
330
1A2
100
AcDbEntity
  8
Cotation-JacobDelafon
  6
Continuous
 62
     0
370
    -2
100
AcDbBlockReference
  2
_Oblique
 10
164.315896
 20
118.1980902126845
 30
0.0
 41
1.8
 42
1.8
 43
1.8
  0
MTEXT
  5
1C9
330
1A2
100
AcDbEntity
  8
Cotation-JacobDelafon
  6
Continuous
 62
     0
370
     0
100
AcDbMText
 10
148.4567435
 20
120.6308323682097
 30
0.0
 40
3.0
 41
0.0
 46
0.0
 71
     5
 72
     1
  1
\A1;31.7
  7
Jacob-Delafon
 73
     1
 44
1.0
  0
POINT
  5
1CA
330
1A2
100
AcDbEntity
  8
Defpoints
  6
Continuous
 62
     0
370
     0
100
AcDbPoint
 10
132.597591
 20
107.676115
 30
0.0
  0
POINT
  5
1CB
330
1A2
100
AcDbEntity
  8
Defpoints
  6
Continuous
 62
     0
370
     0
100
AcDbPoint
 10
164.315896
 20
107.146948
 30
0.0
  0
POINT
  5
1CC
330
1A2
100
AcDbEntity
  8
Defpoints
  6
Continuous
 62
     0
370
     0
100
AcDbPoint
 10
164.315896
 20
118.1980902126845
 30
0.0
  0
ENDBLK
  5
1A4
330
1A2
100
AcDbEntity
  8
0
370
     0
100
AcDbBlockEnd
  0
BLOCK
  5
1B0
330
1AF
100
AcDbEntity
  8
0
370
     0
100
AcDbBlockBegin
  2
*D2
 70
     1
 10
0.0
 20
0.0
 30
0.0
  3
*D2
  1

  0
LINE
  5
1BB
330
1AF
100
AcDbEntity
  8
Cotation-JacobDelafon
  6
Continuous
 62
     0
370
    -2
100
AcDbLine
 10
140.330565
 20
108.249551
 30
0.0
 11
121.7470620962443
 21
108.249551
 31
0.0
  0
LINE
  5
1BC
330
1AF
100
AcDbEntity
  8
Cotation-JacobDelafon
  6
Continuous
 62
     0
370
    -2
100
AcDbLine
 10
140.330565
 20
101.849425
 30
0.0
 11
121.7470620962443
 21
101.849425
 31
0.0
  0
LINE
  5
1BD
330
1AF
100
AcDbEntity
  8
Cotation-JacobDelafon
  6
Continuous
 62
     0
370
    -2
100
AcDbLine
 10
123.5470620962443
 20
108.249551
 30
0.0
 11
123.5470620962443
 21
101.849425
 31
0.0
  0
MTEXT
  5
1BE
330
1AF
100
AcDbEntity
  8
Cotation-JacobDelafon
  6
Continuous
 62
     0
370
     0
100
AcDbMText
 10
118.8653431330792
 20
105.049488
 30
0.0
 40
3.0
 41
0.0
 46
0.0
 71
     5
 72
     1
  1
\A1;6.5
  7
Jacob-Delafon
 11
0.0000000000000001
 21
1.0
 31
0.0
 73
     1
 44
1.0
  0
INSERT
  5
1BF
330
1AF
100
AcDbEntity
  8
Cotation-JacobDelafon
  6
Continuous
 62
     0
370
    -2
100
AcDbBlockReference
  2
_Oblique
 10
123.5470620962443
 20
108.249551
 30
0.0
 41
1.8
 42
1.8
 43
1.8
 50
90.0
  0
INSERT
  5
1C0
330
1AF
100
AcDbEntity
  8
Cotation-JacobDelafon
  6
Continuous
 62
     0
370
    -2
100
AcDbBlockReference
  2
_Oblique
 10
123.5470620962443
 20
101.849425
 30
0.0
 41
1.8
 42
1.8
 43
1.8
 50
270.0
  0
POINT
  5
1C1
330
1AF
100
AcDbEntity
  8
Defpoints
  6
Continuous
 62
     0
370
     0
100
AcDbPoint
 10
140.9555649999999
 20
108.249551
 30
0.0
  0
POINT
  5
1C2
330
1AF
100
AcDbEntity
  8
Defpoints
  6
Continuous
 62
     0
370
     0
100
AcDbPoint
 10
140.9555649999999
 20
101.849425
 30
0.0
  0
POINT
  5
1C3
330
1AF
100
AcDbEntity
  8
Defpoints
  6
Continuous
 62
     0
370
     0
100
AcDbPoint
 10
123.5470620962443
 20
101.849425
 30
0.0
  0
ENDBLK
  5
1B1
330
1AF
100
AcDbEntity
  8
0
370
     0
100
AcDbBlockEnd
  0
ENDSEC
  0
SECTION
  2
ENTITIES
  0
LINE
  5
140
330
A
100
AcDbEntity
  8
0
 62
     7
100
AcDbLine
 10
147.350007
 20
103.169586
 30
0.0
 11
147.350007
 21
101.721956
 31
0.0
  0
LINE
  5
13F
330
A
100
AcDbEntity
  8
0
 62
     7
100
AcDbLine
 10
149.543671
 20
101.721956
 30
0.0
 11
149.543671
 21
103.167174
 31
0.0
  0
LINE
  5
13E
330
A
100
AcDbEntity
  8
0
 62
     7
100
AcDbLine
 10
147.433378
 20
101.721956
 30
0.0
 11
147.350007
 21
101.721956
 31
0.0
  0
LINE
  5
13D
330
A
100
AcDbEntity
  8
0
 62
     7
100
AcDbLine
 10
147.671262
 20
101.721956
 30
0.0
 11
147.433378
 21
101.721956
 31
0.0
  0
LINE
  5
13C
330
A
100
AcDbEntity
  8
0
 62
     7
100
AcDbLine
 10
148.026968
 20
101.721956
 30
0.0
 11
147.671262
 21
101.721956
 31
0.0
  0
LINE
  5
13B
330
A
100
AcDbEntity
  8
0
 62
     7
100
AcDbLine
 10
148.446753
 20
101.721956
 30
0.0
 11
148.026968
 21
101.721956
 31
0.0
  0
LINE
  5
13A
330
A
100
AcDbEntity
  8
0
 62
     7
100
AcDbLine
 10
148.866366
 20
101.721956
 30
0.0
 11
148.446753
 21
101.721956
 31
0.0
  0
LINE
  5
139
330
A
100
AcDbEntity
  8
0
 62
     7
100
AcDbLine
 10
149.222244
 20
101.721956
 30
0.0
 11
148.866366
 21
101.721956
 31
0.0
  0
LINE
  5
138
330
A
100
AcDbEntity
  8
0
 62
     7
100
AcDbLine
 10
149.459956
 20
101.721956
 30
0.0
 11
149.222244
 21
101.721956
 31
0.0
  0
LINE
  5
137
330
A
100
AcDbEntity
  8
0
 62
     7
100
AcDbLine
 10
149.543671
 20
101.721956
 30
0.0
 11
149.459956
 21
101.721956
 31
0.0
  0
LINE
  5
136
330
A
100
AcDbEntity
  8
0
 62
     7
100
AcDbLine
 10
154.554563
 20
103.170275
 30
0.0
 11
154.553185
 21
103.16304
 31
0.0
  0
LINE
  5
135
330
A
100
AcDbEntity
  8
0
 62
     7
100
AcDbLine
 10
162.910297
 20
106.909064
 30
0.0
 11
162.526169
 21
107.176748
 31
0.0
  0
LINE
  5
134
330
A
100
AcDbEntity
  8
0
 62
     7
100
AcDbLine
 10
161.789608
 20
107.245306
 30
0.0
 11
162.168224
 21
107.269077
 31
0.0
  0
LINE
  5
133
330
A
100
AcDbEntity
  8
0
 62
     7
100
AcDbLine
 10
164.26422
 20
107.199141
 30
0.0
 11
164.142608
 21
107.07374
 31
0.0
  0
LINE
  5
132
330
A
100
AcDbEntity
  8
0
 62
     7
100
AcDbLine
 10
164.142608
 20
107.07374
 30
0.0
 11
164.064749
 21
106.970904
 31
0.0
  0
LINE
  5
131
330
A
100
AcDbEntity
  8
0
 62
     7
100
AcDbLine
 10
163.988268
 20
106.793309
 30
0.0
 11
164.064749
 21
106.970904
 31
0.0
  0
LINE
  5
130
330
A
100
AcDbEntity
  8
0
 62
     7
100
AcDbLine
 10
163.988268
 20
106.793309
 30
0.0
 11
163.947616
 21
106.642242
 31
0.0
  0
LINE
  5
12F
330
A
100
AcDbEntity
  8
0
 62
     7
100
AcDbLine
 10
164.280756
 20
103.211616
 30
0.0
 11
164.196007
 21
103.176131
 31
0.0
  0
LINE
  5
12E
330
A
100
AcDbEntity
  8
0
 62
     7
100
AcDbLine
 10
164.315896
 20
103.297399
 30
0.0
 11
164.280756
 21
103.211616
 31
0.0
  0
LINE
  5
12D
330
A
100
AcDbEntity
  8
0
 62
     7
100
AcDbLine
 10
164.280756
 20
107.640458
 30
0.0
 11
164.196007
 21
107.676115
 31
0.0
  0
LINE
  5
12C
330
A
100
AcDbEntity
  8
0
 62
     7
100
AcDbLine
 10
164.315896
 20
107.554675
 30
0.0
 11
164.280756
 21
107.640458
 31
0.0
  0
LINE
  5
12B
330
A
100
AcDbEntity
  8
0
 62
     7
100
AcDbLine
 10
161.13814
 20
104.301299
 30
0.0
 11
161.136762
 21
106.641897
 31
0.0
  0
LINE
  5
12A
330
A
100
AcDbEntity
  8
0
 62
     7
100
AcDbLine
 10
163.12975
 20
104.304572
 30
0.0
 11
163.128372
 21
106.64517
 31
0.0
  0
LINE
  5
129
330
A
100
AcDbEntity
  8
0
 62
     7
100
AcDbLine
 10
162.912364
 20
106.90872
 30
0.0
 11
163.126305
 21
106.640691
 31
0.0
  0
LINE
  5
128
330
A
100
AcDbEntity
  8
0
 62
     7
100
AcDbLine
 10
164.315896
 20
107.450461
 30
0.0
 11
164.315896
 21
107.146948
 31
0.0
  0
LINE
  5
127
330
A
100
AcDbEntity
  8
0
 62
     7
100
AcDbLine
 10
164.315896
 20
107.554675
 30
0.0
 11
164.315896
 21
107.450461
 31
0.0
  0
LINE
  5
126
330
A
100
AcDbEntity
  8
0
 62
     7
100
AcDbLine
 10
164.315896
 20
107.450461
 30
0.0
 11
164.315896
 21
107.554675
 31
0.0
  0
LINE
  5
125
330
A
100
AcDbEntity
  8
0
 62
     7
100
AcDbLine
 10
164.315896
 20
103.704609
 30
0.0
 11
164.315896
 21
107.450461
 31
0.0
  0
LINE
  5
124
330
A
100
AcDbEntity
  8
0
 62
     7
100
AcDbLine
 10
164.316241
 20
103.405575
 30
0.0
 11
164.315896
 21
103.297399
 31
0.0
  0
LINE
  5
123
330
A
100
AcDbEntity
  8
0
 62
     7
100
AcDbLine
 10
164.316585
 20
103.712533
 30
0.0
 11
164.316241
 21
103.405575
 31
0.0
  0
LINE
  5
122
330
A
100
AcDbEntity
  8
0
 62
     7
100
AcDbLine
 10
159.317407
 20
104.297338
 30
0.0
 11
161.139518
 21
104.295098
 31
0.0
  0
LINE
  5
121
330
A
100
AcDbEntity
  8
0
 62
     7
100
AcDbLine
 10
159.316029
 20
106.643792
 30
0.0
 11
161.136762
 21
106.643792
 31
0.0
  0
LINE
  5
120
330
A
100
AcDbEntity
  8
0
 62
     7
100
AcDbLine
 10
163.125271
 20
104.306984
 30
0.0
 11
163.950027
 21
104.304744
 31
0.0
  0
LINE
  5
11F
330
A
100
AcDbEntity
  8
0
 62
     7
100
AcDbLine
 10
163.124582
 20
106.643792
 30
0.0
 11
163.948994
 21
106.643792
 31
0.0
  0
LINE
  5
11E
330
A
100
AcDbEntity
  8
0
 62
     7
100
AcDbLine
 10
159.316029
 20
107.675943
 30
0.0
 11
162.17408
 21
107.679043
 31
0.0
  0
LINE
  5
11D
330
A
100
AcDbEntity
  8
0
 62
     7
100
AcDbLine
 10
162.17408
 20
107.679043
 30
0.0
 11
164.196007
 21
107.676115
 31
0.0
  0
LINE
  5
11C
330
A
100
AcDbEntity
  8
0
 62
     7
100
AcDbLine
 10
162.17408
 20
103.178887
 30
0.0
 11
159.316029
 21
103.175787
 31
0.0
  0
LINE
  5
11B
330
A
100
AcDbEntity
  8
0
 62
     7
100
AcDbLine
 10
164.196007
 20
103.176131
 30
0.0
 11
162.17408
 21
103.178887
 31
0.0
  0
LINE
  5
11A
330
A
100
AcDbEntity
  8
0
 62
     7
100
AcDbLine
 10
161.372062
 20
106.992091
 30
0.0
 11
161.789608
 21
107.245306
 31
0.0
  0
LINE
  5
119
330
A
100
AcDbEntity
  8
0
 62
     7
100
AcDbLine
 10
162.168224
 20
107.269077
 30
0.0
 11
162.526169
 21
107.176748
 31
0.0
  0
LINE
  5
118
330
A
100
AcDbEntity
  8
0
 62
     7
100
AcDbLine
 10
161.371718
 20
106.991058
 30
0.0
 11
161.139518
 21
106.644998
 31
0.0
  0
LINE
  5
117
330
A
100
AcDbEntity
  8
0
 62
     7
100
AcDbLine
 10
164.26422
 20
107.199141
 30
0.0
 11
164.315552
 21
107.234626
 31
0.0
  0
LINE
  5
116
330
A
100
AcDbEntity
  8
0
 62
     7
100
AcDbLine
 10
162.910297
 20
104.037405
 30
0.0
 11
162.526169
 21
103.769721
 31
0.0
  0
LINE
  5
115
330
A
100
AcDbEntity
  8
0
 62
     7
100
AcDbLine
 10
161.789608
 20
103.701164
 30
0.0
 11
162.168224
 21
103.677393
 31
0.0
  0
LINE
  5
114
330
A
100
AcDbEntity
  8
0
 62
     7
100
AcDbLine
 10
164.26422
 20
103.747328
 30
0.0
 11
164.142608
 21
103.872729
 31
0.0
  0
LINE
  5
113
330
A
100
AcDbEntity
  8
0
 62
     7
100
AcDbLine
 10
164.142608
 20
103.872729
 30
0.0
 11
164.064749
 21
103.975393
 31
0.0
  0
LINE
  5
112
330
A
100
AcDbEntity
  8
0
 62
     7
100
AcDbLine
 10
163.988268
 20
104.15316
 30
0.0
 11
164.064749
 21
103.975393
 31
0.0
  0
LINE
  5
111
330
A
100
AcDbEntity
  8
0
 62
     7
100
AcDbLine
 10
163.988268
 20
104.15316
 30
0.0
 11
163.947616
 21
104.304228
 31
0.0
  0
LINE
  5
110
330
A
100
AcDbEntity
  8
0
 62
     7
100
AcDbLine
 10
162.912364
 20
104.03775
 30
0.0
 11
163.126305
 21
104.305778
 31
0.0
  0
LINE
  5
10F
330
A
100
AcDbEntity
  8
0
 62
     7
100
AcDbLine
 10
161.372062
 20
103.954378
 30
0.0
 11
161.789608
 21
103.701164
 31
0.0
  0
LINE
  5
10E
330
A
100
AcDbEntity
  8
0
 62
     7
100
AcDbLine
 10
162.168224
 20
103.677393
 30
0.0
 11
162.526169
 21
103.769721
 31
0.0
  0
LINE
  5
10D
330
A
100
AcDbEntity
  8
0
 62
     7
100
AcDbLine
 10
161.371718
 20
103.955412
 30
0.0
 11
161.139518
 21
104.301472
 31
0.0
  0
LINE
  5
10C
330
A
100
AcDbEntity
  8
0
 62
     7
100
AcDbLine
 10
164.26422
 20
103.747328
 30
0.0
 11
164.315552
 21
103.711844
 31
0.0
  0
LINE
  5
10B
330
A
100
AcDbEntity
  8
0
 62
     7
100
AcDbLine
 10
159.317407
 20
104.22723
 30
0.0
 11
159.317407
 21
104.297338
 31
0.0
  0
LINE
  5
10A
330
A
100
AcDbEntity
  8
0
 62
     7
100
AcDbLine
 10
159.317407
 20
104.196741
 30
0.0
 11
159.317407
 21
104.22723
 31
0.0
  0
LINE
  5
109
330
A
100
AcDbEntity
  8
0
 62
     7
100
AcDbLine
 10
159.317407
 20
104.192607
 30
0.0
 11
159.317407
 21
104.196741
 31
0.0
  0
LINE
  5
108
330
A
100
AcDbEntity
  8
0
 62
     7
100
AcDbLine
 10
159.317063
 20
104.121121
 30
0.0
 11
159.317407
 21
104.192607
 31
0.0
  0
LINE
  5
107
330
A
100
AcDbEntity
  8
0
 62
     7
100
AcDbLine
 10
159.316029
 20
103.298088
 30
0.0
 11
159.316374
 21
103.621238
 31
0.0
  0
LINE
  5
106
330
A
100
AcDbEntity
  8
0
 62
     7
100
AcDbLine
 10
159.316029
 20
103.175787
 30
0.0
 11
159.316029
 21
103.298088
 31
0.0
  0
LINE
  5
105
330
A
100
AcDbEntity
  8
0
 62
     7
100
AcDbLine
 10
159.317063
 20
103.944387
 30
0.0
 11
159.317063
 21
104.121121
 31
0.0
  0
LINE
  5
104
330
A
100
AcDbEntity
  8
0
 62
     7
100
AcDbLine
 10
159.316718
 20
103.877897
 30
0.0
 11
159.317063
 21
103.944387
 31
0.0
  0
LINE
  5
103
330
A
100
AcDbEntity
  8
0
 62
     7
100
AcDbLine
 10
159.316718
 20
103.770755
 30
0.0
 11
159.316718
 21
103.877897
 31
0.0
  0
LINE
  5
102
330
A
100
AcDbEntity
  8
0
 62
     7
100
AcDbLine
 10
159.316374
 20
103.621238
 30
0.0
 11
159.316718
 21
103.770755
 31
0.0
  0
LINE
  5
101
330
A
100
AcDbEntity
  8
0
 62
     7
100
AcDbLine
 10
159.316029
 20
107.098028
 30
0.0
 11
159.316029
 21
107.246167
 31
0.0
  0
LINE
  5
100
330
A
100
AcDbEntity
  8
0
 62
     7
100
AcDbLine
 10
159.316029
 20
106.991402
 30
0.0
 11
159.316029
 21
107.098028
 31
0.0
  0
LINE
  5
FF
330
A
100
AcDbEntity
  8
0
 62
     7
100
AcDbLine
 10
159.316029
 20
106.925084
 30
0.0
 11
159.316029
 21
106.991402
 31
0.0
  0
LINE
  5
FE
330
A
100
AcDbEntity
  8
0
 62
     7
100
AcDbLine
 10
159.316029
 20
106.748523
 30
0.0
 11
159.316029
 21
106.925084
 31
0.0
  0
LINE
  5
FD
330
A
100
AcDbEntity
  8
0
 62
     7
100
AcDbLine
 10
159.316029
 20
103.388005
 30
0.0
 11
159.316029
 21
103.28603
 31
0.0
  0
LINE
  5
FC
330
A
100
AcDbEntity
  8
0
 62
     7
100
AcDbLine
 10
159.316029
 20
107.565872
 30
0.0
 11
159.316029
 21
107.675943
 31
0.0
  0
LINE
  5
FB
330
A
100
AcDbEntity
  8
0
 62
     7
100
AcDbLine
 10
159.316029
 20
107.246167
 30
0.0
 11
159.316029
 21
107.565872
 31
0.0
  0
LINE
  5
FA
330
A
100
AcDbEntity
  8
0
 62
     7
100
AcDbLine
 10
159.316029
 20
106.677382
 30
0.0
 11
159.316029
 21
106.748523
 31
0.0
  0
LINE
  5
F9
330
A
100
AcDbEntity
  8
0
 62
     7
100
AcDbLine
 10
159.316029
 20
106.673764
 30
0.0
 11
159.316029
 21
106.677382
 31
0.0
  0
LINE
  5
F8
330
A
100
AcDbEntity
  8
0
 62
     7
100
AcDbLine
 10
159.316029
 20
106.643792
 30
0.0
 11
159.316029
 21
106.673764
 31
0.0
  0
LINE
  5
F7
330
A
100
AcDbEntity
  8
0
 62
     7
100
AcDbLine
 10
159.316029
 20
106.573857
 30
0.0
 11
159.316029
 21
106.643792
 31
0.0
  0
LINE
  5
F6
330
A
100
AcDbEntity
  8
0
 62
     7
100
AcDbLine
 10
159.317407
 20
104.297338
 30
0.0
 11
159.316029
 21
106.573857
 31
0.0
  0
LINE
  5
F5
330
A
100
AcDbEntity
  8
0
 62
     7
100
AcDbLine
 10
137.604865
 20
104.22723
 30
0.0
 11
137.605037
 21
104.196741
 31
0.0
  0
LINE
  5
F4
330
A
100
AcDbEntity
  8
0
 62
     7
100
AcDbLine
 10
137.604865
 20
104.297338
 30
0.0
 11
137.604865
 21
104.22723
 31
0.0
  0
LINE
  5
F3
330
A
100
AcDbEntity
  8
0
 62
     7
100
AcDbLine
 10
137.605037
 20
104.196741
 30
0.0
 11
137.605037
 21
104.192607
 31
0.0
  0
LINE
  5
F2
330
A
100
AcDbEntity
  8
0
 62
     7
100
AcDbLine
 10
137.605037
 20
104.192607
 30
0.0
 11
137.605037
 21
104.121121
 31
0.0
  0
LINE
  5
F1
330
A
100
AcDbEntity
  8
0
 62
     7
100
AcDbLine
 10
137.605554
 20
103.770755
 30
0.0
 11
137.605899
 21
103.621238
 31
0.0
  0
LINE
  5
F0
330
A
100
AcDbEntity
  8
0
 62
     7
100
AcDbLine
 10
137.605382
 20
103.877897
 30
0.0
 11
137.605554
 21
103.770755
 31
0.0
  0
LINE
  5
EF
330
A
100
AcDbEntity
  8
0
 62
     7
100
AcDbLine
 10
137.605382
 20
103.944387
 30
0.0
 11
137.605382
 21
103.877897
 31
0.0
  0
LINE
  5
EE
330
A
100
AcDbEntity
  8
0
 62
     7
100
AcDbLine
 10
137.605037
 20
104.121121
 30
0.0
 11
137.605382
 21
103.944387
 31
0.0
  0
LINE
  5
ED
330
A
100
AcDbEntity
  8
0
 62
     7
100
AcDbLine
 10
137.606243
 20
103.298088
 30
0.0
 11
137.606243
 21
103.175787
 31
0.0
  0
LINE
  5
EC
330
A
100
AcDbEntity
  8
0
 62
     7
100
AcDbLine
 10
137.605899
 20
103.621238
 30
0.0
 11
137.606243
 21
103.298088
 31
0.0
  0
LINE
  5
EB
330
A
100
AcDbEntity
  8
0
 62
     7
100
AcDbLine
 10
137.606243
 20
103.28603
 30
0.0
 11
137.606243
 21
103.388005
 31
0.0
  0
LINE
  5
EA
330
A
100
AcDbEntity
  8
0
 62
     7
100
AcDbLine
 10
137.606243
 20
106.925084
 30
0.0
 11
137.606243
 21
106.748523
 31
0.0
  0
LINE
  5
E9
330
A
100
AcDbEntity
  8
0
 62
     7
100
AcDbLine
 10
137.606243
 20
106.991402
 30
0.0
 11
137.606243
 21
106.925084
 31
0.0
  0
LINE
  5
E8
330
A
100
AcDbEntity
  8
0
 62
     7
100
AcDbLine
 10
137.606243
 20
107.098028
 30
0.0
 11
137.606243
 21
106.991402
 31
0.0
  0
LINE
  5
E7
330
A
100
AcDbEntity
  8
0
 62
     7
100
AcDbLine
 10
137.606243
 20
107.246167
 30
0.0
 11
137.606243
 21
107.098028
 31
0.0
  0
LINE
  5
E6
330
A
100
AcDbEntity
  8
0
 62
     7
100
AcDbLine
 10
137.606243
 20
107.565872
 30
0.0
 11
137.606243
 21
107.246167
 31
0.0
  0
LINE
  5
E5
330
A
100
AcDbEntity
  8
0
 62
     7
100
AcDbLine
 10
137.606243
 20
107.675943
 30
0.0
 11
137.606243
 21
107.565872
 31
0.0
  0
LINE
  5
E4
330
A
100
AcDbEntity
  8
0
 62
     7
100
AcDbLine
 10
137.606243
 20
106.748523
 30
0.0
 11
137.606243
 21
106.677382
 31
0.0
  0
LINE
  5
E3
330
A
100
AcDbEntity
  8
0
 62
     7
100
AcDbLine
 10
137.606243
 20
106.573857
 30
0.0
 11
137.604865
 21
104.297338
 31
0.0
  0
LINE
  5
E2
330
A
100
AcDbEntity
  8
0
 62
     7
100
AcDbLine
 10
137.606243
 20
106.643792
 30
0.0
 11
137.606243
 21
106.573857
 31
0.0
  0
LINE
  5
E1
330
A
100
AcDbEntity
  8
0
 62
     7
100
AcDbLine
 10
137.606243
 20
106.673764
 30
0.0
 11
137.606243
 21
106.643792
 31
0.0
  0
LINE
  5
E0
330
A
100
AcDbEntity
  8
0
 62
     7
100
AcDbLine
 10
137.606243
 20
106.677382
 30
0.0
 11
137.606243
 21
106.673764
 31
0.0
  0
LINE
  5
DF
330
A
100
AcDbEntity
  8
0
 62
     7
100
AcDbLine
 10
159.116558
 20
107.246167
 30
0.0
 11
159.116558
 21
107.565872
 31
0.0
  0
LINE
  5
DE
330
A
100
AcDbEntity
  8
0
 62
     7
100
AcDbLine
 10
159.116558
 20
104.178137
 30
0.0
 11
159.116558
 21
104.207421
 31
0.0
  0
LINE
  5
DD
330
A
100
AcDbEntity
  8
0
 62
     7
100
AcDbLine
 10
159.116558
 20
104.207421
 30
0.0
 11
159.116558
 21
104.278045
 31
0.0
  0
LINE
  5
DC
330
A
100
AcDbEntity
  8
0
 62
     7
100
AcDbLine
 10
159.116558
 20
106.677382
 30
0.0
 11
159.116558
 21
106.748523
 31
0.0
  0
LINE
  5
DB
330
A
100
AcDbEntity
  8
0
 62
     7
100
AcDbLine
 10
159.116558
 20
106.748523
 30
0.0
 11
159.116558
 21
106.925084
 31
0.0
  0
LINE
  5
DA
330
A
100
AcDbEntity
  8
0
 62
     7
100
AcDbLine
 10
159.116558
 20
106.925084
 30
0.0
 11
159.116558
 21
106.991402
 31
0.0
  0
LINE
  5
D9
330
A
100
AcDbEntity
  8
0
 62
     7
100
AcDbLine
 10
159.116558
 20
106.991402
 30
0.0
 11
159.116558
 21
107.098028
 31
0.0
  0
LINE
  5
D8
330
A
100
AcDbEntity
  8
0
 62
     7
100
AcDbLine
 10
159.116558
 20
107.098028
 30
0.0
 11
159.116558
 21
107.246167
 31
0.0
  0
LINE
  5
D7
330
A
100
AcDbEntity
  8
0
 62
     7
100
AcDbLine
 10
146.545577
 20
106.648271
 30
0.0
 11
146.1065
 21
106.648098
 31
0.0
  0
LINE
  5
D6
330
A
100
AcDbEntity
  8
0
 62
     7
100
AcDbLine
 10
146.906968
 20
106.648443
 30
0.0
 11
146.545577
 21
106.648271
 31
0.0
  0
LINE
  5
D5
330
A
100
AcDbEntity
  8
0
 62
     7
100
AcDbLine
 10
147.150363
 20
106.648615
 30
0.0
 11
146.906968
 21
106.648443
 31
0.0
  0
LINE
  5
D4
330
A
100
AcDbEntity
  8
0
 62
     7
100
AcDbLine
 10
149.667695
 20
106.648615
 30
0.0
 11
147.145196
 21
106.648615
 31
0.0
  0
LINE
  5
D3
330
A
100
AcDbEntity
  8
0
 62
     7
100
AcDbLine
 10
146.103399
 20
104.273739
 30
0.0
 11
146.534036
 21
104.273566
 31
0.0
  0
LINE
  5
D2
330
A
100
AcDbEntity
  8
0
 62
     7
100
AcDbLine
 10
146.534036
 20
104.273566
 30
0.0
 11
146.885608
 21
104.273394
 31
0.0
  0
LINE
  5
D1
330
A
100
AcDbEntity
  8
0
 62
     7
100
AcDbLine
 10
146.885608
 20
104.273394
 30
0.0
 11
147.122803
 21
104.273394
 31
0.0
  0
LINE
  5
D0
330
A
100
AcDbEntity
  8
0
 62
     7
100
AcDbLine
 10
147.122803
 20
104.273394
 30
0.0
 11
147.209619
 21
104.273222
 31
0.0
  0
LINE
  5
CF
330
A
100
AcDbEntity
  8
0
 62
     7
100
AcDbLine
 10
147.209619
 20
104.273222
 30
0.0
 11
147.209619
 21
106.637074
 31
0.0
  0
LINE
  5
CE
330
A
100
AcDbEntity
  8
0
 62
     7
100
AcDbLine
 10
159.116558
 20
106.643792
 30
0.0
 11
159.116558
 21
106.673764
 31
0.0
  0
LINE
  5
CD
330
A
100
AcDbEntity
  8
0
 62
     7
100
AcDbLine
 10
157.866333
 20
106.643792
 30
0.0
 11
150.812845
 21
106.644137
 31
0.0
  0
LINE
  5
CC
330
A
100
AcDbEntity
  8
0
 62
     7
100
AcDbLine
 10
158.02653
 20
106.643792
 30
0.0
 11
157.866333
 21
106.643792
 31
0.0
  0
LINE
  5
CB
330
A
100
AcDbEntity
  8
0
 62
     7
100
AcDbLine
 10
159.116558
 20
106.643792
 30
0.0
 11
158.02653
 21
106.643792
 31
0.0
  0
LINE
  5
CA
330
A
100
AcDbEntity
  8
0
 62
     7
100
AcDbLine
 10
159.116558
 20
106.573857
 30
0.0
 11
159.116558
 21
106.643792
 31
0.0
  0
LINE
  5
C9
330
A
100
AcDbEntity
  8
0
 62
     7
100
AcDbLine
 10
150.812845
 20
106.644137
 30
0.0
 11
150.373595
 21
106.644309
 31
0.0
  0
LINE
  5
C8
330
A
100
AcDbEntity
  8
0
 62
     7
100
AcDbLine
 10
150.373595
 20
106.644309
 30
0.0
 11
150.012549
 21
106.644481
 31
0.0
  0
LINE
  5
C7
330
A
100
AcDbEntity
  8
0
 62
     7
100
AcDbLine
 10
150.012549
 20
106.644481
 30
0.0
 11
149.768981
 21
106.644653
 31
0.0
  0
LINE
  5
C6
330
A
100
AcDbEntity
  8
0
 62
     7
100
AcDbLine
 10
149.768981
 20
106.644653
 30
0.0
 11
149.679753
 21
106.644653
 31
0.0
  0
LINE
  5
C5
330
A
100
AcDbEntity
  8
0
 62
     7
100
AcDbLine
 10
159.116558
 20
104.278045
 30
0.0
 11
159.116558
 21
106.573857
 31
0.0
  0
LINE
  5
C4
330
A
100
AcDbEntity
  8
0
 62
     7
100
AcDbLine
 10
150.815945
 20
104.269777
 30
0.0
 11
159.112424
 21
104.278045
 31
0.0
  0
LINE
  5
C3
330
A
100
AcDbEntity
  8
0
 62
     7
100
AcDbLine
 10
150.385308
 20
104.269604
 30
0.0
 11
150.815945
 21
104.269777
 31
0.0
  0
LINE
  5
C2
330
A
100
AcDbEntity
  8
0
 62
     7
100
AcDbLine
 10
150.033564
 20
104.269432
 30
0.0
 11
150.385308
 21
104.269604
 31
0.0
  0
LINE
  5
C1
330
A
100
AcDbEntity
  8
0
 62
     7
100
AcDbLine
 10
147.218232
 20
104.26926
 30
0.0
 11
150.033564
 21
104.269432
 31
0.0
  0
LINE
  5
C0
330
A
100
AcDbEntity
  8
0
 62
     7
100
AcDbLine
 10
149.679753
 20
106.643964
 30
0.0
 11
149.679753
 21
106.546296
 31
0.0
  0
LINE
  5
BF
330
A
100
AcDbEntity
  8
0
 62
     7
100
AcDbLine
 10
149.679753
 20
106.546296
 30
0.0
 11
149.679753
 21
106.284641
 31
0.0
  0
LINE
  5
BE
330
A
100
AcDbEntity
  8
0
 62
     7
100
AcDbLine
 10
149.679753
 20
106.284641
 30
0.0
 11
149.679753
 21
105.89724
 31
0.0
  0
LINE
  5
BD
330
A
100
AcDbEntity
  8
0
 62
     7
100
AcDbLine
 10
149.679753
 20
105.89724
 30
0.0
 11
149.679753
 21
105.423022
 31
0.0
  0
LINE
  5
BC
330
A
100
AcDbEntity
  8
0
 62
     7
100
AcDbLine
 10
149.679753
 20
105.423022
 30
0.0
 11
149.679753
 21
104.948805
 31
0.0
  0
LINE
  5
BB
330
A
100
AcDbEntity
  8
0
 62
     7
100
AcDbLine
 10
149.679753
 20
104.948805
 30
0.0
 11
149.679753
 21
104.561404
 31
0.0
  0
LINE
  5
BA
330
A
100
AcDbEntity
  8
0
 62
     7
100
AcDbLine
 10
149.679753
 20
104.561404
 30
0.0
 11
149.679753
 21
104.299921
 31
0.0
  0
LINE
  5
B9
330
A
100
AcDbEntity
  8
0
 62
     7
100
AcDbLine
 10
138.892986
 20
106.647754
 30
0.0
 11
137.802786
 21
106.647754
 31
0.0
  0
LINE
  5
B8
330
A
100
AcDbEntity
  8
0
 62
     7
100
AcDbLine
 10
139.052839
 20
106.647754
 30
0.0
 11
138.892986
 21
106.647754
 31
0.0
  0
LINE
  5
B7
330
A
100
AcDbEntity
  8
0
 62
     7
100
AcDbLine
 10
146.1065
 20
106.648098
 30
0.0
 11
139.052839
 21
106.647754
 31
0.0
  0
LINE
  5
B6
330
A
100
AcDbEntity
  8
0
 62
     7
100
AcDbLine
 10
138.892986
 20
104.282007
 30
0.0
 11
139.052839
 21
104.282007
 31
0.0
  0
LINE
  5
B5
330
A
100
AcDbEntity
  8
0
 62
     7
100
AcDbLine
 10
137.802786
 20
104.282007
 30
0.0
 11
138.892986
 21
104.282007
 31
0.0
  0
LINE
  5
B4
330
A
100
AcDbEntity
  8
0
 62
     7
100
AcDbLine
 10
139.052839
 20
104.282007
 30
0.0
 11
146.103399
 21
104.273739
 31
0.0
  0
LINE
  5
B3
330
A
100
AcDbEntity
  8
0
 62
     7
100
AcDbLine
 10
159.116558
 20
106.673764
 30
0.0
 11
159.116558
 21
106.677382
 31
0.0
  0
LINE
  5
B2
330
A
100
AcDbEntity
  8
0
 62
     7
100
AcDbLine
 10
159.116558
 20
107.565872
 30
0.0
 11
159.116558
 21
107.675943
 31
0.0
  0
LINE
  5
B1
330
A
100
AcDbEntity
  8
0
 62
     7
100
AcDbLine
 10
158.02653
 20
107.675943
 30
0.0
 11
159.116558
 21
107.675943
 31
0.0
  0
LINE
  5
B0
330
A
100
AcDbEntity
  8
0
 62
     7
100
AcDbLine
 10
157.865644
 20
107.675943
 30
0.0
 11
158.02653
 21
107.675943
 31
0.0
  0
LINE
  5
AF
330
A
100
AcDbEntity
  8
0
 62
     7
100
AcDbLine
 10
150.804921
 20
107.667674
 30
0.0
 11
157.865644
 21
107.675943
 31
0.0
  0
LINE
  5
AE
330
A
100
AcDbEntity
  8
0
 62
     7
100
AcDbLine
 10
157.878391
 20
103.174064
 30
0.0
 11
157.873912
 21
103.175098
 31
0.0
  0
LINE
  5
AD
330
A
100
AcDbEntity
  8
0
 62
     7
100
AcDbLine
 10
150.813878
 20
103.165796
 30
0.0
 11
157.877013
 21
103.174064
 31
0.0
  0
LINE
  5
AC
330
A
100
AcDbEntity
  8
0
 62
     7
100
AcDbLine
 10
159.116558
 20
103.175787
 30
0.0
 11
159.116558
 21
103.28603
 31
0.0
  0
LINE
  5
AB
330
A
100
AcDbEntity
  8
0
 62
     7
100
AcDbLine
 10
158.02653
 20
103.175787
 30
0.0
 11
159.116558
 21
103.175787
 31
0.0
  0
LINE
  5
AA
330
A
100
AcDbEntity
  8
0
 62
     7
100
AcDbLine
 10
157.946259
 20
103.175787
 30
0.0
 11
158.02653
 21
103.175787
 31
0.0
  0
LINE
  5
A9
330
A
100
AcDbEntity
  8
0
 62
     7
100
AcDbLine
 10
157.869089
 20
103.175787
 30
0.0
 11
157.946259
 21
103.175787
 31
0.0
  0
LINE
  5
A8
330
A
100
AcDbEntity
  8
0
 62
     7
100
AcDbLine
 10
159.116558
 20
103.926817
 30
0.0
 11
159.116558
 21
104.103206
 31
0.0
  0
LINE
  5
A7
330
A
100
AcDbEntity
  8
0
 62
     7
100
AcDbLine
 10
159.116558
 20
104.17452
 30
0.0
 11
159.116558
 21
104.178137
 31
0.0
  0
LINE
  5
A6
330
A
100
AcDbEntity
  8
0
 62
     7
100
AcDbLine
 10
138.892986
 20
107.679905
 30
0.0
 11
139.054045
 21
107.679905
 31
0.0
  0
LINE
  5
A5
330
A
100
AcDbEntity
  8
0
 62
     7
100
AcDbLine
 10
137.802786
 20
107.679905
 30
0.0
 11
138.892986
 21
107.679905
 31
0.0
  0
LINE
  5
A4
330
A
100
AcDbEntity
  8
0
 62
     7
100
AcDbLine
 10
146.115974
 20
107.671636
 30
0.0
 11
150.804921
 21
107.667674
 31
0.0
  0
LINE
  5
A3
330
A
100
AcDbEntity
  8
0
 62
     7
100
AcDbLine
 10
139.054045
 20
107.679905
 30
0.0
 11
146.115974
 21
107.671636
 31
0.0
  0
LINE
  5
A2
330
A
100
AcDbEntity
  8
0
 62
     7
100
AcDbLine
 10
149.521623
 20
103.166829
 30
0.0
 11
150.813878
 21
103.165796
 31
0.0
  0
LINE
  5
A1
330
A
100
AcDbEntity
  8
0
 62
     7
100
AcDbLine
 10
138.892986
 20
103.179921
 30
0.0
 11
147.347767
 21
103.179921
 31
0.0
  0
LINE
  5
A0
330
A
100
AcDbEntity
  8
0
 62
     7
100
AcDbLine
 10
137.802786
 20
103.179921
 30
0.0
 11
138.892986
 21
103.179921
 31
0.0
  0
LINE
  5
9F
330
A
100
AcDbEntity
  8
0
 62
     7
100
AcDbLine
 10
159.116558
 20
103.28603
 30
0.0
 11
159.116558
 21
103.605735
 31
0.0
  0
LINE
  5
9E
330
A
100
AcDbEntity
  8
0
 62
     7
100
AcDbLine
 10
159.116558
 20
103.605735
 30
0.0
 11
159.116558
 21
103.753874
 31
0.0
  0
LINE
  5
9D
330
A
100
AcDbEntity
  8
0
 62
     7
100
AcDbLine
 10
159.116558
 20
103.753874
 30
0.0
 11
159.116558
 21
103.860327
 31
0.0
  0
LINE
  5
9C
330
A
100
AcDbEntity
  8
0
 62
     7
100
AcDbLine
 10
159.116558
 20
103.860327
 30
0.0
 11
159.116558
 21
103.926817
 31
0.0
  0
LINE
  5
9B
330
A
100
AcDbEntity
  8
0
 62
     7
100
AcDbLine
 10
159.116558
 20
104.103206
 30
0.0
 11
159.116558
 21
104.17452
 31
0.0
  0
LINE
  5
9A
330
A
100
AcDbEntity
  8
0
 62
     7
100
AcDbLine
 10
137.802786
 20
104.211382
 30
0.0
 11
137.802786
 21
104.282007
 31
0.0
  0
LINE
  5
99
330
A
100
AcDbEntity
  8
0
 62
     7
100
AcDbLine
 10
137.802786
 20
104.182099
 30
0.0
 11
137.802786
 21
104.211382
 31
0.0
  0
LINE
  5
98
330
A
100
AcDbEntity
  8
0
 62
     7
100
AcDbLine
 10
137.802786
 20
104.178482
 30
0.0
 11
137.802786
 21
104.182099
 31
0.0
  0
LINE
  5
97
330
A
100
AcDbEntity
  8
0
 62
     7
100
AcDbLine
 10
137.802786
 20
104.10734
 30
0.0
 11
137.802786
 21
104.178482
 31
0.0
  0
LINE
  5
96
330
A
100
AcDbEntity
  8
0
 62
     7
100
AcDbLine
 10
137.802786
 20
103.930607
 30
0.0
 11
137.802786
 21
104.10734
 31
0.0
  0
LINE
  5
95
330
A
100
AcDbEntity
  8
0
 62
     7
100
AcDbLine
 10
137.802786
 20
103.864461
 30
0.0
 11
137.802786
 21
103.930607
 31
0.0
  0
LINE
  5
94
330
A
100
AcDbEntity
  8
0
 62
     7
100
AcDbLine
 10
137.802786
 20
103.758008
 30
0.0
 11
137.802786
 21
103.864461
 31
0.0
  0
LINE
  5
93
330
A
100
AcDbEntity
  8
0
 62
     7
100
AcDbLine
 10
137.802786
 20
103.609524
 30
0.0
 11
137.802786
 21
103.758008
 31
0.0
  0
LINE
  5
92
330
A
100
AcDbEntity
  8
0
 62
     7
100
AcDbLine
 10
137.802786
 20
103.289819
 30
0.0
 11
137.802786
 21
103.609524
 31
0.0
  0
LINE
  5
91
330
A
100
AcDbEntity
  8
0
 62
     7
100
AcDbLine
 10
137.802786
 20
103.179921
 30
0.0
 11
137.802786
 21
103.289819
 31
0.0
  0
LINE
  5
90
330
A
100
AcDbEntity
  8
0
 62
     7
100
AcDbLine
 10
137.802786
 20
107.569834
 30
0.0
 11
137.802786
 21
107.679905
 31
0.0
  0
LINE
  5
8F
330
A
100
AcDbEntity
  8
0
 62
     7
100
AcDbLine
 10
137.802786
 20
107.250301
 30
0.0
 11
137.802786
 21
107.569834
 31
0.0
  0
LINE
  5
8E
330
A
100
AcDbEntity
  8
0
 62
     7
100
AcDbLine
 10
137.802786
 20
107.10199
 30
0.0
 11
137.802786
 21
107.250301
 31
0.0
  0
LINE
  5
8D
330
A
100
AcDbEntity
  8
0
 62
     7
100
AcDbLine
 10
137.802786
 20
106.995364
 30
0.0
 11
137.802786
 21
107.10199
 31
0.0
  0
LINE
  5
8C
330
A
100
AcDbEntity
  8
0
 62
     7
100
AcDbLine
 10
137.802786
 20
106.929046
 30
0.0
 11
137.802786
 21
106.995364
 31
0.0
  0
LINE
  5
8B
330
A
100
AcDbEntity
  8
0
 62
     7
100
AcDbLine
 10
137.802786
 20
106.752485
 30
0.0
 11
137.802786
 21
106.929046
 31
0.0
  0
LINE
  5
8A
330
A
100
AcDbEntity
  8
0
 62
     7
100
AcDbLine
 10
137.802786
 20
106.681344
 30
0.0
 11
137.802786
 21
106.752485
 31
0.0
  0
LINE
  5
89
330
A
100
AcDbEntity
  8
0
 62
     7
100
AcDbLine
 10
137.802786
 20
106.677898
 30
0.0
 11
137.802786
 21
106.681344
 31
0.0
  0
LINE
  5
88
330
A
100
AcDbEntity
  8
0
 62
     7
100
AcDbLine
 10
137.802786
 20
106.647754
 30
0.0
 11
137.802786
 21
106.677898
 31
0.0
  0
LINE
  5
87
330
A
100
AcDbEntity
  8
0
 62
     7
100
AcDbLine
 10
137.802786
 20
106.577818
 30
0.0
 11
137.802786
 21
106.647754
 31
0.0
  0
LINE
  5
86
330
A
100
AcDbEntity
  8
0
 62
     7
100
AcDbLine
 10
137.802786
 20
104.282007
 30
0.0
 11
137.802786
 21
106.577818
 31
0.0
  0
LINE
  5
85
330
A
100
AcDbEntity
  8
0
 62
     7
100
AcDbLine
 10
159.316029
 20
103.388005
 30
0.0
 11
159.116558
 21
103.388005
 31
0.0
  0
LINE
  5
84
330
A
100
AcDbEntity
  8
0
 62
     7
100
AcDbLine
 10
159.116558
 20
107.466825
 30
0.0
 11
159.315685
 21
107.466825
 31
0.0
  0
LINE
  5
83
330
A
100
AcDbEntity
  8
0
 62
     7
100
AcDbLine
 10
137.802786
 20
103.388005
 30
0.0
 11
137.606243
 21
103.388005
 31
0.0
  0
LINE
  5
82
330
A
100
AcDbEntity
  8
0
 62
     7
100
AcDbLine
 10
137.606415
 20
107.466825
 30
0.0
 11
137.802786
 21
107.466825
 31
0.0
  0
LINE
  5
81
330
A
100
AcDbEntity
  8
0
 62
     7
100
AcDbLine
 10
147.371883
 20
103.168896
 30
0.0
 11
147.350007
 21
103.169586
 31
0.0
  0
LINE
  5
80
330
A
100
AcDbEntity
  8
0
 62
     7
100
AcDbLine
 10
147.433378
 20
103.170275
 30
0.0
 11
147.371883
 21
103.168896
 31
0.0
  0
LINE
  5
7F
330
A
100
AcDbEntity
  8
0
 62
     7
100
AcDbLine
 10
147.671262
 20
103.170619
 30
0.0
 11
147.433378
 21
103.170275
 31
0.0
  0
LINE
  5
7E
330
A
100
AcDbEntity
  8
0
 62
     7
100
AcDbLine
 10
147.671262
 20
103.170619
 30
0.0
 11
147.759801
 21
103.170275
 31
0.0
  0
LINE
  5
7D
330
A
100
AcDbEntity
  8
0
 62
     7
100
AcDbLine
 10
147.759801
 20
103.170275
 30
0.0
 11
148.026968
 21
103.199213
 31
0.0
  0
LINE
  5
7C
330
A
100
AcDbEntity
  8
0
 62
     7
100
AcDbLine
 10
148.026968
 20
103.199213
 30
0.0
 11
148.446753
 21
103.21196
 31
0.0
  0
LINE
  5
7B
330
A
100
AcDbEntity
  8
0
 62
     7
100
AcDbLine
 10
148.446753
 20
103.21196
 30
0.0
 11
148.866366
 21
103.198524
 31
0.0
  0
LINE
  5
7A
330
A
100
AcDbEntity
  8
0
 62
     7
100
AcDbLine
 10
149.133705
 20
103.168896
 30
0.0
 11
149.222244
 21
103.169241
 31
0.0
  0
LINE
  5
79
330
A
100
AcDbEntity
  8
0
 62
     7
100
AcDbLine
 10
148.866366
 20
103.198524
 30
0.0
 11
149.133705
 21
103.168896
 31
0.0
  0
LINE
  5
78
330
A
100
AcDbEntity
  8
0
 62
     7
100
AcDbLine
 10
149.222244
 20
103.169241
 30
0.0
 11
149.459956
 21
103.167863
 31
0.0
  0
LINE
  5
77
330
A
100
AcDbEntity
  8
0
 62
     7
100
AcDbLine
 10
149.521623
 20
103.166829
 30
0.0
 11
149.543671
 21
103.167174
 31
0.0
  0
LINE
  5
76
330
A
100
AcDbEntity
  8
0
 62
     7
100
AcDbLine
 10
149.459956
 20
103.167863
 30
0.0
 11
149.521623
 21
103.166829
 31
0.0
  0
LINE
  5
75
330
A
100
AcDbEntity
  8
0
 62
     7
100
AcDbLine
 10
159.317063
 20
104.562438
 30
0.0
 11
159.317063
 21
104.636335
 31
0.0
  0
LINE
  5
74
330
A
100
AcDbEntity
  8
0
 62
     7
100
AcDbLine
 10
159.316029
 20
107.311624
 30
0.0
 11
159.315685
 21
107.466825
 31
0.0
  0
LINE
  5
73
330
A
100
AcDbEntity
  8
0
 62
     7
100
AcDbLine
 10
159.316029
 20
106.869618
 30
0.0
 11
159.316029
 21
107.311624
 31
0.0
  0
LINE
  5
72
330
A
100
AcDbEntity
  8
0
 62
     7
100
AcDbLine
 10
159.316374
 20
103.985384
 30
0.0
 11
159.317063
 21
104.562438
 31
0.0
  0
LINE
  5
71
330
A
100
AcDbEntity
  8
0
 62
     7
100
AcDbLine
 10
159.316374
 20
103.985384
 30
0.0
 11
159.316029
 21
103.543378
 31
0.0
  0
LINE
  5
70
330
A
100
AcDbEntity
  8
0
 62
     7
100
AcDbLine
 10
159.316029
 20
103.543378
 30
0.0
 11
159.316029
 21
103.388005
 31
0.0
  0
LINE
  5
6F
330
A
100
AcDbEntity
  8
0
 62
     7
100
AcDbLine
 10
159.317063
 20
104.636335
 30
0.0
 11
159.317063
 21
104.647187
 31
0.0
  0
LINE
  5
6E
330
A
100
AcDbEntity
  8
0
 62
     7
100
AcDbLine
 10
137.60521
 20
104.562438
 30
0.0
 11
137.60521
 21
104.636335
 31
0.0
  0
LINE
  5
6D
330
A
100
AcDbEntity
  8
0
 62
     7
100
AcDbLine
 10
137.606243
 20
107.311624
 30
0.0
 11
137.606415
 21
107.466825
 31
0.0
  0
LINE
  5
6C
330
A
100
AcDbEntity
  8
0
 62
     7
100
AcDbLine
 10
137.605899
 20
103.985384
 30
0.0
 11
137.60521
 21
104.562438
 31
0.0
  0
LINE
  5
6B
330
A
100
AcDbEntity
  8
0
 62
     7
100
AcDbLine
 10
137.605899
 20
103.985384
 30
0.0
 11
137.606071
 21
103.543378
 31
0.0
  0
LINE
  5
6A
330
A
100
AcDbEntity
  8
0
 62
     7
100
AcDbLine
 10
137.60521
 20
104.647187
 30
0.0
 11
137.605554
 21
105.427501
 31
0.0
  0
LINE
  5
69
330
A
100
AcDbEntity
  8
0
 62
     7
100
AcDbLine
 10
137.60521
 20
104.636335
 30
0.0
 11
137.60521
 21
104.647187
 31
0.0
  0
LINE
  5
68
330
A
100
AcDbEntity
  8
0
 62
     7
100
AcDbLine
 10
163.946238
 20
104.297854
 30
0.0
 11
163.944515
 21
106.638452
 31
0.0
  0
LINE
  5
67
330
A
100
AcDbEntity
  8
0
 62
     7
100
AcDbLine
 10
134.003362
 20
106.909064
 30
0.0
 11
134.387491
 21
107.176748
 31
0.0
  0
LINE
  5
66
330
A
100
AcDbEntity
  8
0
 62
     7
100
AcDbLine
 10
135.12388
 20
107.245306
 30
0.0
 11
134.745264
 21
107.269077
 31
0.0
  0
LINE
  5
65
330
A
100
AcDbEntity
  8
0
 62
     7
100
AcDbLine
 10
132.649268
 20
107.199141
 30
0.0
 11
132.770707
 21
107.07374
 31
0.0
  0
LINE
  5
64
330
A
100
AcDbEntity
  8
0
 62
     7
100
AcDbLine
 10
132.770707
 20
107.07374
 30
0.0
 11
132.848739
 21
106.970904
 31
0.0
  0
LINE
  5
63
330
A
100
AcDbEntity
  8
0
 62
     7
100
AcDbLine
 10
132.92522
 20
106.793309
 30
0.0
 11
132.848739
 21
106.970904
 31
0.0
  0
LINE
  5
62
330
A
100
AcDbEntity
  8
0
 62
     7
100
AcDbLine
 10
132.92522
 20
106.793309
 30
0.0
 11
132.965872
 21
106.642242
 31
0.0
  0
LINE
  5
61
330
A
100
AcDbEntity
  8
0
 62
     7
100
AcDbLine
 10
132.632731
 20
103.211616
 30
0.0
 11
132.71748
 21
103.176131
 31
0.0
  0
LINE
  5
60
330
A
100
AcDbEntity
  8
0
 62
     7
100
AcDbLine
 10
132.597591
 20
103.297399
 30
0.0
 11
132.632731
 21
103.211616
 31
0.0
  0
LINE
  5
5F
330
A
100
AcDbEntity
  8
0
 62
     7
100
AcDbLine
 10
132.632559
 20
107.640458
 30
0.0
 11
132.717308
 21
107.676115
 31
0.0
  0
LINE
  5
5E
330
A
100
AcDbEntity
  8
0
 62
     7
100
AcDbLine
 10
132.597591
 20
107.554675
 30
0.0
 11
132.632559
 21
107.640458
 31
0.0
  0
LINE
  5
5D
330
A
100
AcDbEntity
  8
0
 62
     7
100
AcDbLine
 10
135.775347
 20
104.301299
 30
0.0
 11
135.776725
 21
106.641897
 31
0.0
  0
LINE
  5
5C
330
A
100
AcDbEntity
  8
0
 62
     7
100
AcDbLine
 10
133.783738
 20
104.304572
 30
0.0
 11
133.785116
 21
106.64517
 31
0.0
  0
LINE
  5
5B
330
A
100
AcDbEntity
  8
0
 62
     7
100
AcDbLine
 10
134.001123
 20
106.90872
 30
0.0
 11
133.787183
 21
106.640691
 31
0.0
  0
LINE
  5
5A
330
A
100
AcDbEntity
  8
0
 62
     7
100
AcDbLine
 10
132.597591
 20
107.450461
 30
0.0
 11
132.597763
 21
107.146948
 31
0.0
  0
LINE
  5
59
330
A
100
AcDbEntity
  8
0
 62
     7
100
AcDbLine
 10
132.597591
 20
107.554675
 30
0.0
 11
132.597591
 21
107.450461
 31
0.0
  0
LINE
  5
58
330
A
100
AcDbEntity
  8
0
 62
     7
100
AcDbLine
 10
132.597591
 20
107.450461
 30
0.0
 11
132.597591
 21
107.554675
 31
0.0
  0
LINE
  5
57
330
A
100
AcDbEntity
  8
0
 62
     7
100
AcDbLine
 10
132.597591
 20
103.704609
 30
0.0
 11
132.597591
 21
107.450461
 31
0.0
  0
LINE
  5
56
330
A
100
AcDbEntity
  8
0
 62
     7
100
AcDbLine
 10
132.597419
 20
103.405575
 30
0.0
 11
132.597591
 21
103.297399
 31
0.0
  0
LINE
  5
55
330
A
100
AcDbEntity
  8
0
 62
     7
100
AcDbLine
 10
132.597074
 20
103.712533
 30
0.0
 11
132.597419
 21
103.405575
 31
0.0
  0
LINE
  5
54
330
A
100
AcDbEntity
  8
0
 62
     7
100
AcDbLine
 10
137.59608
 20
104.297338
 30
0.0
 11
135.773969
 21
104.295098
 31
0.0
  0
LINE
  5
53
330
A
100
AcDbEntity
  8
0
 62
     7
100
AcDbLine
 10
137.597458
 20
106.643792
 30
0.0
 11
135.776725
 21
106.643792
 31
0.0
  0
LINE
  5
52
330
A
100
AcDbEntity
  8
0
 62
     7
100
AcDbLine
 10
133.788216
 20
104.306984
 30
0.0
 11
132.963288
 21
104.304744
 31
0.0
  0
LINE
  5
51
330
A
100
AcDbEntity
  8
0
 62
     7
100
AcDbLine
 10
133.788905
 20
106.643792
 30
0.0
 11
132.964666
 21
106.643792
 31
0.0
  0
LINE
  5
50
330
A
100
AcDbEntity
  8
0
 62
     7
100
AcDbLine
 10
137.597458
 20
107.675943
 30
0.0
 11
134.739579
 21
107.679043
 31
0.0
  0
LINE
  5
4F
330
A
100
AcDbEntity
  8
0
 62
     7
100
AcDbLine
 10
134.739579
 20
107.679043
 30
0.0
 11
132.717308
 21
107.676115
 31
0.0
  0
LINE
  5
4E
330
A
100
AcDbEntity
  8
0
 62
     7
100
AcDbLine
 10
134.739579
 20
103.178887
 30
0.0
 11
137.597458
 21
103.175787
 31
0.0
  0
LINE
  5
4D
330
A
100
AcDbEntity
  8
0
 62
     7
100
AcDbLine
 10
132.71748
 20
103.176131
 30
0.0
 11
134.739579
 21
103.178887
 31
0.0
  0
LINE
  5
4C
330
A
100
AcDbEntity
  8
0
 62
     7
100
AcDbLine
 10
135.541597
 20
106.992091
 30
0.0
 11
135.12388
 21
107.245306
 31
0.0
  0
LINE
  5
4B
330
A
100
AcDbEntity
  8
0
 62
     7
100
AcDbLine
 10
134.745264
 20
107.269077
 30
0.0
 11
134.387491
 21
107.176748
 31
0.0
  0
LINE
  5
4A
330
A
100
AcDbEntity
  8
0
 62
     7
100
AcDbLine
 10
135.541942
 20
106.991058
 30
0.0
 11
135.773969
 21
106.644998
 31
0.0
  0
LINE
  5
49
330
A
100
AcDbEntity
  8
0
 62
     7
100
AcDbLine
 10
132.649268
 20
107.199141
 30
0.0
 11
132.597936
 21
107.234626
 31
0.0
  0
LINE
  5
48
330
A
100
AcDbEntity
  8
0
 62
     7
100
AcDbLine
 10
134.003362
 20
104.037405
 30
0.0
 11
134.387491
 21
103.769721
 31
0.0
  0
LINE
  5
47
330
A
100
AcDbEntity
  8
0
 62
     7
100
AcDbLine
 10
135.12388
 20
103.701164
 30
0.0
 11
134.745264
 21
103.677393
 31
0.0
  0
LINE
  5
46
330
A
100
AcDbEntity
  8
0
 62
     7
100
AcDbLine
 10
132.649268
 20
103.747328
 30
0.0
 11
132.770707
 21
103.872729
 31
0.0
  0
LINE
  5
45
330
A
100
AcDbEntity
  8
0
 62
     7
100
AcDbLine
 10
132.770707
 20
103.872729
 30
0.0
 11
132.848739
 21
103.975393
 31
0.0
  0
LINE
  5
44
330
A
100
AcDbEntity
  8
0
 62
     7
100
AcDbLine
 10
132.92522
 20
104.15316
 30
0.0
 11
132.848739
 21
103.975393
 31
0.0
  0
LINE
  5
43
330
A
100
AcDbEntity
  8
0
 62
     7
100
AcDbLine
 10
132.92522
 20
104.15316
 30
0.0
 11
132.965872
 21
104.304228
 31
0.0
  0
LINE
  5
42
330
A
100
AcDbEntity
  8
0
 62
     7
100
AcDbLine
 10
134.001123
 20
104.03775
 30
0.0
 11
133.787183
 21
104.305778
 31
0.0
  0
LINE
  5
41
330
A
100
AcDbEntity
  8
0
 62
     7
100
AcDbLine
 10
135.541597
 20
103.954378
 30
0.0
 11
135.12388
 21
103.701164
 31
0.0
  0
LINE
  5
40
330
A
100
AcDbEntity
  8
0
 62
     7
100
AcDbLine
 10
134.745264
 20
103.677393
 30
0.0
 11
134.387491
 21
103.769721
 31
0.0
  0
LINE
  5
3F
330
A
100
AcDbEntity
  8
0
 62
     7
100
AcDbLine
 10
135.541942
 20
103.955412
 30
0.0
 11
135.773969
 21
104.301472
 31
0.0
  0
LINE
  5
3E
330
A
100
AcDbEntity
  8
0
 62
     7
100
AcDbLine
 10
132.649268
 20
103.747328
 30
0.0
 11
132.597936
 21
103.711844
 31
0.0
  0
LINE
  5
3D
330
A
100
AcDbEntity
  8
0
 62
     7
100
AcDbLine
 10
132.967422
 20
104.297854
 30
0.0
 11
132.9688
 21
106.638452
 31
0.0
  0
LINE
  5
3C
330
A
100
AcDbEntity
  8
0
 62
     7
100
AcDbLine
 10
142.180124
 20
108.005983
 30
0.0
 11
142.670189
 21
107.678526
 31
0.0
  0
LINE
  5
3B
330
A
100
AcDbEntity
  8
0
 62
     7
100
AcDbLine
 10
140.9555649999999
 20
108.249551
 30
0.0
 11
142.180124
 21
108.005983
 31
0.0
  0
LINE
  5
3A
330
A
100
AcDbEntity
  8
0
 62
     7
100
AcDbLine
 10
139.730834
 20
108.005983
 30
0.0
 11
140.9555649999999
 21
108.249551
 31
0.0
  0
LINE
  5
39
330
A
100
AcDbEntity
  8
0
 62
     7
100
AcDbLine
 10
139.246798
 20
107.682488
 30
0.0
 11
139.730834
 21
108.005983
 31
0.0
  0
LINE
  5
38
330
A
100
AcDbEntity
  8
0
 62
     7
100
AcDbLine
 10
138.692826
 20
102.786835
 30
0.0
 11
138.428243
 21
103.182677
 31
0.0
  0
LINE
  5
37
330
A
100
AcDbEntity
  8
0
 62
     7
100
AcDbLine
 10
139.730834
 20
102.092993
 30
0.0
 11
138.692826
 21
102.786835
 31
0.0
  0
LINE
  5
36
330
A
100
AcDbEntity
  8
0
 62
     7
100
AcDbLine
 10
140.9555649999999
 20
101.849425
 30
0.0
 11
139.730834
 21
102.092993
 31
0.0
  0
LINE
  5
35
330
A
100
AcDbEntity
  8
0
 62
     7
100
AcDbLine
 10
142.180124
 20
102.092993
 30
0.0
 11
140.9555649999999
 21
101.849425
 31
0.0
  0
LINE
  5
34
330
A
100
AcDbEntity
  8
0
 62
     7
100
AcDbLine
 10
143.218304
 20
102.786835
 30
0.0
 11
142.180124
 21
102.092993
 31
0.0
  0
LINE
  5
33
330
A
100
AcDbEntity
  8
0
 62
     7
100
AcDbLine
 10
143.478236
 20
103.175787
 30
0.0
 11
143.218304
 21
102.786835
 31
0.0
  0
LINE
  5
32
330
A
100
AcDbEntity
  8
0
 62
     7
100
AcDbLine
 10
157.18007
 20
108.005983
 30
0.0
 11
157.670307
 21
107.678526
 31
0.0
  0
LINE
  5
31
330
A
100
AcDbEntity
  8
0
 62
     7
100
AcDbLine
 10
155.955339
 20
108.249551
 30
0.0
 11
157.18007
 21
108.005983
 31
0.0
  0
LINE
  5
30
330
A
100
AcDbEntity
  8
0
 62
     7
100
AcDbLine
 10
154.730952
 20
108.005983
 30
0.0
 11
155.955339
 21
108.249551
 31
0.0
  0
LINE
  5
2F
330
A
100
AcDbEntity
  8
0
 62
     7
100
AcDbLine
 10
154.234858
 20
107.674565
 30
0.0
 11
154.730952
 21
108.005983
 31
0.0
  0
LINE
  5
2E
330
A
100
AcDbEntity
  8
0
 62
     7
100
AcDbLine
 10
153.6926
 20
102.786835
 30
0.0
 11
153.435596
 21
103.171997
 31
0.0
  0
LINE
  5
2D
330
A
100
AcDbEntity
  8
0
 62
     7
100
AcDbLine
 10
154.730952
 20
102.092993
 30
0.0
 11
153.6926
 21
102.786835
 31
0.0
  0
LINE
  5
2C
330
A
100
AcDbEntity
  8
0
 62
     7
100
AcDbLine
 10
155.955339
 20
101.849425
 30
0.0
 11
154.730952
 21
102.092993
 31
0.0
  0
LINE
  5
2B
330
A
100
AcDbEntity
  8
0
 62
     7
100
AcDbLine
 10
157.18007
 20
102.092993
 30
0.0
 11
155.955339
 21
101.849425
 31
0.0
  0
LINE
  5
2A
330
A
100
AcDbEntity
  8
0
 62
     7
100
AcDbLine
 10
158.218077
 20
102.786835
 30
0.0
 11
157.18007
 21
102.092993
 31
0.0
  0
LINE
  5
29
330
A
100
AcDbEntity
  8
0
 62
     7
100
AcDbLine
 10
158.480249
 20
103.178887
 30
0.0
 11
158.218077
 21
102.786835
 31
0.0
  0
DIMENSION
  5
1A1
330
A
100
AcDbEntity
  8
Cotation-JacobDelafon
  6
Continuous
370
     0
100
AcDbDimension
  2
*D1
 10
164.315896
 20
118.1980902126845
 30
0.0
 11
148.4567435
 21
120.6308323682097
 31
0.0
 70
    32
  1
31.7
 71
     5
 42
31.71830500000002
 73
     0
 74
     0
 75
     0
  3
Cotation-Jacob-Delafon
100
AcDbAlignedDimension
 13
132.597591
 23
107.676115
 33
0.0
 14
164.315896
 24
107.146948
 34
0.0
100
AcDbRotatedDimension
  0
DIMENSION
  5
1AE
330
A
100
AcDbEntity
  8
Cotation-JacobDelafon
  6
Continuous
370
     0
100
AcDbDimension
  2
*D2
 10
123.5470620962443
 20
101.849425
 30
0.0
 11
118.8653431330792
 21
105.049488
 31
0.0
 70
    32
  1
6.5
 71
     5
 42
6.400126
 73
     0
 74
     0
 75
     0
  3
Cotation-Jacob-Delafon
100
AcDbAlignedDimension
 13
140.9555649999999
 23
108.249551
 33
0.0
 14
140.9555649999999
 24
101.849425
 34
0.0
 50
90.0
100
AcDbRotatedDimension
  0
ENDSEC
  0
SECTION
  2
OBJECTS
  0
DICTIONARY
  5
19
330
0
100
AcDbDictionary
281
     1
  3
ACAD_COLOR
350
16D
  3
ACAD_GROUP
350
1A
  3
ACAD_LAYOUT
350
1E
  3
ACAD_MATERIAL
350
143
  3
ACAD_MLEADERSTYLE
350
182
  3
ACAD_MLINESTYLE
350
1B
  3
ACAD_PLOTSETTINGS
350
22
  3
ACAD_PLOTSTYLENAME
350
1F
  3
ACAD_SCALELIST
350
170
  3
ACAD_TABLESTYLE
350
16E
  3
ACAD_VISUALSTYLE
350
15C
  3
ACAD_WIPEOUT_VARS
350
23
  3
ACDB_RECOMPOSE_DATA
350
1D2
  3
AcDbVariableDictionary
350
1D3
  3
AEC_PROPERTY_SET_DEFS
350
191
  0
DICTIONARY
  5
1CD
330
14
100
AcDbDictionary
280
     1
281
     1
  3
ADSK_XREC_LAYER_RECONCILED
360
1CE
  0
DICTIONARY
  5
18A
330
189
100
AcDbDictionary
280
     1
281
     1
  3
ADSK_XREC_LAYER_RECONCILED
360
1CF
  0
DICTIONARY
  5
16D
102
{ACAD_REACTORS
330
19
102
}
330
19
100
AcDbDictionary
281
     1
  0
DICTIONARY
  5
1A
102
{ACAD_REACTORS
330
19
102
}
330
19
100
AcDbDictionary
281
     1
  0
DICTIONARY
  5
1E
102
{ACAD_REACTORS
330
19
102
}
330
19
100
AcDbDictionary
281
     1
  3
Layout1
350
21
  3
Model
350
20
  0
DICTIONARY
  5
143
102
{ACAD_REACTORS
330
19
102
}
330
19
100
AcDbDictionary
281
     1
  3
ByBlock
350
14C
  3
ByLayer
350
144
  3
Global
350
154
  0
DICTIONARY
  5
182
102
{ACAD_REACTORS
330
19
102
}
330
19
100
AcDbDictionary
281
     1
  3
Standard
350
183
  0
DICTIONARY
  5
1B
102
{ACAD_REACTORS
330
19
102
}
330
19
100
AcDbDictionary
281
     1
  3
Standard
350
1C
  0
DICTIONARY
  5
22
102
{ACAD_REACTORS
330
19
102
}
330
19
100
AcDbDictionary
281
     1
  0
ACDBDICTIONARYWDFLT
  5
1F
102
{ACAD_REACTORS
330
19
102
}
330
19
100
AcDbDictionary
281
     1
  3
Normal
350
1D
100
AcDbDictionaryWithDefault
340
1D
  0
DICTIONARY
  5
170
102
{ACAD_REACTORS
330
19
102
}
330
19
100
AcDbDictionary
281
     1
  3
A0
350
171
  3
A1
350
172
  3
A2
350
173
  3
A3
350
174
  3
A4
350
175
  3
A5
350
176
  3
A6
350
177
  3
A7
350
178
  3
A8
350
179
  3
A9
350
17A
  3
B0
350
17B
  3
B1
350
17C
  3
B2
350
17D
  3
B3
350
17E
  3
B4
350
17F
  3
B5
350
180
  3
B6
350
181
  0
DICTIONARY
  5
16E
102
{ACAD_REACTORS
330
19
102
}
330
19
100
AcDbDictionary
281
     1
  3
Standard
350
16F
  0
DICTIONARY
  5
15C
102
{ACAD_REACTORS
330
19
102
}
330
19
100
AcDbDictionary
281
     1
  3
2dWireframe
350
162
  3
3D Hidden
350
164
  3
3dWireframe
350
163
  3
Basic
350
161
  3
Brighten
350
168
  3
ColorChange
350
16C
  3
Conceptual
350
165
  3
Dim
350
167
  3
Facepattern
350
16B
  3
Flat
350
15D
  3
FlatWithEdges
350
15E
  3
Gouraud
350
15F
  3
GouraudWithEdges
350
160
  3
Linepattern
350
16A
  3
Realistic
350
166
  3
Thicken
350
169
  0
WIPEOUTVARIABLES
  5
23
330
19
100
AcDbWipeoutVariables
 70
     1
  0
XRECORD
  5
1D2
102
{ACAD_REACTORS
330
19
102
}
330
19
100
AcDbXrecord
280
     1
 90
        1
330
16F
  0
DICTIONARY
  5
1D3
102
{ACAD_REACTORS
330
19
102
}
330
19
100
AcDbDictionary
281
     1
  3
CANNOSCALE
350
1D7
  3
CMLEADERSTYLE
350
1D5
  3
CTABLESTYLE
350
1D4
  3
LAYEREVAL
350
1D9
  3
LAYERNOTIFY
350
1DA
  3
LIGHTINGUNITS
350
1D8
  3
MSLTSCALE
350
1D6
  0
DICTIONARY
  5
191
102
{ACAD_REACTORS
330
19
102
}
330
19
100
AcDbDictionary
281
     1
  0
XRECORD
  5
1CE
102
{ACAD_REACTORS
330
1CD
102
}
330
1CD
100
AcDbXrecord
280
     1
290
     1
  0
XRECORD
  5
1CF
102
{ACAD_REACTORS
330
18A
102
}
330
18A
100
AcDbXrecord
280
     1
290
     1
  0
LAYOUT
  5
21
102
{ACAD_REACTORS
330
1E
102
}
330
1E
100
AcDbPlotSettings
  1

  2

  4

  6

 40
0.0
 41
0.0
 42
0.0
 43
0.0
 44
0.0
 45
0.0
 46
0.0
 47
0.0
 48
0.0
 49
0.0
140
0.0
141
0.0
142
1.0
143
1.0
 70
     0
 72
     0
 73
     0
 74
     0
  7

 75
     0
147
1.0
 76
     0
 77
     2
 78
   300
148
0.0
149
0.0
100
AcDbLayout
  1
Layout1
 70
     0
 71
     1
 10
0.0
 20
0.0
 11
12.0
 21
9.0
 12
0.0
 22
0.0
 32
0.0
 14
1.000000000000000E+20
 24
1.000000000000000E+20
 34
1.000000000000000E+20
 15
-1.000000000000000E+20
 25
-1.000000000000000E+20
 35
-1.000000000000000E+20
146
0.0
 13
0.0
 23
0.0
 33
0.0
 16
1.0
 26
0.0
 36
0.0
 17
0.0
 27
1.0
 37
0.0
 76
     0
330
B
  0
LAYOUT
  5
20
102
{ACAD_REACTORS
330
1E
102
}
330
1E
100
AcDbPlotSettings
  1

  2

  4

  6

 40
0.0
 41
0.0
 42
0.0
 43
0.0
 44
0.0
 45
0.0
 46
0.0
 47
0.0
 48
0.0
 49
0.0
140
0.0
141
0.0
142
1.0
143
1.0
 70
  1024
 72
     0
 73
     0
 74
     0
  7

 75
     0
147
1.0
 76
     0
 77
     2
 78
   300
148
0.0
149
0.0
100
AcDbLayout
  1
Model
 70
     0
 71
     0
 10
0.0
 20
0.0
 11
0.0
 21
0.0
 12
0.0
 22
0.0
 32
0.0
 14
0.0
 24
0.0
 34
0.0
 15
0.0
 25
0.0
 35
0.0
146
0.0
 13
0.0
 23
0.0
 33
0.0
 16
0.0
 26
0.0
 36
0.0
 17
0.0
 27
0.0
 37
0.0
 76
     0
330
A
331
15
  0
MATERIAL
  5
14C
102
{ACAD_XDICTIONARY
360
14D
102
}
102
{ACAD_REACTORS
330
143
102
}
330
143
100
AcDbMaterial
  1
ByBlock
 72
     0
 43
0.0208333333333333
 43
0.0
 43
0.0
 43
0.0
 43
0.0
 43
0.0208333333333333
 43
0.0
 43
0.0
 43
0.0
 43
0.0
 43
1.0
 43
0.0
 43
0.0
 43
0.0
 43
0.0
 43
1.0
 77
     0
 47
0.0208333333333333
 47
0.0
 47
0.0
 47
0.0
 47
0.0
 47
0.0208333333333333
 47
0.0
 47
0.0
 47
0.0
 47
0.0
 47
1.0
 47
0.0
 47
0.0
 47
0.0
 47
0.0
 47
1.0
171
     0
 49
0.0208333333333333
 49
0.0
 49
0.0
 49
0.0
 49
0.0
 49
0.0208333333333333
 49
0.0
 49
0.0
 49
0.0
 49
0.0
 49
1.0
 49
0.0
 49
0.0
 49
0.0
 49
0.0
 49
1.0
175
     0
142
0.0208333333333333
142
0.0
142
0.0
142
0.0
142
0.0
142
0.0208333333333333
142
0.0
142
0.0
142
0.0
142
0.0
142
1.0
142
0.0
142
0.0
142
0.0
142
0.0
142
1.0
179
     0
144
0.0208333333333333
144
0.0
144
0.0
144
0.0
144
0.0
144
0.0208333333333333
144
0.0
144
0.0
144
0.0
144
0.0
144
1.0
144
0.0
144
0.0
144
0.0
144
0.0
144
1.0
147
0.0208333333333333
147
0.0
147
0.0
147
0.0
147
0.0
147
0.0208333333333333
147
0.0
147
0.0
147
0.0
147
0.0
147
1.0
147
0.0
147
0.0
147
0.0
147
0.0
147
1.0
  0
MATERIAL
  5
144
102
{ACAD_XDICTIONARY
360
145
102
}
102
{ACAD_REACTORS
330
143
102
}
330
143
100
AcDbMaterial
  1
ByLayer
 72
     0
 43
0.0208333333333333
 43
0.0
 43
0.0
 43
0.0
 43
0.0
 43
0.0208333333333333
 43
0.0
 43
0.0
 43
0.0
 43
0.0
 43
1.0
 43
0.0
 43
0.0
 43
0.0
 43
0.0
 43
1.0
 77
     0
 47
0.0208333333333333
 47
0.0
 47
0.0
 47
0.0
 47
0.0
 47
0.0208333333333333
 47
0.0
 47
0.0
 47
0.0
 47
0.0
 47
1.0
 47
0.0
 47
0.0
 47
0.0
 47
0.0
 47
1.0
171
     0
 49
0.0208333333333333
 49
0.0
 49
0.0
 49
0.0
 49
0.0
 49
0.0208333333333333
 49
0.0
 49
0.0
 49
0.0
 49
0.0
 49
1.0
 49
0.0
 49
0.0
 49
0.0
 49
0.0
 49
1.0
175
     0
142
0.0208333333333333
142
0.0
142
0.0
142
0.0
142
0.0
142
0.0208333333333333
142
0.0
142
0.0
142
0.0
142
0.0
142
1.0
142
0.0
142
0.0
142
0.0
142
0.0
142
1.0
179
     0
144
0.0208333333333333
144
0.0
144
0.0
144
0.0
144
0.0
144
0.0208333333333333
144
0.0
144
0.0
144
0.0
144
0.0
144
1.0
144
0.0
144
0.0
144
0.0
144
0.0
144
1.0
147
0.0208333333333333
147
0.0
147
0.0
147
0.0
147
0.0
147
0.0208333333333333
147
0.0
147
0.0
147
0.0
147
0.0
147
1.0
147
0.0
147
0.0
147
0.0
147
0.0
147
1.0
  0
MATERIAL
  5
154
102
{ACAD_XDICTIONARY
360
155
102
}
102
{ACAD_REACTORS
330
143
102
}
330
143
100
AcDbMaterial
  1
Global
 72
     0
 43
0.0208333333333333
 43
0.0
 43
0.0
 43
0.0
 43
0.0
 43
0.0208333333333333
 43
0.0
 43
0.0
 43
0.0
 43
0.0
 43
1.0
 43
0.0
 43
0.0
 43
0.0
 43
0.0
 43
1.0
 77
     0
 47
0.0208333333333333
 47
0.0
 47
0.0
 47
0.0
 47
0.0
 47
0.0208333333333333
 47
0.0
 47
0.0
 47
0.0
 47
0.0
 47
1.0
 47
0.0
 47
0.0
 47
0.0
 47
0.0
 47
1.0
171
     0
 49
0.0208333333333333
 49
0.0
 49
0.0
 49
0.0
 49
0.0
 49
0.0208333333333333
 49
0.0
 49
0.0
 49
0.0
 49
0.0
 49
1.0
 49
0.0
 49
0.0
 49
0.0
 49
0.0
 49
1.0
175
     0
142
0.0208333333333333
142
0.0
142
0.0
142
0.0
142
0.0
142
0.0208333333333333
142
0.0
142
0.0
142
0.0
142
0.0
142
1.0
142
0.0
142
0.0
142
0.0
142
0.0
142
1.0
179
     0
144
0.0208333333333333
144
0.0
144
0.0
144
0.0
144
0.0
144
0.0208333333333333
144
0.0
144
0.0
144
0.0
144
0.0
144
1.0
144
0.0
144
0.0
144
0.0
144
0.0
144
1.0
147
0.0208333333333333
147
0.0
147
0.0
147
0.0
147
0.0
147
0.0208333333333333
147
0.0
147
0.0
147
0.0
147
0.0
147
1.0
147
0.0
147
0.0
147
0.0
147
0.0
147
1.0
  0
MLEADERSTYLE
  5
183
102
{ACAD_REACTORS
330
182
102
}
330
182
100
AcDbMLeaderStyle
170
     2
171
     1
172
     0
 90
        2
 40
0.0
 41
0.0
173
     1
 91
-1056964608
340
11
 92
       -2
290
     1
 42
2.0
291
     1
 43
0.36
  3
Standard
 44
4.0
300

342
17
174
     1
178
     6
175
     1
176
     0
 93
-1056964608
 45
4.0
292
     0
297
     0
 46
4.0
 94
-1056964608
 47
1.0
 49
1.0
140
1.0
293
     1
141
0.0
294
     1
177
     0
142
1.0
295
     0
296
     0
143
0.125
1001
ACAD_MLEADERVER
1070
     2
  0
MLINESTYLE
  5
1C
102
{ACAD_REACTORS
330
1B
102
}
330
1B
100
AcDbMlineStyle
  2
STANDARD
 70
     0
  3

 62
     0
 51
90.0
 52
90.0
 71
     2
 49
0.5
 62
   256
  6
BYLAYER
 49
-0.5
 62
   256
  6
BYLAYER
  0
ACDBPLACEHOLDER
  5
1D
102
{ACAD_REACTORS
330
1F
102
}
330
1F
  0
SCALE
  5
171
102
{ACAD_REACTORS
330
170
102
}
330
170
100
AcDbScale
 70
     0
300
1:1
140
1.0
141
1.0
290
     1
  0
SCALE
  5
172
102
{ACAD_REACTORS
330
170
102
}
330
170
100
AcDbScale
 70
     0
300
1:2
140
1.0
141
2.0
290
     0
  0
SCALE
  5
173
102
{ACAD_REACTORS
330
170
102
}
330
170
100
AcDbScale
 70
     0
300
1:4
140
1.0
141
4.0
290
     0
  0
SCALE
  5
174
102
{ACAD_REACTORS
330
170
102
}
330
170
100
AcDbScale
 70
     0
300
1:5
140
1.0
141
5.0
290
     0
  0
SCALE
  5
175
102
{ACAD_REACTORS
330
170
102
}
330
170
100
AcDbScale
 70
     0
300
1:8
140
1.0
141
8.0
290
     0
  0
SCALE
  5
176
102
{ACAD_REACTORS
330
170
102
}
330
170
100
AcDbScale
 70
     0
300
1:10
140
1.0
141
10.0
290
     0
  0
SCALE
  5
177
102
{ACAD_REACTORS
330
170
102
}
330
170
100
AcDbScale
 70
     0
300
1:16
140
1.0
141
16.0
290
     0
  0
SCALE
  5
178
102
{ACAD_REACTORS
330
170
102
}
330
170
100
AcDbScale
 70
     0
300
1:20
140
1.0
141
20.0
290
     0
  0
SCALE
  5
179
102
{ACAD_REACTORS
330
170
102
}
330
170
100
AcDbScale
 70
     0
300
1:30
140
1.0
141
30.0
290
     0
  0
SCALE
  5
17A
102
{ACAD_REACTORS
330
170
102
}
330
170
100
AcDbScale
 70
     0
300
1:40
140
1.0
141
40.0
290
     0
  0
SCALE
  5
17B
102
{ACAD_REACTORS
330
170
102
}
330
170
100
AcDbScale
 70
     0
300
1:50
140
1.0
141
50.0
290
     0
  0
SCALE
  5
17C
102
{ACAD_REACTORS
330
170
102
}
330
170
100
AcDbScale
 70
     0
300
1:100
140
1.0
141
100.0
290
     0
  0
SCALE
  5
17D
102
{ACAD_REACTORS
330
170
102
}
330
170
100
AcDbScale
 70
     0
300
2:1
140
2.0
141
1.0
290
     0
  0
SCALE
  5
17E
102
{ACAD_REACTORS
330
170
102
}
330
170
100
AcDbScale
 70
     0
300
4:1
140
4.0
141
1.0
290
     0
  0
SCALE
  5
17F
102
{ACAD_REACTORS
330
170
102
}
330
170
100
AcDbScale
 70
     0
300
8:1
140
8.0
141
1.0
290
     0
  0
SCALE
  5
180
102
{ACAD_REACTORS
330
170
102
}
330
170
100
AcDbScale
 70
     0
300
10:1
140
10.0
141
1.0
290
     0
  0
SCALE
  5
181
102
{ACAD_REACTORS
330
170
102
}
330
170
100
AcDbScale
 70
     0
300
100:1
140
100.0
141
1.0
290
     0
  0
TABLESTYLE
  5
16F
102
{ACAD_XDICTIONARY
360
1D0
102
}
102
{ACAD_REACTORS
330
16E
102
}
330
16E
100
AcDbTableStyle
  3
Standard
 70
     0
 71
     0
 40
1.5
 41
1.5
280
     0
281
     0
  7
Standard
140
4.5
170
     2
 62
     0
 63
     7
283
     0
 90
      512
 91
        0
  1

274
    -2
284
     1
 64
     0
275
    -2
285
     1
 65
     0
276
    -2
286
     1
 66
     0
277
    -2
287
     1
 67
     0
278
    -2
288
     1
 68
     0
279
    -2
289
     1
 69
     0
  7
Standard
140
6.0
170
     5
 62
     0
 63
     7
283
     0
 90
      512
 91
        0
  1

274
    -2
284
     1
 64
     0
275
    -2
285
     1
 65
     0
276
    -2
286
     1
 66
     0
277
    -2
287
     1
 67
     0
278
    -2
288
     1
 68
     0
279
    -2
289
     1
 69
     0
  7
Standard
140
4.5
170
     5
 62
     0
 63
     7
283
     0
 90
      512
 91
        0
  1

274
    -2
284
     1
 64
     0
275
    -2
285
     1
 65
     0
276
    -2
286
     1
 66
     0
277
    -2
287
     1
 67
     0
278
    -2
288
     1
 68
     0
279
    -2
289
     1
 69
     0
  0
VISUALSTYLE
  5
162
102
{ACAD_REACTORS
330
15C
102
}
330
15C
100
AcDbVisualStyle
  2
2dWireframe
 70
     4
 71
     0
 72
     2
 73
     0
 90
        0
 40
-0.6
 41
-30.0
 62
     5
 63
     7
421
 16777215
 74
     1
 91
        4
 64
     7
 65
   257
 75
     1
175
     1
 42
1.0
 92
        0
 66
   257
 43
1.0
 76
     1
 77
     6
 78
     2
 67
     7
 79
     5
170
     0
171
     0
290
     0
174
     0
 93
        1
 44
0.0
173
     0
291
     0
 45
0.0
  0
VISUALSTYLE
  5
164
102
{ACAD_REACTORS
330
15C
102
}
330
15C
100
AcDbVisualStyle
  2
3D Hidden
 70
     6
 71
     1
 72
     2
 73
     2
 90
        0
 40
-0.6
 41
-30.0
 62
     5
 63
     7
421
 16777215
 74
     2
 91
        2
 64
     7
 65
   257
 75
     2
175
     1
 42
40.0
 92
        0
 66
   257
 43
1.0
 76
     1
 77
     6
 78
     2
 67
     7
 79
     3
170
     0
171
     0
290
     0
174
     0
 93
        1
 44
0.0
173
     0
291
     0
 45
0.0
  0
VISUALSTYLE
  5
163
102
{ACAD_REACTORS
330
15C
102
}
330
15C
100
AcDbVisualStyle
  2
3dWireframe
 70
     5
 71
     0
 72
     2
 73
     0
 90
        0
 40
-0.6
 41
-30.0
 62
     5
 63
     7
421
 16777215
 74
     1
 91
        4
 64
     7
 65
   257
 75
     1
175
     1
 42
1.0
 92
        0
 66
   257
 43
1.0
 76
     1
 77
     6
 78
     2
 67
     7
 79
     5
170
     0
171
     0
290
     0
174
     0
 93
        1
 44
0.0
173
     0
291
     0
 45
0.0
  0
VISUALSTYLE
  5
161
102
{ACAD_REACTORS
330
15C
102
}
330
15C
100
AcDbVisualStyle
  2
Basic
 70
     7
 71
     1
 72
     0
 73
     1
 90
        0
 40
-0.6
 41
-30.0
 62
     5
 63
     7
421
 16777215
 74
     0
 91
        4
 64
     7
 65
   257
 75
     1
175
     1
 42
1.0
 92
        8
 66
     7
 43
1.0
 76
     1
 77
     6
 78
     2
 67
     7
 79
     5
170
     0
171
     0
290
     0
174
     0
 93
        1
 44
0.0
173
     0
291
     1
 45
0.0
  0
VISUALSTYLE
  5
168
102
{ACAD_REACTORS
330
15C
102
}
330
15C
100
AcDbVisualStyle
  2
Brighten
 70
    12
 71
     2
 72
     2
 73
     0
 90
        0
 40
-0.6
 41
-30.0
 62
     5
 63
     7
421
 16777215
 74
     1
 91
        4
 64
     7
 65
   257
 75
     1
175
     1
 42
1.0
 92
        8
 66
     7
 43
1.0
 76
     1
 77
     6
 78
     2
 67
     7
 79
     5
170
     0
171
     0
290
     0
174
     0
 93
        1
 44
50.0
173
     0
291
     1
 45
0.0
  0
VISUALSTYLE
  5
16C
102
{ACAD_REACTORS
330
15C
102
}
330
15C
100
AcDbVisualStyle
  2
ColorChange
 70
    16
 71
     2
 72
     2
 73
     3
 90
        0
 40
-0.6
 41
-30.0
 62
     5
 63
     8
421
  8421504
 74
     1
 91
        4
 64
     7
 65
   257
 75
     1
175
     1
 42
1.0
 92
        8
 66
     8
424
  8421504
 43
1.0
 76
     1
 77
     6
 78
     2
 67
     7
 79
     5
170
     0
171
     0
290
     0
174
     0
 93
        1
 44
0.0
173
     0
291
     1
 45
0.0
  0
VISUALSTYLE
  5
165
102
{ACAD_REACTORS
330
15C
102
}
330
15C
100
AcDbVisualStyle
  2
Conceptual
 70
     9
 71
     3
 72
     2
 73
     0
 90
        0
 40
-0.6
 41
-30.0
 62
     5
 63
     7
421
 16777215
 74
     2
 91
        2
 64
     7
 65
   257
 75
     1
175
     1
 42
40.0
 92
        8
 66
     7
 43
1.0
 76
     1
 77
     6
 78
     2
 67
     7
 79
     3
170
     0
171
     0
290
     0
174
     0
 93
        1
 44
0.0
173
     0
291
     0
 45
0.0
  0
VISUALSTYLE
  5
167
102
{ACAD_REACTORS
330
15C
102
}
330
15C
100
AcDbVisualStyle
  2
Dim
 70
    11
 71
     2
 72
     2
 73
     0
 90
        0
 40
-0.6
 41
-30.0
 62
     5
 63
     7
421
 16777215
 74
     1
 91
        4
 64
     7
 65
   257
 75
     1
175
     1
 42
1.0
 92
        8
 66
     7
 43
1.0
 76
     1
 77
     6
 78
     2
 67
     7
 79
     5
170
     0
171
     0
290
     0
174
     0
 93
        1
 44
-50.0
173
     0
291
     1
 45
0.0
  0
VISUALSTYLE
  5
16B
102
{ACAD_REACTORS
330
15C
102
}
330
15C
100
AcDbVisualStyle
  2
Facepattern
 70
    15
 71
     2
 72
     2
 73
     0
 90
        0
 40
-0.6
 41
-30.0
 62
     5
 63
     7
421
 16777215
 74
     1
 91
        4
 64
     7
 65
   257
 75
     1
175
     1
 42
1.0
 92
        8
 66
     7
 43
1.0
 76
     1
 77
     6
 78
     2
 67
     7
 79
     5
170
     0
171
     0
290
     0
174
     0
 93
        1
 44
0.0
173
     0
291
     1
 45
0.0
  0
VISUALSTYLE
  5
15D
102
{ACAD_REACTORS
330
15C
102
}
330
15C
100
AcDbVisualStyle
  2
Flat
 70
     0
 71
     2
 72
     1
 73
     1
 90
        2
 40
-0.6
 41
30.0
 62
     5
 63
     7
421
 16777215
 74
     0
 91
        4
 64
     7
 65
   257
 75
     1
175
     1
 42
1.0
 92
        8
 66
     7
 43
1.0
 76
     1
 77
     6
 78
     2
 67
     7
 79
     5
170
     0
171
     0
290
     0
174
     0
 93
       13
 44
0.0
173
     0
291
     1
 45
0.0
  0
VISUALSTYLE
  5
15E
102
{ACAD_REACTORS
330
15C
102
}
330
15C
100
AcDbVisualStyle
  2
FlatWithEdges
 70
     1
 71
     2
 72
     1
 73
     1
 90
        2
 40
-0.6
 41
30.0
 62
     5
 63
     7
421
 16777215
 74
     1
 91
        4
 64
     7
 65
   257
 75
     1
175
     1
 42
1.0
 92
        0
 66
   257
 43
1.0
 76
     1
 77
     6
 78
     2
 67
     7
 79
     5
170
     0
171
     0
290
     0
174
     0
 93
       13
 44
0.0
173
     0
291
     1
 45
0.0
  0
VISUALSTYLE
  5
15F
102
{ACAD_REACTORS
330
15C
102
}
330
15C
100
AcDbVisualStyle
  2
Gouraud
 70
     2
 71
     2
 72
     2
 73
     1
 90
        2
 40
-0.6
 41
30.0
 62
     5
 63
     7
421
 16777215
 74
     0
 91
        4
 64
     7
 65
   257
 75
     1
175
     1
 42
1.0
 92
        0
 66
     7
 43
1.0
 76
     1
 77
     6
 78
     2
 67
     7
 79
     5
170
     0
171
     0
290
     0
174
     0
 93
       13
 44
0.0
173
     0
291
     1
 45
0.0
  0
VISUALSTYLE
  5
160
102
{ACAD_REACTORS
330
15C
102
}
330
15C
100
AcDbVisualStyle
  2
GouraudWithEdges
 70
     3
 71
     2
 72
     2
 73
     1
 90
        2
 40
-0.6
 41
30.0
 62
     5
 63
     7
421
 16777215
 74
     1
 91
        4
 64
     7
 65
   257
 75
     1
175
     1
 42
1.0
 92
        0
 66
   257
 43
1.0
 76
     1
 77
     6
 78
     2
 67
     7
 79
     5
170
     0
171
     0
290
     0
174
     0
 93
       13
 44
0.0
173
     0
291
     1
 45
0.0
  0
VISUALSTYLE
  5
16A
102
{ACAD_REACTORS
330
15C
102
}
330
15C
100
AcDbVisualStyle
  2
Linepattern
 70
    14
 71
     2
 72
     2
 73
     0
 90
        0
 40
-0.6
 41
-30.0
 62
     5
 63
     7
421
 16777215
 74
     1
 91
        4
 64
     7
 65
   257
 75
     7
175
     7
 42
1.0
 92
        8
 66
     7
 43
1.0
 76
     1
 77
     6
 78
     2
 67
     7
 79
     5
170
     0
171
     0
290
     0
174
     0
 93
        1
 44
0.0
173
     0
291
     1
 45
0.0
  0
VISUALSTYLE
  5
166
102
{ACAD_REACTORS
330
15C
102
}
330
15C
100
AcDbVisualStyle
  2
Realistic
 70
     8
 71
     2
 72
     2
 73
     0
 90
        0
 40
-0.6
 41
-30.0
 62
     5
 63
     7
421
 16777215
 74
     1
 91
        0
 64
     7
 65
   257
 75
     1
175
     1
 42
1.0
 92
        8
 66
     8
424
  7895160
 43
1.0
 76
     1
 77
     6
 78
     2
 67
     7
 79
     5
170
     0
171
     0
290
     0
174
     0
 93
       13
 44
0.0
173
     0
291
     0
 45
0.0
  0
VISUALSTYLE
  5
169
102
{ACAD_REACTORS
330
15C
102
}
330
15C
100
AcDbVisualStyle
  2
Thicken
 70
    13
 71
     2
 72
     2
 73
     0
 90
        0
 40
-0.6
 41
-30.0
 62
     5
 63
     7
421
 16777215
 74
     1
 91
        4
 64
     7
 65
   257
 75
     1
175
     1
 42
1.0
 92
       12
 66
     7
 43
1.0
 76
     1
 77
     6
 78
     2
 67
     7
 79
     5
170
     0
171
     0
290
     0
174
     0
 93
        1
 44
0.0
173
     0
291
     1
 45
0.0
  0
DICTIONARYVAR
  5
1D7
102
{ACAD_REACTORS
330
1D3
102
}
330
1D3
100
DictionaryVariables
280
     0
  1
1:1
  0
DICTIONARYVAR
  5
1D5
102
{ACAD_REACTORS
330
1D3
102
}
330
1D3
100
DictionaryVariables
280
     0
  1
STANDARD
  0
DICTIONARYVAR
  5
1D4
102
{ACAD_REACTORS
330
1D3
102
}
330
1D3
100
DictionaryVariables
280
     0
  1
STANDARD
  0
DICTIONARYVAR
  5
1D9
102
{ACAD_REACTORS
330
1D3
102
}
330
1D3
100
DictionaryVariables
280
     0
  1
1
  0
DICTIONARYVAR
  5
1DA
102
{ACAD_REACTORS
330
1D3
102
}
330
1D3
100
DictionaryVariables
280
     0
  1
15
  0
DICTIONARYVAR
  5
1D8
102
{ACAD_REACTORS
330
1D3
102
}
330
1D3
100
DictionaryVariables
280
     0
  1
0
  0
DICTIONARYVAR
  5
1D6
102
{ACAD_REACTORS
330
1D3
102
}
330
1D3
100
DictionaryVariables
280
     0
  1
0
  0
DICTIONARY
  5
14D
330
14C
100
AcDbDictionary
280
     1
281
     1
  3
BUMPTILE
360
14F
  3
DIFFUSETILE
360
14E
  3
OPACITYTILE
360
152
  3
REFLECTIONTILE
360
151
  3
REFRACTIONTILE
360
153
  3
SPECULARTILE
360
150
  0
DICTIONARY
  5
145
330
144
100
AcDbDictionary
280
     1
281
     1
  3
BUMPTILE
360
147
  3
DIFFUSETILE
360
146
  3
OPACITYTILE
360
14A
  3
REFLECTIONTILE
360
149
  3
REFRACTIONTILE
360
14B
  3
SPECULARTILE
360
148
  0
DICTIONARY
  5
155
330
154
100
AcDbDictionary
280
     1
281
     1
  3
BUMPTILE
360
157
  3
DIFFUSETILE
360
156
  3
OPACITYTILE
360
15A
  3
REFLECTIONTILE
360
159
  3
REFRACTIONTILE
360
15B
  3
SPECULARTILE
360
158
  0
DICTIONARY
  5
1D0
330
16F
100
AcDbDictionary
280
     1
281
     1
  3
ACAD_ROUNDTRIP_2008_TABLESTYLE_CELLSTYLEMAP
360
1E2
  0
XRECORD
  5
14F
102
{ACAD_REACTORS
330
14D
102
}
330
14D
100
AcDbXrecord
280
     1
270
     1
271
     1
  0
XRECORD
  5
14E
102
{ACAD_REACTORS
330
14D
102
}
330
14D
100
AcDbXrecord
280
     1
270
     1
271
     1
  0
XRECORD
  5
152
102
{ACAD_REACTORS
330
14D
102
}
330
14D
100
AcDbXrecord
280
     1
270
     1
271
     1
  0
XRECORD
  5
151
102
{ACAD_REACTORS
330
14D
102
}
330
14D
100
AcDbXrecord
280
     1
270
     1
271
     1
  0
XRECORD
  5
153
102
{ACAD_REACTORS
330
14D
102
}
330
14D
100
AcDbXrecord
280
     1
270
     1
271
     1
  0
XRECORD
  5
150
102
{ACAD_REACTORS
330
14D
102
}
330
14D
100
AcDbXrecord
280
     1
270
     1
271
     1
  0
XRECORD
  5
147
102
{ACAD_REACTORS
330
145
102
}
330
145
100
AcDbXrecord
280
     1
270
     1
271
     1
  0
XRECORD
  5
146
102
{ACAD_REACTORS
330
145
102
}
330
145
100
AcDbXrecord
280
     1
270
     1
271
     1
  0
XRECORD
  5
14A
102
{ACAD_REACTORS
330
145
102
}
330
145
100
AcDbXrecord
280
     1
270
     1
271
     1
  0
XRECORD
  5
149
102
{ACAD_REACTORS
330
145
102
}
330
145
100
AcDbXrecord
280
     1
270
     1
271
     1
  0
XRECORD
  5
14B
102
{ACAD_REACTORS
330
145
102
}
330
145
100
AcDbXrecord
280
     1
270
     1
271
     1
  0
XRECORD
  5
148
102
{ACAD_REACTORS
330
145
102
}
330
145
100
AcDbXrecord
280
     1
270
     1
271
     1
  0
XRECORD
  5
157
102
{ACAD_REACTORS
330
155
102
}
330
155
100
AcDbXrecord
280
     1
270
     1
271
     1
  0
XRECORD
  5
156
102
{ACAD_REACTORS
330
155
102
}
330
155
100
AcDbXrecord
280
     1
270
     1
271
     1
  0
XRECORD
  5
15A
102
{ACAD_REACTORS
330
155
102
}
330
155
100
AcDbXrecord
280
     1
270
     1
271
     1
  0
XRECORD
  5
159
102
{ACAD_REACTORS
330
155
102
}
330
155
100
AcDbXrecord
280
     1
270
     1
271
     1
  0
XRECORD
  5
15B
102
{ACAD_REACTORS
330
155
102
}
330
155
100
AcDbXrecord
280
     1
270
     1
271
     1
  0
XRECORD
  5
158
102
{ACAD_REACTORS
330
155
102
}
330
155
100
AcDbXrecord
280
     1
270
     1
271
     1
  0
CELLSTYLEMAP
  5
1E2
102
{ACAD_REACTORS
330
1D0
102
}
330
1D0
100
AcDbCellStyleMap
 90
        3
300
CELLSTYLE
  1
TABLEFORMAT_BEGIN
 90
        5
170
     1
 91
        0
 92
    32768
 62
   257
 93
        1
300
CONTENTFORMAT
  1
CONTENTFORMAT_BEGIN
 90
        0
 91
        0
 92
      512
 93
        0
300

 40
0.0
140
1.0
 94
        5
 62
     0
340
17
144
6.0
309
CONTENTFORMAT_END
171
     1
301
MARGIN
  1
CELLMARGIN_BEGIN
 40
1.5
 40
1.5
 40
1.5
 40
1.5
 40
4.5
 40
4.5
309
CELLMARGIN_END
 94
        6
 95
        1
302
GRIDFORMAT
  1
GRIDFORMAT_BEGIN
 90
        0
 91
        1
 62
     0
 92
       -2
340
0
 93
        0
 40
1.125
309
GRIDFORMAT_END
 95
        2
302
GRIDFORMAT
  1
GRIDFORMAT_BEGIN
 90
        0
 91
        1
 62
     0
 92
       -2
340
0
 93
        0
 40
1.125
309
GRIDFORMAT_END
 95
        4
302
GRIDFORMAT
  1
GRIDFORMAT_BEGIN
 90
        0
 91
        1
 62
     0
 92
       -2
340
0
 93
        0
 40
1.125
309
GRIDFORMAT_END
 95
        8
302
GRIDFORMAT
  1
GRIDFORMAT_BEGIN
 90
        0
 91
        1
 62
     0
 92
       -2
340
0
 93
        0
 40
1.125
309
GRIDFORMAT_END
 95
       16
302
GRIDFORMAT
  1
GRIDFORMAT_BEGIN
 90
        0
 91
        1
 62
     0
 92
       -2
340
0
 93
        0
 40
1.125
309
GRIDFORMAT_END
 95
       32
302
GRIDFORMAT
  1
GRIDFORMAT_BEGIN
 90
        0
 91
        1
 62
     0
 92
       -2
340
0
 93
        0
 40
1.125
309
GRIDFORMAT_END
309
TABLEFORMAT_END
  1
CELLSTYLE_BEGIN
 90
        1
 91
        1
300
_TITLE
309
CELLSTYLE_END
300
CELLSTYLE
  1
TABLEFORMAT_BEGIN
 90
        5
170
     1
 91
        0
 92
        0
 62
   257
 93
        1
300
CONTENTFORMAT
  1
CONTENTFORMAT_BEGIN
 90
        0
 91
        0
 92
      512
 93
        0
300

 40
0.0
140
1.0
 94
        5
 62
     0
340
17
144
4.5
309
CONTENTFORMAT_END
171
     1
301
MARGIN
  1
CELLMARGIN_BEGIN
 40
1.5
 40
1.5
 40
1.5
 40
1.5
 40
4.5
 40
4.5
309
CELLMARGIN_END
 94
        6
 95
        1
302
GRIDFORMAT
  1
GRIDFORMAT_BEGIN
 90
        0
 91
        1
 62
     0
 92
       -2
340
0
 93
        0
 40
1.125
309
GRIDFORMAT_END
 95
        2
302
GRIDFORMAT
  1
GRIDFORMAT_BEGIN
 90
        0
 91
        1
 62
     0
 92
       -2
340
0
 93
        0
 40
1.125
309
GRIDFORMAT_END
 95
        4
302
GRIDFORMAT
  1
GRIDFORMAT_BEGIN
 90
        0
 91
        1
 62
     0
 92
       -2
340
0
 93
        0
 40
1.125
309
GRIDFORMAT_END
 95
        8
302
GRIDFORMAT
  1
GRIDFORMAT_BEGIN
 90
        0
 91
        1
 62
     0
 92
       -2
340
0
 93
        0
 40
1.125
309
GRIDFORMAT_END
 95
       16
302
GRIDFORMAT
  1
GRIDFORMAT_BEGIN
 90
        0
 91
        1
 62
     0
 92
       -2
340
0
 93
        0
 40
1.125
309
GRIDFORMAT_END
 95
       32
302
GRIDFORMAT
  1
GRIDFORMAT_BEGIN
 90
        0
 91
        1
 62
     0
 92
       -2
340
0
 93
        0
 40
1.125
309
GRIDFORMAT_END
309
TABLEFORMAT_END
  1
CELLSTYLE_BEGIN
 90
        2
 91
        1
300
_HEADER
309
CELLSTYLE_END
300
CELLSTYLE
  1
TABLEFORMAT_BEGIN
 90
        5
170
     1
 91
        0
 92
        0
 62
   257
 93
        1
300
CONTENTFORMAT
  1
CONTENTFORMAT_BEGIN
 90
        0
 91
        0
 92
      512
 93
        0
300

 40
0.0
140
1.0
 94
        2
 62
     0
340
17
144
4.5
309
CONTENTFORMAT_END
171
     1
301
MARGIN
  1
CELLMARGIN_BEGIN
 40
1.5
 40
1.5
 40
1.5
 40
1.5
 40
4.5
 40
4.5
309
CELLMARGIN_END
 94
        6
 95
        1
302
GRIDFORMAT
  1
GRIDFORMAT_BEGIN
 90
        0
 91
        1
 62
     0
 92
       -2
340
0
 93
        0
 40
1.125
309
GRIDFORMAT_END
 95
        2
302
GRIDFORMAT
  1
GRIDFORMAT_BEGIN
 90
        0
 91
        1
 62
     0
 92
       -2
340
0
 93
        0
 40
1.125
309
GRIDFORMAT_END
 95
        4
302
GRIDFORMAT
  1
GRIDFORMAT_BEGIN
 90
        0
 91
        1
 62
     0
 92
       -2
340
0
 93
        0
 40
1.125
309
GRIDFORMAT_END
 95
        8
302
GRIDFORMAT
  1
GRIDFORMAT_BEGIN
 90
        0
 91
        1
 62
     0
 92
       -2
340
0
 93
        0
 40
1.125
309
GRIDFORMAT_END
 95
       16
302
GRIDFORMAT
  1
GRIDFORMAT_BEGIN
 90
        0
 91
        1
 62
     0
 92
       -2
340
0
 93
        0
 40
1.125
309
GRIDFORMAT_END
 95
       32
302
GRIDFORMAT
  1
GRIDFORMAT_BEGIN
 90
        0
 91
        1
 62
     0
 92
       -2
340
0
 93
        0
 40
1.125
309
GRIDFORMAT_END
309
TABLEFORMAT_END
  1
CELLSTYLE_BEGIN
 90
        3
 91
        2
300
_DATA
309
CELLSTYLE_END
  0
ENDSEC
  0
EOF
