  0
SECTION
  2
HEADER
  9
$ACADVER
  1
AC1021
  9
$ACADMAINTVER
 70
    50
  9
$DWGCODEPAGE
  3
ANSI_1252
  9
$LASTSAVEDBY
  1
François
  9
$INSBASE
 10
184.3991020756948
 20
76.46694106854979
 30
0.0
  9
$EXTMIN
 10
162.8022014254407
 20
75.51531799999999
 30
0.0
  9
$EXTMAX
 10
200.515034
 20
96.42252940280407
 30
0.0
  9
$LIMMIN
 10
147.963751
 20
75.337693
  9
$LIMMAX
 10
200.656486
 20
102.179465
  9
$ORTHOMODE
 70
     0
  9
$REGENMODE
 70
     1
  9
$FILLMODE
 70
     1
  9
$QTEXTMODE
 70
     0
  9
$MIRRTEXT
 70
     1
  9
$LTSCALE
 40
1.0
  9
$ATTMODE
 70
     1
  9
$TEXTSIZE
 40
0.0
  9
$TRACEWID
 40
0.05
  9
$TEXTSTYLE
  7
Standard
  9
$CLAYER
  8
0
  9
$CELTYPE
  6
Continuous
  9
$CECOLOR
 62
   256
  9
$CELTSCALE
 40
1.0
  9
$DISPSILH
 70
     0
  9
$DIMSCALE
 40
1.0
  9
$DIMASZ
 40
1.8
  9
$DIMEXO
 40
0.625
  9
$DIMDLI
 40
3.799999999999999
  9
$DIMRND
 40
0.0
  9
$DIMDLE
 40
0.0
  9
$DIMEXE
 40
1.8
  9
$DIMTP
 40
0.0
  9
$DIMTM
 40
0.0
  9
$DIMTXT
 40
3.0
  9
$DIMCEN
 40
0.9
  9
$DIMTSZ
 40
0.0
  9
$DIMTOL
 70
     0
  9
$DIMLIM
 70
     0
  9
$DIMTIH
 70
     0
  9
$DIMTOH
 70
     0
  9
$DIMSE1
 70
     0
  9
$DIMSE2
 70
     0
  9
$DIMTAD
 70
     1
  9
$DIMZIN
 70
    12
  9
$DIMBLK
  1
Oblique
  9
$DIMASO
 70
     1
  9
$DIMSHO
 70
     1
  9
$DIMPOST
  1

  9
$DIMAPOST
  1

  9
$DIMALT
 70
     0
  9
$DIMALTD
 70
     2
  9
$DIMALTF
 40
25.4
  9
$DIMLFAC
 40
1.0
  9
$DIMTOFL
 70
     0
  9
$DIMTVP
 40
0.0
  9
$DIMTIX
 70
     0
  9
$DIMSOXD
 70
     0
  9
$DIMSAH
 70
     0
  9
$DIMBLK1
  1

  9
$DIMBLK2
  1

  9
$DIMSTYLE
  2
Cotation-Jacob-Delafon
  9
$DIMCLRD
 70
     0
  9
$DIMCLRE
 70
     0
  9
$DIMCLRT
 70
     0
  9
$DIMTFAC
 40
1.0
  9
$DIMGAP
 40
0.9
  9
$DIMJUST
 70
     0
  9
$DIMSD1
 70
     0
  9
$DIMSD2
 70
     0
  9
$DIMTOLJ
 70
     1
  9
$DIMTZIN
 70
     0
  9
$DIMALTZ
 70
     0
  9
$DIMALTTZ
 70
     0
  9
$DIMUPT
 70
     0
  9
$DIMDEC
 70
     2
  9
$DIMTDEC
 70
     2
  9
$DIMALTU
 70
     2
  9
$DIMALTTD
 70
     2
  9
$DIMTXSTY
  7
Jacob-Delafon
  9
$DIMAUNIT
 70
     0
  9
$DIMADEC
 70
     0
  9
$DIMALTRND
 40
0.0
  9
$DIMAZIN
 70
     3
  9
$DIMDSEP
 70
    46
  9
$DIMATFIT
 70
     3
  9
$DIMFRAC
 70
     0
  9
$DIMLDRBLK
  1
Oblique
  9
$DIMLUNIT
 70
     2
  9
$DIMLWD
 70
    -2
  9
$DIMLWE
 70
    -2
  9
$DIMTMOVE
 70
     2
  9
$DIMFXL
 40
1.0
  9
$DIMFXLON
 70
     0
  9
$DIMJOGANG
 40
0.7853981633974483
  9
$DIMTFILL
 70
     0
  9
$DIMTFILLCLR
 70
     0
  9
$DIMARCSYM
 70
     0
  9
$DIMLTYPE
  6

  9
$DIMLTEX1
  6

  9
$DIMLTEX2
  6

  9
$LUNITS
 70
     2
  9
$LUPREC
 70
     4
  9
$SKETCHINC
 40
0.1
  9
$FILLETRAD
 40
0.0
  9
$AUNITS
 70
     0
  9
$AUPREC
 70
     0
  9
$MENU
  1
acad
  9
$ELEVATION
 40
0.0
  9
$PELEVATION
 40
0.0
  9
$THICKNESS
 40
0.0
  9
$LIMCHECK
 70
     0
  9
$CHAMFERA
 40
0.0
  9
$CHAMFERB
 40
0.0
  9
$CHAMFERC
 40
0.0
  9
$CHAMFERD
 40
0.0
  9
$SKPOLY
 70
     0
  9
$TDCREATE
 40
2454950.308267500
  9
$TDUCREATE
 40
2454950.224934167
  9
$TDUPDATE
 40
2455006.712212998
  9
$TDUUPDATE
 40
2455006.628879665
  9
$TDINDWG
 40
0.0641670255
  9
$TDUSRTIMER
 40
0.0641670255
  9
$USRTIMER
 70
     1
  9
$ANGBASE
 50
0.0
  9
$ANGDIR
 70
     0
  9
$PDMODE
 70
     0
  9
$PDSIZE
 40
0.0
  9
$PLINEWID
 40
0.0
  9
$SPLFRAME
 70
     0
  9
$SPLINETYPE
 70
     6
  9
$SPLINESEGS
 70
     8
  9
$HANDSEED
  5
6FF
  9
$SURFTAB1
 70
     6
  9
$SURFTAB2
 70
     6
  9
$SURFTYPE
 70
     6
  9
$SURFU
 70
     6
  9
$SURFV
 70
     6
  9
$UCSBASE
  2

  9
$UCSNAME
  2

  9
$UCSORG
 10
0.0
 20
0.0
 30
0.0
  9
$UCSXDIR
 10
1.0
 20
0.0
 30
0.0
  9
$UCSYDIR
 10
0.0
 20
1.0
 30
0.0
  9
$UCSORTHOREF
  2

  9
$UCSORTHOVIEW
 70
     0
  9
$UCSORGTOP
 10
0.0
 20
0.0
 30
0.0
  9
$UCSORGBOTTOM
 10
0.0
 20
0.0
 30
0.0
  9
$UCSORGLEFT
 10
0.0
 20
0.0
 30
0.0
  9
$UCSORGRIGHT
 10
0.0
 20
0.0
 30
0.0
  9
$UCSORGFRONT
 10
0.0
 20
0.0
 30
0.0
  9
$UCSORGBACK
 10
0.0
 20
0.0
 30
0.0
  9
$PUCSBASE
  2

  9
$PUCSNAME
  2

  9
$PUCSORG
 10
0.0
 20
0.0
 30
0.0
  9
$PUCSXDIR
 10
1.0
 20
0.0
 30
0.0
  9
$PUCSYDIR
 10
0.0
 20
1.0
 30
0.0
  9
$PUCSORTHOREF
  2

  9
$PUCSORTHOVIEW
 70
     0
  9
$PUCSORGTOP
 10
0.0
 20
0.0
 30
0.0
  9
$PUCSORGBOTTOM
 10
0.0
 20
0.0
 30
0.0
  9
$PUCSORGLEFT
 10
0.0
 20
0.0
 30
0.0
  9
$PUCSORGRIGHT
 10
0.0
 20
0.0
 30
0.0
  9
$PUCSORGFRONT
 10
0.0
 20
0.0
 30
0.0
  9
$PUCSORGBACK
 10
0.0
 20
0.0
 30
0.0
  9
$USERI1
 70
     0
  9
$USERI2
 70
     0
  9
$USERI3
 70
     0
  9
$USERI4
 70
     0
  9
$USERI5
 70
     0
  9
$USERR1
 40
0.0
  9
$USERR2
 40
0.0
  9
$USERR3
 40
0.0
  9
$USERR4
 40
0.0
  9
$USERR5
 40
0.0
  9
$WORLDVIEW
 70
     1
  9
$SHADEDGE
 70
     3
  9
$SHADEDIF
 70
    70
  9
$TILEMODE
 70
     1
  9
$MAXACTVP
 70
    16
  9
$PINSBASE
 10
0.0
 20
0.0
 30
0.0
  9
$PLIMCHECK
 70
     0
  9
$PEXTMIN
 10
1.000000000000000E+20
 20
1.000000000000000E+20
 30
1.000000000000000E+20
  9
$PEXTMAX
 10
-1.000000000000000E+20
 20
-1.000000000000000E+20
 30
-1.000000000000000E+20
  9
$PLIMMIN
 10
0.0
 20
0.0
  9
$PLIMMAX
 10
12.0
 20
9.0
  9
$UNITMODE
 70
     0
  9
$VISRETAIN
 70
     0
  9
$PLINEGEN
 70
     1
  9
$PSLTSCALE
 70
     0
  9
$TREEDEPTH
 70
  3020
  9
$CMLSTYLE
  2
Standard
  9
$CMLJUST
 70
     0
  9
$CMLSCALE
 40
1.0
  9
$PROXYGRAPHICS
 70
     0
  9
$MEASUREMENT
 70
     1
  9
$CELWEIGHT
370
     0
  9
$ENDCAPS
280
     0
  9
$JOINSTYLE
280
     0
  9
$LWDISPLAY
290
     0
  9
$INSUNITS
 70
     0
  9
$HYPERLINKBASE
  1

  9
$STYLESHEET
  1

  9
$XEDIT
290
     1
  9
$CEPSNTYPE
380
     0
  9
$PSTYLEMODE
290
     1
  9
$FINGERPRINTGUID
  2

  9
$VERSIONGUID
  2
{713D1460-DC14-405A-9E86-BF7C280A93CC}
  9
$EXTNAMES
290
     1
  9
$PSVPSCALE
 40
0.0
  9
$OLESTARTUP
290
     0
  9
$SORTENTS
280
   127
  9
$INDEXCTL
280
     0
  9
$HIDETEXT
280
     0
  9
$XCLIPFRAME
290
     0
  9
$HALOGAP
280
     0
  9
$OBSCOLOR
 70
   257
  9
$OBSLTYPE
280
     0
  9
$INTERSECTIONDISPLAY
280
     0
  9
$INTERSECTIONCOLOR
 70
   257
  9
$DIMASSOC
280
     1
  9
$PROJECTNAME
  1

  9
$CAMERADISPLAY
290
     0
  9
$LENSLENGTH
 40
50.0
  9
$CAMERAHEIGHT
 40
0.0
  9
$STEPSPERSEC
 40
2.0
  9
$STEPSIZE
 40
6.0
  9
$3DDWFPREC
 40
2.0
  9
$PSOLWIDTH
 40
0.25
  9
$PSOLHEIGHT
 40
4.0
  9
$LOFTANG1
 40
1.570796326794896
  9
$LOFTANG2
 40
1.570796326794896
  9
$LOFTMAG1
 40
0.0
  9
$LOFTMAG2
 40
0.0
  9
$LOFTPARAM
 70
     7
  9
$LOFTNORMALS
280
     1
  9
$LATITUDE
 40
37.795
  9
$LONGITUDE
 40
-122.394
  9
$NORTHDIRECTION
 40
0.0
  9
$TIMEZONE
 70
 -8000
  9
$LIGHTGLYPHDISPLAY
280
     1
  9
$TILEMODELIGHTSYNCH
280
     1
  9
$CMATERIAL
347
151
  9
$SOLIDHIST
280
     1
  9
$SHOWHIST
280
     1
  9
$DWFFRAME
280
     2
  9
$DGNFRAME
280
     0
  9
$REALWORLDSCALE
290
     1
  9
$INTERFERECOLOR
 62
     1
  9
$INTERFEREOBJVS
345
173
  9
$INTERFEREVPVS
346
170
  9
$CSHADOW
280
     0
  9
$SHADOWPLANELOCATION
 40
0.0
  0
ENDSEC
  0
SECTION
  2
CLASSES
  0
CLASS
  1
IMAGE
  2
AcDbRasterImage
  3
ISM
 90
     2175
 91
        0
280
     0
281
     1
  0
CLASS
  1
DICTIONARYVAR
  2
AcDbDictionaryVar
  3
ObjectDBX Classes
 90
        0
 91
        7
280
     0
281
     0
  0
CLASS
  1
RASTERVARIABLES
  2
AcDbRasterVariables
  3
ISM
 90
        0
 91
        0
280
     0
281
     0
  0
CLASS
  1
IMAGEDEF
  2
AcDbRasterImageDef
  3
ISM
 90
        0
 91
        7
280
     0
281
     0
  0
CLASS
  1
IMAGEDEF_REACTOR
  2
AcDbRasterImageDefReactor
  3
ISM
 90
        1
 91
        0
280
     0
281
     0
  0
CLASS
  1
IDBUFFER
  2
AcDbIdBuffer
  3
ObjectDBX Classes
 90
        0
 91
        0
280
     0
281
     0
  0
CLASS
  1
SPATIAL_FILTER
  2
AcDbSpatialFilter
  3
ObjectDBX Classes
 90
        0
 91
        0
280
     0
281
     0
  0
CLASS
  1
SORTENTSTABLE
  2
AcDbSortentsTable
  3
ObjectDBX Classes
 90
        0
 91
        1
280
     0
281
     0
  0
CLASS
  1
LAYER_INDEX
  2
AcDbLayerIndex
  3
ObjectDBX Classes
 90
        0
 91
        0
280
     0
281
     0
  0
CLASS
  1
SPATIAL_INDEX
  2
AcDbSpatialIndex
  3
ObjectDBX Classes
 90
        0
 91
        0
280
     0
281
     0
  0
CLASS
  1
OBJECT_PTR
  2
CAseDLPNTableRecord
  3
"ASE-LPNTableRecord"
 90
        1
 91
        0
280
     0
281
     0
  0
CLASS
  1
PLOTSETTINGS
  2
AcDbPlotSettings
  3
ObjectDBX Classes
 90
        0
 91
        0
280
     0
281
     0
  0
CLASS
  1
ACDBDICTIONARYWDFLT
  2
AcDbDictionaryWithDefault
  3
ObjectDBX Classes
 90
        0
 91
        1
280
     0
281
     0
  0
CLASS
  1
WIPEOUT
  2
AcDbWipeout
  3
"WipeOut|Product Desc: Object Enabler for WipeOut entity                        |Company: Autodesk, Inc.                        |WEB Address: www.autodesk.com"
 90
     2175
 91
        0
280
     0
281
     1
  0
CLASS
  1
WIPEOUTVARIABLES
  2
AcDbWipeoutVariables
  3
"WipeOut|Product Desc:     WipeOut Dbx Application|Company:          Autodesk, Inc.|WEB Address:      www.autodesk.com"
 90
        0
 91
        1
280
     0
281
     0
  0
CLASS
  1
RTEXT
  2
RText
  3
RText|AutoCAD Express Tool|expresstools@autodesk.com
 90
        0
 91
        0
280
     0
281
     1
  0
CLASS
  1
ARCALIGNEDTEXT
  2
AcDbArcAlignedText
  3
ATEXT|AutoCAD Express Tool|expresstools@autodesk.com
 90
        0
 91
        0
280
     0
281
     1
  0
CLASS
  1
MATERIAL
  2
AcDbMaterial
  3
ObjectDBX Classes
 90
     1153
 91
        3
280
     0
281
     0
  0
CLASS
  1
VISUALSTYLE
  2
AcDbVisualStyle
  3
ObjectDBX Classes
 90
     4095
 91
       16
280
     0
281
     0
  0
CLASS
  1
TABLESTYLE
  2
AcDbTableStyle
  3
ObjectDBX Classes
 90
     4095
 91
        1
280
     0
281
     0
  0
CLASS
  1
SCALE
  2
AcDbScale
  3
ObjectDBX Classes
 90
     1153
 91
       26
280
     0
281
     0
  0
CLASS
  1
MLEADERSTYLE
  2
AcDbMLeaderStyle
  3
ACDB_MLEADERSTYLE_CLASS
 90
     4095
 91
        1
280
     0
281
     0
  0
CLASS
  1
CELLSTYLEMAP
  2
AcDbCellStyleMap
  3
ObjectDBX Classes
 90
     1152
 91
        2
280
     0
281
     0
  0
CLASS
  1
AEC_REFEDIT_STATUS_TRACKER
  2
AecDbRefEditStatusTracker
  3
AecArchBase50|Product Desc: Autodesk Architectural Desktop 2007 |Company: Autodesk,Inc. |WEB Address: www.autodesk.com
 90
      129
 91
        0
280
     0
281
     0
  0
CLASS
  1
NPOCOLLECTION
  2
AcDbImpNonPersistentObjectsCollection
  3
ObjectDBX Classes
 90
     1153
 91
        0
280
     0
281
     0
  0
CLASS
  1
AEC_DISP_REP_CONFIG
  2
AecDbDispRepConfig
  3
AecBase50|Product Desc: Autodesk Architectural Desktop 2007 |Company: Autodesk,Inc. |WEB Address: www.autodesk.com
 90
      129
 91
        1
280
     0
281
     0
  0
CLASS
  1
AEC_DISP_REP_SET
  2
AecDbDispRepSet
  3
AecBase50|Product Desc: Autodesk Architectural Desktop 2007 |Company: Autodesk,Inc. |WEB Address: www.autodesk.com
 90
      129
 91
        9
280
     0
281
     0
  0
CLASS
  1
AEC_DISP_REP_2D_SECTION
  2
AecDbDispRep2dSection
  3
AecBase50|Product Desc: Autodesk Architectural Desktop 2007 |Company: Autodesk,Inc. |WEB Address: www.autodesk.com
 90
      129
 91
        1
280
     0
281
     0
  0
CLASS
  1
AEC_DISP_REP_ANCHOR
  2
AecDbDispRepAnchor
  3
AecBase50|Product Desc: Autodesk Architectural Desktop 2007 |Company: Autodesk,Inc. |WEB Address: www.autodesk.com
 90
      129
 91
        1
280
     0
281
     0
  0
CLASS
  1
AEC_DISP_REP_ANCHOR_BUB_TO_GRID
  2
AecDbDispRepAnchorBubToGrid
  3
AecStructureBase50|Product Desc: Autodesk Architectural Desktop 2007 |Company: Autodesk,Inc. |WEB Address: www.autodesk.com
 90
      129
 91
        1
280
     0
281
     0
  0
CLASS
  1
AEC_DISP_REP_ANCHOR_BUB_TO_GRID_MODEL
  2
AecDbDispRepAnchorBubToGridMdl
  3
AecStructureBase50|Product Desc: Autodesk Architectural Desktop 2007 |Company: Autodesk,Inc. |WEB Address: www.autodesk.com
 90
      129
 91
        1
280
     0
281
     0
  0
CLASS
  1
AEC_DISP_REP_ANCHOR_BUB_TO_GRID_RCP
  2
AecDbDispRepAnchorBubToGridRcp
  3
AecStructureBase50|Product Desc: Autodesk Architectural Desktop 2007 |Company: Autodesk,Inc. |WEB Address: www.autodesk.com
 90
      129
 91
        1
280
     0
281
     0
  0
CLASS
  1
AEC_DISP_REP_ANCHOR_ENT_TO_NODE
  2
AecDbDispRepAnchorEntToNode
  3
AecBaseEx50|Product Desc: Autodesk Architectural Desktop 2007 |Company: Autodesk,Inc. |WEB Address: www.autodesk.com
 90
      129
 91
        1
280
     0
281
     0
  0
CLASS
  1
AEC_DISP_REP_ANCHOR_EXT_TAG_TO_ENT
  2
AecDbDispRepAnchorExtendedTagToEnt
  3
AecScheduleData50|Product Desc: Autodesk Architectural Desktop 2007 |Company: Autodesk,Inc. |WEB Address: www.autodesk.com
 90
      129
 91
        1
280
     0
281
     0
  0
CLASS
  1
AEC_DISP_REP_ANCHOR_TAG_TO_ENT
  2
AecDbDispRepAnchorTagToEnt
  3
AecScheduleData50|Product Desc: Autodesk Architectural Desktop 2007 |Company: Autodesk,Inc. |WEB Address: www.autodesk.com
 90
      129
 91
        1
280
     0
281
     0
  0
CLASS
  1
AEC_DISP_REP_BDG_ELEVLINE_MODEL
  2
AecDbDispRepBdgElevLineModel
  3
AecArchBase50|Product Desc: Autodesk Architectural Desktop 2007 |Company: Autodesk,Inc. |WEB Address: www.autodesk.com
 90
      129
 91
        1
280
     0
281
     0
  0
CLASS
  1
AEC_DISP_REP_BDG_SECTIONLINE_PLAN
  2
AecDbDispRepBdgElevLinePlan
  3
AecArchBase50|Product Desc: Autodesk Architectural Desktop 2007 |Company: Autodesk,Inc. |WEB Address: www.autodesk.com
 90
      129
 91
        1
280
     0
281
     0
  0
CLASS
  1
AEC_AECDBDISPREPBDGELEVLINEPLAN100
  2
AecDbDispRepBdgElevLinePlan100
  3
AecArchDACHBase50|Product Desc: Autodesk Architectural Desktop 2007 |Company: Autodesk,Inc. |WEB Address: www.autodesk.com
 90
      129
 91
        1
280
     0
281
     0
  0
CLASS
  1
AEC_AECDBDISPREPBDGELEVLINEPLAN50
  2
AecDbDispRepBdgElevLinePlan50
  3
AecArchDACHBase50|Product Desc: Autodesk Architectural Desktop 2007 |Company: Autodesk,Inc. |WEB Address: www.autodesk.com
 90
      129
 91
        1
280
     0
281
     0
  0
CLASS
  1
AEC_DISP_REP_BDG_ELEVLINE_RCP
  2
AecDbDispRepBdgElevLineRcp
  3
AecArchBase50|Product Desc: Autodesk Architectural Desktop 2007 |Company: Autodesk,Inc. |WEB Address: www.autodesk.com
 90
      129
 91
        1
280
     0
281
     0
  0
CLASS
  1
AEC_DISP_REP_BDG_SECTIONLINE_MODEL
  2
AecDbDispRepBdgSectionLineModel
  3
AecArchBase50|Product Desc: Autodesk Architectural Desktop 2007 |Company: Autodesk,Inc. |WEB Address: www.autodesk.com
 90
      129
 91
        1
280
     0
281
     0
  0
CLASS
  1
AEC_DISP_REP_BDG_SECTIONLINE_PLAN
  2
AecDbDispRepBdgSectionLinePlan
  3
AecArchBase50|Product Desc: Autodesk Architectural Desktop 2007 |Company: Autodesk,Inc. |WEB Address: www.autodesk.com
 90
      129
 91
        1
280
     0
281
     0
  0
CLASS
  1
AEC_AECDBDISPREPBDGSECTIONLINEPLAN100
  2
AecDbDispRepBdgSectionLinePlan100
  3
AecArchDACHBase50|Product Desc: Autodesk Architectural Desktop 2007 |Company: Autodesk,Inc. |WEB Address: www.autodesk.com
 90
      129
 91
        1
280
     0
281
     0
  0
CLASS
  1
AEC_AECDBDISPREPBDGSECTIONLINEPLAN50
  2
AecDbDispRepBdgSectionLinePlan50
  3
AecArchDACHBase50|Product Desc: Autodesk Architectural Desktop 2007 |Company: Autodesk,Inc. |WEB Address: www.autodesk.com
 90
      129
 91
        1
280
     0
281
     0
  0
CLASS
  1
AEC_DISP_REP_BDG_SECTIONLINE_RCP
  2
AecDbDispRepBdgSectionLineRcp
  3
AecArchBase50|Product Desc: Autodesk Architectural Desktop 2007 |Company: Autodesk,Inc. |WEB Address: www.autodesk.com
 90
      129
 91
        1
280
     0
281
     0
  0
CLASS
  1
AEC_DISP_REP_BDG_SECTION_MODEL
  2
AecDbDispRepBdgSectionModel
  3
AecArchBase50|Product Desc: Autodesk Architectural Desktop 2007 |Company: Autodesk,Inc. |WEB Address: www.autodesk.com
 90
      129
 91
        1
280
     0
281
     0
  0
CLASS
  1
AEC_DISP_REP_BDG_SECTION_SUBDIV
  2
AecDbDispRepBdgSectionSubDiv
  3
AecArchBase50|Product Desc: Autodesk Architectural Desktop 2007 |Company: Autodesk,Inc. |WEB Address: www.autodesk.com
 90
      129
 91
        1
280
     0
281
     0
  0
CLASS
  1
AEC_DISP_REP_CEILING_GRID
  2
AecDbDispRepCeilingGrid
  3
AecArchBase50|Product Desc: Autodesk Architectural Desktop 2007 |Company: Autodesk,Inc. |WEB Address: www.autodesk.com
 90
      893
 91
        1
280
     0
281
     0
  0
CLASS
  1
AEC_DISP_REP_CEILING_GRID_MODEL
  2
AecDbDispRepCeilingGridModel
  3
AecArchBase50|Product Desc: Autodesk Architectural Desktop 2007 |Company: Autodesk,Inc. |WEB Address: www.autodesk.com
 90
      129
 91
        1
280
     0
281
     0
  0
CLASS
  1
AEC_AECDBDISPREPCEILINGGRIDPLAN100
  2
AecDbDispRepCeilingGridPlan100
  3
AecArchDACHBase50|Product Desc: Autodesk Architectural Desktop 2007 |Company: Autodesk,Inc. |WEB Address: www.autodesk.com
 90
      129
 91
        1
280
     0
281
     0
  0
CLASS
  1
AEC_AECDBDISPREPCEILINGGRIDPLAN50
  2
AecDbDispRepCeilingGridPlan50
  3
AecArchDACHBase50|Product Desc: Autodesk Architectural Desktop 2007 |Company: Autodesk,Inc. |WEB Address: www.autodesk.com
 90
      129
 91
        1
280
     0
281
     0
  0
CLASS
  1
AEC_DISP_REP_CEILING_GRID_RCP
  2
AecDbDispRepCeilingGridRcp
  3
AecArchBase50|Product Desc: Autodesk Architectural Desktop 2007 |Company: Autodesk,Inc. |WEB Address: www.autodesk.com
 90
      129
 91
        1
280
     0
281
     0
  0
CLASS
  1
AEC_DISP_REP_CLIP_VOLUME_MODEL
  2
AecDbDispRepClipVolModel
  3
AecBase50|Product Desc: Autodesk Architectural Desktop 2007 |Company: Autodesk,Inc. |WEB Address: www.autodesk.com
 90
      129
 91
        1
280
     0
281
     0
  0
CLASS
  1
AEC_DISP_REP_CLIP_VOLUME_PLAN
  2
AecDbDispRepClipVolPlan
  3
AecBase50|Product Desc: Autodesk Architectural Desktop 2007 |Company: Autodesk,Inc. |WEB Address: www.autodesk.com
 90
      129
 91
        1
280
     0
281
     0
  0
CLASS
  1
AEC_DISP_REP_CLIP_VOLUME_RESULT_SUBDIV
  2
AecDbDispRepClipVolResSubDiv
  3
AecBase50|Product Desc: Autodesk Architectural Desktop 2007 |Company: Autodesk,Inc. |WEB Address: www.autodesk.com
 90
      129
 91
        1
280
     0
281
     0
  0
CLASS
  1
AEC_DISP_REP_CLIP_VOLUME_RESULT
  2
AecDbDispRepClipVolResult
  3
AecBase50|Product Desc: Autodesk Architectural Desktop 2007 |Company: Autodesk,Inc. |WEB Address: www.autodesk.com
 90
      129
 91
        1
280
     0
281
     0
  0
CLASS
  1
AEC_DISP_REP_COLUMN_GRID
  2
AecDbDispRepColumnGrid
  3
AecStructureBase50|Product Desc: Autodesk Architectural Desktop 2007 |Company: Autodesk,Inc. |WEB Address: www.autodesk.com
 90
      129
 91
        1
280
     0
281
     0
  0
CLASS
  1
AEC_DISP_REP_COLUMN_GRID_MODEL
  2
AecDbDispRepColumnGridModel
  3
AecStructureBase50|Product Desc: Autodesk Architectural Desktop 2007 |Company: Autodesk,Inc. |WEB Address: www.autodesk.com
 90
      129
 91
        1
280
     0
281
     0
  0
CLASS
  1
AEC_AECDBDISPREPCOLUMNGRIDPLAN100
  2
AecDbDispRepColumnGridPlan100
  3
AecArchDACHBase50|Product Desc: Autodesk Architectural Desktop 2007 |Company: Autodesk,Inc. |WEB Address: www.autodesk.com
 90
      129
 91
        1
280
     0
281
     0
  0
CLASS
  1
AEC_AECDBDISPREPCOLUMNGRIDPLAN50
  2
AecDbDispRepColumnGridPlan50
  3
AecArchDACHBase50|Product Desc: Autodesk Architectural Desktop 2007 |Company: Autodesk,Inc. |WEB Address: www.autodesk.com
 90
      129
 91
        1
280
     0
281
     0
  0
CLASS
  1
AEC_DISP_REP_COLUMN_GRID_RCP
  2
AecDbDispRepColumnGridRcp
  3
AecStructureBase50|Product Desc: Autodesk Architectural Desktop 2007 |Company: Autodesk,Inc. |WEB Address: www.autodesk.com
 90
      129
 91
        1
280
     0
281
     0
  0
CLASS
  1
AEC_DISP_REP_CURTAIN_WALL_LAYOUT_MODEL
  2
AecDbDispRepCurtainWallLayoutModel
  3
AecArchBase50|Product Desc: Autodesk Architectural Desktop 2007 |Company: Autodesk,Inc. |WEB Address: www.autodesk.com
 90
      129
 91
        1
280
     0
281
     0
  0
CLASS
  1
AEC_DISP_REP_CURTAIN_WALL_LAYOUT_PLAN
  2
AecDbDispRepCurtainWallLayoutPlan
  3
AecArchBase50|Product Desc: Autodesk Architectural Desktop 2007 |Company: Autodesk,Inc. |WEB Address: www.autodesk.com
 90
      129
 91
        1
280
     0
281
     0
  0
CLASS
  1
AEC_AECDBDISPREPCURTAINWALLLAYOUTPLAN100
  2
AecDbDispRepCurtainWallLayoutPlan100
  3
AecArchDACHBase50|Product Desc: Autodesk Architectural Desktop 2007 |Company: Autodesk,Inc. |WEB Address: www.autodesk.com
 90
      129
 91
        1
280
     0
281
     0
  0
CLASS
  1
AEC_AECDBDISPREPCURTAINWALLLAYOUTPLAN50
  2
AecDbDispRepCurtainWallLayoutPlan50
  3
AecArchDACHBase50|Product Desc: Autodesk Architectural Desktop 2007 |Company: Autodesk,Inc. |WEB Address: www.autodesk.com
 90
      129
 91
        1
280
     0
281
     0
  0
CLASS
  1
AEC_AECDBDISPREPCURTAINWALLLAYOUTXSECTION
  2
AecDbDispRepCurtainWallLayoutXSection
  3
AecArchDACHBase50|Product Desc: Autodesk Architectural Desktop 2007 |Company: Autodesk,Inc. |WEB Address: www.autodesk.com
 90
      129
 91
        1
280
     0
281
     0
  0
CLASS
  1
AEC_DISP_REP_CURTAIN_WALL_UNIT_MODEL
  2
AecDbDispRepCurtainWallUnitModel
  3
AecArchBase50|Product Desc: Autodesk Architectural Desktop 2007 |Company: Autodesk,Inc. |WEB Address: www.autodesk.com
 90
      129
 91
        1
280
     0
281
     0
  0
CLASS
  1
AEC_DISP_REP_CURTAIN_WALL_UNIT_PLAN
  2
AecDbDispRepCurtainWallUnitPlan
  3
AecArchBase50|Product Desc: Autodesk Architectural Desktop 2007 |Company: Autodesk,Inc. |WEB Address: www.autodesk.com
 90
      129
 91
        1
280
     0
281
     0
  0
CLASS
  1
AEC_AECDBDISPREPCURTAINWALLUNITPLAN100
  2
AecDbDispRepCurtainWallUnitPlan100
  3
AecArchDACHBase50|Product Desc: Autodesk Architectural Desktop 2007 |Company: Autodesk,Inc. |WEB Address: www.autodesk.com
 90
      129
 91
        1
280
     0
281
     0
  0
CLASS
  1
AEC_AECDBDISPREPCURTAINWALLUNITPLAN50
  2
AecDbDispRepCurtainWallUnitPlan50
  3
AecArchDACHBase50|Product Desc: Autodesk Architectural Desktop 2007 |Company: Autodesk,Inc. |WEB Address: www.autodesk.com
 90
      129
 91
        1
280
     0
281
     0
  0
CLASS
  1
AEC_AECDBDISPREPCURTAINWALLUNITXSECTION
  2
AecDbDispRepCurtainWallUnitXSection
  3
AecArchDACHBase50|Product Desc: Autodesk Architectural Desktop 2007 |Company: Autodesk,Inc. |WEB Address: www.autodesk.com
 90
      129
 91
        1
280
     0
281
     0
  0
CLASS
  1
AEC_DB_DISP_REP_DIM_GROUP_PLAN
  2
AecDbDispRepDimGroupPlan
  3
AecArchDACHBase50|Product Desc: Autodesk Architectural Desktop 2007 |Company: Autodesk,Inc. |WEB Address: www.autodesk.com
 90
      129
 91
        1
280
     0
281
     0
  0
CLASS
  1
AEC_DB_DISP_REP_DIM_GROUP_PLAN100
  2
AecDbDispRepDimGroupPlan100
  3
AecArchDACHBase50|Product Desc: Autodesk Architectural Desktop 2007 |Company: Autodesk,Inc. |WEB Address: www.autodesk.com
 90
      129
 91
        1
280
     0
281
     0
  0
CLASS
  1
AEC_DB_DISP_REP_DIM_GROUP_PLAN50
  2
AecDbDispRepDimGroupPlan50
  3
AecArchDACHBase50|Product Desc: Autodesk Architectural Desktop 2007 |Company: Autodesk,Inc. |WEB Address: www.autodesk.com
 90
      129
 91
        1
280
     0
281
     0
  0
CLASS
  1
AEC_DISP_REP_DISPLAYTHEME
  2
AecDbDispRepDisplayTheme
  3
AecBase50|Product Desc: Autodesk Architectural Desktop 2007 |Company: Autodesk,Inc. |WEB Address: www.autodesk.com
 90
      129
 91
        1
280
     0
281
     0
  0
CLASS
  1
AEC_DISP_REP_DOOR_ELEV
  2
AecDbDispRepDoorElev
  3
AecArchBase50|Product Desc: Autodesk Architectural Desktop 2007 |Company: Autodesk,Inc. |WEB Address: www.autodesk.com
 90
      129
 91
        1
280
     0
281
     0
  0
CLASS
  1
AEC_DISP_REP_DOOR_MODEL
  2
AecDbDispRepDoorModel
  3
AecArchBase50|Product Desc: Autodesk Architectural Desktop 2007 |Company: Autodesk,Inc. |WEB Address: www.autodesk.com
 90
      129
 91
        1
280
     0
281
     0
  0
CLASS
  1
AEC_DISP_REP_DOOR_NOMINAL
  2
AecDbDispRepDoorNominal
  3
AecArchBase50|Product Desc: Autodesk Architectural Desktop 2007 |Company: Autodesk,Inc. |WEB Address: www.autodesk.com
 90
      129
 91
        1
280
     0
281
     0
  0
CLASS
  1
AEC_DISP_REP_DOOR_PLAN
  2
AecDbDispRepDoorPlan
  3
AecArchBase50|Product Desc: Autodesk Architectural Desktop 2007 |Company: Autodesk,Inc. |WEB Address: www.autodesk.com
 90
      129
 91
        1
280
     0
281
     0
  0
CLASS
  1
AEC_DISP_REP_DOOR_PLAN_50
  2
AecDbDispRepDoorPlan50
  3
AecArchDACHBase50|Product Desc: Autodesk Architectural Desktop 2007 |Company: Autodesk,Inc. |WEB Address: www.autodesk.com
 90
      129
 91
        1
280
     0
281
     0
  0
CLASS
  1
AEC_DISP_REP_DOOR_PLAN_HEKTO
  2
AecDbDispRepDoorPlanHekto
  3
AecArchDACHBase50|Product Desc: Autodesk Architectural Desktop 2007 |Company: Autodesk,Inc. |WEB Address: www.autodesk.com
 90
      129
 91
        1
280
     0
281
     0
  0
CLASS
  1
AEC_DISP_REP_DOOR_RCP
  2
AecDbDispRepDoorRcp
  3
AecArchBase50|Product Desc: Autodesk Architectural Desktop 2007 |Company: Autodesk,Inc. |WEB Address: www.autodesk.com
 90
      129
 91
        1
280
     0
281
     0
  0
CLASS
  1
AEC_DISP_REP_DOOR_THRESHOLD_PLAN
  2
AecDbDispRepDoorThresholdPlan
  3
AecArchBase50|Product Desc: Autodesk Architectural Desktop 2007 |Company: Autodesk,Inc. |WEB Address: www.autodesk.com
 90
      129
 91
        1
280
     0
281
     0
  0
CLASS
  1
AEC_DISP_REP_DOOR_THRESHOLD_SYMBOL_PLAN
  2
AecDbDispRepDoorThresholdSymbolPlan
  3
AecArchDACHBase50|Product Desc: Autodesk Architectural Desktop 2007 |Company: Autodesk,Inc. |WEB Address: www.autodesk.com
 90
      129
 91
        1
280
     0
281
     0
  0
CLASS
  1
AEC_AECDBDISPREPDOORXSECTION
  2
AecDbDispRepDoorXSection
  3
AecArchDACHBase50|Product Desc: Autodesk Architectural Desktop 2007 |Company: Autodesk,Inc. |WEB Address: www.autodesk.com
 90
      129
 91
        1
280
     0
281
     0
  0
CLASS
  1
AEC_DISP_REP_EDITINPLACEPROFILE
  2
AecDbDispRepEditInPlaceProfile
  3
AecBase50|Product Desc: Autodesk Architectural Desktop 2007 |Company: Autodesk,Inc. |WEB Address: www.autodesk.com
 90
      129
 91
        1
280
     0
281
     0
  0
CLASS
  1
AEC_DISP_REP_ENT_REF
  2
AecDbDispRepEntRef
  3
AecBase50|Product Desc: Autodesk Architectural Desktop 2007 |Company: Autodesk,Inc. |WEB Address: www.autodesk.com
 90
      129
 91
        1
280
     0
281
     0
  0
CLASS
  1
AEC_DISP_REP_LAYOUT_CURVE
  2
AecDbDispRepLayoutCurve
  3
AecBase50|Product Desc: Autodesk Architectural Desktop 2007 |Company: Autodesk,Inc. |WEB Address: www.autodesk.com
 90
      129
 91
        1
280
     0
281
     0
  0
CLASS
  1
AEC_DISP_REP_LAYOUT_GRID2D
  2
AecDbDispRepLayoutGrid2d
  3
AecBase50|Product Desc: Autodesk Architectural Desktop 2007 |Company: Autodesk,Inc. |WEB Address: www.autodesk.com
 90
      129
 91
        1
280
     0
281
     0
  0
CLASS
  1
AEC_DISP_REP_LAYOUT_GRID3D
  2
AecDbDispRepLayoutGrid3d
  3
AecBase50|Product Desc: Autodesk Architectural Desktop 2007 |Company: Autodesk,Inc. |WEB Address: www.autodesk.com
 90
      129
 91
        1
280
     0
281
     0
  0
CLASS
  1
AEC_DISP_REP_MASKBLOCK_REF
  2
AecDbDispRepMaskBlockRef
  3
AecBase50|Product Desc: Autodesk Architectural Desktop 2007 |Company: Autodesk,Inc. |WEB Address: www.autodesk.com
 90
      129
 91
        1
280
     0
281
     0
  0
CLASS
  1
AEC_DISP_REP_MASKBLOCK_REF_RCP
  2
AecDbDispRepMaskBlockRefRcp
  3
AecArchBase50|Product Desc: Autodesk Architectural Desktop 2007 |Company: Autodesk,Inc. |WEB Address: www.autodesk.com
 90
      129
 91
        1
280
     0
281
     0
  0
CLASS
  1
AEC_DISP_REP_MASS_ELEM_MODEL
  2
AecDbDispRepMassElemModel
  3
AecBaseEx50|Product Desc: Autodesk Architectural Desktop 2007 |Company: Autodesk,Inc. |WEB Address: www.autodesk.com
 90
      129
 91
        1
280
     0
281
     0
  0
CLASS
  1
AEC_DISPREPAECDBDISPREPMASSELEMPLAN100
  2
AecDbDispRepMassElemPlan100
  3
AecArchDACHBase50|Product Desc: Autodesk Architectural Desktop 2007 |Company: Autodesk,Inc. |WEB Address: www.autodesk.com
 90
      129
 91
        1
280
     0
281
     0
  0
CLASS
  1
AEC_DISPREPAECDBDISPREPMASSELEMPLAN50
  2
AecDbDispRepMassElemPlan50
  3
AecArchDACHBase50|Product Desc: Autodesk Architectural Desktop 2007 |Company: Autodesk,Inc. |WEB Address: www.autodesk.com
 90
      129
 91
        1
280
     0
281
     0
  0
CLASS
  1
AEC_DISP_REP_MASS_ELEM_RCP
  2
AecDbDispRepMassElemRcp
  3
AecArchBase50|Product Desc: Autodesk Architectural Desktop 2007 |Company: Autodesk,Inc. |WEB Address: www.autodesk.com
 90
      129
 91
        1
280
     0
281
     0
  0
CLASS
  1
AEC_DISP_REP_MASS_ELEM_SCHEM
  2
AecDbDispRepMassElemSchem
  3
AecBaseEx50|Product Desc: Autodesk Architectural Desktop 2007 |Company: Autodesk,Inc. |WEB Address: www.autodesk.com
 90
      129
 91
        1
280
     0
281
     0
  0
CLASS
  1
AEC_AECDBDISPREPMASSELEMXSECTION
  2
AecDbDispRepMassElemXSection
  3
AecArchDACHBase50|Product Desc: Autodesk Architectural Desktop 2007 |Company: Autodesk,Inc. |WEB Address: www.autodesk.com
 90
      129
 91
        1
280
     0
281
     0
  0
CLASS
  1
AEC_DISP_REP_MASS_GROUP_MODEL
  2
AecDbDispRepMassGroupModel
  3
AecBaseEx50|Product Desc: Autodesk Architectural Desktop 2007 |Company: Autodesk,Inc. |WEB Address: www.autodesk.com
 90
      129
 91
        1
280
     0
281
     0
  0
CLASS
  1
AEC_DISP_REP_MASS_GROUP_PLAN
  2
AecDbDispRepMassGroupPlan
  3
AecBaseEx50|Product Desc: Autodesk Architectural Desktop 2007 |Company: Autodesk,Inc. |WEB Address: www.autodesk.com
 90
      129
 91
        1
280
     0
281
     0
  0
CLASS
  1
AEC_DISPREPAECDBDISPREPMASSGROUPPLAN100
  2
AecDbDispRepMassGroupPlan100
  3
AecArchDACHBase50|Product Desc: Autodesk Architectural Desktop 2007 |Company: Autodesk,Inc. |WEB Address: www.autodesk.com
 90
      129
 91
        1
280
     0
281
     0
  0
CLASS
  1
AEC_DISPREPAECDBDISPREPMASSGROUPPLAN50
  2
AecDbDispRepMassGroupPlan50
  3
AecArchDACHBase50|Product Desc: Autodesk Architectural Desktop 2007 |Company: Autodesk,Inc. |WEB Address: www.autodesk.com
 90
      129
 91
        1
280
     0
281
     0
  0
CLASS
  1
AEC_DISP_REP_MASS_GROUP_RCP
  2
AecDbDispRepMassGroupRcp
  3
AecArchBase50|Product Desc: Autodesk Architectural Desktop 2007 |Company: Autodesk,Inc. |WEB Address: www.autodesk.com
 90
      129
 91
        1
280
     0
281
     0
  0
CLASS
  1
AEC_DISPREPMASSGROUPXSECTION
  2
AecDbDispRepMassGroupXSection
  3
AecArchDACHBase50|Product Desc: Autodesk Architectural Desktop 2007 |Company: Autodesk,Inc. |WEB Address: www.autodesk.com
 90
      129
 91
        1
280
     0
281
     0
  0
CLASS
  1
AEC_DISP_REP_MATERIAL
  2
AecDbDispRepMaterial
  3
AecBase50|Product Desc: Autodesk Architectural Desktop 2007 |Company: Autodesk,Inc. |WEB Address: www.autodesk.com
 90
      129
 91
        1
280
     0
281
     0
  0
CLASS
  1
AEC_AECDBDISPREPMEMBERXSECTION
  2
AecDbDispRepMemberXSection
  3
AecArchDACHBase50|Product Desc: Autodesk Architectural Desktop 2007 |Company: Autodesk,Inc. |WEB Address: www.autodesk.com
 90
      129
 91
        1
280
     0
281
     0
  0
CLASS
  1
AEC_DISP_REP_MVBLOCK_REF
  2
AecDbDispRepMvBlockRef
  3
AecBase50|Product Desc: Autodesk Architectural Desktop 2007 |Company: Autodesk,Inc. |WEB Address: www.autodesk.com
 90
      129
 91
        1
280
     0
281
     0
  0
CLASS
  1
AEC_DISP_REP_MVBLOCK_REF_MODEL
  2
AecDbDispRepMvBlockRefModel
  3
AecBase50|Product Desc: Autodesk Architectural Desktop 2007 |Company: Autodesk,Inc. |WEB Address: www.autodesk.com
 90
      129
 91
        1
280
     0
281
     0
  0
CLASS
  1
AEC_AECDBDISPREPMVBLOCKREFPLAN100
  2
AecDbDispRepMvBlockRefPlan100
  3
AecArchDACHBase50|Product Desc: Autodesk Architectural Desktop 2007 |Company: Autodesk,Inc. |WEB Address: www.autodesk.com
 90
      129
 91
        1
280
     0
281
     0
  0
CLASS
  1
AEC_AECDBDISPREPMVBLOCKREFPLAN50
  2
AecDbDispRepMvBlockRefPlan50
  3
AecArchDACHBase50|Product Desc: Autodesk Architectural Desktop 2007 |Company: Autodesk,Inc. |WEB Address: www.autodesk.com
 90
      129
 91
        1
280
     0
281
     0
  0
CLASS
  1
AEC_DISP_REP_MVBLOCK_REF_RCP
  2
AecDbDispRepMvBlockRefRcp
  3
AecArchBase50|Product Desc: Autodesk Architectural Desktop 2007 |Company: Autodesk,Inc. |WEB Address: www.autodesk.com
 90
      129
 91
        1
280
     0
281
     0
  0
CLASS
  1
AEC_DISP_REP_OPENING
  2
AecDbDispRepOpening
  3
AecArchBase50|Product Desc: Autodesk Architectural Desktop 2007 |Company: Autodesk,Inc. |WEB Address: www.autodesk.com
 90
      129
 91
        1
280
     0
281
     0
  0
CLASS
  1
AEC_DISP_REP_OPENING_MODEL
  2
AecDbDispRepOpeningModel
  3
AecArchBase50|Product Desc: Autodesk Architectural Desktop 2007 |Company: Autodesk,Inc. |WEB Address: www.autodesk.com
 90
      129
 91
        1
280
     0
281
     0
  0
CLASS
  1
AEC_DISPREPAECDBDISPREPOPENINGPLAN100
  2
AecDbDispRepOpeningPlan100
  3
AecArchDACHBase50|Product Desc: Autodesk Architectural Desktop 2007 |Company: Autodesk,Inc. |WEB Address: www.autodesk.com
 90
      129
 91
        1
280
     0
281
     0
  0
CLASS
  1
AEC_DISPREPAECDBDISPREPOPENINGPLAN50
  2
AecDbDispRepOpeningPlan50
  3
AecArchDACHBase50|Product Desc: Autodesk Architectural Desktop 2007 |Company: Autodesk,Inc. |WEB Address: www.autodesk.com
 90
      129
 91
        1
280
     0
281
     0
  0
CLASS
  1
AEC_DISPREPAECDBDISPREPOPENINGPLANREFLECTED
  2
AecDbDispRepOpeningPlanReflected
  3
AecArchDACHBase50|Product Desc: Autodesk Architectural Desktop 2007 |Company: Autodesk,Inc. |WEB Address: www.autodesk.com
 90
      129
 91
        1
280
     0
281
     0
  0
CLASS
  1
AEC_DISPREPAECDBDISPREPOPENINGSILLPLAN
  2
AecDbDispRepOpeningSillPlan
  3
AecArchDACHBase50|Product Desc: Autodesk Architectural Desktop 2007 |Company: Autodesk,Inc. |WEB Address: www.autodesk.com
 90
      129
 91
        1
280
     0
281
     0
  0
CLASS
  1
AEC_DISP_REP_POLYGON_MODEL
  2
AecDbDispRepPolygonModel
  3
AecBaseEx50|Product Desc: Autodesk Architectural Desktop 2007 |Company: Autodesk,Inc. |WEB Address: www.autodesk.com
 90
      129
 91
        1
280
     0
281
     0
  0
CLASS
  1
AEC_DISP_REP_POLYGON_TRUECOLOUR
  2
AecDbDispRepPolygonTrueColour
  3
AecBaseEx50|Product Desc: Autodesk Architectural Desktop 2007 |Company: Autodesk,Inc. |WEB Address: www.autodesk.com
 90
      129
 91
        1
280
     0
281
     0
  0
CLASS
  1
AEC_DISP_REP_RAILING_MODEL
  2
AecDbDispRepRailingModel
  3
AecArchBase50|Product Desc: Autodesk Architectural Desktop 2007 |Company: Autodesk,Inc. |WEB Address: www.autodesk.com
 90
      129
 91
        1
280
     0
281
     0
  0
CLASS
  1
AEC_DISP_REP_RAILING_PLAN
  2
AecDbDispRepRailingPlan
  3
AecArchBase50|Product Desc: Autodesk Architectural Desktop 2007 |Company: Autodesk,Inc. |WEB Address: www.autodesk.com
 90
      129
 91
        1
280
     0
281
     0
  0
CLASS
  1
AEC_DISP_REP_RAILING_PLAN_100
  2
AecDbDispRepRailingPlan100
  3
AecArchDACHBase50|Product Desc: Autodesk Architectural Desktop 2007 |Company: Autodesk,Inc. |WEB Address: www.autodesk.com
 90
      129
 91
        1
280
     0
281
     0
  0
CLASS
  1
AEC_DISP_REP_RAILING_PLAN_50
  2
AecDbDispRepRailingPlan50
  3
AecArchDACHBase50|Product Desc: Autodesk Architectural Desktop 2007 |Company: Autodesk,Inc. |WEB Address: www.autodesk.com
 90
      129
 91
        1
280
     0
281
     0
  0
CLASS
  1
AEC_DISPREPRAILINGXSECTION
  2
AecDbDispRepRailingXSection
  3
AecArchDACHBase50|Product Desc: Autodesk Architectural Desktop 2007 |Company: Autodesk,Inc. |WEB Address: www.autodesk.com
 90
      129
 91
        1
280
     0
281
     0
  0
CLASS
  1
AEC_DISP_REP_ROOF_MODEL
  2
AecDbDispRepRoofModel
  3
AecArchBase50|Product Desc: Autodesk Architectural Desktop 2007 |Company: Autodesk,Inc. |WEB Address: www.autodesk.com
 90
      129
 91
        1
280
     0
281
     0
  0
CLASS
  1
AEC_DISP_REP_ROOF_PLAN
  2
AecDbDispRepRoofPlan
  3
AecArchBase50|Product Desc: Autodesk Architectural Desktop 2007 |Company: Autodesk,Inc. |WEB Address: www.autodesk.com
 90
      129
 91
        1
280
     0
281
     0
  0
CLASS
  1
AEC_AECDBDISPREPROOFPLAN100
  2
AecDbDispRepRoofPlan100
  3
AecArchDACHBase50|Product Desc: Autodesk Architectural Desktop 2007 |Company: Autodesk,Inc. |WEB Address: www.autodesk.com
 90
      129
 91
        1
280
     0
281
     0
  0
CLASS
  1
AEC_AECDBDISPREPROOFPLAN50
  2
AecDbDispRepRoofPlan50
  3
AecArchDACHBase50|Product Desc: Autodesk Architectural Desktop 2007 |Company: Autodesk,Inc. |WEB Address: www.autodesk.com
 90
      129
 91
        1
280
     0
281
     0
  0
CLASS
  1
AEC_DISP_REP_ROOF_RCP
  2
AecDbDispRepRoofRcp
  3
AecArchBase50|Product Desc: Autodesk Architectural Desktop 2007 |Company: Autodesk,Inc. |WEB Address: www.autodesk.com
 90
      129
 91
        1
280
     0
281
     0
  0
CLASS
  1
AEC_DISP_REP_ROOFSLAB_MODEL
  2
AecDbDispRepRoofSlabModel
  3
AecArchBase50|Product Desc: Autodesk Architectural Desktop 2007 |Company: Autodesk,Inc. |WEB Address: www.autodesk.com
 90
      129
 91
        1
280
     0
281
     0
  0
CLASS
  1
AEC_DISP_REP_ROOFSLAB_PLAN
  2
AecDbDispRepRoofSlabPlan
  3
AecArchBase50|Product Desc: Autodesk Architectural Desktop 2007 |Company: Autodesk,Inc. |WEB Address: www.autodesk.com
 90
      129
 91
        1
280
     0
281
     0
  0
CLASS
  1
AEC_AECDBDISPREPROOFSLABPLAN100
  2
AecDbDispRepRoofSlabPlan100
  3
AecArchDACHBase50|Product Desc: Autodesk Architectural Desktop 2007 |Company: Autodesk,Inc. |WEB Address: www.autodesk.com
 90
      129
 91
        1
280
     0
281
     0
  0
CLASS
  1
AEC_AECDBDISPREPROOFSLABPLAN50
  2
AecDbDispRepRoofSlabPlan50
  3
AecArchDACHBase50|Product Desc: Autodesk Architectural Desktop 2007 |Company: Autodesk,Inc. |WEB Address: www.autodesk.com
 90
      129
 91
        1
280
     0
281
     0
  0
CLASS
  1
AEC_AECDBDISPREPROOFSLABXSECTION
  2
AecDbDispRepRoofSlabXSection
  3
AecArchDACHBase50|Product Desc: Autodesk Architectural Desktop 2007 |Company: Autodesk,Inc. |WEB Address: www.autodesk.com
 90
      129
 91
        1
280
     0
281
     0
  0
CLASS
  1
AEC_AECDBDISPREPROOFXSECTION
  2
AecDbDispRepRoofXSection
  3
AecArchDACHBase50|Product Desc: Autodesk Architectural Desktop 2007 |Company: Autodesk,Inc. |WEB Address: www.autodesk.com
 90
      129
 91
        1
280
     0
281
     0
  0
CLASS
  1
AEC_DISP_REP_SCHEDULE_TABLE
  2
AecDbDispRepScheduleTable
  3
AecSchedule50|Product Desc: Autodesk Architectural Desktop 2007 |Company: Autodesk,Inc. |WEB Address: www.autodesk.com
 90
      129
 91
        1
280
     0
281
     0
  0
CLASS
  1
AEC_DISP_REP_SLAB_MODEL
  2
AecDbDispRepSlabModel
  3
AecArchBase50|Product Desc: Autodesk Architectural Desktop 2007 |Company: Autodesk,Inc. |WEB Address: www.autodesk.com
 90
      129
 91
        1
280
     0
281
     0
  0
CLASS
  1
AEC_DISP_REP_SLAB_PLAN
  2
AecDbDispRepSlabPlan
  3
AecArchBase50|Product Desc: Autodesk Architectural Desktop 2007 |Company: Autodesk,Inc. |WEB Address: www.autodesk.com
 90
      129
 91
        1
280
     0
281
     0
  0
CLASS
  1
AEC_AECDBDISPREPSLABPLAN100
  2
AecDbDispRepSlabPlan100
  3
AecArchDACHBase50|Product Desc: Autodesk Architectural Desktop 2007 |Company: Autodesk,Inc. |WEB Address: www.autodesk.com
 90
      129
 91
        1
280
     0
281
     0
  0
CLASS
  1
AEC_AECDBDISPREPSLABPLAN50
  2
AecDbDispRepSlabPlan50
  3
AecArchDACHBase50|Product Desc: Autodesk Architectural Desktop 2007 |Company: Autodesk,Inc. |WEB Address: www.autodesk.com
 90
      129
 91
        1
280
     0
281
     0
  0
CLASS
  1
AEC_AECDBDISPREPSLABXSECTION
  2
AecDbDispRepSlabXSection
  3
AecArchDACHBase50|Product Desc: Autodesk Architectural Desktop 2007 |Company: Autodesk,Inc. |WEB Address: www.autodesk.com
 90
      129
 91
        1
280
     0
281
     0
  0
CLASS
  1
AEC_DISP_REP_SLICE
  2
AecDbDispRepSlice
  3
AecBase50|Product Desc: Autodesk Architectural Desktop 2007 |Company: Autodesk,Inc. |WEB Address: www.autodesk.com
 90
      129
 91
        1
280
     0
281
     0
  0
CLASS
  1
AEC_DISP_REP_SPACE_DECOMPOSED
  2
AecDbDispRepSpaceDecomposed
  3
AecArchBase50|Product Desc: Autodesk Architectural Desktop 2007 |Company: Autodesk,Inc. |WEB Address: www.autodesk.com
 90
      129
 91
        1
280
     0
281
     0
  0
CLASS
  1
AEC_DISP_REP_SPACE_MODEL
  2
AecDbDispRepSpaceModel
  3
AecArchBase50|Product Desc: Autodesk Architectural Desktop 2007 |Company: Autodesk,Inc. |WEB Address: www.autodesk.com
 90
      129
 91
        1
280
     0
281
     0
  0
CLASS
  1
AEC_DISP_REP_SPACE_PLAN
  2
AecDbDispRepSpacePlan
  3
AecArchBase50|Product Desc: Autodesk Architectural Desktop 2007 |Company: Autodesk,Inc. |WEB Address: www.autodesk.com
 90
      129
 91
        1
280
     0
281
     0
  0
CLASS
  1
AEC_AECDBDISPREPSPACEPLAN100
  2
AecDbDispRepSpacePlan100
  3
AecArchDACHBase50|Product Desc: Autodesk Architectural Desktop 2007 |Company: Autodesk,Inc. |WEB Address: www.autodesk.com
 90
      129
 91
        1
280
     0
281
     0
  0
CLASS
  1
AEC_AECDBDISPREPSPACEPLAN50
  2
AecDbDispRepSpacePlan50
  3
AecArchDACHBase50|Product Desc: Autodesk Architectural Desktop 2007 |Company: Autodesk,Inc. |WEB Address: www.autodesk.com
 90
      129
 91
        1
280
     0
281
     0
  0
CLASS
  1
AEC_DISP_REP_SPACE_RCP
  2
AecDbDispRepSpaceRcp
  3
AecArchBase50|Product Desc: Autodesk Architectural Desktop 2007 |Company: Autodesk,Inc. |WEB Address: www.autodesk.com
 90
      129
 91
        1
280
     0
281
     0
  0
CLASS
  1
AEC_DISP_REP_SPACE_VOLUME
  2
AecDbDispRepSpaceVolume
  3
AecArchBase50|Product Desc: Autodesk Architectural Desktop 2007 |Company: Autodesk,Inc. |WEB Address: www.autodesk.com
 90
      129
 91
        1
280
     0
281
     0
  0
CLASS
  1
AEC_AECDBDISPREPSPACEXSECTION
  2
AecDbDispRepSpaceXSection
  3
AecArchDACHBase50|Product Desc: Autodesk Architectural Desktop 2007 |Company: Autodesk,Inc. |WEB Address: www.autodesk.com
 90
      129
 91
        1
280
     0
281
     0
  0
CLASS
  1
AEC_DISP_REP_STAIR_MODEL
  2
AecDbDispRepStairModel
  3
AecArchBase50|Product Desc: Autodesk Architectural Desktop 2007 |Company: Autodesk,Inc. |WEB Address: www.autodesk.com
 90
      129
 91
        1
280
     0
281
     0
  0
CLASS
  1
AEC_DISP_REP_STAIR_PLAN
  2
AecDbDispRepStairPlan
  3
AecArchBase50|Product Desc: Autodesk Architectural Desktop 2007 |Company: Autodesk,Inc. |WEB Address: www.autodesk.com
 90
      129
 91
        1
280
     0
281
     0
  0
CLASS
  1
AEC_DISP_REP_STAIR_PLAN_100
  2
AecDbDispRepStairPlan100
  3
AecArchDACHBase50|Product Desc: Autodesk Architectural Desktop 2007 |Company: Autodesk,Inc. |WEB Address: www.autodesk.com
 90
      129
 91
        1
280
     0
281
     0
  0
CLASS
  1
AEC_DISP_REP_STAIR_PLAN_50
  2
AecDbDispRepStairPlan50
  3
AecArchDACHBase50|Product Desc: Autodesk Architectural Desktop 2007 |Company: Autodesk,Inc. |WEB Address: www.autodesk.com
 90
      129
 91
        1
280
     0
281
     0
  0
CLASS
  1
AEC_DISP_REP_STAIR_PLAN_OVERLAPPING
  2
AecDbDispRepStairPlanOverlapping
  3
AecArchBase50|Product Desc: Autodesk Architectural Desktop 2007 |Company: Autodesk,Inc. |WEB Address: www.autodesk.com
 90
      129
 91
        1
280
     0
281
     0
  0
CLASS
  1
AEC_DISP_REP_STAIR_RCP
  2
AecDbDispRepStairRcp
  3
AecArchBase50|Product Desc: Autodesk Architectural Desktop 2007 |Company: Autodesk,Inc. |WEB Address: www.autodesk.com
 90
      129
 91
        1
280
     0
281
     0
  0
CLASS
  1
AEC_DISPREPSTAIRXSECTION
  2
AecDbDispRepStairXSection
  3
AecArchDACHBase50|Product Desc: Autodesk Architectural Desktop 2007 |Company: Autodesk,Inc. |WEB Address: www.autodesk.com
 90
      129
 91
        1
280
     0
281
     0
  0
CLASS
  1
AEC_DISP_REP_WALL_GRAPH
  2
AecDbDispRepWallGraph
  3
AecArchBase50|Product Desc: Autodesk Architectural Desktop 2007 |Company: Autodesk,Inc. |WEB Address: www.autodesk.com
 90
      129
 91
        1
280
     0
281
     0
  0
CLASS
  1
AEC_DISP_REP_WALL_MODEL
  2
AecDbDispRepWallModel
  3
AecArchBase50|Product Desc: Autodesk Architectural Desktop 2007 |Company: Autodesk,Inc. |WEB Address: www.autodesk.com
 90
      129
 91
        1
280
     0
281
     0
  0
CLASS
  1
AEC_DISP_REP_WALL_PLAN
  2
AecDbDispRepWallPlan
  3
AecArchBase50|Product Desc: Autodesk Architectural Desktop 2007 |Company: Autodesk,Inc. |WEB Address: www.autodesk.com
 90
      129
 91
        1
280
     0
281
     0
  0
CLASS
  1
AEC_AECDBDISPREPWALLPLAN100
  2
AecDbDispRepWallPlan100
  3
AecArchDACHBase50|Product Desc: Autodesk Architectural Desktop 2007 |Company: Autodesk,Inc. |WEB Address: www.autodesk.com
 90
      129
 91
        1
280
     0
281
     0
  0
CLASS
  1
AEC_AECDBDISPREPWALLPLAN50
  2
AecDbDispRepWallPlan50
  3
AecArchDACHBase50|Product Desc: Autodesk Architectural Desktop 2007 |Company: Autodesk,Inc. |WEB Address: www.autodesk.com
 90
      129
 91
        1
280
     0
281
     0
  0
CLASS
  1
AEC_DISP_REP_WALL_RCP
  2
AecDbDispRepWallRcp
  3
AecArchBase50|Product Desc: Autodesk Architectural Desktop 2007 |Company: Autodesk,Inc. |WEB Address: www.autodesk.com
 90
      129
 91
        1
280
     0
281
     0
  0
CLASS
  1
AEC_DISP_REP_WALL_SCHEM
  2
AecDbDispRepWallSchem
  3
AecArchBase50|Product Desc: Autodesk Architectural Desktop 2007 |Company: Autodesk,Inc. |WEB Address: www.autodesk.com
 90
      129
 91
        1
280
     0
281
     0
  0
CLASS
  1
AEC_DISPREPWALLXSECTION
  2
AecDbDispRepWallXSection
  3
AecArchDACHBase50|Product Desc: Autodesk Architectural Desktop 2007 |Company: Autodesk,Inc. |WEB Address: www.autodesk.com
 90
      129
 91
        1
280
     0
281
     0
  0
CLASS
  1
AEC_DISP_REP_WINDOW_ASSEMBLY_MODEL
  2
AecDbDispRepWindowAssemblyModel
  3
AecArchBase50|Product Desc: Autodesk Architectural Desktop 2007 |Company: Autodesk,Inc. |WEB Address: www.autodesk.com
 90
      129
 91
        1
280
     0
281
     0
  0
CLASS
  1
AEC_DISP_REP_WINDOW_ASSEMBLY_PLAN
  2
AecDbDispRepWindowAssemblyPlan
  3
AecArchBase50|Product Desc: Autodesk Architectural Desktop 2007 |Company: Autodesk,Inc. |WEB Address: www.autodesk.com
 90
      129
 91
        1
280
     0
281
     0
  0
CLASS
  1
AEC_AECDBDISPREPWINDOWASSEMBLYPLAN100
  2
AecDbDispRepWindowAssemblyPlan100
  3
AecArchDACHBase50|Product Desc: Autodesk Architectural Desktop 2007 |Company: Autodesk,Inc. |WEB Address: www.autodesk.com
 90
      129
 91
        1
280
     0
281
     0
  0
CLASS
  1
AEC_AECDBDISPREPWINDOWASSEMBLYPLAN50
  2
AecDbDispRepWindowAssemblyPlan50
  3
AecArchDACHBase50|Product Desc: Autodesk Architectural Desktop 2007 |Company: Autodesk,Inc. |WEB Address: www.autodesk.com
 90
      129
 91
        1
280
     0
281
     0
  0
CLASS
  1
AEC_DISP_REP_WINDOWASSEMBLY_SILL_PLAN
  2
AecDbDispRepWindowAssemblySillPlan
  3
AecArchBase50|Product Desc: Autodesk Architectural Desktop 2007 |Company: Autodesk,Inc. |WEB Address: www.autodesk.com
 90
      129
 91
        1
280
     0
281
     0
  0
CLASS
  1
AEC_AECDBDISPREPWINDOWASSEMBLYXSECTION
  2
AecDbDispRepWindowAssemblyXSection
  3
AecArchDACHBase50|Product Desc: Autodesk Architectural Desktop 2007 |Company: Autodesk,Inc. |WEB Address: www.autodesk.com
 90
      129
 91
        1
280
     0
281
     0
  0
CLASS
  1
AEC_DISP_REP_WINDOW_ELEV
  2
AecDbDispRepWindowElev
  3
AecArchBase50|Product Desc: Autodesk Architectural Desktop 2007 |Company: Autodesk,Inc. |WEB Address: www.autodesk.com
 90
      129
 91
        1
280
     0
281
     0
  0
CLASS
  1
AEC_DISP_REP_WINDOW_MODEL
  2
AecDbDispRepWindowModel
  3
AecArchBase50|Product Desc: Autodesk Architectural Desktop 2007 |Company: Autodesk,Inc. |WEB Address: www.autodesk.com
 90
      129
 91
        1
280
     0
281
     0
  0
CLASS
  1
AEC_DISP_REP_WINDOW_NOMINAL
  2
AecDbDispRepWindowNominal
  3
AecArchBase50|Product Desc: Autodesk Architectural Desktop 2007 |Company: Autodesk,Inc. |WEB Address: www.autodesk.com
 90
      129
 91
        1
280
     0
281
     0
  0
CLASS
  1
AEC_DISP_REP_WINDOW_PLAN
  2
AecDbDispRepWindowPlan
  3
AecArchBase50|Product Desc: Autodesk Architectural Desktop 2007 |Company: Autodesk,Inc. |WEB Address: www.autodesk.com
 90
      129
 91
        1
280
     0
281
     0
  0
CLASS
  1
AEC_DISP_REP_WINDOW_PLAN_100
  2
AecDbDispRepWindowPlan100
  3
AecArchDACHBase50|Product Desc: Autodesk Architectural Desktop 2007 |Company: Autodesk,Inc. |WEB Address: www.autodesk.com
 90
      129
 91
        1
280
     0
281
     0
  0
CLASS
  1
AEC_DISP_REP_WINDOW_PLAN_50
  2
AecDbDispRepWindowPlan50
  3
AecArchDACHBase50|Product Desc: Autodesk Architectural Desktop 2007 |Company: Autodesk,Inc. |WEB Address: www.autodesk.com
 90
      129
 91
        1
280
     0
281
     0
  0
CLASS
  1
AEC_DISP_REP_WINDOW_RCP
  2
AecDbDispRepWindowRcp
  3
AecArchBase50|Product Desc: Autodesk Architectural Desktop 2007 |Company: Autodesk,Inc. |WEB Address: www.autodesk.com
 90
      129
 91
        1
280
     0
281
     0
  0
CLASS
  1
AEC_DISP_REP_WINDOW_SILL_PLAN
  2
AecDbDispRepWindowSillPlan
  3
AecArchBase50|Product Desc: Autodesk Architectural Desktop 2007 |Company: Autodesk,Inc. |WEB Address: www.autodesk.com
 90
      129
 91
        1
280
     0
281
     0
  0
CLASS
  1
AEC_AECDBDISPREPWINDOWXSECTION
  2
AecDbDispRepWindowXSection
  3
AecArchDACHBase50|Product Desc: Autodesk Architectural Desktop 2007 |Company: Autodesk,Inc. |WEB Address: www.autodesk.com
 90
      129
 91
        1
280
     0
281
     0
  0
CLASS
  1
AEC_DISP_REP_ZONE
  2
AecDbDispRepZone
  3
AecArchBase50|Product Desc: Autodesk Architectural Desktop 2007 |Company: Autodesk,Inc. |WEB Address: www.autodesk.com
 90
      129
 91
        1
280
     0
281
     0
  0
CLASS
  1
AEC_AECDBDISPREPZONE100
  2
AecDbDispRepZonePlan100
  3
AecArchDACHBase50|Product Desc: Autodesk Architectural Desktop 2007 |Company: Autodesk,Inc. |WEB Address: www.autodesk.com
 90
      129
 91
        1
280
     0
281
     0
  0
CLASS
  1
AEC_AECDBDISPREPZONE50
  2
AecDbDispRepZonePlan50
  3
AecArchDACHBase50|Product Desc: Autodesk Architectural Desktop 2007 |Company: Autodesk,Inc. |WEB Address: www.autodesk.com
 90
      129
 91
        1
280
     0
281
     0
  0
CLASS
  1
AECS_DISP_REP_MEMBER_ELEVATION_DESIGN
  2
AecsDbDispRepMemberElevationDesign
  3
AecStructureBase50|Product Desc: Autodesk Architectural Desktop 2007 |Company: Autodesk,Inc. |WEB Address: www.autodesk.com
 90
      129
 91
        1
280
     0
281
     0
  0
CLASS
  1
AECS_DISP_REP_MEMBER_ELEVATION_DETAIL
  2
AecsDbDispRepMemberElevationDetail
  3
AecStructureBase50|Product Desc: Autodesk Architectural Desktop 2007 |Company: Autodesk,Inc. |WEB Address: www.autodesk.com
 90
      129
 91
        1
280
     0
281
     0
  0
CLASS
  1
AECS_DISP_REP_MEMBER_LOGICAL
  2
AecsDbDispRepMemberLogical
  3
AecStructureBase50|Product Desc: Autodesk Architectural Desktop 2007 |Company: Autodesk,Inc. |WEB Address: www.autodesk.com
 90
      129
 91
        1
280
     0
281
     0
  0
CLASS
  1
AECS_DISP_REP_MEMBER_MODEL_DESIGN
  2
AecsDbDispRepMemberModelDesign
  3
AecStructureBase50|Product Desc: Autodesk Architectural Desktop 2007 |Company: Autodesk,Inc. |WEB Address: www.autodesk.com
 90
      129
 91
        1
280
     0
281
     0
  0
CLASS
  1
AECS_DISP_REP_MEMBER_MODEL_DETAIL
  2
AecsDbDispRepMemberModelDetail
  3
AecStructureBase50|Product Desc: Autodesk Architectural Desktop 2007 |Company: Autodesk,Inc. |WEB Address: www.autodesk.com
 90
      129
 91
        1
280
     0
281
     0
  0
CLASS
  1
AECS_DISP_REP_MEMBER_PLAN_DESIGN
  2
AecsDbDispRepMemberPlanDesign
  3
AecStructureBase50|Product Desc: Autodesk Architectural Desktop 2007 |Company: Autodesk,Inc. |WEB Address: www.autodesk.com
 90
      129
 91
        3
280
     0
281
     0
  0
CLASS
  1
AECS_DISP_REP_MEMBER_PLAN_DETAIL
  2
AecsDbDispRepMemberPlanDetail
  3
AecStructureBase50|Product Desc: Autodesk Architectural Desktop 2007 |Company: Autodesk,Inc. |WEB Address: www.autodesk.com
 90
      129
 91
        1
280
     0
281
     0
  0
CLASS
  1
AECS_DISP_REP_MEMBER_PLAN_SKETCH
  2
AecsDbDispRepMemberPlanSketch
  3
AecStructureBase50|Product Desc: Autodesk Architectural Desktop 2007 |Company: Autodesk,Inc. |WEB Address: www.autodesk.com
 90
      129
 91
        1
280
     0
281
     0
  0
CLASS
  1
AEC_DISP_PROPS_2D_SECTION
  2
AecDbDispProps2dSection
  3
AecBase50|Product Desc: Autodesk Architectural Desktop 2007 |Company: Autodesk,Inc. |WEB Address: www.autodesk.com
 90
      129
 91
        1
280
     0
281
     0
  0
CLASS
  1
AEC_DISPROPSXSECTIONCOMMON
  2
AecDbDispPropsXSectionCmn
  3
AecArchDACHBase50|Product Desc: Autodesk Architectural Desktop 2007 |Company: Autodesk,Inc. |WEB Address: www.autodesk.com
 90
      129
 91
       15
280
     0
281
     0
  0
CLASS
  1
AEC_DISP_PROPS_WALL_MODEL
  2
AecDbDispPropsWallModel
  3
AecArchBase50|Product Desc: Autodesk Architectural Desktop 2007 |Company: Autodesk,Inc. |WEB Address: www.autodesk.com
 90
      129
 91
        1
280
     0
281
     0
  0
CLASS
  1
AEC_DISP_PROPS_LAYOUT_GRID2D
  2
AecDbDispPropsLayoutGrid2d
  3
AecBase50|Product Desc: Autodesk Architectural Desktop 2007 |Company: Autodesk,Inc. |WEB Address: www.autodesk.com
 90
      129
 91
       11
280
     0
281
     0
  0
CLASS
  1
AEC_DISP_ROPS_RAILING_PLAN_50
  2
AecDbDispPropsRailingPlan50
  3
AecArchDACHBase50|Product Desc: Autodesk Architectural Desktop 2007 |Company: Autodesk,Inc. |WEB Address: www.autodesk.com
 90
      129
 91
        1
280
     0
281
     0
  0
CLASS
  1
AEC_DISP_PROPS_MASS_GROUP
  2
AecDbDispPropsMassGroup
  3
AecBaseEx50|Product Desc: Autodesk Architectural Desktop 2007 |Company: Autodesk,Inc. |WEB Address: www.autodesk.com
 90
      129
 91
        3
280
     0
281
     0
  0
CLASS
  1
AEC_DISP_PROPS_STAIR_PLAN
  2
AecDbDispPropsStairPlan
  3
AecArchBase50|Product Desc: Autodesk Architectural Desktop 2007 |Company: Autodesk,Inc. |WEB Address: www.autodesk.com
 90
      129
 91
        2
280
     0
281
     0
  0
CLASS
  1
AEC_DISP_PROPS_ENT_REF
  2
AecDbDispPropsEntRef
  3
AecBase50|Product Desc: Autodesk Architectural Desktop 2007 |Company: Autodesk,Inc. |WEB Address: www.autodesk.com
 90
      129
 91
        1
280
     0
281
     0
  0
CLASS
  1
AEC_DISP_PROPS_ENT
  2
AecDbDispPropsEnt
  3
AecBase50|Product Desc: Autodesk Architectural Desktop 2007 |Company: Autodesk,Inc. |WEB Address: www.autodesk.com
 90
      129
 91
        7
280
     0
281
     0
  0
CLASS
  1
AEC_DISP_PROPS_GRID_ASSEMBLY_MODEL
  2
AecDbDispPropsGridAssemblyModel
  3
AecArchBase50|Product Desc: Autodesk Architectural Desktop 2007 |Company: Autodesk,Inc. |WEB Address: www.autodesk.com
 90
      129
 91
        3
280
     0
281
     0
  0
CLASS
  1
AEC_DISP_PROPS_CLIP_VOLUME
  2
AecDbDispPropsClipVol
  3
AecBase50|Product Desc: Autodesk Architectural Desktop 2007 |Company: Autodesk,Inc. |WEB Address: www.autodesk.com
 90
      129
 91
       12
280
     0
281
     0
  0
CLASS
  1
AEC_DISP_PROPS_WINDOW_SILL_PLAN
  2
AecDbDispPropsWindowSillPlan
  3
AecArchBase50|Product Desc: Autodesk Architectural Desktop 2007 |Company: Autodesk,Inc. |WEB Address: www.autodesk.com
 90
      129
 91
        1
280
     0
281
     0
  0
CLASS
  1
AEC_DISP_PROPS_POLYGON_TRUECOLOUR
  2
AecDbDispPropsPolygonTrueColour
  3
AecBaseEx50|Product Desc: Autodesk Architectural Desktop 2007 |Company: Autodesk,Inc. |WEB Address: www.autodesk.com
 90
      129
 91
        1
280
     0
281
     0
  0
CLASS
  1
AECS_DISP_PROPS_MEMBER_PLAN
  2
AecsDbDispPropsMemberPlan
  3
AecStructureBase50|Product Desc: Autodesk Architectural Desktop 2007 |Company: Autodesk,Inc. |WEB Address: www.autodesk.com
 90
      129
 91
        4
280
     0
281
     0
  0
CLASS
  1
AECS_DISP_PROPS_MEMBER
  2
AecsDbDispPropsMember
  3
AecStructureBase50|Product Desc: Autodesk Architectural Desktop 2007 |Company: Autodesk,Inc. |WEB Address: www.autodesk.com
 90
      129
 91
        2
280
     0
281
     0
  0
CLASS
  1
AEC_DISP_PROPS_ROOFSLAB_PLAN
  2
AecDbDispPropsRoofSlabPlan
  3
AecArchBase50|Product Desc: Autodesk Architectural Desktop 2007 |Company: Autodesk,Inc. |WEB Address: www.autodesk.com
 90
      129
 91
        3
280
     0
281
     0
  0
CLASS
  1
AEC_DISP_PROPS_DOOR
  2
AecDbDispPropsDoor
  3
AecArchBase50|Product Desc: Autodesk Architectural Desktop 2007 |Company: Autodesk,Inc. |WEB Address: www.autodesk.com
 90
      129
 91
        4
280
     0
281
     0
  0
CLASS
  1
AEC_DISP_PROPS_WALL_GRAPH
  2
AecDbDispPropsWallGraph
  3
AecArchBase50|Product Desc: Autodesk Architectural Desktop 2007 |Company: Autodesk,Inc. |WEB Address: www.autodesk.com
 90
      129
 91
        1
280
     0
281
     0
  0
CLASS
  1
AEC_DISP_PROPS_SPACE_PLAN
  2
AecDbDispPropsSpacePlan
  3
AecArchBase50|Product Desc: Autodesk Architectural Desktop 2007 |Company: Autodesk,Inc. |WEB Address: www.autodesk.com
 90
      129
 91
        4
280
     0
281
     0
  0
CLASS
  1
AEC_DISP_PROPS_DOOR_THRESHOLD_PLAN
  2
AecDbDispPropsDoorThresholdPlan
  3
AecArchBase50|Product Desc: Autodesk Architectural Desktop 2007 |Company: Autodesk,Inc. |WEB Address: www.autodesk.com
 90
      129
 91
        1
280
     0
281
     0
  0
CLASS
  1
AEC_DISP_PROPS_DOOR_PLAN_50
  2
AecDbDispPropsDoorPlan50
  3
AecArchDACHBase50|Product Desc: Autodesk Architectural Desktop 2007 |Company: Autodesk,Inc. |WEB Address: www.autodesk.com
 90
      129
 91
        1
280
     0
281
     0
  0
CLASS
  1
AEC_DISP_PROPS_WALL
  2
AecDbDispPropsWall
  3
AecArchBase50|Product Desc: Autodesk Architectural Desktop 2007 |Company: Autodesk,Inc. |WEB Address: www.autodesk.com
 90
      129
 91
        1
280
     0
281
     0
  0
CLASS
  1
AEC_DISPROPSOPENINGPLANCOMMONHATCHED
  2
AecDbDispPropsOpeningPlanCommonHatched
  3
AecArchDACHBase50|Product Desc: Autodesk Architectural Desktop 2007 |Company: Autodesk,Inc. |WEB Address: www.autodesk.com
 90
      129
 91
        2
280
     0
281
     0
  0
CLASS
  1
AEC_DISP_PROPS_DOOR_NOMINAL
  2
AecDbDispPropsDoorNominal
  3
AecArchBase50|Product Desc: Autodesk Architectural Desktop 2007 |Company: Autodesk,Inc. |WEB Address: www.autodesk.com
 90
      129
 91
        1
280
     0
281
     0
  0
CLASS
  1
AEC_DISP_PROPS_DISPLAYTHEME
  2
AecDbDispPropsDisplayTheme
  3
AecBase50|Product Desc: Autodesk Architectural Desktop 2007 |Company: Autodesk,Inc. |WEB Address: www.autodesk.com
 90
      129
 91
        1
280
     0
281
     0
  0
CLASS
  1
AEC_DISP_PROPS_EDITINPLACEPROFILE_MODEL
  2
AecDbDispPropsEditInPlaceProfile
  3
AecBase50|Product Desc: Autodesk Architectural Desktop 2007 |Company: Autodesk,Inc. |WEB Address: www.autodesk.com
 90
      129
 91
        1
280
     0
281
     0
  0
CLASS
  1
AEC_DISP_PROPS_MATERIAL
  2
AecDbDispPropsMaterial
  3
AecBase50|Product Desc: Autodesk Architectural Desktop 2007 |Company: Autodesk,Inc. |WEB Address: www.autodesk.com
 90
      129
 91
        1
280
     0
281
     0
  0
CLASS
  1
AEC_DISP_PROPS_GRID_ASSEMBLY_PLAN
  2
AecDbDispPropsGridAssemblyPlan
  3
AecArchBase50|Product Desc: Autodesk Architectural Desktop 2007 |Company: Autodesk,Inc. |WEB Address: www.autodesk.com
 90
      129
 91
        9
280
     0
281
     0
  0
CLASS
  1
AEC_DISP_PROPS_SPACE_DECOMPOSED
  2
AecDbDispPropsSpaceDecomposed
  3
AecArchBase50|Product Desc: Autodesk Architectural Desktop 2007 |Company: Autodesk,Inc. |WEB Address: www.autodesk.com
 90
      129
 91
        1
280
     0
281
     0
  0
CLASS
  1
AEC_DISP_PROPS_STAIR_PLAN_OVERLAPPING
  2
AecDbDispPropsStairPlanOverlapping
  3
AecArchBase50|Product Desc: Autodesk Architectural Desktop 2007 |Company: Autodesk,Inc. |WEB Address: www.autodesk.com
 90
      129
 91
        1
280
     0
281
     0
  0
CLASS
  1
AEC_DISP_PROPS_WINDOW_ASSEMBLY_SILL_PLAN
  2
AecDbDispPropsWindowAssemblySillPlan
  3
AecArchBase50|Product Desc: Autodesk Architectural Desktop 2007 |Company: Autodesk,Inc. |WEB Address: www.autodesk.com
 90
      129
 91
        1
280
     0
281
     0
  0
CLASS
  1
AEC_DISP_PROPS_ZONE
  2
AecDbDispPropsZone
  3
AecArchBase50|Product Desc: Autodesk Architectural Desktop 2007 |Company: Autodesk,Inc. |WEB Address: www.autodesk.com
 90
      129
 91
        3
280
     0
281
     0
  0
CLASS
  1
AEC_DISPROPSMASSELEMPLANCOMMON
  2
AecDbDispPropsMassElemPlanCommon
  3
AecArchDACHBase50|Product Desc: Autodesk Architectural Desktop 2007 |Company: Autodesk,Inc. |WEB Address: www.autodesk.com
 90
      129
 91
        2
280
     0
281
     0
  0
CLASS
  1
AEC_DISP_PROPS_DIM
  2
AecDbDispPropsDimGroup
  3
AecArchDACHBase50|Product Desc: Autodesk Architectural Desktop 2007 |Company: Autodesk,Inc. |WEB Address: www.autodesk.com
 90
      129
 91
        3
280
     0
281
     0
  0
CLASS
  1
AEC_DISP_PROPS_WALL_PLAN
  2
AecDbDispPropsWallPlan
  3
AecArchBase50|Product Desc: Autodesk Architectural Desktop 2007 |Company: Autodesk,Inc. |WEB Address: www.autodesk.com
 90
      129
 91
        4
280
     0
281
     0
  0
CLASS
  1
AEC_DISP_PROPS_OPENING
  2
AecDbDispPropsOpening
  3
AecArchBase50|Product Desc: Autodesk Architectural Desktop 2007 |Company: Autodesk,Inc. |WEB Address: www.autodesk.com
 90
      129
 91
        2
280
     0
281
     0
  0
CLASS
  1
AEC_DISP_PROPS_RAILING_PLAN
  2
AecDbDispPropsRailingPlan
  3
AecArchBase50|Product Desc: Autodesk Architectural Desktop 2007 |Company: Autodesk,Inc. |WEB Address: www.autodesk.com
 90
      129
 91
        1
280
     0
281
     0
  0
CLASS
  1
AEC_DISP_PROPS_MASKBLOCK
  2
AecDbDispPropsMaskBlock
  3
AecBase50|Product Desc: Autodesk Architectural Desktop 2007 |Company: Autodesk,Inc. |WEB Address: www.autodesk.com
 90
      129
 91
        2
280
     0
281
     0
  0
CLASS
  1
AEC_DISPROPSMASSGROUPPLANCOMMON
  2
AecDbDispPropsMassGroupPlanCommon
  3
AecArchDACHBase50|Product Desc: Autodesk Architectural Desktop 2007 |Company: Autodesk,Inc. |WEB Address: www.autodesk.com
 90
      129
 91
        2
280
     0
281
     0
  0
CLASS
  1
AEC_DISP_PROPS_ROOF
  2
AecDbDispPropsRoof
  3
AecArchBase50|Product Desc: Autodesk Architectural Desktop 2007 |Company: Autodesk,Inc. |WEB Address: www.autodesk.com
 90
      129
 91
        5
280
     0
281
     0
  0
CLASS
  1
AEC_DISP_PROPS_ROOFSLAB
  2
AecDbDispPropsRoofSlab
  3
AecArchBase50|Product Desc: Autodesk Architectural Desktop 2007 |Company: Autodesk,Inc. |WEB Address: www.autodesk.com
 90
      129
 91
        1
280
     0
281
     0
  0
CLASS
  1
AEC_DISP_PROPS_SPACE_MODEL
  2
AecDbDispPropsSpaceModel
  3
AecArchBase50|Product Desc: Autodesk Architectural Desktop 2007 |Company: Autodesk,Inc. |WEB Address: www.autodesk.com
 90
      129
 91
        1
280
     0
281
     0
  0
CLASS
  1
AEC_DISP_PROPS_WALL_SCHEM
  2
AecDbDispPropsWallSchem
  3
AecArchBase50|Product Desc: Autodesk Architectural Desktop 2007 |Company: Autodesk,Inc. |WEB Address: www.autodesk.com
 90
      129
 91
        1
280
     0
281
     0
  0
CLASS
  1
AEC_DISP_PROPS_SCHEDULE_TABLE
  2
AecDbDispPropsScheduleTable
  3
AecSchedule50|Product Desc: Autodesk Architectural Desktop 2007 |Company: Autodesk,Inc. |WEB Address: www.autodesk.com
 90
      129
 91
        1
280
     0
281
     0
  0
CLASS
  1
AEC_DISP_PROPS_DOOR_THRESHOLD_SYMBOL_PLAN
  2
AecDbDispPropsDoorThresholdSymbolPlan
  3
AecArchDACHBase50|Product Desc: Autodesk Architectural Desktop 2007 |Company: Autodesk,Inc. |WEB Address: www.autodesk.com
 90
      129
 91
        1
280
     0
281
     0
  0
CLASS
  1
AEC_DISPROPSOPENINGSILLPLAN
  2
AecDbDispPropsOpeningSillPlan
  3
AecArchDACHBase50|Product Desc: Autodesk Architectural Desktop 2007 |Company: Autodesk,Inc. |WEB Address: www.autodesk.com
 90
      129
 91
        1
280
     0
281
     0
  0
CLASS
  1
AEC_DISP_PROPS_LAYOUT_CURVE
  2
AecDbDispPropsLayoutCurve
  3
AecBase50|Product Desc: Autodesk Architectural Desktop 2007 |Company: Autodesk,Inc. |WEB Address: www.autodesk.com
 90
      129
 91
        1
280
     0
281
     0
  0
CLASS
  1
AEC_DISP_PROPS_CLIP_VOLUME_RESULT
  2
AecDbDispPropsClipVolResSubDiv
  3
AecBase50|Product Desc: Autodesk Architectural Desktop 2007 |Company: Autodesk,Inc. |WEB Address: www.autodesk.com
 90
      129
 91
        2
280
     0
281
     0
  0
CLASS
  1
AEC_DISP_PROPS_WINDOW
  2
AecDbDispPropsWindow
  3
AecArchBase50|Product Desc: Autodesk Architectural Desktop 2007 |Company: Autodesk,Inc. |WEB Address: www.autodesk.com
 90
      129
 91
        4
280
     0
281
     0
  0
CLASS
  1
AEC_DISP_PROPS_STAIR_MODEL
  2
AecDbDispPropsStairModel
  3
AecArchBase50|Product Desc: Autodesk Architectural Desktop 2007 |Company: Autodesk,Inc. |WEB Address: www.autodesk.com
 90
      129
 91
        1
280
     0
281
     0
  0
CLASS
  1
AEC_DISP_PROPS_RAILING_MODEL
  2
AecDbDispPropsRailingModel
  3
AecArchBase50|Product Desc: Autodesk Architectural Desktop 2007 |Company: Autodesk,Inc. |WEB Address: www.autodesk.com
 90
      129
 91
        1
280
     0
281
     0
  0
CLASS
  1
AECS_DISP_PROPS_MEMBER_LOGICAL
  2
AecsDbDispPropsMemberLogical
  3
AecStructureBase50|Product Desc: Autodesk Architectural Desktop 2007 |Company: Autodesk,Inc. |WEB Address: www.autodesk.com
 90
      129
 91
        1
280
     0
281
     0
  0
CLASS
  1
AEC_DISP_PROPS_LAYOUT_GRID3D
  2
AecDbDispPropsLayoutGrid3d
  3
AecBase50|Product Desc: Autodesk Architectural Desktop 2007 |Company: Autodesk,Inc. |WEB Address: www.autodesk.com
 90
      129
 91
        1
280
     0
281
     0
  0
CLASS
  1
AEC_DISP_ROPS_RAILING_PLAN_COMMON
  2
AecDbDispPropsRailingPlanCommon
  3
AecArchDACHBase50|Product Desc: Autodesk Architectural Desktop 2007 |Company: Autodesk,Inc. |WEB Address: www.autodesk.com
 90
      129
 91
        1
280
     0
281
     0
  0
CLASS
  1
AECS_DISP_PROPS_MEMBER_PLAN_SKETCH
  2
AecsDbDispPropsMemberPlanSketch
  3
AecStructureBase50|Product Desc: Autodesk Architectural Desktop 2007 |Company: Autodesk,Inc. |WEB Address: www.autodesk.com
 90
      129
 91
        1
280
     0
281
     0
  0
CLASS
  1
AECS_DISP_PROPS_MEMBER_PROJECTED
  2
AecsDbDispPropsMemberProjected
  3
AecStructureBase50|Product Desc: Autodesk Architectural Desktop 2007 |Company: Autodesk,Inc. |WEB Address: www.autodesk.com
 90
      129
 91
        2
280
     0
281
     0
  0
CLASS
  1
AEC_DISP_PROPS_SLAB_PLAN
  2
AecDbDispPropsSlabPlan
  3
AecArchBase50|Product Desc: Autodesk Architectural Desktop 2007 |Company: Autodesk,Inc. |WEB Address: www.autodesk.com
 90
      129
 91
        3
280
     0
281
     0
  0
CLASS
  1
AEC_DISP_ROPS_STAIR_PLAN_100
  2
AecDbDispPropsStairPlan100
  3
AecArchDACHBase50|Product Desc: Autodesk Architectural Desktop 2007 |Company: Autodesk,Inc. |WEB Address: www.autodesk.com
 90
      129
 91
        1
280
     0
281
     0
  0
CLASS
  1
AEC_DISP_PROPS_SLAB
  2
AecDbDispPropsSlab
  3
AecArchBase50|Product Desc: Autodesk Architectural Desktop 2007 |Company: Autodesk,Inc. |WEB Address: www.autodesk.com
 90
      129
 91
        1
280
     0
281
     0
  0
CLASS
  1
AEC_DISP_PROPS_MASS_ELEM_MODEL
  2
AecDbDispPropsMassElem
  3
AecBaseEx50|Product Desc: Autodesk Architectural Desktop 2007 |Company: Autodesk,Inc. |WEB Address: www.autodesk.com
 90
      129
 91
        3
280
     0
281
     0
  0
CLASS
  1
AEC_DISPROPSXSECTIONWALL
  2
AecDbDispPropsWallXSection
  3
AecArchDACHBase50|Product Desc: Autodesk Architectural Desktop 2007 |Company: Autodesk,Inc. |WEB Address: www.autodesk.com
 90
      129
 91
        1
280
     0
281
     0
  0
CLASS
  1
AEC_DISP_PROPS_WINDOW_NOMINAL
  2
AecDbDispPropsWindowNominal
  3
AecArchBase50|Product Desc: Autodesk Architectural Desktop 2007 |Company: Autodesk,Inc. |WEB Address: www.autodesk.com
 90
      129
 91
        1
280
     0
281
     0
  0
CLASS
  1
AEC_DISP_PROPS_WINDOW_PLAN_100
  2
AecDbDispPropsWindowPlan100
  3
AecArchDACHBase50|Product Desc: Autodesk Architectural Desktop 2007 |Company: Autodesk,Inc. |WEB Address: www.autodesk.com
 90
      129
 91
        1
280
     0
281
     0
  0
CLASS
  1
AEC_DISPROPSOPENINGPLANCOMMON
  2
AecDbDispPropsOpeningPlanCommon
  3
AecArchDACHBase50|Product Desc: Autodesk Architectural Desktop 2007 |Company: Autodesk,Inc. |WEB Address: www.autodesk.com
 90
      129
 91
        1
280
     0
281
     0
  0
CLASS
  1
AEC_DISP_PROPS_DOOR_PLAN_100
  2
AecDbDispPropsDoorPlan100
  3
AecArchDACHBase50|Product Desc: Autodesk Architectural Desktop 2007 |Company: Autodesk,Inc. |WEB Address: www.autodesk.com
 90
      129
 91
        1
280
     0
281
     0
  0
CLASS
  1
AEC_DISP_ROPS_RAILING_PLAN_100
  2
AecDbDispPropsRailingPlan100
  3
AecArchDACHBase50|Product Desc: Autodesk Architectural Desktop 2007 |Company: Autodesk,Inc. |WEB Address: www.autodesk.com
 90
      129
 91
        1
280
     0
281
     0
  0
CLASS
  1
AEC_DISP_PROPS_POLYGON_MODEL
  2
AecDbDispPropsPolygonModel
  3
AecBaseEx50|Product Desc: Autodesk Architectural Desktop 2007 |Company: Autodesk,Inc. |WEB Address: www.autodesk.com
 90
      129
 91
        1
280
     0
281
     0
  0
CLASS
  1
AEC_DISP_PROPS_SLICE
  2
AecDbDispPropsSlice
  3
AecBase50|Product Desc: Autodesk Architectural Desktop 2007 |Company: Autodesk,Inc. |WEB Address: www.autodesk.com
 90
      129
 91
        1
280
     0
281
     0
  0
CLASS
  1
AEC_DISP_ROPS_STAIR_PLAN_50
  2
AecDbDispPropsStairPlan50
  3
AecArchDACHBase50|Product Desc: Autodesk Architectural Desktop 2007 |Company: Autodesk,Inc. |WEB Address: www.autodesk.com
 90
      129
 91
        1
280
     0
281
     0
  0
CLASS
  1
AEC_DISP_PROPS_WINDOW_PLAN_50
  2
AecDbDispPropsWindowPlan50
  3
AecArchDACHBase50|Product Desc: Autodesk Architectural Desktop 2007 |Company: Autodesk,Inc. |WEB Address: www.autodesk.com
 90
      129
 91
        1
280
     0
281
     0
  0
CLASS
  1
AEC_LAYERKEY_STYLE
  2
AecDbLayerKeyStyle
  3
AecBase50|Product Desc: Autodesk Architectural Desktop 2007 |Company: Autodesk,Inc. |WEB Address: www.autodesk.com
 90
      129
 91
        2
280
     0
281
     0
  0
CLASS
  1
AEC_VARS_ARCHBASE
  2
AecDbVarsArchBase
  3
AecArchBase50|Product Desc: Autodesk Architectural Desktop 2007 |Company: Autodesk,Inc. |WEB Address: www.autodesk.com
 90
      129
 91
        1
280
     0
281
     0
  0
CLASS
  1
AEC_VARS_DWG_SETUP
  2
AecDbVarsDwgSetup
  3
AecBase50|Product Desc: Autodesk Architectural Desktop 2007 |Company: Autodesk,Inc. |WEB Address: www.autodesk.com
 90
      129
 91
        1
280
     0
281
     0
  0
CLASS
  1
AEC_NOTIFICATION_TRACKER
  2
AecDbNotificationTracker
  3
AecBase50|Product Desc: Autodesk Architectural Desktop 2007 |Company: Autodesk,Inc. |WEB Address: www.autodesk.com
 90
      129
 91
        0
280
     0
281
     0
  0
ENDSEC
  0
SECTION
  2
TABLES
  0
TABLE
  2
VPORT
  5
7
330
0
100
AcDbSymbolTable
 70
     1
  0
VPORT
  5
15
330
7
100
AcDbSymbolTableRecord
100
AcDbViewportTableRecord
  2
*ACTIVE
 70
     0
 10
0.0
 20
0.0
 11
1.0
 21
1.0
 12
179.2259477375106
 22
94.92127674709196
 13
0.0
 23
0.0
 14
1.0
 24
1.0
 15
0.0
 25
0.0
 16
0.0
 26
0.0
 36
1.0
 17
0.0
 27
0.0
 37
0.0
 40
58.98946232780104
 41
1.226824457593688
 42
50.0
 43
0.0
 44
0.0
 50
0.0
 51
0.0
 71
     0
 72
   100
 73
     1
 74
     1
 75
     0
 76
     0
 77
     0
 78
     0
281
     0
 65
     0
110
0.0
120
0.0
130
0.0
111
1.0
121
0.0
131
0.0
112
0.0
122
1.0
132
0.0
 79
     0
146
0.0
348
16F
 60
     3
 61
     5
292
     1
282
     1
141
0.0
142
0.0
 63
   250
421
  3355443
  0
ENDTAB
  0
TABLE
  2
LTYPE
  5
4
330
0
100
AcDbSymbolTable
 70
     1
  0
LTYPE
  5
11
330
4
100
AcDbSymbolTableRecord
100
AcDbLinetypeTableRecord
  2
ByBlock
 70
     0
  3

 72
    65
 73
     0
 40
0.0
  0
LTYPE
  5
12
330
4
100
AcDbSymbolTableRecord
100
AcDbLinetypeTableRecord
  2
ByLayer
 70
     0
  3

 72
    65
 73
     0
 40
0.0
  0
LTYPE
  5
13
330
4
100
AcDbSymbolTableRecord
100
AcDbLinetypeTableRecord
  2
Continuous
 70
     0
  3
Solid line
 72
    65
 73
     0
 40
0.0
  0
ENDTAB
  0
TABLE
  2
LAYER
  5
2
330
0
100
AcDbSymbolTable
 70
     3
  0
LAYER
  5
14
102
{ACAD_XDICTIONARY
360
2BC
102
}
330
2
100
AcDbSymbolTableRecord
100
AcDbLayerTableRecord
  2
0
 70
     0
 62
     7
  6
Continuous
370
    -3
390
1D
347
161
  0
LAYER
  5
415
330
2
100
AcDbSymbolTableRecord
100
AcDbLayerTableRecord
  2
Defpoints
 70
     0
 62
     7
  6
Continuous
290
     0
370
    -3
390
1D
347
161
  0
LAYER
  5
416
330
2
100
AcDbSymbolTableRecord
100
AcDbLayerTableRecord
  2
Cotation-JacobDelafon
 70
     0
 62
     8
  6
Continuous
370
    -3
390
1D
347
161
  0
ENDTAB
  0
TABLE
  2
STYLE
  5
3
330
0
100
AcDbSymbolTable
 70
     3
  0
STYLE
  5
17
330
3
100
AcDbSymbolTableRecord
100
AcDbTextStyleTableRecord
  2
Standard
 70
     0
 40
0.0
 41
1.0
 50
0.0
 71
     0
 42
0.0
  3
txt
  4

  0
STYLE
  5
24
330
3
100
AcDbSymbolTableRecord
100
AcDbTextStyleTableRecord
  2
STD
 70
     0
 40
0.0
 41
1.0
 50
0.0
 71
     0
 42
0.0
  3
txt
  4

  0
STYLE
  5
417
330
3
100
AcDbSymbolTableRecord
100
AcDbTextStyleTableRecord
  2
Jacob-Delafon
 70
     0
 40
0.0
 41
1.0
 50
0.0
 71
     0
 42
2.5
  3
ARIAL.TTF
  4

1001
ACAD
1000
Arial
1071
       34
  0
ENDTAB
  0
TABLE
  2
VIEW
  5
5
330
0
100
AcDbSymbolTable
 70
     0
  0
ENDTAB
  0
TABLE
  2
UCS
  5
6
330
0
100
AcDbSymbolTable
 70
     0
  0
ENDTAB
  0
TABLE
  2
APPID
  5
8
330
0
100
AcDbSymbolTable
 70
    12
  0
APPID
  5
16
330
8
100
AcDbSymbolTableRecord
100
AcDbRegAppTableRecord
  2
ACAD
 70
     0
  0
APPID
  5
191
330
8
100
AcDbSymbolTableRecord
100
AcDbRegAppTableRecord
  2
ACAD_MLEADERVER
 70
     0
  0
APPID
  5
419
330
8
100
AcDbSymbolTableRecord
100
AcDbRegAppTableRecord
  2
DCO15
 70
     0
  0
APPID
  5
41A
330
8
100
AcDbSymbolTableRecord
100
AcDbRegAppTableRecord
  2
ADCADD_ZZ
 70
     0
  0
APPID
  5
41B
330
8
100
AcDbSymbolTableRecord
100
AcDbRegAppTableRecord
  2
SDSK_PMN
 70
     0
  0
APPID
  5
41C
330
8
100
AcDbSymbolTableRecord
100
AcDbRegAppTableRecord
  2
AcAecLayerStandard
 70
     0
  0
APPID
  5
41D
330
8
100
AcDbSymbolTableRecord
100
AcDbRegAppTableRecord
  2
AECBASE
 70
     0
  0
APPID
  5
41E
330
8
100
AcDbSymbolTableRecord
100
AcDbRegAppTableRecord
  2
AEC_DWGVARSSETUP_DATA
 70
     0
  0
APPID
  5
41F
330
8
100
AcDbSymbolTableRecord
100
AcDbRegAppTableRecord
  2
AEC_DISPREPCONFIG_DATA
 70
     0
  0
APPID
  5
420
330
8
100
AcDbSymbolTableRecord
100
AcDbRegAppTableRecord
  2
AEC_DISPREPSET_DATA
 70
     0
  0
APPID
  5
421
330
8
100
AcDbSymbolTableRecord
100
AcDbRegAppTableRecord
  2
ACAD_DSTYLE_DIMJAG
 70
     0
  0
APPID
  5
422
330
8
100
AcDbSymbolTableRecord
100
AcDbRegAppTableRecord
  2
ACAD_DSTYLE_DIMTALN
 70
     0
  0
ENDTAB
  0
TABLE
  2
DIMSTYLE
  5
9
330
0
100
AcDbSymbolTable
 70
     2
100
AcDbDimStyleTable
 71
     1
340
418
  0
DIMSTYLE
105
18
330
9
100
AcDbSymbolTableRecord
100
AcDbDimStyleTableRecord
  2
Standard
 70
     0
340
17
  0
DIMSTYLE
105
418
102
{ACAD_REACTORS
330
6C2
330
6CF
102
}
330
9
100
AcDbSymbolTableRecord
100
AcDbDimStyleTableRecord
  2
Cotation-Jacob-Delafon
 70
     0
 41
1.8
 42
0.625
 43
3.799999999999999
 44
1.8
 73
     0
 74
     0
 77
     1
 78
    12
 79
     3
140
3.0
141
0.9
147
0.9
271
     2
272
     2
279
     2
340
417
341
3F9
342
3F9
  0
ENDTAB
  0
TABLE
  2
BLOCK_RECORD
  5
1
330
0
100
AcDbSymbolTable
 70
     5
  0
BLOCK_RECORD
  5
A
102
{ACAD_XDICTIONARY
360
3F7
102
}
330
1
100
AcDbSymbolTableRecord
100
AcDbBlockTableRecord
  2
*MODEL_SPACE
340
20
 70
     0
280
     1
281
     0
  0
BLOCK_RECORD
  5
B
330
1
100
AcDbSymbolTableRecord
100
AcDbBlockTableRecord
  2
*PAPER_SPACE
340
21
 70
     0
280
     1
281
     0
  0
BLOCK_RECORD
  5
3F9
330
1
100
AcDbSymbolTableRecord
100
AcDbBlockTableRecord
  2
_Oblique
340
0
102
{BLKREFS
331
402
331
403
331
40E
331
40F
331
6E0
331
6E1
331
6EA
331
6EB
102
}
 70
     0
280
     1
281
     0
  0
BLOCK_RECORD
  5
6C3
330
1
100
AcDbSymbolTableRecord
100
AcDbBlockTableRecord
  2
*D3
340
0
 70
     0
280
     1
281
     0
  0
BLOCK_RECORD
  5
6D0
330
1
100
AcDbSymbolTableRecord
100
AcDbBlockTableRecord
  2
*D4
340
0
 70
     0
280
     1
281
     0
  0
ENDTAB
  0
ENDSEC
  0
SECTION
  2
BLOCKS
  0
BLOCK
  5
D
330
A
100
AcDbEntity
  8
0
100
AcDbBlockBegin
  2
*MODEL_SPACE
 70
     0
 10
0.0
 20
0.0
 30
0.0
  3
*MODEL_SPACE
  1

  0
ENDBLK
  5
E
330
A
100
AcDbEntity
  8
0
100
AcDbBlockEnd
  0
BLOCK
  5
F
330
B
100
AcDbEntity
 67
     1
  8
0
100
AcDbBlockBegin
  2
*PAPER_SPACE
 70
     0
 10
0.0
 20
0.0
 30
0.0
  3
*PAPER_SPACE
  1

  0
ENDBLK
  5
10
330
B
100
AcDbEntity
 67
     1
  8
0
100
AcDbBlockEnd
  0
BLOCK
  5
3FA
330
3F9
100
AcDbEntity
  8
0
100
AcDbBlockBegin
  2
_Oblique
 70
     0
 10
0.0
 20
0.0
 30
0.0
  3
_Oblique
  1

  0
LINE
  5
3FB
330
3F9
100
AcDbEntity
  8
0
  6
ByBlock
 62
     0
370
    -2
380
     1
100
AcDbLine
 10
-0.5
 20
-0.5
 30
0.0
 11
0.5
 21
0.5
 31
0.0
  0
ENDBLK
  5
3FC
330
3F9
100
AcDbEntity
  8
0
100
AcDbBlockEnd
  0
BLOCK
  5
6C4
330
6C3
100
AcDbEntity
  8
0
370
     0
100
AcDbBlockBegin
  2
*D3
 70
     1
 10
0.0
 20
0.0
 30
0.0
  3
*D3
  1

  0
LINE
  5
6DD
330
6C3
100
AcDbEntity
  8
0
  6
Continuous
 62
     0
370
    -2
100
AcDbLine
 10
169.144542
 20
85.300624
 30
0.0
 11
169.144542
 21
93.46918697442752
 31
0.0
  0
LINE
  5
6DE
330
6C3
100
AcDbEntity
  8
0
  6
Continuous
 62
     0
370
    -2
100
AcDbLine
 10
199.615034
 20
85.36194699999999
 30
0.0
 11
199.615034
 21
93.46918697442752
 31
0.0
  0
LINE
  5
6DF
330
6C3
100
AcDbEntity
  8
0
  6
Continuous
 62
     0
370
    -2
100
AcDbLine
 10
169.144542
 20
91.66918697442753
 30
0.0
 11
199.615034
 21
91.66918697442753
 31
0.0
  0
INSERT
  5
6E0
330
6C3
100
AcDbEntity
  8
0
  6
Continuous
 62
     0
370
    -2
100
AcDbBlockReference
  2
_Oblique
 10
169.144542
 20
91.66918697442753
 30
0.0
 41
1.8
 42
1.8
 43
1.8
 50
180.0
  0
INSERT
  5
6E1
330
6C3
100
AcDbEntity
  8
0
  6
Continuous
 62
     0
370
    -2
100
AcDbBlockReference
  2
_Oblique
 10
199.615034
 20
91.66918697442753
 30
0.0
 41
1.8
 42
1.8
 43
1.8
  0
MTEXT
  5
6E2
330
6C3
100
AcDbEntity
  8
0
  6
Continuous
 62
     0
370
     0
100
AcDbMText
 10
184.379788
 20
94.10192912995276
 30
0.0
 40
3.0
 41
0.0
 46
0.0
 71
     5
 72
     1
  1
\A1;30.5
  7
Jacob-Delafon
 73
     1
 44
1.0
  0
POINT
  5
6E3
330
6C3
100
AcDbEntity
  8
Defpoints
  6
Continuous
 62
     0
370
     0
100
AcDbPoint
 10
169.144542
 20
84.675624
 30
0.0
  0
POINT
  5
6E4
330
6C3
100
AcDbEntity
  8
Defpoints
  6
Continuous
 62
     0
370
     0
100
AcDbPoint
 10
199.615034
 20
84.73694699999999
 30
0.0
  0
POINT
  5
6E5
330
6C3
100
AcDbEntity
  8
Defpoints
  6
Continuous
 62
     0
370
     0
100
AcDbPoint
 10
199.615034
 20
91.66918697442753
 30
0.0
  0
ENDBLK
  5
6C5
330
6C3
100
AcDbEntity
  8
0
370
     0
100
AcDbBlockEnd
  0
BLOCK
  5
6D1
330
6D0
100
AcDbEntity
  8
0
370
     0
100
AcDbBlockBegin
  2
*D4
 70
     1
 10
0.0
 20
0.0
 30
0.0
  3
*D4
  1

  0
LINE
  5
6E7
330
6D0
100
AcDbEntity
  8
0
  6
Continuous
 62
     0
370
    -2
100
AcDbLine
 10
168.519542
 20
85.300624
 30
0.0
 11
165.7534974690969
 21
85.300624
 31
0.0
  0
LINE
  5
6E8
330
6D0
100
AcDbEntity
  8
0
  6
Continuous
 62
     0
370
    -2
100
AcDbLine
 10
173.737828
 20
76.415318
 30
0.0
 11
165.7534974690969
 21
76.415318
 31
0.0
  0
LINE
  5
6E9
330
6D0
100
AcDbEntity
  8
0
  6
Continuous
 62
     0
370
    -2
100
AcDbLine
 10
167.5534974690969
 20
85.300624
 30
0.0
 11
167.5534974690969
 21
76.415318
 31
0.0
  0
INSERT
  5
6EA
330
6D0
100
AcDbEntity
  8
0
  6
Continuous
 62
     0
370
    -2
100
AcDbBlockReference
  2
_Oblique
 10
167.5534974690969
 20
85.300624
 30
0.0
 41
1.8
 42
1.8
 43
1.8
 50
90.0
  0
INSERT
  5
6EB
330
6D0
100
AcDbEntity
  8
0
  6
Continuous
 62
     0
370
    -2
100
AcDbBlockReference
  2
_Oblique
 10
167.5534974690969
 20
76.415318
 30
0.0
 41
1.8
 42
1.8
 43
1.8
 50
270.0
  0
MTEXT
  5
6EC
330
6D0
100
AcDbEntity
  8
0
  6
Continuous
 62
     0
370
     0
100
AcDbMText
 10
165.1217785059318
 20
80.85797100000004
 30
0.0
 40
3.0
 41
0.0
 46
0.0
 71
     5
 72
     1
  1
\A1;8.9
  7
Jacob-Delafon
 11
0.0000000000000001
 21
1.0
 31
0.0
 73
     1
 44
1.0
  0
POINT
  5
6ED
330
6D0
100
AcDbEntity
  8
Defpoints
  6
Continuous
 62
     0
370
     0
100
AcDbPoint
 10
169.144542
 20
85.300624
 30
0.0
  0
POINT
  5
6EE
330
6D0
100
AcDbEntity
  8
Defpoints
  6
Continuous
 62
     0
370
     0
100
AcDbPoint
 10
174.362828
 20
76.415318
 30
0.0
  0
POINT
  5
6EF
330
6D0
100
AcDbEntity
  8
Defpoints
  6
Continuous
 62
     0
370
     0
100
AcDbPoint
 10
167.5534974690969
 20
76.415318
 30
0.0
  0
ENDBLK
  5
6D2
330
6D0
100
AcDbEntity
  8
0
370
     0
100
AcDbBlockEnd
  0
ENDSEC
  0
SECTION
  2
ENTITIES
  0
LINE
  5
2D2
330
A
100
AcDbEntity
  8
0
 62
     7
100
AcDbLine
 10
169.094933
 20
84.15231400000001
 30
0.0
 11
169.094933
 21
84.58949699999999
 31
0.0
  0
LINE
  5
2D3
330
A
100
AcDbEntity
  8
0
 62
     7
100
AcDbLine
 10
169.094933
 20
84.58949699999999
 30
0.0
 11
169.094933
 21
84.88439699999998
 31
0.0
  0
LINE
  5
2D4
330
A
100
AcDbEntity
  8
0
 62
     7
100
AcDbLine
 10
169.094933
 20
84.88439699999998
 30
0.0
 11
169.094933
 21
84.99636200000001
 31
0.0
  0
LINE
  5
2D5
330
A
100
AcDbEntity
  8
0
 62
     7
100
AcDbLine
 10
169.094933
 20
82.234429
 30
0.0
 11
169.094933
 21
82.346395
 31
0.0
  0
LINE
  5
2D6
330
A
100
AcDbEntity
  8
0
 62
     7
100
AcDbLine
 10
169.094933
 20
82.346395
 30
0.0
 11
169.094933
 21
82.64129500000001
 31
0.0
  0
LINE
  5
2D7
330
A
100
AcDbEntity
  8
0
 62
     7
100
AcDbLine
 10
169.094933
 20
82.64129500000001
 30
0.0
 11
169.094933
 21
83.07882199999999
 31
0.0
  0
LINE
  5
2D8
330
A
100
AcDbEntity
  8
0
 62
     7
100
AcDbLine
 10
169.094933
 20
83.07882199999999
 30
0.0
 11
169.094933
 21
83.615568
 31
0.0
  0
LINE
  5
2D9
330
A
100
AcDbEntity
  8
0
 62
     7
100
AcDbLine
 10
169.094933
 20
83.615568
 30
0.0
 11
169.094933
 21
84.15231400000001
 31
0.0
  0
LINE
  5
2DA
330
A
100
AcDbEntity
  8
0
 62
     7
100
AcDbLine
 10
174.095144
 20
83.095359
 30
0.0
 11
174.095144
 21
82.671612
 31
0.0
  0
LINE
  5
2DB
330
A
100
AcDbEntity
  8
0
 62
     7
100
AcDbLine
 10
174.095144
 20
82.671612
 30
0.0
 11
174.095144
 21
82.386013
 31
0.0
  0
LINE
  5
2DC
330
A
100
AcDbEntity
  8
0
 62
     7
100
AcDbLine
 10
174.095144
 20
82.386013
 30
0.0
 11
174.095144
 21
82.276804
 31
0.0
  0
LINE
  5
2DD
330
A
100
AcDbEntity
  8
0
 62
     7
100
AcDbLine
 10
174.095144
 20
84.953988
 30
0.0
 11
174.095144
 21
84.844778
 31
0.0
  0
LINE
  5
2DE
330
A
100
AcDbEntity
  8
0
 62
     7
100
AcDbLine
 10
174.095144
 20
84.844778
 30
0.0
 11
174.095144
 21
84.55918
 31
0.0
  0
LINE
  5
2DF
330
A
100
AcDbEntity
  8
0
 62
     7
100
AcDbLine
 10
174.095144
 20
84.55918
 30
0.0
 11
174.095144
 21
84.13543299999998
 31
0.0
  0
LINE
  5
2E0
330
A
100
AcDbEntity
  8
0
 62
     7
100
AcDbLine
 10
174.095144
 20
84.13543299999998
 30
0.0
 11
174.095144
 21
83.615568
 31
0.0
  0
LINE
  5
2E1
330
A
100
AcDbEntity
  8
0
 62
     7
100
AcDbLine
 10
174.095144
 20
83.615568
 30
0.0
 11
174.095144
 21
83.095359
 31
0.0
  0
LINE
  5
2E2
330
A
100
AcDbEntity
  8
0
 62
     7
100
AcDbLine
 10
169.264431
 20
85.16551599999999
 30
0.0
 11
173.883271
 21
85.16551599999999
 31
0.0
  0
LINE
  5
2E3
330
A
100
AcDbEntity
  8
0
 62
     7
100
AcDbLine
 10
169.264431
 20
82.06527499999999
 30
0.0
 11
173.883271
 21
82.06527499999999
 31
0.0
  0
LINE
  5
2E4
330
A
100
AcDbEntity
  8
0
 62
     7
100
AcDbLine
 10
169.094933
 20
84.99636200000001
 30
0.0
 11
169.144542
 21
85.11590699999999
 31
0.0
  0
LINE
  5
2E5
330
A
100
AcDbEntity
  8
0
 62
     7
100
AcDbLine
 10
169.144542
 20
85.11590699999999
 30
0.0
 11
169.264431
 21
85.16551599999999
 31
0.0
  0
LINE
  5
2E6
330
A
100
AcDbEntity
  8
0
 62
     7
100
AcDbLine
 10
169.144542
 20
84.99705099999999
 30
0.0
 11
169.144542
 21
85.11590699999999
 31
0.0
  0
LINE
  5
2E7
330
A
100
AcDbEntity
  8
0
 62
     7
100
AcDbLine
 10
169.144542
 20
84.675624
 30
0.0
 11
169.144542
 21
84.99705099999999
 31
0.0
  0
LINE
  5
2E8
330
A
100
AcDbEntity
  8
0
 62
     7
100
AcDbLine
 10
169.144542
 20
84.19916699999999
 30
0.0
 11
169.144542
 21
84.675624
 31
0.0
  0
LINE
  5
2E9
330
A
100
AcDbEntity
  8
0
 62
     7
100
AcDbLine
 10
169.144542
 20
83.615568
 30
0.0
 11
169.144542
 21
84.19916699999999
 31
0.0
  0
LINE
  5
2EA
330
A
100
AcDbEntity
  8
0
 62
     7
100
AcDbLine
 10
169.144542
 20
83.03162399999999
 30
0.0
 11
169.144542
 21
83.615568
 31
0.0
  0
LINE
  5
2EB
330
A
100
AcDbEntity
  8
0
 62
     7
100
AcDbLine
 10
169.144542
 20
82.555168
 30
0.0
 11
169.144542
 21
83.03162399999999
 31
0.0
  0
LINE
  5
2EC
330
A
100
AcDbEntity
  8
0
 62
     7
100
AcDbLine
 10
169.144542
 20
82.23373999999999
 30
0.0
 11
169.144542
 21
82.555168
 31
0.0
  0
LINE
  5
2ED
330
A
100
AcDbEntity
  8
0
 62
     7
100
AcDbLine
 10
169.094933
 20
82.234429
 30
0.0
 11
169.144542
 21
82.114884
 31
0.0
  0
LINE
  5
2EE
330
A
100
AcDbEntity
  8
0
 62
     7
100
AcDbLine
 10
169.144542
 20
82.114884
 30
0.0
 11
169.144542
 21
82.23373999999999
 31
0.0
  0
LINE
  5
2EF
330
A
100
AcDbEntity
  8
0
 62
     7
100
AcDbLine
 10
169.144542
 20
82.114884
 30
0.0
 11
169.264431
 21
82.06527499999999
 31
0.0
  0
LINE
  5
2F0
330
A
100
AcDbEntity
  8
0
 62
     7
100
AcDbLine
 10
173.883271
 20
85.16551599999999
 30
0.0
 11
174.033133
 21
85.10350499999999
 31
0.0
  0
LINE
  5
2F1
330
A
100
AcDbEntity
  8
0
 62
     7
100
AcDbLine
 10
174.033133
 20
85.10350499999999
 30
0.0
 11
174.095144
 21
84.953988
 31
0.0
  0
LINE
  5
2F2
330
A
100
AcDbEntity
  8
0
 62
     7
100
AcDbLine
 10
174.033133
 20
84.985338
 30
0.0
 11
174.033133
 21
85.10350499999999
 31
0.0
  0
LINE
  5
2F3
330
A
100
AcDbEntity
  8
0
 62
     7
100
AcDbLine
 10
174.033133
 20
84.66701099999999
 30
0.0
 11
174.033133
 21
84.985338
 31
0.0
  0
LINE
  5
2F4
330
A
100
AcDbEntity
  8
0
 62
     7
100
AcDbLine
 10
174.033133
 20
84.194344
 30
0.0
 11
174.033133
 21
84.66701099999999
 31
0.0
  0
LINE
  5
2F5
330
A
100
AcDbEntity
  8
0
 62
     7
100
AcDbLine
 10
174.033133
 20
83.615568
 30
0.0
 11
174.033133
 21
84.194344
 31
0.0
  0
LINE
  5
2F6
330
A
100
AcDbEntity
  8
0
 62
     7
100
AcDbLine
 10
174.033133
 20
83.03644699999999
 30
0.0
 11
174.033133
 21
83.615568
 31
0.0
  0
LINE
  5
2F7
330
A
100
AcDbEntity
  8
0
 62
     7
100
AcDbLine
 10
174.033133
 20
82.56412500000001
 30
0.0
 11
174.033133
 21
83.03644699999999
 31
0.0
  0
LINE
  5
2F8
330
A
100
AcDbEntity
  8
0
 62
     7
100
AcDbLine
 10
174.033133
 20
82.24545400000002
 30
0.0
 11
174.033133
 21
82.56412500000001
 31
0.0
  0
LINE
  5
2F9
330
A
100
AcDbEntity
  8
0
 62
     7
100
AcDbLine
 10
173.883271
 20
82.06527499999999
 30
0.0
 11
174.033133
 21
82.12728699999999
 31
0.0
  0
LINE
  5
2FA
330
A
100
AcDbEntity
  8
0
 62
     7
100
AcDbLine
 10
174.033133
 20
82.12728699999999
 30
0.0
 11
174.033133
 21
82.24545400000002
 31
0.0
  0
LINE
  5
2FB
330
A
100
AcDbEntity
  8
0
 62
     7
100
AcDbLine
 10
174.033133
 20
82.12728699999999
 30
0.0
 11
174.095144
 21
82.276804
 31
0.0
  0
LINE
  5
2FC
330
A
100
AcDbEntity
  8
0
 62
     7
100
AcDbLine
 10
191.871493
 20
76.947586
 30
0.0
 11
192.77204
 21
76.947586
 31
0.0
  0
LINE
  5
2FD
330
A
100
AcDbEntity
  8
0
 62
     7
100
AcDbLine
 10
192.77204
 20
76.947586
 30
0.0
 11
193.535474
 21
76.947586
 31
0.0
  0
LINE
  5
2FE
330
A
100
AcDbEntity
  8
0
 62
     7
100
AcDbLine
 10
193.535474
 20
76.947586
 30
0.0
 11
194.045692
 21
76.947586
 31
0.0
  0
LINE
  5
2FF
330
A
100
AcDbEntity
  8
0
 62
     7
100
AcDbLine
 10
194.045692
 20
76.947586
 30
0.0
 11
194.224837
 21
76.947586
 31
0.0
  0
LINE
  5
300
330
A
100
AcDbEntity
  8
0
 62
     7
100
AcDbLine
 10
189.517803
 20
76.947586
 30
0.0
 11
189.696948
 21
76.947586
 31
0.0
  0
LINE
  5
301
330
A
100
AcDbEntity
  8
0
 62
     7
100
AcDbLine
 10
189.696948
 20
76.947586
 30
0.0
 11
190.207167
 21
76.947586
 31
0.0
  0
LINE
  5
302
330
A
100
AcDbEntity
  8
0
 62
     7
100
AcDbLine
 10
190.207167
 20
76.947586
 30
0.0
 11
190.9706
 21
76.947586
 31
0.0
  0
LINE
  5
303
330
A
100
AcDbEntity
  8
0
 62
     7
100
AcDbLine
 10
190.9706
 20
76.947586
 30
0.0
 11
191.871493
 21
76.947586
 31
0.0
  0
LINE
  5
304
330
A
100
AcDbEntity
  8
0
 62
     7
100
AcDbLine
 10
191.871493
 20
76.415318
 30
0.0
 11
190.911344
 21
76.415318
 31
0.0
  0
LINE
  5
305
330
A
100
AcDbEntity
  8
0
 62
     7
100
AcDbLine
 10
190.911344
 20
76.415318
 30
0.0
 11
190.097613
 21
76.415318
 31
0.0
  0
LINE
  5
306
330
A
100
AcDbEntity
  8
0
 62
     7
100
AcDbLine
 10
190.097613
 20
76.415318
 30
0.0
 11
189.553977
 21
76.415318
 31
0.0
  0
LINE
  5
307
330
A
100
AcDbEntity
  8
0
 62
     7
100
AcDbLine
 10
189.553977
 20
76.415318
 30
0.0
 11
189.362774
 21
76.415318
 31
0.0
  0
LINE
  5
308
330
A
100
AcDbEntity
  8
0
 62
     7
100
AcDbLine
 10
194.3798669999999
 20
76.415318
 30
0.0
 11
194.189008
 21
76.415318
 31
0.0
  0
LINE
  5
309
330
A
100
AcDbEntity
  8
0
 62
     7
100
AcDbLine
 10
194.189008
 20
76.415318
 30
0.0
 11
193.645028
 21
76.415318
 31
0.0
  0
LINE
  5
30A
330
A
100
AcDbEntity
  8
0
 62
     7
100
AcDbLine
 10
193.645028
 20
76.415318
 30
0.0
 11
192.831296
 21
76.415318
 31
0.0
  0
LINE
  5
30B
330
A
100
AcDbEntity
  8
0
 62
     7
100
AcDbLine
 10
192.831296
 20
76.415318
 30
0.0
 11
191.871493
 21
76.415318
 31
0.0
  0
LINE
  5
30C
330
A
100
AcDbEntity
  8
0
 62
     7
100
AcDbLine
 10
194.3798669999999
 20
76.415318
 30
0.0
 11
194.3798669999999
 21
76.79531199999999
 31
0.0
  0
LINE
  5
30D
330
A
100
AcDbEntity
  8
0
 62
     7
100
AcDbLine
 10
189.362774
 20
76.79531199999999
 30
0.0
 11
189.362774
 21
76.415318
 31
0.0
  0
LINE
  5
30E
330
A
100
AcDbEntity
  8
0
 62
     7
100
AcDbLine
 10
194.146978
 20
76.902799
 30
0.0
 11
194.334391
 21
76.902799
 31
0.0
  0
LINE
  5
30F
330
A
100
AcDbEntity
  8
0
 62
     7
100
AcDbLine
 10
194.334391
 20
76.902799
 30
0.0
 11
194.224837
 21
76.947586
 31
0.0
  0
LINE
  5
310
330
A
100
AcDbEntity
  8
0
 62
     7
100
AcDbLine
 10
194.3798669999999
 20
76.79531199999999
 30
0.0
 11
194.334391
 21
76.902799
 31
0.0
  0
LINE
  5
311
330
A
100
AcDbEntity
  8
0
 62
     7
100
AcDbLine
 10
193.612988
 20
76.902799
 30
0.0
 11
194.146978
 21
76.902799
 31
0.0
  0
LINE
  5
312
330
A
100
AcDbEntity
  8
0
 62
     7
100
AcDbLine
 10
192.814071
 20
76.902799
 30
0.0
 11
193.612988
 21
76.902799
 31
0.0
  0
LINE
  5
313
330
A
100
AcDbEntity
  8
0
 62
     7
100
AcDbLine
 10
191.871493
 20
76.902799
 30
0.0
 11
192.814071
 21
76.902799
 31
0.0
  0
LINE
  5
314
330
A
100
AcDbEntity
  8
0
 62
     7
100
AcDbLine
 10
190.928914
 20
76.902799
 30
0.0
 11
191.871493
 21
76.902799
 31
0.0
  0
LINE
  5
315
330
A
100
AcDbEntity
  8
0
 62
     7
100
AcDbLine
 10
190.129652
 20
76.902799
 30
0.0
 11
190.928914
 21
76.902799
 31
0.0
  0
LINE
  5
316
330
A
100
AcDbEntity
  8
0
 62
     7
100
AcDbLine
 10
189.595662
 20
76.902799
 30
0.0
 11
190.129652
 21
76.902799
 31
0.0
  0
LINE
  5
317
330
A
100
AcDbEntity
  8
0
 62
     7
100
AcDbLine
 10
189.517803
 20
76.947586
 30
0.0
 11
189.408249
 21
76.902799
 31
0.0
  0
LINE
  5
318
330
A
100
AcDbEntity
  8
0
 62
     7
100
AcDbLine
 10
189.408249
 20
76.902799
 30
0.0
 11
189.595662
 21
76.902799
 31
0.0
  0
LINE
  5
319
330
A
100
AcDbEntity
  8
0
 62
     7
100
AcDbLine
 10
189.408249
 20
76.902799
 30
0.0
 11
189.362774
 21
76.79531199999999
 31
0.0
  0
LINE
  5
31A
330
A
100
AcDbEntity
  8
0
 62
     7
100
AcDbLine
 10
190.236795
 20
76.947586
 30
0.0
 11
190.534795
 21
81.763829
 31
0.0
  0
LINE
  5
31B
330
A
100
AcDbEntity
  8
0
 62
     7
100
AcDbLine
 10
193.505846
 20
76.947586
 30
0.0
 11
193.207845
 21
81.763829
 31
0.0
  0
LINE
  5
31C
330
A
100
AcDbEntity
  8
0
 62
     7
100
AcDbLine
 10
190.534795
 20
81.763829
 30
0.0
 11
190.534795
 21
82.07561
 31
0.0
  0
LINE
  5
31D
330
A
100
AcDbEntity
  8
0
 62
     7
100
AcDbLine
 10
193.207845
 20
81.763829
 30
0.0
 11
193.207845
 21
82.07561
 31
0.0
  0
LINE
  5
31E
330
A
100
AcDbEntity
  8
0
 62
     7
100
AcDbLine
 10
176.871547
 20
76.947586
 30
0.0
 11
177.772095
 21
76.947586
 31
0.0
  0
LINE
  5
31F
330
A
100
AcDbEntity
  8
0
 62
     7
100
AcDbLine
 10
177.772095
 20
76.947586
 30
0.0
 11
178.535528
 21
76.947586
 31
0.0
  0
LINE
  5
320
330
A
100
AcDbEntity
  8
0
 62
     7
100
AcDbLine
 10
178.535528
 20
76.947586
 30
0.0
 11
179.045747
 21
76.947586
 31
0.0
  0
LINE
  5
321
330
A
100
AcDbEntity
  8
0
 62
     7
100
AcDbLine
 10
179.045747
 20
76.947586
 30
0.0
 11
179.224891
 21
76.947586
 31
0.0
  0
LINE
  5
322
330
A
100
AcDbEntity
  8
0
 62
     7
100
AcDbLine
 10
174.517858
 20
76.947586
 30
0.0
 11
174.697002
 21
76.947586
 31
0.0
  0
LINE
  5
323
330
A
100
AcDbEntity
  8
0
 62
     7
100
AcDbLine
 10
174.697002
 20
76.947586
 30
0.0
 11
175.207221
 21
76.947586
 31
0.0
  0
LINE
  5
324
330
A
100
AcDbEntity
  8
0
 62
     7
100
AcDbLine
 10
175.207221
 20
76.947586
 30
0.0
 11
175.970654
 21
76.947586
 31
0.0
  0
LINE
  5
325
330
A
100
AcDbEntity
  8
0
 62
     7
100
AcDbLine
 10
175.970654
 20
76.947586
 30
0.0
 11
176.871547
 21
76.947586
 31
0.0
  0
LINE
  5
326
330
A
100
AcDbEntity
  8
0
 62
     7
100
AcDbLine
 10
176.871547
 20
76.415318
 30
0.0
 11
175.911399
 21
76.415318
 31
0.0
  0
LINE
  5
327
330
A
100
AcDbEntity
  8
0
 62
     7
100
AcDbLine
 10
175.911399
 20
76.415318
 30
0.0
 11
175.097667
 21
76.415318
 31
0.0
  0
LINE
  5
328
330
A
100
AcDbEntity
  8
0
 62
     7
100
AcDbLine
 10
175.097667
 20
76.415318
 30
0.0
 11
174.554031
 21
76.415318
 31
0.0
  0
LINE
  5
329
330
A
100
AcDbEntity
  8
0
 62
     7
100
AcDbLine
 10
174.554031
 20
76.415318
 30
0.0
 11
174.362828
 21
76.415318
 31
0.0
  0
LINE
  5
32A
330
A
100
AcDbEntity
  8
0
 62
     7
100
AcDbLine
 10
179.379921
 20
76.415318
 30
0.0
 11
179.188718
 21
76.415318
 31
0.0
  0
LINE
  5
32B
330
A
100
AcDbEntity
  8
0
 62
     7
100
AcDbLine
 10
179.188718
 20
76.415318
 30
0.0
 11
178.645082
 21
76.415318
 31
0.0
  0
LINE
  5
32C
330
A
100
AcDbEntity
  8
0
 62
     7
100
AcDbLine
 10
178.645082
 20
76.415318
 30
0.0
 11
177.83135
 21
76.415318
 31
0.0
  0
LINE
  5
32D
330
A
100
AcDbEntity
  8
0
 62
     7
100
AcDbLine
 10
177.83135
 20
76.415318
 30
0.0
 11
176.871547
 21
76.415318
 31
0.0
  0
LINE
  5
32E
330
A
100
AcDbEntity
  8
0
 62
     7
100
AcDbLine
 10
179.379921
 20
76.415318
 30
0.0
 11
179.379921
 21
76.79531199999999
 31
0.0
  0
LINE
  5
32F
330
A
100
AcDbEntity
  8
0
 62
     7
100
AcDbLine
 10
174.362828
 20
76.79531199999999
 30
0.0
 11
174.362828
 21
76.415318
 31
0.0
  0
LINE
  5
330
330
A
100
AcDbEntity
  8
0
 62
     7
100
AcDbLine
 10
179.147032
 20
76.902799
 30
0.0
 11
179.334446
 21
76.902799
 31
0.0
  0
LINE
  5
331
330
A
100
AcDbEntity
  8
0
 62
     7
100
AcDbLine
 10
179.334446
 20
76.902799
 30
0.0
 11
179.224891
 21
76.947586
 31
0.0
  0
LINE
  5
332
330
A
100
AcDbEntity
  8
0
 62
     7
100
AcDbLine
 10
179.379921
 20
76.79531199999999
 30
0.0
 11
179.334446
 21
76.902799
 31
0.0
  0
LINE
  5
333
330
A
100
AcDbEntity
  8
0
 62
     7
100
AcDbLine
 10
178.613043
 20
76.902799
 30
0.0
 11
179.147032
 21
76.902799
 31
0.0
  0
LINE
  5
334
330
A
100
AcDbEntity
  8
0
 62
     7
100
AcDbLine
 10
177.81378
 20
76.902799
 30
0.0
 11
178.613043
 21
76.902799
 31
0.0
  0
LINE
  5
335
330
A
100
AcDbEntity
  8
0
 62
     7
100
AcDbLine
 10
176.871547
 20
76.902799
 30
0.0
 11
177.81378
 21
76.902799
 31
0.0
  0
LINE
  5
336
330
A
100
AcDbEntity
  8
0
 62
     7
100
AcDbLine
 10
175.928969
 20
76.902799
 30
0.0
 11
176.871547
 21
76.902799
 31
0.0
  0
LINE
  5
337
330
A
100
AcDbEntity
  8
0
 62
     7
100
AcDbLine
 10
175.129706
 20
76.902799
 30
0.0
 11
175.928969
 21
76.902799
 31
0.0
  0
LINE
  5
338
330
A
100
AcDbEntity
  8
0
 62
     7
100
AcDbLine
 10
174.595717
 20
76.902799
 30
0.0
 11
175.129706
 21
76.902799
 31
0.0
  0
LINE
  5
339
330
A
100
AcDbEntity
  8
0
 62
     7
100
AcDbLine
 10
174.517858
 20
76.947586
 30
0.0
 11
174.408303
 21
76.902799
 31
0.0
  0
LINE
  5
33A
330
A
100
AcDbEntity
  8
0
 62
     7
100
AcDbLine
 10
174.408303
 20
76.902799
 30
0.0
 11
174.595717
 21
76.902799
 31
0.0
  0
LINE
  5
33B
330
A
100
AcDbEntity
  8
0
 62
     7
100
AcDbLine
 10
174.408303
 20
76.902799
 30
0.0
 11
174.362828
 21
76.79531199999999
 31
0.0
  0
LINE
  5
33C
330
A
100
AcDbEntity
  8
0
 62
     7
100
AcDbLine
 10
175.236849
 20
76.947586
 30
0.0
 11
175.53485
 21
81.763829
 31
0.0
  0
LINE
  5
33D
330
A
100
AcDbEntity
  8
0
 62
     7
100
AcDbLine
 10
178.5059
 20
76.947586
 30
0.0
 11
178.207899
 21
81.763829
 31
0.0
  0
LINE
  5
33E
330
A
100
AcDbEntity
  8
0
 62
     7
100
AcDbLine
 10
175.53485
 20
81.763829
 30
0.0
 11
175.53485
 21
82.07561
 31
0.0
  0
LINE
  5
33F
330
A
100
AcDbEntity
  8
0
 62
     7
100
AcDbLine
 10
178.207899
 20
81.763829
 30
0.0
 11
178.207899
 21
82.07561
 31
0.0
  0
LINE
  5
340
330
A
100
AcDbEntity
  8
0
 62
     7
100
AcDbLine
 10
183.916767
 20
85.053551
 30
0.0
 11
184.3839219999999
 21
85.17550699999999
 31
0.0
  0
LINE
  5
341
330
A
100
AcDbEntity
  8
0
 62
     7
100
AcDbLine
 10
184.851077
 20
85.053551
 30
0.0
 11
184.3839219999999
 21
85.17550699999999
 31
0.0
  0
LINE
  5
342
330
A
100
AcDbEntity
  8
0
 62
     7
100
AcDbLine
 10
184.831095
 20
80.03163499999999
 30
0.0
 11
185.210056
 21
80.03163499999999
 31
0.0
  0
LINE
  5
343
330
A
100
AcDbEntity
  8
0
 62
     7
100
AcDbLine
 10
185.210056
 20
80.03163499999999
 30
0.0
 11
185.463615
 21
80.03163499999999
 31
0.0
  0
LINE
  5
344
330
A
100
AcDbEntity
  8
0
 62
     7
100
AcDbLine
 10
185.463615
 20
80.03163499999999
 30
0.0
 11
185.552498
 21
80.03163499999999
 31
0.0
  0
LINE
  5
345
330
A
100
AcDbEntity
  8
0
 62
     7
100
AcDbLine
 10
183.21569
 20
80.03163499999999
 30
0.0
 11
183.304574
 21
80.03163499999999
 31
0.0
  0
LINE
  5
346
330
A
100
AcDbEntity
  8
0
 62
     7
100
AcDbLine
 10
183.304574
 20
80.03163499999999
 30
0.0
 11
183.557788
 21
80.03163499999999
 31
0.0
  0
LINE
  5
347
330
A
100
AcDbEntity
  8
0
 62
     7
100
AcDbLine
 10
183.557788
 20
80.03163499999999
 30
0.0
 11
183.936749
 21
80.03163499999999
 31
0.0
  0
LINE
  5
348
330
A
100
AcDbEntity
  8
0
 62
     7
100
AcDbLine
 10
183.936749
 20
80.03163499999999
 30
0.0
 11
184.3839219999999
 21
80.03163499999999
 31
0.0
  0
LINE
  5
349
330
A
100
AcDbEntity
  8
0
 62
     7
100
AcDbLine
 10
184.3839219999999
 20
80.03163499999999
 30
0.0
 11
184.831095
 21
80.03163499999999
 31
0.0
  0
LINE
  5
34A
330
A
100
AcDbEntity
  8
0
 62
     7
100
AcDbLine
 10
183.557788
 20
80.370977
 30
0.0
 11
183.813759
 21
80.370977
 31
0.0
  0
LINE
  5
34B
330
A
100
AcDbEntity
  8
0
 62
     7
100
AcDbLine
 10
183.304574
 20
80.370977
 30
0.0
 11
183.557788
 21
80.370977
 31
0.0
  0
LINE
  5
34C
330
A
100
AcDbEntity
  8
0
 62
     7
100
AcDbLine
 10
183.21569
 20
80.03163499999999
 30
0.0
 11
183.21569
 21
80.370977
 31
0.0
  0
LINE
  5
34D
330
A
100
AcDbEntity
  8
0
 62
     7
100
AcDbLine
 10
183.21569
 20
80.370977
 30
0.0
 11
183.304574
 21
80.370977
 31
0.0
  0
LINE
  5
34E
330
A
100
AcDbEntity
  8
0
 62
     7
100
AcDbLine
 10
185.463615
 20
80.370977
 30
0.0
 11
185.415039
 21
80.370977
 31
0.0
  0
LINE
  5
34F
330
A
100
AcDbEntity
  8
0
 62
     7
100
AcDbLine
 10
185.552498
 20
80.03163499999999
 30
0.0
 11
185.552498
 21
80.370977
 31
0.0
  0
LINE
  5
350
330
A
100
AcDbEntity
  8
0
 62
     7
100
AcDbLine
 10
185.552498
 20
80.370977
 30
0.0
 11
185.463615
 21
80.370977
 31
0.0
  0
LINE
  5
351
330
A
100
AcDbEntity
  8
0
 62
     7
100
AcDbLine
 10
185.463615
 20
80.370977
 30
0.0
 11
185.552498
 21
80.370977
 31
0.0
  0
LINE
  5
352
330
A
100
AcDbEntity
  8
0
 62
     7
100
AcDbLine
 10
185.210056
 20
80.370977
 30
0.0
 11
185.463615
 21
80.370977
 31
0.0
  0
LINE
  5
353
330
A
100
AcDbEntity
  8
0
 62
     7
100
AcDbLine
 10
184.95443
 20
80.370977
 30
0.0
 11
185.210056
 21
80.370977
 31
0.0
  0
LINE
  5
354
330
A
100
AcDbEntity
  8
0
 62
     7
100
AcDbLine
 10
184.95443
 20
80.370977
 30
0.0
 11
185.112904
 21
80.370977
 31
0.0
  0
LINE
  5
355
330
A
100
AcDbEntity
  8
0
 62
     7
100
AcDbLine
 10
185.112904
 20
80.370977
 30
0.0
 11
185.336491
 21
80.370977
 31
0.0
  0
LINE
  5
356
330
A
100
AcDbEntity
  8
0
 62
     7
100
AcDbLine
 10
185.336491
 20
80.370977
 30
0.0
 11
185.415039
 21
80.370977
 31
0.0
  0
LINE
  5
357
330
A
100
AcDbEntity
  8
0
 62
     7
100
AcDbLine
 10
183.6549399999999
 20
80.370977
 30
0.0
 11
183.813759
 21
80.370977
 31
0.0
  0
LINE
  5
358
330
A
100
AcDbEntity
  8
0
 62
     7
100
AcDbLine
 10
183.353149
 20
80.370977
 30
0.0
 11
183.353149
 21
81.09031299999999
 31
0.0
  0
LINE
  5
359
330
A
100
AcDbEntity
  8
0
 62
     7
100
AcDbLine
 10
185.415039
 20
80.370977
 30
0.0
 11
185.415039
 21
81.09031299999999
 31
0.0
  0
LINE
  5
35A
330
A
100
AcDbEntity
  8
0
 62
     7
100
AcDbLine
 10
183.333857
 20
81.83652099999999
 30
0.0
 11
183.236361
 21
81.975358
 31
0.0
  0
LINE
  5
35B
330
A
100
AcDbEntity
  8
0
 62
     7
100
AcDbLine
 10
185.433987
 20
81.83652099999999
 30
0.0
 11
185.531483
 21
81.975358
 31
0.0
  0
LINE
  5
35C
330
A
100
AcDbEntity
  8
0
 62
     7
100
AcDbLine
 10
183.236361
 20
81.975358
 30
0.0
 11
182.990036
 21
82.07561
 31
0.0
  0
LINE
  5
35D
330
A
100
AcDbEntity
  8
0
 62
     7
100
AcDbLine
 10
185.531483
 20
81.975358
 30
0.0
 11
185.777808
 21
82.07561
 31
0.0
  0
LINE
  5
35E
330
A
100
AcDbEntity
  8
0
 62
     7
100
AcDbLine
 10
184.3839219999999
 20
80.363053
 30
0.0
 11
184.781831
 21
80.461583
 31
0.0
  0
LINE
  5
35F
330
A
100
AcDbEntity
  8
0
 62
     7
100
AcDbLine
 10
184.781831
 20
80.461583
 30
0.0
 11
185.0729409999999
 21
80.72961199999999
 31
0.0
  0
LINE
  5
360
330
A
100
AcDbEntity
  8
0
 62
     7
100
AcDbLine
 10
185.0729409999999
 20
80.72961199999999
 30
0.0
 11
185.179395
 21
81.09617
 31
0.0
  0
LINE
  5
361
330
A
100
AcDbEntity
  8
0
 62
     7
100
AcDbLine
 10
185.179395
 20
81.09617
 30
0.0
 11
185.0729409999999
 21
81.462728
 31
0.0
  0
LINE
  5
362
330
A
100
AcDbEntity
  8
0
 62
     7
100
AcDbLine
 10
185.0729409999999
 20
81.462728
 30
0.0
 11
184.781831
 21
81.731101
 31
0.0
  0
LINE
  5
363
330
A
100
AcDbEntity
  8
0
 62
     7
100
AcDbLine
 10
184.781831
 20
81.731101
 30
0.0
 11
184.3839219999999
 21
81.829286
 31
0.0
  0
LINE
  5
364
330
A
100
AcDbEntity
  8
0
 62
     7
100
AcDbLine
 10
184.3839219999999
 20
81.829286
 30
0.0
 11
183.986358
 21
81.731101
 31
0.0
  0
LINE
  5
365
330
A
100
AcDbEntity
  8
0
 62
     7
100
AcDbLine
 10
183.986358
 20
81.731101
 30
0.0
 11
183.695247
 21
81.462728
 31
0.0
  0
LINE
  5
366
330
A
100
AcDbEntity
  8
0
 62
     7
100
AcDbLine
 10
183.695247
 20
81.462728
 30
0.0
 11
183.588449
 21
81.09617
 31
0.0
  0
LINE
  5
367
330
A
100
AcDbEntity
  8
0
 62
     7
100
AcDbLine
 10
183.588449
 20
81.09617
 30
0.0
 11
183.695247
 21
80.72961199999999
 31
0.0
  0
LINE
  5
368
330
A
100
AcDbEntity
  8
0
 62
     7
100
AcDbLine
 10
183.695247
 20
80.72961199999999
 30
0.0
 11
183.986358
 21
80.461583
 31
0.0
  0
LINE
  5
369
330
A
100
AcDbEntity
  8
0
 62
     7
100
AcDbLine
 10
183.986358
 20
80.461583
 30
0.0
 11
184.3839219999999
 21
80.363053
 31
0.0
  0
LINE
  5
36A
330
A
100
AcDbEntity
  8
0
 62
     7
100
AcDbLine
 10
185.433987
 20
84.237063
 30
0.0
 11
185.433987
 21
81.60259899999999
 31
0.0
  0
LINE
  5
36B
330
A
100
AcDbEntity
  8
0
 62
     7
100
AcDbLine
 10
185.413317
 20
81.04656
 30
0.0
 11
185.433987
 21
81.60259899999999
 31
0.0
  0
LINE
  5
36C
330
A
100
AcDbEntity
  8
0
 62
     7
100
AcDbLine
 10
185.225559
 20
80.592497
 30
0.0
 11
185.413317
 21
81.04656
 31
0.0
  0
LINE
  5
36D
330
A
100
AcDbEntity
  8
0
 62
     7
100
AcDbLine
 10
184.851077
 20
80.28657199999999
 30
0.0
 11
185.225559
 21
80.592497
 31
0.0
  0
LINE
  5
36E
330
A
100
AcDbEntity
  8
0
 62
     7
100
AcDbLine
 10
184.3839219999999
 20
80.174262
 30
0.0
 11
184.851077
 21
80.28657199999999
 31
0.0
  0
LINE
  5
36F
330
A
100
AcDbEntity
  8
0
 62
     7
100
AcDbLine
 10
183.916767
 20
80.28657199999999
 30
0.0
 11
184.3839219999999
 21
80.174262
 31
0.0
  0
LINE
  5
370
330
A
100
AcDbEntity
  8
0
 62
     7
100
AcDbLine
 10
183.54263
 20
80.592497
 30
0.0
 11
183.916767
 21
80.28657199999999
 31
0.0
  0
LINE
  5
371
330
A
100
AcDbEntity
  8
0
 62
     7
100
AcDbLine
 10
183.354527
 20
81.04656
 30
0.0
 11
183.54263
 21
80.592497
 31
0.0
  0
LINE
  5
372
330
A
100
AcDbEntity
  8
0
 62
     7
100
AcDbLine
 10
183.333857
 20
84.24498699999999
 30
0.0
 11
183.333857
 21
81.60259899999999
 31
0.0
  0
LINE
  5
373
330
A
100
AcDbEntity
  8
0
 62
     7
100
AcDbLine
 10
183.333857
 20
81.60259899999999
 30
0.0
 11
183.354527
 21
81.04656
 31
0.0
  0
LINE
  5
374
330
A
100
AcDbEntity
  8
0
 62
     7
100
AcDbLine
 10
194.519393
 20
82.07561
 30
0.0
 11
185.777808
 21
82.07561
 31
0.0
  0
LINE
  5
375
330
A
100
AcDbEntity
  8
0
 62
     7
100
AcDbLine
 10
194.518359
 20
85.179986
 30
0.0
 11
174.188506
 21
85.179986
 31
0.0
  0
LINE
  5
376
330
A
100
AcDbEntity
  8
0
 62
     7
100
AcDbLine
 10
183.009673
 20
82.07561
 30
0.0
 11
174.188506
 21
82.07561
 31
0.0
  0
LINE
  5
377
330
A
100
AcDbEntity
  8
0
 62
     7
100
AcDbLine
 10
174.128906
 20
83.03196899999999
 30
0.0
 11
174.128906
 21
83.625559
 31
0.0
  0
LINE
  5
378
330
A
100
AcDbEntity
  8
0
 62
     7
100
AcDbLine
 10
174.128906
 20
82.54724399999998
 30
0.0
 11
174.128906
 21
83.03196899999999
 31
0.0
  0
LINE
  5
379
330
A
100
AcDbEntity
  8
0
 62
     7
100
AcDbLine
 10
174.128906
 20
82.22064899999999
 30
0.0
 11
174.128906
 21
82.54724399999998
 31
0.0
  0
LINE
  5
37A
330
A
100
AcDbEntity
  8
0
 62
     7
100
AcDbLine
 10
174.128906
 20
82.100071
 30
0.0
 11
174.128906
 21
82.22064899999999
 31
0.0
  0
LINE
  5
37B
330
A
100
AcDbEntity
  8
0
 62
     7
100
AcDbLine
 10
174.188506
 20
82.07561
 30
0.0
 11
174.128906
 21
82.100071
 31
0.0
  0
LINE
  5
37C
330
A
100
AcDbEntity
  8
0
 62
     7
100
AcDbLine
 10
194.525939
 20
85.17654099999999
 30
0.0
 11
194.579682
 21
85.151736
 31
0.0
  0
LINE
  5
37D
330
A
100
AcDbEntity
  8
0
 62
     7
100
AcDbLine
 10
174.188506
 20
85.17550699999999
 30
0.0
 11
174.128906
 21
85.15070300000001
 31
0.0
  0
LINE
  5
37E
330
A
100
AcDbEntity
  8
0
 62
     7
100
AcDbLine
 10
174.128906
 20
85.03046899999999
 30
0.0
 11
174.128906
 21
85.15070300000001
 31
0.0
  0
LINE
  5
37F
330
A
100
AcDbEntity
  8
0
 62
     7
100
AcDbLine
 10
174.128906
 20
84.70352899999999
 30
0.0
 11
174.128906
 21
85.03046899999999
 31
0.0
  0
LINE
  5
380
330
A
100
AcDbEntity
  8
0
 62
     7
100
AcDbLine
 10
174.128906
 20
84.219149
 30
0.0
 11
174.128906
 21
84.70352899999999
 31
0.0
  0
LINE
  5
381
330
A
100
AcDbEntity
  8
0
 62
     7
100
AcDbLine
 10
174.128906
 20
84.219149
 30
0.0
 11
174.128906
 21
83.625559
 31
0.0
  0
LINE
  5
382
330
A
100
AcDbEntity
  8
0
 62
     7
100
AcDbLine
 10
194.5793379999999
 20
85.15070300000001
 30
0.0
 11
194.5793379999999
 21
85.03046899999999
 31
0.0
  0
LINE
  5
383
330
A
100
AcDbEntity
  8
0
 62
     7
100
AcDbLine
 10
194.5793379999999
 20
85.03046899999999
 30
0.0
 11
194.5793379999999
 21
84.70352899999999
 31
0.0
  0
LINE
  5
384
330
A
100
AcDbEntity
  8
0
 62
     7
100
AcDbLine
 10
194.5793379999999
 20
84.70352899999999
 30
0.0
 11
194.5793379999999
 21
84.219149
 31
0.0
  0
LINE
  5
385
330
A
100
AcDbEntity
  8
0
 62
     7
100
AcDbLine
 10
194.5793379999999
 20
84.219149
 30
0.0
 11
194.5793379999999
 21
83.625559
 31
0.0
  0
LINE
  5
386
330
A
100
AcDbEntity
  8
0
 62
     7
100
AcDbLine
 10
194.5793379999999
 20
83.625559
 30
0.0
 11
194.5793379999999
 21
83.03196899999999
 31
0.0
  0
LINE
  5
387
330
A
100
AcDbEntity
  8
0
 62
     7
100
AcDbLine
 10
194.5793379999999
 20
83.03196899999999
 30
0.0
 11
194.5793379999999
 21
82.54724399999998
 31
0.0
  0
LINE
  5
388
330
A
100
AcDbEntity
  8
0
 62
     7
100
AcDbLine
 10
194.5793379999999
 20
82.54724399999998
 30
0.0
 11
194.5793379999999
 21
82.22064899999999
 31
0.0
  0
LINE
  5
389
330
A
100
AcDbEntity
  8
0
 62
     7
100
AcDbLine
 10
194.5793379999999
 20
82.22064899999999
 30
0.0
 11
194.5793379999999
 21
82.100071
 31
0.0
  0
LINE
  5
38A
330
A
100
AcDbEntity
  8
0
 62
     7
100
AcDbLine
 10
194.5793379999999
 20
82.100071
 30
0.0
 11
194.519393
 21
82.07561
 31
0.0
  0
LINE
  5
38B
330
A
100
AcDbEntity
  8
0
 62
     7
100
AcDbLine
 10
193.451413
 20
82.07561
 30
0.0
 11
194.064296
 21
82.07561
 31
0.0
  0
LINE
  5
38C
330
A
100
AcDbEntity
  8
0
 62
     7
100
AcDbLine
 10
175.256486
 20
82.07561
 30
0.0
 11
175.757058
 21
82.07561
 31
0.0
  0
LINE
  5
38D
330
A
100
AcDbEntity
  8
0
 62
     7
100
AcDbLine
 10
174.643604
 20
82.07561
 30
0.0
 11
175.256486
 21
82.07561
 31
0.0
  0
LINE
  5
38E
330
A
100
AcDbEntity
  8
0
 62
     7
100
AcDbLine
 10
192.950841
 20
82.07561
 30
0.0
 11
193.451413
 21
82.07561
 31
0.0
  0
LINE
  5
38F
330
A
100
AcDbEntity
  8
0
 62
     7
100
AcDbLine
 10
194.064296
 20
82.07561
 30
0.0
 11
194.519393
 21
82.07561
 31
0.0
  0
LINE
  5
390
330
A
100
AcDbEntity
  8
0
 62
     7
100
AcDbLine
 10
174.188506
 20
82.07561
 30
0.0
 11
174.643604
 21
82.07561
 31
0.0
  0
LINE
  5
391
330
A
100
AcDbEntity
  8
0
 62
     7
100
AcDbLine
 10
174.104102
 20
82.160015
 30
0.0
 11
174.128906
 21
82.100071
 31
0.0
  0
LINE
  5
392
330
A
100
AcDbEntity
  8
0
 62
     7
100
AcDbLine
 10
185.225559
 20
84.72144399999999
 30
0.0
 11
185.440533
 21
84.22810600000001
 31
0.0
  0
LINE
  5
393
330
A
100
AcDbEntity
  8
0
 62
     7
100
AcDbLine
 10
184.851077
 20
85.053551
 30
0.0
 11
185.225559
 21
84.72109899999999
 31
0.0
  0
LINE
  5
394
330
A
100
AcDbEntity
  8
0
 62
     7
100
AcDbLine
 10
183.334546
 20
84.236374
 30
0.0
 11
183.530916
 21
84.71351999999999
 31
0.0
  0
LINE
  5
395
330
A
100
AcDbEntity
  8
0
 62
     7
100
AcDbLine
 10
183.916767
 20
85.053551
 30
0.0
 11
183.54263
 21
84.72109899999999
 31
0.0
  0
LINE
  5
396
330
A
100
AcDbEntity
  8
0
 62
     7
100
AcDbLine
 10
183.695247
 20
80.776465
 30
0.0
 11
183.695247
 21
80.72961199999999
 31
0.0
  0
LINE
  5
397
330
A
100
AcDbEntity
  8
0
 62
     7
100
AcDbLine
 10
183.986358
 20
80.50809200000001
 30
0.0
 11
183.986358
 21
80.461583
 31
0.0
  0
LINE
  5
398
330
A
100
AcDbEntity
  8
0
 62
     7
100
AcDbLine
 10
184.3839219999999
 20
80.409907
 30
0.0
 11
184.3839219999999
 21
80.363053
 31
0.0
  0
LINE
  5
399
330
A
100
AcDbEntity
  8
0
 62
     7
100
AcDbLine
 10
184.781831
 20
80.50809200000001
 30
0.0
 11
184.781831
 21
80.461583
 31
0.0
  0
LINE
  5
39A
330
A
100
AcDbEntity
  8
0
 62
     7
100
AcDbLine
 10
185.0729409999999
 20
80.776465
 30
0.0
 11
185.0729409999999
 21
80.72961199999999
 31
0.0
  0
LINE
  5
39B
330
A
100
AcDbEntity
  8
0
 62
     7
100
AcDbLine
 10
185.39299
 20
82.13555500000001
 30
0.0
 11
185.207989
 21
82.58238399999999
 31
0.0
  0
LINE
  5
39C
330
A
100
AcDbEntity
  8
0
 62
     7
100
AcDbLine
 10
185.413661
 20
81.58330600000001
 30
0.0
 11
185.39299
 21
82.13555500000001
 31
0.0
  0
LINE
  5
39D
330
A
100
AcDbEntity
  8
0
 62
     7
100
AcDbLine
 10
185.394024
 20
81.033813
 30
0.0
 11
185.413661
 21
81.58330600000001
 31
0.0
  0
LINE
  5
39E
330
A
100
AcDbEntity
  8
0
 62
     7
100
AcDbLine
 10
185.225559
 20
80.592497
 30
0.0
 11
185.207989
 21
80.58457299999998
 31
0.0
  0
LINE
  5
39F
330
A
100
AcDbEntity
  8
0
 62
     7
100
AcDbLine
 10
185.207989
 20
80.58457299999998
 30
0.0
 11
185.394024
 21
81.033813
 31
0.0
  0
LINE
  5
3A0
330
A
100
AcDbEntity
  8
0
 62
     7
100
AcDbLine
 10
184.841086
 20
80.28450500000001
 30
0.0
 11
185.207989
 21
80.58457299999998
 31
0.0
  0
LINE
  5
3A1
330
A
100
AcDbEntity
  8
0
 62
     7
100
AcDbLine
 10
184.3839219999999
 20
80.17460699999999
 30
0.0
 11
184.841086
 21
80.28450500000001
 31
0.0
  0
LINE
  5
3A2
330
A
100
AcDbEntity
  8
0
 62
     7
100
AcDbLine
 10
183.926758
 20
80.28450500000001
 30
0.0
 11
184.3839219999999
 21
80.17460699999999
 31
0.0
  0
LINE
  5
3A3
330
A
100
AcDbEntity
  8
0
 62
     7
100
AcDbLine
 10
183.54263
 20
80.592497
 30
0.0
 11
183.559855
 21
80.58457299999998
 31
0.0
  0
LINE
  5
3A4
330
A
100
AcDbEntity
  8
0
 62
     7
100
AcDbLine
 10
183.559855
 20
80.58457299999998
 30
0.0
 11
183.926758
 21
80.28450500000001
 31
0.0
  0
LINE
  5
3A5
330
A
100
AcDbEntity
  8
0
 62
     7
100
AcDbLine
 10
183.37382
 20
81.033813
 30
0.0
 11
183.559855
 21
80.58457299999998
 31
0.0
  0
LINE
  5
3A6
330
A
100
AcDbEntity
  8
0
 62
     7
100
AcDbLine
 10
183.354527
 20
81.58330600000001
 30
0.0
 11
183.37382
 21
81.033813
 31
0.0
  0
LINE
  5
3A7
330
A
100
AcDbEntity
  8
0
 62
     7
100
AcDbLine
 10
183.374854
 20
82.13555500000001
 30
0.0
 11
183.354527
 21
81.58330600000001
 31
0.0
  0
LINE
  5
3A8
330
A
100
AcDbEntity
  8
0
 62
     7
100
AcDbLine
 10
183.559855
 20
82.58238399999999
 30
0.0
 11
183.374854
 21
82.13555500000001
 31
0.0
  0
LINE
  5
3A9
330
A
100
AcDbEntity
  8
0
 62
     7
100
AcDbLine
 10
183.926758
 20
82.882452
 30
0.0
 11
183.559855
 21
82.58238399999999
 31
0.0
  0
LINE
  5
3AA
330
A
100
AcDbEntity
  8
0
 62
     7
100
AcDbLine
 10
184.3839219999999
 20
82.99235000000001
 30
0.0
 11
183.926758
 21
82.882452
 31
0.0
  0
LINE
  5
3AB
330
A
100
AcDbEntity
  8
0
 62
     7
100
AcDbLine
 10
184.841086
 20
82.882452
 30
0.0
 11
184.3839219999999
 21
82.99235000000001
 31
0.0
  0
LINE
  5
3AC
330
A
100
AcDbEntity
  8
0
 62
     7
100
AcDbLine
 10
185.207989
 20
82.58238399999999
 30
0.0
 11
184.841086
 21
82.882452
 31
0.0
  0
LINE
  5
3AD
330
A
100
AcDbEntity
  8
0
 62
     7
100
AcDbLine
 10
185.172849
 20
81.119596
 30
0.0
 11
185.0729409999999
 21
80.776465
 31
0.0
  0
LINE
  5
3AE
330
A
100
AcDbEntity
  8
0
 62
     7
100
AcDbLine
 10
185.0729409999999
 20
80.776465
 30
0.0
 11
184.781831
 21
80.50809200000001
 31
0.0
  0
LINE
  5
3AF
330
A
100
AcDbEntity
  8
0
 62
     7
100
AcDbLine
 10
184.781831
 20
80.50809200000001
 30
0.0
 11
184.3839219999999
 21
80.409907
 31
0.0
  0
LINE
  5
3B0
330
A
100
AcDbEntity
  8
0
 62
     7
100
AcDbLine
 10
184.3839219999999
 20
80.409907
 30
0.0
 11
183.986358
 21
80.50809200000001
 31
0.0
  0
LINE
  5
3B1
330
A
100
AcDbEntity
  8
0
 62
     7
100
AcDbLine
 10
183.986358
 20
80.50809200000001
 30
0.0
 11
183.695247
 21
80.776465
 31
0.0
  0
LINE
  5
3B2
330
A
100
AcDbEntity
  8
0
 62
     7
100
AcDbLine
 10
183.695247
 20
80.776465
 30
0.0
 11
183.59534
 21
81.119596
 31
0.0
  0
LINE
  5
3B3
330
A
100
AcDbEntity
  8
0
 62
     7
100
AcDbLine
 10
184.952018
 20
80.78886700000001
 30
0.0
 11
185.0398679999999
 21
81.091002
 31
0.0
  0
LINE
  5
3B4
330
A
100
AcDbEntity
  8
0
 62
     7
100
AcDbLine
 10
184.711895
 20
80.56769200000001
 30
0.0
 11
184.952018
 21
80.78886700000001
 31
0.0
  0
LINE
  5
3B5
330
A
100
AcDbEntity
  8
0
 62
     7
100
AcDbLine
 10
184.3839219999999
 20
80.48673199999999
 30
0.0
 11
184.711895
 21
80.56769200000001
 31
0.0
  0
LINE
  5
3B6
330
A
100
AcDbEntity
  8
0
 62
     7
100
AcDbLine
 10
184.055949
 20
80.56769200000001
 30
0.0
 11
184.3839219999999
 21
80.48673199999999
 31
0.0
  0
LINE
  5
3B7
330
A
100
AcDbEntity
  8
0
 62
     7
100
AcDbLine
 10
183.81617
 20
80.78886700000001
 30
0.0
 11
184.055949
 21
80.56769200000001
 31
0.0
  0
LINE
  5
3B8
330
A
100
AcDbEntity
  8
0
 62
     7
100
AcDbLine
 10
183.72832
 20
81.091002
 30
0.0
 11
183.81617
 21
80.78886700000001
 31
0.0
  0
LINE
  5
3B9
330
A
100
AcDbEntity
  8
0
 62
     7
100
AcDbLine
 10
183.81617
 20
81.39348100000001
 30
0.0
 11
183.72832
 21
81.091002
 31
0.0
  0
LINE
  5
3BA
330
A
100
AcDbEntity
  8
0
 62
     7
100
AcDbLine
 10
184.055949
 20
81.61465699999999
 30
0.0
 11
183.81617
 21
81.39348100000001
 31
0.0
  0
LINE
  5
3BB
330
A
100
AcDbEntity
  8
0
 62
     7
100
AcDbLine
 10
184.3839219999999
 20
81.69561599999999
 30
0.0
 11
184.055949
 21
81.61465699999999
 31
0.0
  0
LINE
  5
3BC
330
A
100
AcDbEntity
  8
0
 62
     7
100
AcDbLine
 10
184.711895
 20
81.61465699999999
 30
0.0
 11
184.3839219999999
 21
81.69561599999999
 31
0.0
  0
LINE
  5
3BD
330
A
100
AcDbEntity
  8
0
 62
     7
100
AcDbLine
 10
184.952018
 20
81.39348100000001
 30
0.0
 11
184.711895
 21
81.61465699999999
 31
0.0
  0
LINE
  5
3BE
330
A
100
AcDbEntity
  8
0
 62
     7
100
AcDbLine
 10
185.0398679999999
 20
81.091002
 30
0.0
 11
184.952018
 21
81.39348100000001
 31
0.0
  0
LINE
  5
3BF
330
A
100
AcDbEntity
  8
0
 62
     7
100
AcDbLine
 10
199.615034
 20
83.07882199999999
 30
0.0
 11
199.615034
 21
82.64129500000001
 31
0.0
  0
LINE
  5
3C0
330
A
100
AcDbEntity
  8
0
 62
     7
100
AcDbLine
 10
199.615034
 20
82.64129500000001
 30
0.0
 11
199.615034
 21
82.346395
 31
0.0
  0
LINE
  5
3C1
330
A
100
AcDbEntity
  8
0
 62
     7
100
AcDbLine
 10
199.615034
 20
82.346395
 30
0.0
 11
199.615034
 21
82.234429
 31
0.0
  0
LINE
  5
3C2
330
A
100
AcDbEntity
  8
0
 62
     7
100
AcDbLine
 10
199.615034
 20
84.99636200000001
 30
0.0
 11
199.615034
 21
84.88439699999998
 31
0.0
  0
LINE
  5
3C3
330
A
100
AcDbEntity
  8
0
 62
     7
100
AcDbLine
 10
199.615034
 20
84.88439699999998
 30
0.0
 11
199.615034
 21
84.58949699999999
 31
0.0
  0
LINE
  5
3C4
330
A
100
AcDbEntity
  8
0
 62
     7
100
AcDbLine
 10
199.615034
 20
84.58949699999999
 30
0.0
 11
199.615034
 21
84.15231400000001
 31
0.0
  0
LINE
  5
3C5
330
A
100
AcDbEntity
  8
0
 62
     7
100
AcDbLine
 10
199.615034
 20
84.15231400000001
 30
0.0
 11
199.615034
 21
83.615568
 31
0.0
  0
LINE
  5
3C6
330
A
100
AcDbEntity
  8
0
 62
     7
100
AcDbLine
 10
199.615034
 20
83.615568
 30
0.0
 11
199.615034
 21
83.07882199999999
 31
0.0
  0
LINE
  5
3C7
330
A
100
AcDbEntity
  8
0
 62
     7
100
AcDbLine
 10
194.615167
 20
84.13543299999998
 30
0.0
 11
194.615167
 21
84.55918
 31
0.0
  0
LINE
  5
3C8
330
A
100
AcDbEntity
  8
0
 62
     7
100
AcDbLine
 10
194.615167
 20
84.55918
 30
0.0
 11
194.615167
 21
84.844778
 31
0.0
  0
LINE
  5
3C9
330
A
100
AcDbEntity
  8
0
 62
     7
100
AcDbLine
 10
194.615167
 20
84.844778
 30
0.0
 11
194.615167
 21
84.953988
 31
0.0
  0
LINE
  5
3CA
330
A
100
AcDbEntity
  8
0
 62
     7
100
AcDbLine
 10
194.615167
 20
82.276804
 30
0.0
 11
194.615167
 21
82.386013
 31
0.0
  0
LINE
  5
3CB
330
A
100
AcDbEntity
  8
0
 62
     7
100
AcDbLine
 10
194.615167
 20
82.386013
 30
0.0
 11
194.615167
 21
82.671612
 31
0.0
  0
LINE
  5
3CC
330
A
100
AcDbEntity
  8
0
 62
     7
100
AcDbLine
 10
194.615167
 20
82.671612
 30
0.0
 11
194.615167
 21
83.095359
 31
0.0
  0
LINE
  5
3CD
330
A
100
AcDbEntity
  8
0
 62
     7
100
AcDbLine
 10
194.615167
 20
83.095359
 30
0.0
 11
194.615167
 21
83.615568
 31
0.0
  0
LINE
  5
3CE
330
A
100
AcDbEntity
  8
0
 62
     7
100
AcDbLine
 10
194.615167
 20
83.615568
 30
0.0
 11
194.615167
 21
84.13543299999998
 31
0.0
  0
LINE
  5
3CF
330
A
100
AcDbEntity
  8
0
 62
     7
100
AcDbLine
 10
194.826695
 20
85.16551599999999
 30
0.0
 11
199.445879
 21
85.16551599999999
 31
0.0
  0
LINE
  5
3D0
330
A
100
AcDbEntity
  8
0
 62
     7
100
AcDbLine
 10
194.826695
 20
82.06527499999999
 30
0.0
 11
199.445879
 21
82.06527499999999
 31
0.0
  0
LINE
  5
3D1
330
A
100
AcDbEntity
  8
0
 62
     7
100
AcDbLine
 10
199.565424
 20
85.11590699999999
 30
0.0
 11
199.615034
 21
84.99636200000001
 31
0.0
  0
LINE
  5
3D2
330
A
100
AcDbEntity
  8
0
 62
     7
100
AcDbLine
 10
199.445879
 20
85.16551599999999
 30
0.0
 11
199.565424
 21
85.11590699999999
 31
0.0
  0
LINE
  5
3D3
330
A
100
AcDbEntity
  8
0
 62
     7
100
AcDbLine
 10
199.565424
 20
85.11590699999999
 30
0.0
 11
199.565424
 21
84.99705099999999
 31
0.0
  0
LINE
  5
3D4
330
A
100
AcDbEntity
  8
0
 62
     7
100
AcDbLine
 10
199.565424
 20
84.99705099999999
 30
0.0
 11
199.565424
 21
84.675624
 31
0.0
  0
LINE
  5
3D5
330
A
100
AcDbEntity
  8
0
 62
     7
100
AcDbLine
 10
199.565424
 20
84.675624
 30
0.0
 11
199.565424
 21
84.19916699999999
 31
0.0
  0
LINE
  5
3D6
330
A
100
AcDbEntity
  8
0
 62
     7
100
AcDbLine
 10
199.565424
 20
84.19916699999999
 30
0.0
 11
199.565424
 21
83.615568
 31
0.0
  0
LINE
  5
3D7
330
A
100
AcDbEntity
  8
0
 62
     7
100
AcDbLine
 10
199.565424
 20
83.615568
 30
0.0
 11
199.565424
 21
83.03162399999999
 31
0.0
  0
LINE
  5
3D8
330
A
100
AcDbEntity
  8
0
 62
     7
100
AcDbLine
 10
199.565424
 20
83.03162399999999
 30
0.0
 11
199.565424
 21
82.555168
 31
0.0
  0
LINE
  5
3D9
330
A
100
AcDbEntity
  8
0
 62
     7
100
AcDbLine
 10
199.565424
 20
82.555168
 30
0.0
 11
199.565424
 21
82.23373999999999
 31
0.0
  0
LINE
  5
3DA
330
A
100
AcDbEntity
  8
0
 62
     7
100
AcDbLine
 10
199.565424
 20
82.23373999999999
 30
0.0
 11
199.565424
 21
82.114884
 31
0.0
  0
LINE
  5
3DB
330
A
100
AcDbEntity
  8
0
 62
     7
100
AcDbLine
 10
199.565424
 20
82.114884
 30
0.0
 11
199.615034
 21
82.234429
 31
0.0
  0
LINE
  5
3DC
330
A
100
AcDbEntity
  8
0
 62
     7
100
AcDbLine
 10
199.445879
 20
82.06527499999999
 30
0.0
 11
199.565424
 21
82.114884
 31
0.0
  0
LINE
  5
3DD
330
A
100
AcDbEntity
  8
0
 62
     7
100
AcDbLine
 10
194.677178
 20
85.10350499999999
 30
0.0
 11
194.826695
 21
85.16551599999999
 31
0.0
  0
LINE
  5
3DE
330
A
100
AcDbEntity
  8
0
 62
     7
100
AcDbLine
 10
194.615167
 20
84.953988
 30
0.0
 11
194.677178
 21
85.10350499999999
 31
0.0
  0
LINE
  5
3DF
330
A
100
AcDbEntity
  8
0
 62
     7
100
AcDbLine
 10
194.677178
 20
85.10350499999999
 30
0.0
 11
194.677178
 21
84.985338
 31
0.0
  0
LINE
  5
3E0
330
A
100
AcDbEntity
  8
0
 62
     7
100
AcDbLine
 10
194.677178
 20
84.985338
 30
0.0
 11
194.677178
 21
84.66701099999999
 31
0.0
  0
LINE
  5
3E1
330
A
100
AcDbEntity
  8
0
 62
     7
100
AcDbLine
 10
194.677178
 20
84.66701099999999
 30
0.0
 11
194.677178
 21
84.194344
 31
0.0
  0
LINE
  5
3E2
330
A
100
AcDbEntity
  8
0
 62
     7
100
AcDbLine
 10
194.677178
 20
84.194344
 30
0.0
 11
194.677178
 21
83.615568
 31
0.0
  0
LINE
  5
3E3
330
A
100
AcDbEntity
  8
0
 62
     7
100
AcDbLine
 10
194.677178
 20
83.615568
 30
0.0
 11
194.677178
 21
83.03644699999999
 31
0.0
  0
LINE
  5
3E4
330
A
100
AcDbEntity
  8
0
 62
     7
100
AcDbLine
 10
194.677178
 20
83.03644699999999
 30
0.0
 11
194.677178
 21
82.56412500000001
 31
0.0
  0
LINE
  5
3E5
330
A
100
AcDbEntity
  8
0
 62
     7
100
AcDbLine
 10
194.677178
 20
82.56412500000001
 30
0.0
 11
194.677178
 21
82.24545400000002
 31
0.0
  0
LINE
  5
3E6
330
A
100
AcDbEntity
  8
0
 62
     7
100
AcDbLine
 10
194.677178
 20
82.24545400000002
 30
0.0
 11
194.677178
 21
82.12728699999999
 31
0.0
  0
LINE
  5
3E7
330
A
100
AcDbEntity
  8
0
 62
     7
100
AcDbLine
 10
194.677178
 20
82.12728699999999
 30
0.0
 11
194.826695
 21
82.06527499999999
 31
0.0
  0
LINE
  5
3E8
330
A
100
AcDbEntity
  8
0
 62
     7
100
AcDbLine
 10
194.615167
 20
82.276804
 30
0.0
 11
194.677178
 21
82.12728699999999
 31
0.0
  0
DIMENSION
  5
6C2
330
A
100
AcDbEntity
  8
0
  6
Continuous
370
     0
100
AcDbDimension
  2
*D3
 10
199.615034
 20
91.66918697442753
 30
0.0
 11
184.379788
 21
94.10192912995276
 31
0.0
 70
    32
  1
30.5
 71
     5
 42
30.47049200000001
 73
     0
 74
     0
 75
     0
  3
Cotation-Jacob-Delafon
100
AcDbAlignedDimension
 13
169.144542
 23
84.675624
 33
0.0
 14
199.615034
 24
84.73694699999999
 34
0.0
100
AcDbRotatedDimension
  0
DIMENSION
  5
6CF
330
A
100
AcDbEntity
  8
0
  6
Continuous
370
     0
100
AcDbDimension
  2
*D4
 10
167.5534974690969
 20
76.415318
 30
0.0
 11
165.1217785059318
 21
80.85797100000004
 31
0.0
 70
    32
  1
8.9
 71
     5
 42
8.885305999999999
 73
     0
 74
     0
 75
     0
  3
Cotation-Jacob-Delafon
100
AcDbAlignedDimension
 13
169.144542
 23
85.300624
 33
0.0
 14
174.362828
 24
76.415318
 34
0.0
 50
90.0
100
AcDbRotatedDimension
  0
ENDSEC
  0
SECTION
  2
OBJECTS
  0
DICTIONARY
  5
19
330
0
100
AcDbDictionary
281
     1
  3
ACAD_COLOR
350
17A
  3
ACAD_GROUP
350
1A
  3
ACAD_IMAGE_DICT
350
6AE
  3
ACAD_LAYOUT
350
1E
  3
ACAD_MATERIAL
350
150
  3
ACAD_MLEADERSTYLE
350
18F
  3
ACAD_MLINESTYLE
350
1B
  3
ACAD_PLOTSETTINGS
350
22
  3
ACAD_PLOTSTYLENAME
350
1F
  3
ACAD_SCALELIST
350
17D
  3
ACAD_TABLESTYLE
350
17B
  3
ACAD_VISUALSTYLE
350
169
  3
ACAD_WIPEOUT_VARS
350
23
  3
ACDB_RECOMPOSE_DATA
350
2C4
  3
AcDbVariableDictionary
350
2C5
  3
AEC_DISP_REP_CONFIGURATIONS
350
54F
  3
AEC_DISP_REP_SETS
350
551
  3
AEC_DISP_REPS
350
55B
  3
AEC_DISPLAY_PROPS_DEFAULTS
350
602
  3
AEC_LAYERKEY_STYLES
350
6A4
  3
AEC_PROPERTY_SET_DEFS
350
6B7
  3
AEC_VARS
350
6A7
  0
DICTIONARY
  5
2BC
330
14
100
AcDbDictionary
280
     1
281
     1
  3
ADSK_XREC_LAYER_RECONCILED
360
2BD
  0
DICTIONARY
  5
3F7
330
A
100
AcDbDictionary
280
     1
281
     1
  3
ACAD_SORTENTS
360
3F8
  0
DICTIONARY
  5
17A
102
{ACAD_REACTORS
330
19
102
}
330
19
100
AcDbDictionary
281
     1
  0
DICTIONARY
  5
1A
102
{ACAD_REACTORS
330
19
102
}
330
19
100
AcDbDictionary
281
     1
  0
DICTIONARY
  5
6AE
102
{ACAD_REACTORS
330
19
102
}
330
19
100
AcDbDictionary
281
     1
  3
E1524
350
6AF
  3
E1525
350
6B0
  3
E1540
350
6B1
  3
E1563
350
6B2
  3
E1564-1
350
6B3
  3
E1565
350
6B4
  3
PP141221-02a
350
6B5
  0
DICTIONARY
  5
1E
102
{ACAD_REACTORS
330
19
102
}
330
19
100
AcDbDictionary
281
     1
  3
Layout1
350
21
  3
Model
350
20
  0
DICTIONARY
  5
150
102
{ACAD_REACTORS
330
19
102
}
330
19
100
AcDbDictionary
281
     1
  3
ByBlock
350
159
  3
ByLayer
350
151
  3
Global
350
161
  0
DICTIONARY
  5
18F
102
{ACAD_REACTORS
330
19
102
}
330
19
100
AcDbDictionary
281
     1
  3
Standard
350
190
  0
DICTIONARY
  5
1B
102
{ACAD_REACTORS
330
19
102
}
330
19
100
AcDbDictionary
281
     1
  3
Standard
350
1C
  0
DICTIONARY
  5
22
102
{ACAD_REACTORS
330
19
102
}
330
19
100
AcDbDictionary
281
     1
  0
ACDBDICTIONARYWDFLT
  5
1F
102
{ACAD_REACTORS
330
19
102
}
330
19
100
AcDbDictionary
281
     1
  3
Normal
350
1D
100
AcDbDictionaryWithDefault
340
1D
  0
DICTIONARY
  5
17D
102
{ACAD_REACTORS
330
19
102
}
330
19
100
AcDbDictionary
281
     1
  3
*A1
350
423
  3
*A2
350
424
  3
*A3
350
6F7
  3
*A4
350
6F8
  3
*A5
350
6F9
  3
*A6
350
6FA
  3
*A7
350
6FB
  3
*A8
350
6FC
  3
*A9
350
6FD
  3
A0
350
17E
  3
A1
350
17F
  3
A2
350
180
  3
A3
350
181
  3
A4
350
182
  3
A5
350
183
  3
A6
350
184
  3
A7
350
185
  3
A8
350
186
  3
A9
350
187
  3
B0
350
188
  3
B1
350
189
  3
B2
350
18A
  3
B3
350
18B
  3
B4
350
18C
  3
B5
350
18D
  3
B6
350
18E
  0
DICTIONARY
  5
17B
102
{ACAD_REACTORS
330
19
102
}
330
19
100
AcDbDictionary
281
     1
  3
Standard
350
17C
  0
DICTIONARY
  5
169
102
{ACAD_REACTORS
330
19
102
}
330
19
100
AcDbDictionary
281
     1
  3
2dWireframe
350
16F
  3
3D Hidden
350
171
  3
3dWireframe
350
170
  3
Basic
350
16E
  3
Brighten
350
175
  3
ColorChange
350
179
  3
Conceptual
350
172
  3
Dim
350
174
  3
Facepattern
350
178
  3
Flat
350
16A
  3
FlatWithEdges
350
16B
  3
Gouraud
350
16C
  3
GouraudWithEdges
350
16D
  3
Linepattern
350
177
  3
Realistic
350
173
  3
Thicken
350
176
  0
WIPEOUTVARIABLES
  5
23
330
19
100
AcDbWipeoutVariables
 70
     1
  0
XRECORD
  5
2C4
102
{ACAD_REACTORS
330
19
102
}
330
19
100
AcDbXrecord
280
     1
 90
        1
330
17C
  0
DICTIONARY
  5
2C5
102
{ACAD_REACTORS
330
19
102
}
330
19
100
AcDbDictionary
281
     1
  3
CANNOSCALE
350
2C9
  3
CMLEADERSTYLE
350
2C7
  3
CTABLESTYLE
350
2C6
  3
LAYEREVAL
350
2CB
  3
LAYERNOTIFY
350
2CC
  3
LIGHTINGUNITS
350
2CA
  3
MSLTSCALE
350
2C8
  0
DICTIONARY
  5
54F
102
{ACAD_REACTORS
330
19
102
}
330
19
100
AcDbDictionary
281
     1
  3
Standard
350
550
1001
AECBASE
1070
 10000
1005
550
  0
DICTIONARY
  5
551
102
{ACAD_REACTORS
330
19
102
}
330
19
100
AcDbDictionary
281
     1
  3
Live Section
350
552
  3
Model
350
553
  3
Modèle détaillé
350
554
  3
Modèle non détaillé
350
555
  3
Plan
350
556
  3
Plan 1-100
350
557
  3
Plan 1-50
350
558
  3
Reflected
350
559
  3
Section_Elev
350
55A
  0
DICTIONARY
  5
55B
102
{ACAD_REACTORS
330
19
102
}
330
19
100
AcDbDictionary
281
     1
  3
AecDbDispRep2dSection
350
55C
  3
AecDbDispRepAnchor
350
55D
  3
AecDbDispRepAnchorBubToGrid
350
55E
  3
AecDbDispRepAnchorBubToGridMdl
350
55F
  3
AecDbDispRepAnchorBubToGridRcp
350
560
  3
AecDbDispRepAnchorEntToNode
350
561
  3
AecDbDispRepAnchorExtendedTagToEnt
350
562
  3
AecDbDispRepAnchorTagToEnt
350
563
  3
AecDbDispRepBdgElevLineModel
350
564
  3
AecDbDispRepBdgElevLinePlan
350
565
  3
AecDbDispRepBdgElevLinePlan100
350
566
  3
AecDbDispRepBdgElevLinePlan50
350
567
  3
AecDbDispRepBdgElevLineRcp
350
568
  3
AecDbDispRepBdgSectionLineModel
350
569
  3
AecDbDispRepBdgSectionLinePlan
350
56A
  3
AecDbDispRepBdgSectionLinePlan100
350
56B
  3
AecDbDispRepBdgSectionLinePlan50
350
56C
  3
AecDbDispRepBdgSectionLineRcp
350
56D
  3
AecDbDispRepBdgSectionModel
350
56E
  3
AecDbDispRepBdgSectionSubDiv
350
56F
  3
AecDbDispRepCeilingGrid
350
570
  3
AecDbDispRepCeilingGridModel
350
571
  3
AecDbDispRepCeilingGridPlan100
350
572
  3
AecDbDispRepCeilingGridPlan50
350
573
  3
AecDbDispRepCeilingGridRcp
350
574
  3
AecDbDispRepClipVolModel
350
575
  3
AecDbDispRepClipVolPlan
350
576
  3
AecDbDispRepClipVolResSubDiv
350
577
  3
AecDbDispRepClipVolResult
350
578
  3
AecDbDispRepColumnGrid
350
579
  3
AecDbDispRepColumnGridModel
350
57A
  3
AecDbDispRepColumnGridPlan100
350
57B
  3
AecDbDispRepColumnGridPlan50
350
57C
  3
AecDbDispRepColumnGridRcp
350
57D
  3
AecDbDispRepCurtainWallLayoutModel
350
57E
  3
AecDbDispRepCurtainWallLayoutPlan
350
57F
  3
AecDbDispRepCurtainWallLayoutPlan100
350
580
  3
AecDbDispRepCurtainWallLayoutPlan50
350
581
  3
AecDbDispRepCurtainWallLayoutXSection
350
582
  3
AecDbDispRepCurtainWallUnitModel
350
583
  3
AecDbDispRepCurtainWallUnitPlan
350
584
  3
AecDbDispRepCurtainWallUnitPlan100
350
585
  3
AecDbDispRepCurtainWallUnitPlan50
350
586
  3
AecDbDispRepCurtainWallUnitXSection
350
587
  3
AecDbDispRepDimGroupPlan
350
588
  3
AecDbDispRepDimGroupPlan100
350
589
  3
AecDbDispRepDimGroupPlan50
350
58A
  3
AecDbDispRepDisplayTheme
350
58B
  3
AecDbDispRepDoorElev
350
58C
  3
AecDbDispRepDoorModel
350
58D
  3
AecDbDispRepDoorNominal
350
58E
  3
AecDbDispRepDoorPlan
350
58F
  3
AecDbDispRepDoorPlan50
350
590
  3
AecDbDispRepDoorPlanHekto
350
591
  3
AecDbDispRepDoorRcp
350
592
  3
AecDbDispRepDoorThresholdPlan
350
593
  3
AecDbDispRepDoorThresholdSymbolPlan
350
594
  3
AecDbDispRepDoorXSection
350
595
  3
AecDbDispRepEditInPlaceProfile
350
596
  3
AecDbDispRepEntRef
350
597
  3
AecDbDispRepLayoutCurve
350
598
  3
AecDbDispRepLayoutGrid2d
350
599
  3
AecDbDispRepLayoutGrid3d
350
59A
  3
AecDbDispRepMaskBlockRef
350
59B
  3
AecDbDispRepMaskBlockRefRcp
350
59C
  3
AecDbDispRepMassElemModel
350
59D
  3
AecDbDispRepMassElemPlan100
350
59E
  3
AecDbDispRepMassElemPlan50
350
59F
  3
AecDbDispRepMassElemRcp
350
5A0
  3
AecDbDispRepMassElemSchem
350
5A1
  3
AecDbDispRepMassElemXSection
350
5A2
  3
AecDbDispRepMassGroupModel
350
5A3
  3
AecDbDispRepMassGroupPlan
350
5A4
  3
AecDbDispRepMassGroupPlan100
350
5A5
  3
AecDbDispRepMassGroupPlan50
350
5A6
  3
AecDbDispRepMassGroupRcp
350
5A7
  3
AecDbDispRepMassGroupXSection
350
5A8
  3
AecDbDispRepMaterial
350
5A9
  3
AecDbDispRepMemberXSection
350
5AA
  3
AecDbDispRepMvBlockRef
350
5AB
  3
AecDbDispRepMvBlockRefModel
350
5AC
  3
AecDbDispRepMvBlockRefPlan100
350
5AD
  3
AecDbDispRepMvBlockRefPlan50
350
5AE
  3
AecDbDispRepMvBlockRefRcp
350
5AF
  3
AecDbDispRepOpening
350
5B0
  3
AecDbDispRepOpeningModel
350
5B1
  3
AecDbDispRepOpeningPlan100
350
5B2
  3
AecDbDispRepOpeningPlan50
350
5B3
  3
AecDbDispRepOpeningPlanReflected
350
5B4
  3
AecDbDispRepOpeningSillPlan
350
5B5
  3
AecDbDispRepPolygonModel
350
5B6
  3
AecDbDispRepPolygonTrueColour
350
5B7
  3
AecDbDispRepRailingModel
350
5B8
  3
AecDbDispRepRailingPlan
350
5B9
  3
AecDbDispRepRailingPlan100
350
5BA
  3
AecDbDispRepRailingPlan50
350
5BB
  3
AecDbDispRepRailingXSection
350
5BC
  3
AecDbDispRepRoofModel
350
5BD
  3
AecDbDispRepRoofPlan
350
5BE
  3
AecDbDispRepRoofPlan100
350
5BF
  3
AecDbDispRepRoofPlan50
350
5C0
  3
AecDbDispRepRoofRcp
350
5C1
  3
AecDbDispRepRoofSlabModel
350
5C2
  3
AecDbDispRepRoofSlabPlan
350
5C3
  3
AecDbDispRepRoofSlabPlan100
350
5C4
  3
AecDbDispRepRoofSlabPlan50
350
5C5
  3
AecDbDispRepRoofSlabXSection
350
5C6
  3
AecDbDispRepRoofXSection
350
5C7
  3
AecDbDispRepScheduleTable
350
5C8
  3
AecDbDispRepSlabModel
350
5C9
  3
AecDbDispRepSlabPlan
350
5CA
  3
AecDbDispRepSlabPlan100
350
5CB
  3
AecDbDispRepSlabPlan50
350
5CC
  3
AecDbDispRepSlabXSection
350
5CD
  3
AecDbDispRepSlice
350
5CE
  3
AecDbDispRepSpaceDecomposed
350
5CF
  3
AecDbDispRepSpaceModel
350
5D0
  3
AecDbDispRepSpacePlan
350
5D1
  3
AecDbDispRepSpacePlan100
350
5D2
  3
AecDbDispRepSpacePlan50
350
5D3
  3
AecDbDispRepSpaceRcp
350
5D4
  3
AecDbDispRepSpaceVolume
350
5D5
  3
AecDbDispRepSpaceXSection
350
5D6
  3
AecDbDispRepStairModel
350
5D7
  3
AecDbDispRepStairPlan
350
5D8
  3
AecDbDispRepStairPlan100
350
5D9
  3
AecDbDispRepStairPlan50
350
5DA
  3
AecDbDispRepStairPlanOverlapping
350
5DB
  3
AecDbDispRepStairRcp
350
5DC
  3
AecDbDispRepStairXSection
350
5DD
  3
AecDbDispRepWallGraph
350
5DE
  3
AecDbDispRepWallModel
350
5DF
  3
AecDbDispRepWallPlan
350
5E0
  3
AecDbDispRepWallPlan100
350
5E1
  3
AecDbDispRepWallPlan50
350
5E2
  3
AecDbDispRepWallRcp
350
5E3
  3
AecDbDispRepWallSchem
350
5E4
  3
AecDbDispRepWallXSection
350
5E5
  3
AecDbDispRepWindowAssemblyModel
350
5E6
  3
AecDbDispRepWindowAssemblyPlan
350
5E7
  3
AecDbDispRepWindowAssemblyPlan100
350
5E8
  3
AecDbDispRepWindowAssemblyPlan50
350
5E9
  3
AecDbDispRepWindowAssemblySillPlan
350
5EA
  3
AecDbDispRepWindowAssemblyXSection
350
5EB
  3
AecDbDispRepWindowElev
350
5EC
  3
AecDbDispRepWindowModel
350
5ED
  3
AecDbDispRepWindowNominal
350
5EE
  3
AecDbDispRepWindowPlan
350
5EF
  3
AecDbDispRepWindowPlan100
350
5F0
  3
AecDbDispRepWindowPlan50
350
5F1
  3
AecDbDispRepWindowRcp
350
5F2
  3
AecDbDispRepWindowSillPlan
350
5F3
  3
AecDbDispRepWindowXSection
350
5F4
  3
AecDbDispRepZone
350
5F5
  3
AecDbDispRepZonePlan100
350
5F6
  3
AecDbDispRepZonePlan50
350
5F7
  3
AecsDbDispRepMemberElevationDesign
350
5F8
  3
AecsDbDispRepMemberElevationDetail
350
5F9
  3
AecsDbDispRepMemberLogical
350
5FA
  3
AecsDbDispRepMemberModelDesign
350
5FB
  3
AecsDbDispRepMemberModelDetail
350
5FC
  3
AecsDbDispRepMemberPlanDesign
350
5FD
  3
AecsDbDispRepMemberPlanDesign$Plan 1_100 (3.3)
350
5FE
  3
AecsDbDispRepMemberPlanDesign$Plan 1_50 (3.3)
350
5FF
  3
AecsDbDispRepMemberPlanDetail
350
600
  3
AecsDbDispRepMemberPlanSketch
350
601
  0
DICTIONARY
  5
602
102
{ACAD_REACTORS
330
19
102
}
330
19
100
AcDbDictionary
281
     1
  3
*A1
350
603
  3
*A10
350
60C
  3
*A100
350
666
  3
*A101
350
667
  3
*A102
350
668
  3
*A103
350
669
  3
*A104
350
66A
  3
*A105
350
66B
  3
*A106
350
66C
  3
*A107
350
66D
  3
*A108
350
66E
  3
*A109
350
66F
  3
*A11
350
60D
  3
*A110
350
670
  3
*A111
350
671
  3
*A112
350
672
  3
*A113
350
673
  3
*A114
350
674
  3
*A115
350
675
  3
*A116
350
676
  3
*A117
350
677
  3
*A118
350
678
  3
*A119
350
679
  3
*A12
350
60E
  3
*A120
350
67A
  3
*A121
350
67B
  3
*A122
350
67C
  3
*A123
350
67D
  3
*A124
350
67E
  3
*A125
350
67F
  3
*A126
350
680
  3
*A127
350
681
  3
*A128
350
682
  3
*A129
350
683
  3
*A13
350
60F
  3
*A130
350
684
  3
*A131
350
685
  3
*A132
350
686
  3
*A133
350
687
  3
*A134
350
688
  3
*A135
350
689
  3
*A136
350
68A
  3
*A137
350
68B
  3
*A138
350
68C
  3
*A139
350
68D
  3
*A14
350
610
  3
*A140
350
68E
  3
*A141
350
68F
  3
*A142
350
690
  3
*A143
350
691
  3
*A144
350
692
  3
*A145
350
693
  3
*A146
350
694
  3
*A147
350
695
  3
*A148
350
696
  3
*A149
350
697
  3
*A15
350
611
  3
*A150
350
698
  3
*A151
350
699
  3
*A152
350
69A
  3
*A153
350
69B
  3
*A154
350
69C
  3
*A155
350
69D
  3
*A156
350
69E
  3
*A157
350
69F
  3
*A158
350
6A0
  3
*A159
350
6A1
  3
*A16
350
612
  3
*A160
350
6A2
  3
*A161
350
6A3
  3
*A17
350
613
  3
*A18
350
614
  3
*A19
350
615
  3
*A2
350
604
  3
*A20
350
616
  3
*A21
350
617
  3
*A22
350
618
  3
*A23
350
619
  3
*A24
350
61A
  3
*A25
350
61B
  3
*A26
350
61C
  3
*A27
350
61D
  3
*A28
350
61E
  3
*A29
350
61F
  3
*A3
350
605
  3
*A30
350
620
  3
*A31
350
621
  3
*A32
350
622
  3
*A33
350
623
  3
*A34
350
624
  3
*A35
350
625
  3
*A36
350
626
  3
*A37
350
627
  3
*A38
350
628
  3
*A39
350
629
  3
*A4
350
606
  3
*A40
350
62A
  3
*A41
350
62B
  3
*A42
350
62C
  3
*A43
350
62D
  3
*A44
350
62E
  3
*A45
350
62F
  3
*A46
350
630
  3
*A47
350
631
  3
*A48
350
632
  3
*A49
350
633
  3
*A5
350
607
  3
*A50
350
634
  3
*A51
350
635
  3
*A52
350
636
  3
*A53
350
637
  3
*A54
350
638
  3
*A55
350
639
  3
*A56
350
63A
  3
*A57
350
63B
  3
*A58
350
63C
  3
*A59
350
63D
  3
*A6
350
608
  3
*A60
350
63E
  3
*A61
350
63F
  3
*A62
350
640
  3
*A63
350
641
  3
*A64
350
642
  3
*A65
350
643
  3
*A66
350
644
  3
*A67
350
645
  3
*A68
350
646
  3
*A69
350
647
  3
*A7
350
609
  3
*A70
350
648
  3
*A71
350
649
  3
*A72
350
64A
  3
*A73
350
64B
  3
*A74
350
64C
  3
*A75
350
64D
  3
*A76
350
64E
  3
*A77
350
64F
  3
*A78
350
650
  3
*A79
350
651
  3
*A8
350
60A
  3
*A80
350
652
  3
*A81
350
653
  3
*A82
350
654
  3
*A83
350
655
  3
*A84
350
656
  3
*A85
350
657
  3
*A86
350
658
  3
*A87
350
659
  3
*A88
350
65A
  3
*A89
350
65B
  3
*A9
350
60B
  3
*A90
350
65C
  3
*A91
350
65D
  3
*A92
350
65E
  3
*A93
350
65F
  3
*A94
350
660
  3
*A95
350
661
  3
*A96
350
662
  3
*A97
350
663
  3
*A98
350
664
  3
*A99
350
665
  0
DICTIONARY
  5
6A4
102
{ACAD_REACTORS
330
19
102
}
330
19
100
AcDbDictionary
281
     1
  3
Architectural Desktop
350
6A5
  3
Standard
350
6A6
  0
DICTIONARY
  5
6B7
102
{ACAD_REACTORS
330
19
102
}
330
19
100
AcDbDictionary
281
     1
  0
DICTIONARY
  5
6A7
102
{ACAD_REACTORS
330
19
102
}
330
19
100
AcDbDictionary
281
     1
  3
AEC_VARS_ARCHBASE
350
6A8
  3
AEC_VARS_DWG_SETUP
350
6AB
  0
XRECORD
  5
2BD
102
{ACAD_REACTORS
330
2BC
102
}
330
2BC
100
AcDbXrecord
280
     1
290
     1
  0
SORTENTSTABLE
  5
3F8
102
{ACAD_REACTORS
330
3F7
102
}
330
3F7
100
AcDbSortentsTable
330
A
331
2E0
  5
2E0
331
3D4
  5
3D4
331
2E8
  5
2E8
331
327
  5
327
331
35E
  5
35E
331
39D
  5
39D
331
366
  5
366
331
3A5
  5
3A5
331
3DC
  5
3DC
331
2F0
  5
2F0
331
32F
  5
32F
331
337
  5
337
331
36E
  5
36E
331
3AD
  5
3AD
331
3E4
  5
3E4
331
2F8
  5
2F8
331
376
  5
376
331
300
  5
300
331
308
  5
308
331
33F
  5
33F
331
37E
  5
37E
331
3B5
  5
3B5
331
310
  5
310
331
347
  5
347
331
386
  5
386
331
3BD
  5
3BD
331
3C5
  5
3C5
331
2D9
  5
2D9
331
318
  5
318
331
34F
  5
34F
331
38E
  5
38E
331
357
  5
357
331
396
  5
396
331
3CD
  5
3CD
331
2E1
  5
2E1
331
320
  5
320
331
328
  5
328
331
35F
  5
35F
331
39E
  5
39E
331
3D5
  5
3D5
331
2E9
  5
2E9
331
330
  5
330
331
367
  5
367
331
3A6
  5
3A6
331
3DD
  5
3DD
331
2F1
  5
2F1
331
3E5
  5
3E5
331
2F9
  5
2F9
331
36F
  5
36F
331
3AE
  5
3AE
331
377
  5
377
331
301
  5
301
331
338
  5
338
331
37F
  5
37F
331
3B6
  5
3B6
331
309
  5
309
331
340
  5
340
331
311
  5
311
331
348
  5
348
331
387
  5
387
331
3BE
  5
3BE
331
2D2
  5
2D2
331
319
  5
319
331
350
  5
350
331
38F
  5
38F
331
3C6
  5
3C6
331
2DA
  5
2DA
331
397
  5
397
331
3CE
  5
3CE
331
321
  5
321
331
358
  5
358
331
2E2
  5
2E2
331
3D6
  5
3D6
331
2EA
  5
2EA
331
329
  5
329
331
360
  5
360
331
39F
  5
39F
331
368
  5
368
331
3A7
  5
3A7
331
3DE
  5
3DE
331
2F2
  5
2F2
331
331
  5
331
331
370
  5
370
331
3AF
  5
3AF
331
3E6
  5
3E6
331
2FA
  5
2FA
331
302
  5
302
331
339
  5
339
331
378
  5
378
331
30A
  5
30A
331
341
  5
341
331
380
  5
380
331
3B7
  5
3B7
331
312
  5
312
331
349
  5
349
331
388
  5
388
331
3BF
  5
3BF
331
2D3
  5
2D3
331
390
  5
390
331
3C7
  5
3C7
331
2DB
  5
2DB
331
31A
  5
31A
331
351
  5
351
331
3CF
  5
3CF
331
322
  5
322
331
359
  5
359
331
398
  5
398
331
2E3
  5
2E3
331
32A
  5
32A
331
361
  5
361
331
3A0
  5
3A0
331
3D7
  5
3D7
331
2EB
  5
2EB
331
332
  5
332
331
369
  5
369
331
3A8
  5
3A8
331
3DF
  5
3DF
331
2F3
  5
2F3
331
3E7
  5
3E7
331
2FB
  5
2FB
331
371
  5
371
331
303
  5
303
331
33A
  5
33A
331
379
  5
379
331
3B0
  5
3B0
331
381
  5
381
331
3B8
  5
3B8
331
30B
  5
30B
331
342
  5
342
331
313
  5
313
331
34A
  5
34A
331
389
  5
389
331
3C0
  5
3C0
331
2D4
  5
2D4
331
31B
  5
31B
331
352
  5
352
331
391
  5
391
331
3C8
  5
3C8
331
2DC
  5
2DC
331
323
  5
323
331
35A
  5
35A
331
399
  5
399
331
3D0
  5
3D0
331
2E4
  5
2E4
331
3A1
  5
3A1
331
3D8
  5
3D8
331
2EC
  5
2EC
331
32B
  5
32B
331
362
  5
362
331
333
  5
333
331
36A
  5
36A
331
3A9
  5
3A9
331
3E0
  5
3E0
331
2F4
  5
2F4
331
372
  5
372
331
3E8
  5
3E8
331
2FC
  5
2FC
331
304
  5
304
331
33B
  5
33B
331
37A
  5
37A
331
3B1
  5
3B1
331
30C
  5
30C
331
343
  5
343
331
382
  5
382
331
3B9
  5
3B9
331
2D5
  5
2D5
331
314
  5
314
331
34B
  5
34B
331
38A
  5
38A
331
3C1
  5
3C1
331
392
  5
392
331
3C9
  5
3C9
331
2DD
  5
2DD
331
31C
  5
31C
331
353
  5
353
331
324
  5
324
331
35B
  5
35B
331
39A
  5
39A
331
3D1
  5
3D1
331
2E5
  5
2E5
331
32C
  5
32C
331
363
  5
363
331
3A2
  5
3A2
331
3D9
  5
3D9
331
2ED
  5
2ED
331
334
  5
334
331
36B
  5
36B
331
3AA
  5
3AA
331
3E1
  5
3E1
331
2F5
  5
2F5
331
2FD
  5
2FD
331
373
  5
373
331
3B2
  5
3B2
331
305
  5
305
331
33C
  5
33C
331
37B
  5
37B
331
344
  5
344
331
383
  5
383
331
3BA
  5
3BA
331
30D
  5
30D
331
315
  5
315
331
34C
  5
34C
331
38B
  5
38B
331
3C2
  5
3C2
331
2D6
  5
2D6
331
31D
  5
31D
331
354
  5
354
331
393
  5
393
331
3CA
  5
3CA
331
2DE
  5
2DE
331
2E6
  5
2E6
331
325
  5
325
331
35C
  5
35C
331
39B
  5
39B
331
3D2
  5
3D2
331
3A3
  5
3A3
331
3DA
  5
3DA
331
2EE
  5
2EE
331
32D
  5
32D
331
364
  5
364
331
335
  5
335
331
36C
  5
36C
331
3AB
  5
3AB
331
3E2
  5
3E2
331
2F6
  5
2F6
331
374
  5
374
331
2FE
  5
2FE
331
306
  5
306
331
33D
  5
33D
331
37C
  5
37C
331
3B3
  5
3B3
331
30E
  5
30E
331
345
  5
345
331
384
  5
384
331
3BB
  5
3BB
331
3C3
  5
3C3
331
2D7
  5
2D7
331
316
  5
316
331
34D
  5
34D
331
38C
  5
38C
331
355
  5
355
331
394
  5
394
331
3CB
  5
3CB
331
2DF
  5
2DF
331
31E
  5
31E
331
326
  5
326
331
35D
  5
35D
331
39C
  5
39C
331
3D3
  5
3D3
331
2E7
  5
2E7
331
32E
  5
32E
331
365
  5
365
331
3A4
  5
3A4
331
3DB
  5
3DB
331
2EF
  5
2EF
331
2F7
  5
2F7
331
336
  5
336
331
36D
  5
36D
331
3AC
  5
3AC
331
3E3
  5
3E3
331
2FF
  5
2FF
331
375
  5
375
331
3B4
  5
3B4
331
307
  5
307
331
33E
  5
33E
331
37D
  5
37D
331
346
  5
346
331
385
  5
385
331
3BC
  5
3BC
331
30F
  5
30F
331
317
  5
317
331
34E
  5
34E
331
38D
  5
38D
331
3C4
  5
3C4
331
2D8
  5
2D8
331
31F
  5
31F
331
356
  5
356
331
395
  5
395
331
3CC
  5
3CC
  0
IMAGEDEF
  5
6AF
102
{ACAD_REACTORS
330
6AE
102
}
330
6AE
100
AcDbRasterImageDef
 90
        0
  1
I:\Documents and Settings\Tina\My Documents\CAOplus-anushfar\jpg\E1524.jpg
 10
557.0
 20
804.0
 11
0.3527777777777778
 21
0.3527777777777778
280
     1
281
     5
  0
IMAGEDEF
  5
6B0
102
{ACAD_REACTORS
330
6AE
102
}
330
6AE
100
AcDbRasterImageDef
 90
        0
  1
I:\Documents and Settings\Tina\My Documents\CAOplus-anushfar\jpg\E1525.jpg
 10
557.0
 20
804.0
 11
0.3527777777777778
 21
0.3527777777777778
280
     1
281
     5
  0
IMAGEDEF
  5
6B1
102
{ACAD_REACTORS
330
6AE
102
}
330
6AE
100
AcDbRasterImageDef
 90
        0
  1
I:\Documents and Settings\Tina\My Documents\CAOplus-anushfar\jpg\E1540.jpg
 10
557.0
 20
804.0
 11
0.3527777777777778
 21
0.3527777777777778
280
     1
281
     5
  0
IMAGEDEF
  5
6B2
102
{ACAD_REACTORS
330
6AE
102
}
330
6AE
100
AcDbRasterImageDef
 90
        0
  1
I:\Documents and Settings\Tina\My Documents\CAOplus-anushfar\jpg\E1563.jpg
 10
557.0
 20
804.0
 11
0.3527777777777778
 21
0.3527777777777778
280
     1
281
     5
  0
IMAGEDEF
  5
6B3
102
{ACAD_REACTORS
330
6AE
102
}
330
6AE
100
AcDbRasterImageDef
 90
        0
  1
I:\Documents and Settings\Tina\My Documents\CAOplus-anushfar\jpg\E1564-1.jpg
 10
557.0
 20
804.0
 11
0.3527777777777778
 21
0.3527777777777778
280
     1
281
     5
  0
IMAGEDEF
  5
6B4
102
{ACAD_REACTORS
330
6AE
102
}
330
6AE
100
AcDbRasterImageDef
 90
        0
  1
I:\Documents and Settings\Tina\My Documents\CAOplus-anushfar\jpg\E1565.jpg
 10
557.0
 20
804.0
 11
0.3527777777777778
 21
0.3527777777777778
280
     1
281
     5
  0
IMAGEDEF
  5
6B5
102
{ACAD_REACTORS
330
6AE
102
}
330
6AE
100
AcDbRasterImageDef
 90
        0
  1
E:\Documents and Settings\Tina\My Documents\CAOplus-anushfar\jpg\PP141221-02a.jpg
 10
557.0
 20
812.0
 11
0.3527777777777778
 21
0.3527777777777778
280
     1
281
     5
  0
LAYOUT
  5
21
102
{ACAD_REACTORS
330
1E
102
}
330
1E
100
AcDbPlotSettings
  1

  2

  4

  6

 40
0.0
 41
0.0
 42
0.0
 43
0.0
 44
0.0
 45
0.0
 46
0.0
 47
0.0
 48
0.0
 49
0.0
140
0.0
141
0.0
142
1.0
143
1.0
 70
     0
 72
     0
 73
     0
 74
     0
  7

 75
     0
147
1.0
 76
     0
 77
     2
 78
   300
148
0.0
149
0.0
100
AcDbLayout
  1
Layout1
 70
     0
 71
     1
 10
0.0
 20
0.0
 11
12.0
 21
9.0
 12
0.0
 22
0.0
 32
0.0
 14
1.000000000000000E+20
 24
1.000000000000000E+20
 34
1.000000000000000E+20
 15
-1.000000000000000E+20
 25
-1.000000000000000E+20
 35
-1.000000000000000E+20
146
0.0
 13
0.0
 23
0.0
 33
0.0
 16
1.0
 26
0.0
 36
0.0
 17
0.0
 27
1.0
 37
0.0
 76
     0
330
B
  0
LAYOUT
  5
20
102
{ACAD_REACTORS
330
1E
102
}
330
1E
100
AcDbPlotSettings
  1

  2

  4

  6

 40
0.0
 41
0.0
 42
0.0
 43
0.0
 44
0.0
 45
0.0
 46
0.0
 47
0.0
 48
0.0
 49
0.0
140
0.0
141
0.0
142
1.0
143
1.0
 70
  1024
 72
     0
 73
     0
 74
     0
  7

 75
     0
147
1.0
 76
     0
 77
     2
 78
   300
148
0.0
149
0.0
100
AcDbLayout
  1
Model
 70
     0
 71
     0
 10
0.0
 20
0.0
 11
0.0
 21
0.0
 12
0.0
 22
0.0
 32
0.0
 14
0.0
 24
0.0
 34
0.0
 15
0.0
 25
0.0
 35
0.0
146
0.0
 13
0.0
 23
0.0
 33
0.0
 16
0.0
 26
0.0
 36
0.0
 17
0.0
 27
0.0
 37
0.0
 76
     0
330
A
331
15
  0
MATERIAL
  5
159
102
{ACAD_XDICTIONARY
360
15A
102
}
102
{ACAD_REACTORS
330
150
102
}
330
150
100
AcDbMaterial
  1
ByBlock
 72
     0
 43
0.0208333333333333
 43
0.0
 43
0.0
 43
0.0
 43
0.0
 43
0.0208333333333333
 43
0.0
 43
0.0
 43
0.0
 43
0.0
 43
1.0
 43
0.0
 43
0.0
 43
0.0
 43
0.0
 43
1.0
 77
     0
 47
0.0208333333333333
 47
0.0
 47
0.0
 47
0.0
 47
0.0
 47
0.0208333333333333
 47
0.0
 47
0.0
 47
0.0
 47
0.0
 47
1.0
 47
0.0
 47
0.0
 47
0.0
 47
0.0
 47
1.0
171
     0
 49
0.0208333333333333
 49
0.0
 49
0.0
 49
0.0
 49
0.0
 49
0.0208333333333333
 49
0.0
 49
0.0
 49
0.0
 49
0.0
 49
1.0
 49
0.0
 49
0.0
 49
0.0
 49
0.0
 49
1.0
175
     0
142
0.0208333333333333
142
0.0
142
0.0
142
0.0
142
0.0
142
0.0208333333333333
142
0.0
142
0.0
142
0.0
142
0.0
142
1.0
142
0.0
142
0.0
142
0.0
142
0.0
142
1.0
179
     0
144
0.0208333333333333
144
0.0
144
0.0
144
0.0
144
0.0
144
0.0208333333333333
144
0.0
144
0.0
144
0.0
144
0.0
144
1.0
144
0.0
144
0.0
144
0.0
144
0.0
144
1.0
147
0.0208333333333333
147
0.0
147
0.0
147
0.0
147
0.0
147
0.0208333333333333
147
0.0
147
0.0
147
0.0
147
0.0
147
1.0
147
0.0
147
0.0
147
0.0
147
0.0
147
1.0
  0
MATERIAL
  5
151
102
{ACAD_XDICTIONARY
360
152
102
}
102
{ACAD_REACTORS
330
150
102
}
330
150
100
AcDbMaterial
  1
ByLayer
 72
     0
 43
0.0208333333333333
 43
0.0
 43
0.0
 43
0.0
 43
0.0
 43
0.0208333333333333
 43
0.0
 43
0.0
 43
0.0
 43
0.0
 43
1.0
 43
0.0
 43
0.0
 43
0.0
 43
0.0
 43
1.0
 77
     0
 47
0.0208333333333333
 47
0.0
 47
0.0
 47
0.0
 47
0.0
 47
0.0208333333333333
 47
0.0
 47
0.0
 47
0.0
 47
0.0
 47
1.0
 47
0.0
 47
0.0
 47
0.0
 47
0.0
 47
1.0
171
     0
 49
0.0208333333333333
 49
0.0
 49
0.0
 49
0.0
 49
0.0
 49
0.0208333333333333
 49
0.0
 49
0.0
 49
0.0
 49
0.0
 49
1.0
 49
0.0
 49
0.0
 49
0.0
 49
0.0
 49
1.0
175
     0
142
0.0208333333333333
142
0.0
142
0.0
142
0.0
142
0.0
142
0.0208333333333333
142
0.0
142
0.0
142
0.0
142
0.0
142
1.0
142
0.0
142
0.0
142
0.0
142
0.0
142
1.0
179
     0
144
0.0208333333333333
144
0.0
144
0.0
144
0.0
144
0.0
144
0.0208333333333333
144
0.0
144
0.0
144
0.0
144
0.0
144
1.0
144
0.0
144
0.0
144
0.0
144
0.0
144
1.0
147
0.0208333333333333
147
0.0
147
0.0
147
0.0
147
0.0
147
0.0208333333333333
147
0.0
147
0.0
147
0.0
147
0.0
147
1.0
147
0.0
147
0.0
147
0.0
147
0.0
147
1.0
  0
MATERIAL
  5
161
102
{ACAD_XDICTIONARY
360
162
102
}
102
{ACAD_REACTORS
330
150
102
}
330
150
100
AcDbMaterial
  1
Global
 72
     0
 43
0.0208333333333333
 43
0.0
 43
0.0
 43
0.0
 43
0.0
 43
0.0208333333333333
 43
0.0
 43
0.0
 43
0.0
 43
0.0
 43
1.0
 43
0.0
 43
0.0
 43
0.0
 43
0.0
 43
1.0
 77
     0
 47
0.0208333333333333
 47
0.0
 47
0.0
 47
0.0
 47
0.0
 47
0.0208333333333333
 47
0.0
 47
0.0
 47
0.0
 47
0.0
 47
1.0
 47
0.0
 47
0.0
 47
0.0
 47
0.0
 47
1.0
171
     0
 49
0.0208333333333333
 49
0.0
 49
0.0
 49
0.0
 49
0.0
 49
0.0208333333333333
 49
0.0
 49
0.0
 49
0.0
 49
0.0
 49
1.0
 49
0.0
 49
0.0
 49
0.0
 49
0.0
 49
1.0
175
     0
142
0.0208333333333333
142
0.0
142
0.0
142
0.0
142
0.0
142
0.0208333333333333
142
0.0
142
0.0
142
0.0
142
0.0
142
1.0
142
0.0
142
0.0
142
0.0
142
0.0
142
1.0
179
     0
144
0.0208333333333333
144
0.0
144
0.0
144
0.0
144
0.0
144
0.0208333333333333
144
0.0
144
0.0
144
0.0
144
0.0
144
1.0
144
0.0
144
0.0
144
0.0
144
0.0
144
1.0
147
0.0208333333333333
147
0.0
147
0.0
147
0.0
147
0.0
147
0.0208333333333333
147
0.0
147
0.0
147
0.0
147
0.0
147
1.0
147
0.0
147
0.0
147
0.0
147
0.0
147
1.0
  0
MLEADERSTYLE
  5
190
102
{ACAD_REACTORS
330
18F
102
}
330
18F
100
AcDbMLeaderStyle
170
     2
171
     1
172
     0
 90
        2
 40
0.0
 41
0.0
173
     1
 91
-1056964608
340
11
 92
       -2
290
     1
 42
2.0
291
     1
 43
0.36
  3
Standard
 44
4.0
300

342
17
174
     1
178
     6
175
     1
176
     0
 93
-1056964608
 45
4.0
292
     0
297
     0
 46
4.0
 94
-1056964608
 47
1.0
 49
1.0
140
1.0
293
     1
141
0.0
294
     1
177
     0
142
1.0
295
     0
296
     0
143
0.125
1001
ACAD_MLEADERVER
1070
     2
  0
MLINESTYLE
  5
1C
102
{ACAD_REACTORS
330
1B
102
}
330
1B
100
AcDbMlineStyle
  2
STANDARD
 70
     0
  3

 62
     0
 51
90.0
 52
90.0
 71
     2
 49
0.5
 62
   256
  6
BYLAYER
 49
-0.5
 62
   256
  6
BYLAYER
  0
ACDBPLACEHOLDER
  5
1D
102
{ACAD_REACTORS
330
1F
102
}
330
1F
  0
SCALE
  5
423
102
{ACAD_REACTORS
330
17D
102
}
330
17D
100
AcDbScale
 70
     0
300
1:1_1
140
1.0
141
1.0
290
     0
  0
SCALE
  5
424
102
{ACAD_REACTORS
330
17D
102
}
330
17D
100
AcDbScale
 70
     0
300
1:10_1
140
1.0
141
1.0
290
     0
  0
SCALE
  5
6F7
102
{ACAD_REACTORS
330
17D
102
}
330
17D
100
AcDbScale
 70
     0
300
1:10
140
1.0
141
1.0
290
     1
  0
SCALE
  5
6F8
102
{ACAD_REACTORS
330
17D
102
}
330
17D
100
AcDbScale
 70
     0
300
1:1
140
1.0
141
0.1
290
     0
  0
SCALE
  5
6F9
102
{ACAD_REACTORS
330
17D
102
}
330
17D
100
AcDbScale
 70
     0
300
1:2
140
1.0
141
0.2
290
     0
  0
SCALE
  5
6FA
102
{ACAD_REACTORS
330
17D
102
}
330
17D
100
AcDbScale
 70
     0
300
1:5
140
1.0
141
0.5
290
     0
  0
SCALE
  5
6FB
102
{ACAD_REACTORS
330
17D
102
}
330
17D
100
AcDbScale
 70
     0
300
1:20
140
1.0
141
2.0
290
     0
  0
SCALE
  5
6FC
102
{ACAD_REACTORS
330
17D
102
}
330
17D
100
AcDbScale
 70
     0
300
1:50
140
1.0
141
5.0
290
     0
  0
SCALE
  5
6FD
102
{ACAD_REACTORS
330
17D
102
}
330
17D
100
AcDbScale
 70
     0
300
1:100
140
1.0
141
10.0
290
     0
  0
SCALE
  5
17E
102
{ACAD_REACTORS
330
17D
102
}
330
17D
100
AcDbScale
 70
     0
300
1:1_2
140
1.0
141
1.0
290
     0
  0
SCALE
  5
17F
102
{ACAD_REACTORS
330
17D
102
}
330
17D
100
AcDbScale
 70
     0
300
1:2_1
140
1.0
141
2.0
290
     0
  0
SCALE
  5
180
102
{ACAD_REACTORS
330
17D
102
}
330
17D
100
AcDbScale
 70
     0
300
1:4
140
1.0
141
4.0
290
     0
  0
SCALE
  5
181
102
{ACAD_REACTORS
330
17D
102
}
330
17D
100
AcDbScale
 70
     0
300
1:5_1
140
1.0
141
5.0
290
     0
  0
SCALE
  5
182
102
{ACAD_REACTORS
330
17D
102
}
330
17D
100
AcDbScale
 70
     0
300
1:8
140
1.0
141
8.0
290
     0
  0
SCALE
  5
183
102
{ACAD_REACTORS
330
17D
102
}
330
17D
100
AcDbScale
 70
     0
300
1:10_2
140
1.0
141
10.0
290
     0
  0
SCALE
  5
184
102
{ACAD_REACTORS
330
17D
102
}
330
17D
100
AcDbScale
 70
     0
300
1:16
140
1.0
141
16.0
290
     0
  0
SCALE
  5
185
102
{ACAD_REACTORS
330
17D
102
}
330
17D
100
AcDbScale
 70
     0
300
1:20_1
140
1.0
141
20.0
290
     0
  0
SCALE
  5
186
102
{ACAD_REACTORS
330
17D
102
}
330
17D
100
AcDbScale
 70
     0
300
1:30
140
1.0
141
30.0
290
     0
  0
SCALE
  5
187
102
{ACAD_REACTORS
330
17D
102
}
330
17D
100
AcDbScale
 70
     0
300
1:40
140
1.0
141
40.0
290
     0
  0
SCALE
  5
188
102
{ACAD_REACTORS
330
17D
102
}
330
17D
100
AcDbScale
 70
     0
300
1:50_1
140
1.0
141
50.0
290
     0
  0
SCALE
  5
189
102
{ACAD_REACTORS
330
17D
102
}
330
17D
100
AcDbScale
 70
     0
300
1:100_1
140
1.0
141
100.0
290
     0
  0
SCALE
  5
18A
102
{ACAD_REACTORS
330
17D
102
}
330
17D
100
AcDbScale
 70
     0
300
2:1
140
2.0
141
1.0
290
     0
  0
SCALE
  5
18B
102
{ACAD_REACTORS
330
17D
102
}
330
17D
100
AcDbScale
 70
     0
300
4:1
140
4.0
141
1.0
290
     0
  0
SCALE
  5
18C
102
{ACAD_REACTORS
330
17D
102
}
330
17D
100
AcDbScale
 70
     0
300
8:1
140
8.0
141
1.0
290
     0
  0
SCALE
  5
18D
102
{ACAD_REACTORS
330
17D
102
}
330
17D
100
AcDbScale
 70
     0
300
10:1
140
10.0
141
1.0
290
     0
  0
SCALE
  5
18E
102
{ACAD_REACTORS
330
17D
102
}
330
17D
100
AcDbScale
 70
     0
300
100:1
140
100.0
141
1.0
290
     0
  0
TABLESTYLE
  5
17C
102
{ACAD_XDICTIONARY
360
2C2
102
}
102
{ACAD_REACTORS
330
17B
102
}
330
17B
100
AcDbTableStyle
  3
Standard
 70
     0
 71
     0
 40
1.5
 41
1.5
280
     0
281
     0
  7
Standard
140
4.5
170
     2
 62
     0
 63
     7
283
     0
 90
      512
 91
        0
  1

274
    -2
284
     1
 64
     0
275
    -2
285
     1
 65
     0
276
    -2
286
     1
 66
     0
277
    -2
287
     1
 67
     0
278
    -2
288
     1
 68
     0
279
    -2
289
     1
 69
     0
  7
Standard
140
6.0
170
     5
 62
     0
 63
     7
283
     0
 90
      512
 91
        0
  1

274
    -2
284
     1
 64
     0
275
    -2
285
     1
 65
     0
276
    -2
286
     1
 66
     0
277
    -2
287
     1
 67
     0
278
    -2
288
     1
 68
     0
279
    -2
289
     1
 69
     0
  7
Standard
140
4.5
170
     5
 62
     0
 63
     7
283
     0
 90
      512
 91
        0
  1

274
    -2
284
     1
 64
     0
275
    -2
285
     1
 65
     0
276
    -2
286
     1
 66
     0
277
    -2
287
     1
 67
     0
278
    -2
288
     1
 68
     0
279
    -2
289
     1
 69
     0
  0
VISUALSTYLE
  5
16F
102
{ACAD_REACTORS
330
169
102
}
330
169
100
AcDbVisualStyle
  2
2dWireframe
 70
     4
 71
     0
 72
     2
 73
     0
 90
        0
 40
-0.6
 41
-30.0
 62
     5
 63
     7
421
 16777215
 74
     1
 91
        4
 64
     7
 65
   257
 75
     1
175
     1
 42
1.0
 92
        0
 66
   257
 43
1.0
 76
     1
 77
     6
 78
     2
 67
     7
 79
     5
170
     0
171
     0
290
     0
174
     0
 93
        1
 44
0.0
173
     0
291
     0
 45
0.0
  0
VISUALSTYLE
  5
171
102
{ACAD_REACTORS
330
169
102
}
330
169
100
AcDbVisualStyle
  2
3D Hidden
 70
     6
 71
     1
 72
     2
 73
     2
 90
        0
 40
-0.6
 41
-30.0
 62
     5
 63
     7
421
 16777215
 74
     2
 91
        2
 64
     7
 65
   257
 75
     2
175
     1
 42
40.0
 92
        0
 66
   257
 43
1.0
 76
     1
 77
     6
 78
     2
 67
     7
 79
     3
170
     0
171
     0
290
     0
174
     0
 93
        1
 44
0.0
173
     0
291
     0
 45
0.0
  0
VISUALSTYLE
  5
170
102
{ACAD_REACTORS
330
169
102
}
330
169
100
AcDbVisualStyle
  2
3dWireframe
 70
     5
 71
     0
 72
     2
 73
     0
 90
        0
 40
-0.6
 41
-30.0
 62
     5
 63
     7
421
 16777215
 74
     1
 91
        4
 64
     7
 65
   257
 75
     1
175
     1
 42
1.0
 92
        0
 66
   257
 43
1.0
 76
     1
 77
     6
 78
     2
 67
     7
 79
     5
170
     0
171
     0
290
     0
174
     0
 93
        1
 44
0.0
173
     0
291
     0
 45
0.0
  0
VISUALSTYLE
  5
16E
102
{ACAD_REACTORS
330
169
102
}
330
169
100
AcDbVisualStyle
  2
Basic
 70
     7
 71
     1
 72
     0
 73
     1
 90
        0
 40
-0.6
 41
-30.0
 62
     5
 63
     7
421
 16777215
 74
     0
 91
        4
 64
     7
 65
   257
 75
     1
175
     1
 42
1.0
 92
        8
 66
     7
 43
1.0
 76
     1
 77
     6
 78
     2
 67
     7
 79
     5
170
     0
171
     0
290
     0
174
     0
 93
        1
 44
0.0
173
     0
291
     1
 45
0.0
  0
VISUALSTYLE
  5
175
102
{ACAD_REACTORS
330
169
102
}
330
169
100
AcDbVisualStyle
  2
Brighten
 70
    12
 71
     2
 72
     2
 73
     0
 90
        0
 40
-0.6
 41
-30.0
 62
     5
 63
     7
421
 16777215
 74
     1
 91
        4
 64
     7
 65
   257
 75
     1
175
     1
 42
1.0
 92
        8
 66
     7
 43
1.0
 76
     1
 77
     6
 78
     2
 67
     7
 79
     5
170
     0
171
     0
290
     0
174
     0
 93
        1
 44
50.0
173
     0
291
     1
 45
0.0
  0
VISUALSTYLE
  5
179
102
{ACAD_REACTORS
330
169
102
}
330
169
100
AcDbVisualStyle
  2
ColorChange
 70
    16
 71
     2
 72
     2
 73
     3
 90
        0
 40
-0.6
 41
-30.0
 62
     5
 63
     8
421
  8421504
 74
     1
 91
        4
 64
     7
 65
   257
 75
     1
175
     1
 42
1.0
 92
        8
 66
     8
424
  8421504
 43
1.0
 76
     1
 77
     6
 78
     2
 67
     7
 79
     5
170
     0
171
     0
290
     0
174
     0
 93
        1
 44
0.0
173
     0
291
     1
 45
0.0
  0
VISUALSTYLE
  5
172
102
{ACAD_REACTORS
330
169
102
}
330
169
100
AcDbVisualStyle
  2
Conceptual
 70
     9
 71
     3
 72
     2
 73
     0
 90
        0
 40
-0.6
 41
-30.0
 62
     5
 63
     7
421
 16777215
 74
     2
 91
        2
 64
     7
 65
   257
 75
     1
175
     1
 42
40.0
 92
        8
 66
     7
 43
1.0
 76
     1
 77
     6
 78
     2
 67
     7
 79
     3
170
     0
171
     0
290
     0
174
     0
 93
        1
 44
0.0
173
     0
291
     0
 45
0.0
  0
VISUALSTYLE
  5
174
102
{ACAD_REACTORS
330
169
102
}
330
169
100
AcDbVisualStyle
  2
Dim
 70
    11
 71
     2
 72
     2
 73
     0
 90
        0
 40
-0.6
 41
-30.0
 62
     5
 63
     7
421
 16777215
 74
     1
 91
        4
 64
     7
 65
   257
 75
     1
175
     1
 42
1.0
 92
        8
 66
     7
 43
1.0
 76
     1
 77
     6
 78
     2
 67
     7
 79
     5
170
     0
171
     0
290
     0
174
     0
 93
        1
 44
-50.0
173
     0
291
     1
 45
0.0
  0
VISUALSTYLE
  5
178
102
{ACAD_REACTORS
330
169
102
}
330
169
100
AcDbVisualStyle
  2
Facepattern
 70
    15
 71
     2
 72
     2
 73
     0
 90
        0
 40
-0.6
 41
-30.0
 62
     5
 63
     7
421
 16777215
 74
     1
 91
        4
 64
     7
 65
   257
 75
     1
175
     1
 42
1.0
 92
        8
 66
     7
 43
1.0
 76
     1
 77
     6
 78
     2
 67
     7
 79
     5
170
     0
171
     0
290
     0
174
     0
 93
        1
 44
0.0
173
     0
291
     1
 45
0.0
  0
VISUALSTYLE
  5
16A
102
{ACAD_REACTORS
330
169
102
}
330
169
100
AcDbVisualStyle
  2
Flat
 70
     0
 71
     2
 72
     1
 73
     1
 90
        2
 40
-0.6
 41
30.0
 62
     5
 63
     7
421
 16777215
 74
     0
 91
        4
 64
     7
 65
   257
 75
     1
175
     1
 42
1.0
 92
        8
 66
     7
 43
1.0
 76
     1
 77
     6
 78
     2
 67
     7
 79
     5
170
     0
171
     0
290
     0
174
     0
 93
       13
 44
0.0
173
     0
291
     1
 45
0.0
  0
VISUALSTYLE
  5
16B
102
{ACAD_REACTORS
330
169
102
}
330
169
100
AcDbVisualStyle
  2
FlatWithEdges
 70
     1
 71
     2
 72
     1
 73
     1
 90
        2
 40
-0.6
 41
30.0
 62
     5
 63
     7
421
 16777215
 74
     1
 91
        4
 64
     7
 65
   257
 75
     1
175
     1
 42
1.0
 92
        0
 66
   257
 43
1.0
 76
     1
 77
     6
 78
     2
 67
     7
 79
     5
170
     0
171
     0
290
     0
174
     0
 93
       13
 44
0.0
173
     0
291
     1
 45
0.0
  0
VISUALSTYLE
  5
16C
102
{ACAD_REACTORS
330
169
102
}
330
169
100
AcDbVisualStyle
  2
Gouraud
 70
     2
 71
     2
 72
     2
 73
     1
 90
        2
 40
-0.6
 41
30.0
 62
     5
 63
     7
421
 16777215
 74
     0
 91
        4
 64
     7
 65
   257
 75
     1
175
     1
 42
1.0
 92
        0
 66
     7
 43
1.0
 76
     1
 77
     6
 78
     2
 67
     7
 79
     5
170
     0
171
     0
290
     0
174
     0
 93
       13
 44
0.0
173
     0
291
     1
 45
0.0
  0
VISUALSTYLE
  5
16D
102
{ACAD_REACTORS
330
169
102
}
330
169
100
AcDbVisualStyle
  2
GouraudWithEdges
 70
     3
 71
     2
 72
     2
 73
     1
 90
        2
 40
-0.6
 41
30.0
 62
     5
 63
     7
421
 16777215
 74
     1
 91
        4
 64
     7
 65
   257
 75
     1
175
     1
 42
1.0
 92
        0
 66
   257
 43
1.0
 76
     1
 77
     6
 78
     2
 67
     7
 79
     5
170
     0
171
     0
290
     0
174
     0
 93
       13
 44
0.0
173
     0
291
     1
 45
0.0
  0
VISUALSTYLE
  5
177
102
{ACAD_REACTORS
330
169
102
}
330
169
100
AcDbVisualStyle
  2
Linepattern
 70
    14
 71
     2
 72
     2
 73
     0
 90
        0
 40
-0.6
 41
-30.0
 62
     5
 63
     7
421
 16777215
 74
     1
 91
        4
 64
     7
 65
   257
 75
     7
175
     7
 42
1.0
 92
        8
 66
     7
 43
1.0
 76
     1
 77
     6
 78
     2
 67
     7
 79
     5
170
     0
171
     0
290
     0
174
     0
 93
        1
 44
0.0
173
     0
291
     1
 45
0.0
  0
VISUALSTYLE
  5
173
102
{ACAD_REACTORS
330
169
102
}
330
169
100
AcDbVisualStyle
  2
Realistic
 70
     8
 71
     2
 72
     2
 73
     0
 90
        0
 40
-0.6
 41
-30.0
 62
     5
 63
     7
421
 16777215
 74
     1
 91
        0
 64
     7
 65
   257
 75
     1
175
     1
 42
1.0
 92
        8
 66
     8
424
  7895160
 43
1.0
 76
     1
 77
     6
 78
     2
 67
     7
 79
     5
170
     0
171
     0
290
     0
174
     0
 93
       13
 44
0.0
173
     0
291
     0
 45
0.0
  0
VISUALSTYLE
  5
176
102
{ACAD_REACTORS
330
169
102
}
330
169
100
AcDbVisualStyle
  2
Thicken
 70
    13
 71
     2
 72
     2
 73
     0
 90
        0
 40
-0.6
 41
-30.0
 62
     5
 63
     7
421
 16777215
 74
     1
 91
        4
 64
     7
 65
   257
 75
     1
175
     1
 42
1.0
 92
       12
 66
     7
 43
1.0
 76
     1
 77
     6
 78
     2
 67
     7
 79
     5
170
     0
171
     0
290
     0
174
     0
 93
        1
 44
0.0
173
     0
291
     1
 45
0.0
  0
DICTIONARYVAR
  5
2C9
102
{ACAD_REACTORS
330
2C5
102
}
330
2C5
100
DictionaryVariables
280
     0
  1
1:1_2
  0
DICTIONARYVAR
  5
2C7
102
{ACAD_REACTORS
330
2C5
102
}
330
2C5
100
DictionaryVariables
280
     0
  1
STANDARD
  0
DICTIONARYVAR
  5
2C6
102
{ACAD_REACTORS
330
2C5
102
}
330
2C5
100
DictionaryVariables
280
     0
  1
STANDARD
  0
DICTIONARYVAR
  5
2CB
102
{ACAD_REACTORS
330
2C5
102
}
330
2C5
100
DictionaryVariables
280
     0
  1
1
  0
DICTIONARYVAR
  5
2CC
102
{ACAD_REACTORS
330
2C5
102
}
330
2C5
100
DictionaryVariables
280
     0
  1
15
  0
DICTIONARYVAR
  5
2CA
102
{ACAD_REACTORS
330
2C5
102
}
330
2C5
100
DictionaryVariables
280
     0
  1
0
  0
DICTIONARYVAR
  5
2C8
102
{ACAD_REACTORS
330
2C5
102
}
330
2C5
100
DictionaryVariables
280
     0
  1
0
  0
DICTIONARY
  5
15A
330
159
100
AcDbDictionary
280
     1
281
     1
  3
BUMPTILE
360
15C
  3
DIFFUSETILE
360
15B
  3
OPACITYTILE
360
15F
  3
REFLECTIONTILE
360
15E
  3
REFRACTIONTILE
360
160
  3
SPECULARTILE
360
15D
  0
DICTIONARY
  5
152
330
151
100
AcDbDictionary
280
     1
281
     1
  3
BUMPTILE
360
154
  3
DIFFUSETILE
360
153
  3
OPACITYTILE
360
157
  3
REFLECTIONTILE
360
156
  3
REFRACTIONTILE
360
158
  3
SPECULARTILE
360
155
  0
DICTIONARY
  5
162
330
161
100
AcDbDictionary
280
     1
281
     1
  3
BUMPTILE
360
164
  3
DIFFUSETILE
360
163
  3
OPACITYTILE
360
167
  3
REFLECTIONTILE
360
166
  3
REFRACTIONTILE
360
168
  3
SPECULARTILE
360
165
  0
DICTIONARY
  5
2C2
330
17C
100
AcDbDictionary
280
     1
281
     1
  3
ACAD_ROUNDTRIP_2008_TABLESTYLE_CELLSTYLEMAP
360
6FE
  0
XRECORD
  5
15C
102
{ACAD_REACTORS
330
15A
102
}
330
15A
100
AcDbXrecord
280
     1
270
     1
271
     1
  0
XRECORD
  5
15B
102
{ACAD_REACTORS
330
15A
102
}
330
15A
100
AcDbXrecord
280
     1
270
     1
271
     1
  0
XRECORD
  5
15F
102
{ACAD_REACTORS
330
15A
102
}
330
15A
100
AcDbXrecord
280
     1
270
     1
271
     1
  0
XRECORD
  5
15E
102
{ACAD_REACTORS
330
15A
102
}
330
15A
100
AcDbXrecord
280
     1
270
     1
271
     1
  0
XRECORD
  5
160
102
{ACAD_REACTORS
330
15A
102
}
330
15A
100
AcDbXrecord
280
     1
270
     1
271
     1
  0
XRECORD
  5
15D
102
{ACAD_REACTORS
330
15A
102
}
330
15A
100
AcDbXrecord
280
     1
270
     1
271
     1
  0
XRECORD
  5
154
102
{ACAD_REACTORS
330
152
102
}
330
152
100
AcDbXrecord
280
     1
270
     1
271
     1
  0
XRECORD
  5
153
102
{ACAD_REACTORS
330
152
102
}
330
152
100
AcDbXrecord
280
     1
270
     1
271
     1
  0
XRECORD
  5
157
102
{ACAD_REACTORS
330
152
102
}
330
152
100
AcDbXrecord
280
     1
270
     1
271
     1
  0
XRECORD
  5
156
102
{ACAD_REACTORS
330
152
102
}
330
152
100
AcDbXrecord
280
     1
270
     1
271
     1
  0
XRECORD
  5
158
102
{ACAD_REACTORS
330
152
102
}
330
152
100
AcDbXrecord
280
     1
270
     1
271
     1
  0
XRECORD
  5
155
102
{ACAD_REACTORS
330
152
102
}
330
152
100
AcDbXrecord
280
     1
270
     1
271
     1
  0
XRECORD
  5
164
102
{ACAD_REACTORS
330
162
102
}
330
162
100
AcDbXrecord
280
     1
270
     1
271
     1
  0
XRECORD
  5
163
102
{ACAD_REACTORS
330
162
102
}
330
162
100
AcDbXrecord
280
     1
270
     1
271
     1
  0
XRECORD
  5
167
102
{ACAD_REACTORS
330
162
102
}
330
162
100
AcDbXrecord
280
     1
270
     1
271
     1
  0
XRECORD
  5
166
102
{ACAD_REACTORS
330
162
102
}
330
162
100
AcDbXrecord
280
     1
270
     1
271
     1
  0
XRECORD
  5
168
102
{ACAD_REACTORS
330
162
102
}
330
162
100
AcDbXrecord
280
     1
270
     1
271
     1
  0
XRECORD
  5
165
102
{ACAD_REACTORS
330
162
102
}
330
162
100
AcDbXrecord
280
     1
270
     1
271
     1
  0
CELLSTYLEMAP
  5
6FE
102
{ACAD_REACTORS
330
2C2
102
}
330
2C2
100
AcDbCellStyleMap
 90
        3
300
CELLSTYLE
  1
TABLEFORMAT_BEGIN
 90
        5
170
     1
 91
        0
 92
    32768
 62
   257
 93
        1
300
CONTENTFORMAT
  1
CONTENTFORMAT_BEGIN
 90
        0
 91
        0
 92
      512
 93
        0
300

 40
0.0
140
1.0
 94
        5
 62
     0
340
17
144
6.0
309
CONTENTFORMAT_END
171
     1
301
MARGIN
  1
CELLMARGIN_BEGIN
 40
1.5
 40
1.5
 40
1.5
 40
1.5
 40
4.5
 40
4.5
309
CELLMARGIN_END
 94
        6
 95
        1
302
GRIDFORMAT
  1
GRIDFORMAT_BEGIN
 90
        0
 91
        1
 62
     0
 92
       -2
340
0
 93
        0
 40
1.125
309
GRIDFORMAT_END
 95
        2
302
GRIDFORMAT
  1
GRIDFORMAT_BEGIN
 90
        0
 91
        1
 62
     0
 92
       -2
340
0
 93
        0
 40
1.125
309
GRIDFORMAT_END
 95
        4
302
GRIDFORMAT
  1
GRIDFORMAT_BEGIN
 90
        0
 91
        1
 62
     0
 92
       -2
340
0
 93
        0
 40
1.125
309
GRIDFORMAT_END
 95
        8
302
GRIDFORMAT
  1
GRIDFORMAT_BEGIN
 90
        0
 91
        1
 62
     0
 92
       -2
340
0
 93
        0
 40
1.125
309
GRIDFORMAT_END
 95
       16
302
GRIDFORMAT
  1
GRIDFORMAT_BEGIN
 90
        0
 91
        1
 62
     0
 92
       -2
340
0
 93
        0
 40
1.125
309
GRIDFORMAT_END
 95
       32
302
GRIDFORMAT
  1
GRIDFORMAT_BEGIN
 90
        0
 91
        1
 62
     0
 92
       -2
340
0
 93
        0
 40
1.125
309
GRIDFORMAT_END
309
TABLEFORMAT_END
  1
CELLSTYLE_BEGIN
 90
        1
 91
        1
300
_TITLE
309
CELLSTYLE_END
300
CELLSTYLE
  1
TABLEFORMAT_BEGIN
 90
        5
170
     1
 91
        0
 92
        0
 62
   257
 93
        1
300
CONTENTFORMAT
  1
CONTENTFORMAT_BEGIN
 90
        0
 91
        0
 92
      512
 93
        0
300

 40
0.0
140
1.0
 94
        5
 62
     0
340
17
144
4.5
309
CONTENTFORMAT_END
171
     1
301
MARGIN
  1
CELLMARGIN_BEGIN
 40
1.5
 40
1.5
 40
1.5
 40
1.5
 40
4.5
 40
4.5
309
CELLMARGIN_END
 94
        6
 95
        1
302
GRIDFORMAT
  1
GRIDFORMAT_BEGIN
 90
        0
 91
        1
 62
     0
 92
       -2
340
0
 93
        0
 40
1.125
309
GRIDFORMAT_END
 95
        2
302
GRIDFORMAT
  1
GRIDFORMAT_BEGIN
 90
        0
 91
        1
 62
     0
 92
       -2
340
0
 93
        0
 40
1.125
309
GRIDFORMAT_END
 95
        4
302
GRIDFORMAT
  1
GRIDFORMAT_BEGIN
 90
        0
 91
        1
 62
     0
 92
       -2
340
0
 93
        0
 40
1.125
309
GRIDFORMAT_END
 95
        8
302
GRIDFORMAT
  1
GRIDFORMAT_BEGIN
 90
        0
 91
        1
 62
     0
 92
       -2
340
0
 93
        0
 40
1.125
309
GRIDFORMAT_END
 95
       16
302
GRIDFORMAT
  1
GRIDFORMAT_BEGIN
 90
        0
 91
        1
 62
     0
 92
       -2
340
0
 93
        0
 40
1.125
309
GRIDFORMAT_END
 95
       32
302
GRIDFORMAT
  1
GRIDFORMAT_BEGIN
 90
        0
 91
        1
 62
     0
 92
       -2
340
0
 93
        0
 40
1.125
309
GRIDFORMAT_END
309
TABLEFORMAT_END
  1
CELLSTYLE_BEGIN
 90
        2
 91
        1
300
_HEADER
309
CELLSTYLE_END
300
CELLSTYLE
  1
TABLEFORMAT_BEGIN
 90
        5
170
     1
 91
        0
 92
        0
 62
   257
 93
        1
300
CONTENTFORMAT
  1
CONTENTFORMAT_BEGIN
 90
        0
 91
        0
 92
      512
 93
        0
300

 40
0.0
140
1.0
 94
        2
 62
     0
340
17
144
4.5
309
CONTENTFORMAT_END
171
     1
301
MARGIN
  1
CELLMARGIN_BEGIN
 40
1.5
 40
1.5
 40
1.5
 40
1.5
 40
4.5
 40
4.5
309
CELLMARGIN_END
 94
        6
 95
        1
302
GRIDFORMAT
  1
GRIDFORMAT_BEGIN
 90
        0
 91
        1
 62
     0
 92
       -2
340
0
 93
        0
 40
1.125
309
GRIDFORMAT_END
 95
        2
302
GRIDFORMAT
  1
GRIDFORMAT_BEGIN
 90
        0
 91
        1
 62
     0
 92
       -2
340
0
 93
        0
 40
1.125
309
GRIDFORMAT_END
 95
        4
302
GRIDFORMAT
  1
GRIDFORMAT_BEGIN
 90
        0
 91
        1
 62
     0
 92
       -2
340
0
 93
        0
 40
1.125
309
GRIDFORMAT_END
 95
        8
302
GRIDFORMAT
  1
GRIDFORMAT_BEGIN
 90
        0
 91
        1
 62
     0
 92
       -2
340
0
 93
        0
 40
1.125
309
GRIDFORMAT_END
 95
       16
302
GRIDFORMAT
  1
GRIDFORMAT_BEGIN
 90
        0
 91
        1
 62
     0
 92
       -2
340
0
 93
        0
 40
1.125
309
GRIDFORMAT_END
 95
       32
302
GRIDFORMAT
  1
GRIDFORMAT_BEGIN
 90
        0
 91
        1
 62
     0
 92
       -2
340
0
 93
        0
 40
1.125
309
GRIDFORMAT_END
309
TABLEFORMAT_END
  1
CELLSTYLE_BEGIN
 90
        3
 91
        2
300
_DATA
309
CELLSTYLE_END
  0
ENDSEC
  0
EOF
