  0
SECTION
  2
HEADER
  9
$ACADVER
  1
AC1009
  9
$INSBASE
 10
0.0
 20
0.0
 30
0.0
  9
$EXTMIN
 10
-37.216090416813842
 20
-0.8999999999999927
 30
0.0
  9
$EXTMAX
 10
22.705768198632931
 20
64.901425444155876
 30
0.0
  9
$LIMMIN
 10
0.0
 20
0.0
  9
$LIMMAX
 10
12.0
 20
9.0
  9
$ORTHOMODE
 70
     1
  9
$REGENMODE
 70
     1
  9
$FILLMODE
 70
     1
  9
$QTEXTMODE
 70
     0
  9
$MIRRTEXT
 70
     1
  9
$DRAGMODE
 70
     2
  9
$LTSCALE
 40
1.0
  9
$OSMODE
 70
    35
  9
$ATTMODE
 70
     1
  9
$TEXTSIZE
 40
0.2
  9
$TRACEWID
 40
0.05
  9
$TEXTSTYLE
  7
STANDARD
  9
$CLAYER
  8
0
  9
$CELTYPE
  6
CONTINUOUS
  9
$CECOLOR
 62
   256
  9
$DIMSCALE
 40
96.0
  9
$DIMASZ
 40
0.18
  9
$DIMEXO
 40
0.0625
  9
$DIMDLI
 40
0.38
  9
$DIMRND
 40
0.0
  9
$DIMDLE
 40
0.0
  9
$DIMEXE
 40
0.18
  9
$DIMTP
 40
0.0
  9
$DIMTM
 40
0.0
  9
$DIMTXT
 40
0.18
  9
$DIMCEN
 40
0.09
  9
$DIMTSZ
 40
0.0
  9
$DIMTOL
 70
     0
  9
$DIMLIM
 70
     0
  9
$DIMTIH
 70
     1
  9
$DIMTOH
 70
     1
  9
$DIMSE1
 70
     0
  9
$DIMSE2
 70
     0
  9
$DIMTAD
 70
     0
  9
$DIMZIN
 70
     0
  9
$DIMBLK
  1

  9
$DIMASO
 70
     1
  9
$DIMSHO
 70
     1
  9
$DIMPOST
  1

  9
$DIMAPOST
  1

  9
$DIMALT
 70
     0
  9
$DIMALTD
 70
     2
  9
$DIMALTF
 40
25.399999999999999
  9
$DIMLFAC
 40
1.0
  9
$DIMTOFL
 70
     0
  9
$DIMTVP
 40
0.0
  9
$DIMTIX
 70
     0
  9
$DIMSOXD
 70
     0
  9
$DIMSAH
 70
     0
  9
$DIMBLK1
  1

  9
$DIMBLK2
  1

  9
$DIMSTYLE
  2
STANDARD
  9
$DIMCLRD
 70
     0
  9
$DIMCLRE
 70
     0
  9
$DIMCLRT
 70
     0
  9
$DIMTFAC
 40
1.0
  9
$DIMGAP
 40
0.09
  9
$LUNITS
 70
     2
  9
$LUPREC
 70
     4
  9
$SKETCHINC
 40
0.1
  9
$FILLETRAD
 40
0.0
  9
$AUNITS
 70
     0
  9
$AUPREC
 70
     2
  9
$MENU
  1
.
  9
$ELEVATION
 40
0.0
  9
$PELEVATION
 40
0.0
  9
$THICKNESS
 40
0.0
  9
$LIMCHECK
 70
     0
  9
$BLIPMODE
 70
     0
  9
$CHAMFERA
 40
0.0
  9
$CHAMFERB
 40
0.0
  9
$SKPOLY
 70
     0
  9
$TDCREATE
 40
2453081.5264707869
  9
$TDUPDATE
 40
2453081.674609236
  9
$TDINDWG
 40
0.0360477315
  9
$TDUSRTIMER
 40
0.0360477315
  9
$USRTIMER
 70
     1
  9
$ANGBASE
 50
0.0
  9
$ANGDIR
 70
     0
  9
$PDMODE
 70
     0
  9
$PDSIZE
 40
0.0
  9
$PLINEWID
 40
0.0
  9
$COORDS
 70
     0
  9
$SPLFRAME
 70
     0
  9
$SPLINETYPE
 70
     6
  9
$SPLINESEGS
 70
     8
  9
$ATTDIA
 70
     1
  9
$ATTREQ
 70
     1
  9
$HANDLING
 70
 22529
  9
$HANDSEED
  5
349
  9
$SURFTAB1
 70
     6
  9
$SURFTAB2
 70
     6
  9
$SURFTYPE
 70
     6
  9
$SURFU
 70
     6
  9
$SURFV
 70
     6
  9
$UCSNAME
  2

  9
$UCSORG
 10
0.0
 20
0.0
 30
0.0
  9
$UCSXDIR
 10
1.0
 20
0.0
 30
0.0
  9
$UCSYDIR
 10
0.0
 20
1.0
 30
0.0
  9
$PUCSNAME
  2

  9
$PUCSORG
 10
0.0
 20
0.0
 30
0.0
  9
$PUCSXDIR
 10
1.0
 20
0.0
 30
0.0
  9
$PUCSYDIR
 10
0.0
 20
1.0
 30
0.0
  9
$USERI1
 70
     0
  9
$USERI2
 70
     0
  9
$USERI3
 70
     0
  9
$USERI4
 70
     0
  9
$USERI5
 70
     0
  9
$USERR1
 40
0.0
  9
$USERR2
 40
0.0
  9
$USERR3
 40
0.0
  9
$USERR4
 40
0.0
  9
$USERR5
 40
0.0
  9
$WORLDVIEW
 70
     1
  9
$SHADEDGE
 70
     3
  9
$SHADEDIF
 70
    70
  9
$TILEMODE
 70
     1
  9
$MAXACTVP
 70
    64
  9
$PLIMCHECK
 70
     0
  9
$PEXTMIN
 10
1.1294166947912989
 20
-10.0625572617461
 30
0.0
  9
$PEXTMAX
 10
49.498098681720649
 20
18.89727540596131
 30
0.0
  9
$PLIMMIN
 10
-0.1979161059762549
 20
-0.2679166643638311
  9
$PLIMMAX
 10
11.493750144177531
 20
7.9987497780266699
  9
$UNITMODE
 70
     0
  9
$VISRETAIN
 70
     1
  9
$PLINEGEN
 70
     0
  9
$PSLTSCALE
 70
     1
  0
ENDSEC
  0
SECTION
  2
TABLES
  0
TABLE
  2
VPORT
 70
     2
  0
VPORT
  2
*ACTIVE
 70
     0
 10
0.0
 20
0.0
 11
1.0
 21
1.0
 12
-7.2561841619294114
 22
32.000766759839351
 13
0.0
 23
0.0
 14
1.0
 24
1.0
 15
0.0
 25
0.0
 16
0.0
 26
0.0
 36
1.0
 17
0.0
 27
0.0
 37
0.0
 40
66.564842362439805
 41
1.828516377649325
 42
50.0
 43
0.0
 44
0.0
 50
0.0
 51
0.0
 71
     0
 72
   100
 73
     1
 74
     1
 75
     0
 76
     0
 77
     0
 78
     0
  0
ENDTAB
  0
TABLE
  2
LTYPE
 70
     1
  0
LTYPE
  2
CONTINUOUS
 70
     0
  3
Solid line
 72
    65
 73
     0
 40
0.0
  0
ENDTAB
  0
TABLE
  2
LAYER
 70
     3
  0
LAYER
  2
0
 70
     0
 62
     7
  6
CONTINUOUS
  0
LAYER
  2
DEFPOINTS
 70
     0
 62
     7
  6
CONTINUOUS
  0
LAYER
  2
COTATION-JACOBDELAFON
 70
     0
 62
     8
  6
CONTINUOUS
  0
ENDTAB
  0
TABLE
  2
STYLE
 70
     2
  0
STYLE
  2
STANDARD
 70
     0
 40
0.0
 41
1.0
 50
0.0
 71
     0
 42
0.2
  3
txt
  4

  0
STYLE
  2
JACOB-DELAFON
 70
     0
 40
0.0
 41
1.0
 50
0.0
 71
     0
 42
2.5
  3
txt
  4

  0
ENDTAB
  0
TABLE
  2
VIEW
 70
     0
  0
ENDTAB
  0
TABLE
  2
UCS
 70
     0
  0
ENDTAB
  0
TABLE
  2
APPID
 70
     5
  0
APPID
  2
ACAD
 70
     0
  0
APPID
  2
ADCADD_ZZ
 70
     0
  0
APPID
  2
SDSK_PMN
 70
     0
  0
APPID
  2
AEC_DWGVARSSETUP_DATA
 70
     0
  0
APPID
  2
AEC_DISPREPSET_DATA
 70
     0
  0
ENDTAB
  0
TABLE
  2
DIMSTYLE
 70
     2
  0
DIMSTYLE
  2
STANDARD
 70
     0
  3

  4

  5

  6

  7

 40
1.0
 41
0.18
 42
0.0625
 43
0.38
 44
0.18
 45
0.0
 46
0.0
 47
0.0
 48
0.0
140
0.18
141
0.09
142
0.0
143
25.399999999999999
144
1.0
145
0.0
146
1.0
147
0.09
 71
     0
 72
     0
 73
     1
 74
     1
 75
     0
 76
     0
 77
     0
 78
     0
170
     0
171
     2
172
     0
173
     0
174
     0
175
     0
176
     0
177
     0
178
     0
  0
DIMSTYLE
  2
COTATION-JACOB-DELAFON
 70
     0
  3

  4

  5
OBLIQUE
  6

  7

 40
1.0
 41
1.8
 42
0.625
 43
3.7999999999999989
 44
1.8
 45
0.0
 46
0.0
 47
0.0
 48
0.0
140
3.0
141
0.9
142
0.0
143
25.399999999999999
144
1.0
145
0.0
146
1.0
147
0.9
 71
     0
 72
     0
 73
     0
 74
     0
 75
     0
 76
     0
 77
     1
 78
    12
170
     0
171
     2
172
     0
173
     0
174
     0
175
     0
176
     0
177
     0
178
     0
  0
ENDTAB
  0
ENDSEC
  0
SECTION
  2
BLOCKS
  0
BLOCK
  8
0
  2
$MODEL_SPACE
 70
     0
 10
0.0
 20
0.0
 30
0.0
  3
$MODEL_SPACE
  1

  0
ENDBLK
  5
9
  8
0
  0
BLOCK
 67
     1
  8
0
  2
$PAPER_SPACE
 70
     0
 10
0.0
 20
0.0
 30
0.0
  3
$PAPER_SPACE
  1

  0
ENDBLK
  5
E
 67
     1
  8
0
  0
BLOCK
  8
0
  2
_OBLIQUE
 70
     0
 10
0.0
 20
0.0
 30
0.0
  3
_OBLIQUE
  1

  0
LINE
  5
22
  8
0
  6
BYBLOCK
 62
     0
 10
-0.5
 20
-0.5
 30
0.0
 11
0.5
 21
0.5
 31
0.0
  0
ENDBLK
  5
24
  8
0
  0
BLOCK
  8
0
  2
*D1
 70
     1
 10
0.0
 20
0.0
 30
0.0
  3
*D1
  1

  0
LINE
  5
281
  8
COTATION-JACOBDELAFON
 62
     0
 10
-6.6250000000000142
 20
0.0000000000000002
 30
0.0
 11
-34.264794373157642
 21
0.000000000000008
 31
0.0
  0
LINE
  5
282
  8
COTATION-JACOBDELAFON
 62
     0
 10
-16.68097872035559
 20
64.001425444155856
 30
0.0
 11
-34.264794373157621
 21
64.001425444155871
 31
0.0
  0
LINE
  5
283
  8
COTATION-JACOBDELAFON
 62
     0
 10
-32.464794373157638
 20
0.0000000000000075
 30
0.0
 11
-32.464794373157631
 21
64.001425444155871
 31
0.0
  0
INSERT
  5
284
  8
COTATION-JACOBDELAFON
 62
     0
  2
_OBLIQUE
 10
-32.464794373157638
 20
0.0000000000000075
 30
0.0
 41
1.8
 42
1.8
 43
1.8
 50
270.0
  0
INSERT
  5
285
  8
COTATION-JACOBDELAFON
 62
     0
  2
_OBLIQUE
 10
-32.464794373157631
 20
64.001425444155871
 30
0.0
 41
1.8
 42
1.8
 43
1.8
 50
90.0
  0
TEXT
  5
286
  8
0
  6
CONTINUOUS
 62
     0
 10
-33.422093145326812
 20
29.692390757548601
 30
0.0
 40
3.0
  1
64
 50
90.0
  7
JACOB-DELAFON
  0
POINT
  5
287
  8
DEFPOINTS
 62
     0
 10
-6.0000000000000142
 20
0.0
 30
0.0
  0
POINT
  5
288
  8
DEFPOINTS
 62
     0
 10
-16.05597872035559
 20
64.001425444155856
 30
0.0
  0
POINT
  5
289
  8
DEFPOINTS
 62
     0
 10
-32.464794373157631
 20
64.001425444155871
 30
0.0
  0
ENDBLK
  5
B3
  8
0
  0
BLOCK
  8
0
  2
ADCADD_ZZ
 70
     0
 10
0.0
 20
0.0
 30
0.0
  3
ADCADD_ZZ
  1

  0
ENDBLK
  5
EE
  8
0
  0
ENDSEC
  0
SECTION
  2
ENTITIES
  0
POLYLINE
  5
2A
  8
0
  6
CONTINUOUS
 66
     1
 10
0.0
 20
0.0
 30
0.0
  0
VERTEX
  5
294
  8
0
  6
CONTINUOUS
 10
-13.68097598064942
 20
37.48183194351914
 30
0.0
  0
VERTEX
  5
295
  8
0
  6
CONTINUOUS
 10
-13.68097598064942
 20
21.98358176608847
 30
0.0
  0
SEQEND
  5
296
  8
0
  6
CONTINUOUS
  0
POLYLINE
  5
2B
  8
0
  6
CONTINUOUS
 66
     1
 10
0.0
 20
0.0
 30
0.0
  0
VERTEX
  5
297
  8
0
  6
CONTINUOUS
 10
-18.430976647070018
 20
21.983581766088459
 30
0.0
  0
VERTEX
  5
298
  8
0
  6
CONTINUOUS
 10
-18.430976647070018
 20
37.481831014592267
 30
0.0
  0
SEQEND
  5
299
  8
0
  6
CONTINUOUS
  0
POLYLINE
  5
2C
  8
0
  6
CONTINUOUS
 66
     1
 10
0.0
 20
0.0
 30
0.0
  0
VERTEX
  5
29A
  8
0
  6
CONTINUOUS
 10
11.929856421580279
 20
13.42022131143675
 30
0.0
  0
VERTEX
  5
29B
  8
0
  6
CONTINUOUS
 10
14.66802264318118
 20
14.309271592121039
 30
0.0
  0
VERTEX
  5
29C
  8
0
  6
CONTINUOUS
 10
17.40570653213403
 20
15.20080293564687
 30
0.0
  0
VERTEX
  5
29D
  8
0
  6
CONTINUOUS
 10
19.942305846677751
 20
15.96569835181956
 30
0.0
  0
VERTEX
  5
29E
  8
0
  6
CONTINUOUS
 10
20.40080209837668
 20
19.855211511412762
 30
0.0
  0
VERTEX
  5
29F
  8
0
  6
CONTINUOUS
 10
20.94679097271786
 20
23.438751116742559
 30
0.0
  0
VERTEX
  5
2A0
  8
0
  6
CONTINUOUS
 10
21.303150350694789
 20
26.492623352645989
 30
0.0
  0
VERTEX
  5
2A1
  8
0
  6
CONTINUOUS
 10
21.533056439102651
 20
30.40990509323094
 30
0.0
  0
VERTEX
  5
2A2
  8
0
  6
CONTINUOUS
 10
21.67193303500418
 20
33.961406058773058
 30
0.0
  0
VERTEX
  5
2A3
  8
0
  6
CONTINUOUS
 10
21.734837086304349
 20
37.628434064547292
 30
0.0
  0
VERTEX
  5
2A4
  8
0
  6
CONTINUOUS
 10
21.796344425090691
 20
40.020459362275417
 30
0.0
  0
SEQEND
  5
2A5
  8
0
  6
CONTINUOUS
  0
POLYLINE
  5
2D
  8
0
  6
CONTINUOUS
 66
     1
 10
0.0
 20
0.0
 30
0.0
 70
     1
  0
VERTEX
  5
2A6
  8
0
  6
CONTINUOUS
 10
11.905766462412471
 20
19.46293810018264
 30
0.0
  0
VERTEX
  5
2A7
  8
0
  6
CONTINUOUS
 10
11.92986393142241
 20
19.257131892201709
 30
0.0
  0
VERTEX
  5
2A8
  8
0
  6
CONTINUOUS
 10
11.92985912827303
 20
13.420223713011399
 30
0.0
  0
VERTEX
  5
2A9
  8
0
  6
CONTINUOUS
 10
13.70607547715756
 20
7.4082629853908957
 30
0.0
  0
VERTEX
  5
2AA
  8
0
  6
CONTINUOUS
 10
16.174696665905941
 20
8.1722759114596677
 30
0.0
  0
VERTEX
  5
2AB
  8
0
  6
CONTINUOUS
 10
18.617509923149949
 20
9.2225875603088614
 30
0.0
  0
VERTEX
  5
2AC
  8
0
  6
CONTINUOUS
 10
20.30350208459722
 20
10.217247883795689
 30
0.0
  0
VERTEX
  5
2AD
  8
0
  6
CONTINUOUS
 10
20.426290275963481
 20
10.324589255233301
 30
0.0
  0
VERTEX
  5
2AE
  8
0
  6
CONTINUOUS
 10
20.493149002220431
 20
10.473399689114551
 30
0.0
  0
VERTEX
  5
2AF
  8
0
  6
CONTINUOUS
 10
21.776960361306688
 20
19.418062847000851
 30
0.0
  0
VERTEX
  5
2B0
  8
0
  6
CONTINUOUS
 10
22.121303145524671
 20
23.197513277053901
 30
0.0
  0
VERTEX
  5
2B1
  8
0
  6
CONTINUOUS
 10
22.319710643324761
 20
26.15921282170142
 30
0.0
  0
VERTEX
  5
2B2
  8
0
  6
CONTINUOUS
 10
22.528116250754231
 20
30.293438486126721
 30
0.0
  0
VERTEX
  5
2B3
  8
0
  6
CONTINUOUS
 10
22.651127316122619
 20
33.875990483248728
 30
0.0
  0
VERTEX
  5
2B4
  8
0
  6
CONTINUOUS
 10
22.705768198632931
 20
36.93011262071181
 30
0.0
  0
VERTEX
  5
2B5
  8
0
  6
CONTINUOUS
 10
22.626533636513031
 20
40.758955872570091
 30
0.0
  0
VERTEX
  5
2B6
  8
0
  6
CONTINUOUS
 10
21.173949866410659
 20
40.750377310098649
 30
0.0
  0
VERTEX
  5
2B7
  8
0
  6
CONTINUOUS
 10
21.115017310932409
 20
37.707179020397739
 30
0.0
  0
VERTEX
  5
2B8
  8
0
  6
CONTINUOUS
 10
20.958515007439331
 20
34.01448261066966
 30
0.0
  0
VERTEX
  5
2B9
  8
0
  6
CONTINUOUS
 10
20.815713775949192
 20
30.472098475282859
 30
0.0
  0
VERTEX
  5
2BA
  8
0
  6
CONTINUOUS
 10
20.394506941278362
 20
26.765981534873269
 30
0.0
  0
VERTEX
  5
2BB
  8
0
  6
CONTINUOUS
 10
19.934277864881551
 20
24.62812919415892
 30
0.0
  0
VERTEX
  5
2BC
  8
0
  6
CONTINUOUS
 10
19.062000831210629
 20
22.569348620298801
 30
0.0
  0
VERTEX
  5
2BD
  8
0
  6
CONTINUOUS
 10
17.99345642756257
 20
21.302780301504558
 30
0.0
  0
VERTEX
  5
2BE
  8
0
  6
CONTINUOUS
 10
16.612254661001689
 20
20.317310085727652
 30
0.0
  0
VERTEX
  5
2BF
  8
0
  6
CONTINUOUS
 10
14.316125509027909
 20
19.546133341196061
 30
0.0
  0
SEQEND
  5
2C0
  8
0
  6
CONTINUOUS
  0
POLYLINE
  5
2E
  8
0
  6
CONTINUOUS
 66
     1
 10
0.0
 20
0.0
 30
0.0
  0
VERTEX
  5
2C1
  8
0
  6
CONTINUOUS
 10
20.288386278428089
 20
10.24916518500806
 30
0.0
  0
VERTEX
  5
2C2
  8
0
  6
CONTINUOUS
 10
20.248480936362011
 20
10.40725344312934
 30
0.0
  0
VERTEX
  5
2C3
  8
0
  6
CONTINUOUS
 10
20.166053451207439
 20
10.866670324693599
 30
0.0
  0
VERTEX
  5
2C4
  8
0
  6
CONTINUOUS
 10
20.029332307931039
 20
11.64447803338966
 30
0.0
  0
VERTEX
  5
2C5
  8
0
  6
CONTINUOUS
 10
19.92704736335191
 20
12.76983048477083
 30
0.0
  0
VERTEX
  5
2C6
  8
0
  6
CONTINUOUS
 10
19.942305846677751
 20
15.96569835181956
 30
0.0
  0
VERTEX
  5
2C7
  8
0
  6
CONTINUOUS
 10
19.606247855263909
 20
17.439101352941751
 30
0.0
  0
VERTEX
  5
2C8
  8
0
  6
CONTINUOUS
 10
19.084804609354151
 20
18.695183166466968
 30
0.0
  0
VERTEX
  5
2C9
  8
0
  6
CONTINUOUS
 10
18.636992815668162
 20
19.774945472977461
 30
0.0
  0
VERTEX
  5
2CA
  8
0
  6
CONTINUOUS
 10
18.293387432980161
 20
20.604033532891741
 30
0.0
  0
VERTEX
  5
2CB
  8
0
  6
CONTINUOUS
 10
18.077404995301968
 20
21.12541791069485
 30
0.0
  0
VERTEX
  5
2CC
  8
0
  6
CONTINUOUS
 10
17.99345642756257
 20
21.302780301504558
 30
0.0
  0
SEQEND
  5
2CD
  8
0
  6
CONTINUOUS
  0
POLYLINE
  5
2F
  8
0
  6
CONTINUOUS
 66
     1
 10
0.0
 20
0.0
 30
0.0
 70
     1
  0
VERTEX
  5
2CE
  8
0
  6
CONTINUOUS
 10
-20.959268934558889
 20
8.2786122435881992
 30
0.0
  0
VERTEX
  5
2CF
  8
0
  6
CONTINUOUS
 10
-21.067649587429418
 20
8.3533929280257269
 30
0.0
  0
VERTEX
  5
2D0
  8
0
  6
CONTINUOUS
 10
-21.396756417847829
 20
10.069458719537479
 30
0.0
  0
VERTEX
  5
2D1
  8
0
  6
CONTINUOUS
 10
-21.561313435418999
 20
12.39672547788909
 30
0.0
  0
VERTEX
  5
2D2
  8
0
  6
CONTINUOUS
 10
-21.561313435418999
 20
12.950850168665641
 30
0.0
  0
VERTEX
  5
2D3
  8
0
  6
CONTINUOUS
 10
-21.561313435418999
 20
13.504971257080211
 30
0.0
  0
VERTEX
  5
2D4
  8
0
  6
CONTINUOUS
 10
-21.561313435418999
 20
14.615468610937819
 30
0.0
  0
VERTEX
  5
2D5
  8
0
  6
CONTINUOUS
 10
-21.396756417847829
 20
16.942737780706601
 30
0.0
  0
VERTEX
  5
2D6
  8
0
  6
CONTINUOUS
 10
-21.067649587429418
 20
18.658804773005681
 30
0.0
  0
VERTEX
  5
2D7
  8
0
  6
CONTINUOUS
 10
-20.959268934558889
 20
18.733582445632361
 30
0.0
  0
VERTEX
  5
2D8
  8
0
  6
CONTINUOUS
 10
-11.456900672727521
 20
19.512196355066891
 30
0.0
  0
VERTEX
  5
2D9
  8
0
  6
CONTINUOUS
 10
-11.228451385412219
 20
19.442385591587559
 30
0.0
  0
VERTEX
  5
2DA
  8
0
  6
CONTINUOUS
 10
-10.9999996965223
 20
19.512196355066891
 30
0.0
  0
VERTEX
  5
2DB
  8
0
  6
CONTINUOUS
 10
-8.2545736525275242
 20
19.687141364133549
 30
0.0
  0
VERTEX
  5
2DC
  8
0
  6
CONTINUOUS
 10
-5.5054182189952883
 20
19.81214807898715
 30
0.0
  0
VERTEX
  5
2DD
  8
0
  6
CONTINUOUS
 10
-2.753558258068125
 20
19.887178064590639
 30
0.0
  0
VERTEX
  5
2DE
  8
0
  6
CONTINUOUS
 10
0.0000006003936903
 20
19.912195267796619
 30
0.0
  0
VERTEX
  5
2DF
  8
0
  6
CONTINUOUS
 10
2.7535594588555758
 20
19.887178064590639
 30
0.0
  0
VERTEX
  5
2E0
  8
0
  6
CONTINUOUS
 10
5.5054200201763592
 20
19.81214807898715
 30
0.0
  0
VERTEX
  5
2E1
  8
0
  6
CONTINUOUS
 10
8.2545730521339777
 20
19.687141364133549
 30
0.0
  0
VERTEX
  5
2E2
  8
0
  6
CONTINUOUS
 10
11.00000029691599
 20
19.512196355066891
 30
0.0
  0
VERTEX
  5
2E3
  8
0
  6
CONTINUOUS
 10
11.00000029691599
 20
7.4999995447835222
 30
0.0
  0
VERTEX
  5
2E4
  8
0
  6
CONTINUOUS
 10
9.8250003190207735
 20
7.4999995447835222
 30
0.0
  0
VERTEX
  5
2E5
  8
0
  6
CONTINUOUS
 10
8.8081636878247593
 20
7.3633679093756657
 30
0.0
  0
VERTEX
  5
2E6
  8
0
  6
CONTINUOUS
 10
7.8944494322595196
 20
6.977775324511696
 30
0.0
  0
VERTEX
  5
2E7
  8
0
  6
CONTINUOUS
 10
7.1203170383010672
 20
6.3796830970337028
 30
0.0
  0
VERTEX
  5
2E8
  8
0
  6
CONTINUOUS
 10
6.5222248108230474
 20
5.6055501125240514
 30
0.0
  0
VERTEX
  5
2E9
  8
0
  6
CONTINUOUS
 10
6.1366322259590333
 20
4.6918364573524673
 30
0.0
  0
VERTEX
  5
2EA
  8
0
  6
CONTINUOUS
 10
6.0000000000000142
 20
3.6749998261565242
 30
0.0
  0
VERTEX
  5
2EB
  8
0
  6
CONTINUOUS
 10
6.0000000000000142
 20
0.0
 30
0.0
  0
VERTEX
  5
2EC
  8
0
  6
CONTINUOUS
 10
-6.0000000000000142
 20
0.0
 30
0.0
  0
VERTEX
  5
2ED
  8
0
  6
CONTINUOUS
 10
-6.0000000000000142
 20
3.6749998261565242
 30
0.0
  0
VERTEX
  5
2EE
  8
0
  6
CONTINUOUS
 10
-6.1366346373762317
 20
4.6918364573524673
 30
0.0
  0
VERTEX
  5
2EF
  8
0
  6
CONTINUOUS
 10
-6.5222254112166658
 20
5.6055501125240514
 30
0.0
  0
VERTEX
  5
2F0
  8
0
  6
CONTINUOUS
 10
-7.1203194497181244
 20
6.3796830970337028
 30
0.0
  0
VERTEX
  5
2F1
  8
0
  6
CONTINUOUS
 10
-7.8944494322594494
 20
6.977775324511696
 30
0.0
  0
VERTEX
  5
2F2
  8
0
  6
CONTINUOUS
 10
-8.8081648886120671
 20
7.3633679093756657
 30
0.0
  0
VERTEX
  5
2F3
  8
0
  6
CONTINUOUS
 10
-9.8250009194143217
 20
7.4999995447835222
 30
0.0
  0
VERTEX
  5
2F4
  8
0
  6
CONTINUOUS
 10
-10.9999996965223
 20
7.4999995447835222
 30
0.0
  0
VERTEX
  5
2F5
  8
0
  6
CONTINUOUS
 10
-11.228451385412219
 20
7.5698108988140058
 30
0.0
  0
VERTEX
  5
2F6
  8
0
  6
CONTINUOUS
 10
-11.456900672727521
 20
7.4999995447835222
 30
0.0
  0
SEQEND
  5
2F7
  8
0
  6
CONTINUOUS
  0
LINE
  5
30
  8
0
  6
CONTINUOUS
 10
-10.99999969652238
 20
13.499999534941031
 30
0.0
 11
10.99999999179793
 21
13.499999534941031
 31
0.0
  0
LINE
  5
31
  8
0
  6
CONTINUOUS
 10
-4.4084951753374213
 20
11.598269138556541
 30
0.0
 11
-2.4227104828734971
 21
11.18932040353538
 31
0.0
  0
LINE
  5
32
  8
0
  6
CONTINUOUS
 10
-11.228451385412219
 20
19.442385591587559
 30
0.0
 11
-11.228451385412219
 21
7.5698108988140058
 31
0.0
  0
LINE
  5
33
  8
0
  6
CONTINUOUS
 10
-10.99999969652238
 20
7.4999995447835222
 30
0.0
 11
-10.99999969652238
 21
19.512196355066891
 31
0.0
  0
LINE
  5
34
  8
0
  6
CONTINUOUS
 10
-11.456900672727521
 20
19.512196355066891
 30
0.0
 11
-11.456900672727521
 21
7.4999995447835222
 31
0.0
  0
POLYLINE
  5
35
  8
0
  6
CONTINUOUS
 66
     1
 10
0.0
 20
0.0
 30
0.0
  0
VERTEX
  5
2F8
  8
0
  6
CONTINUOUS
 10
-20.959268934558889
 20
18.733582445632361
 30
0.0
  0
VERTEX
  5
2F9
  8
0
  6
CONTINUOUS
 10
-20.959268934558889
 20
18.545024671643912
 30
0.0
  0
VERTEX
  5
2FA
  8
0
  6
CONTINUOUS
 10
-20.959268934558889
 20
18.023329112757331
 30
0.0
  0
VERTEX
  5
2FB
  8
0
  6
CONTINUOUS
 10
-20.959268934558889
 20
17.193426456435802
 30
0.0
  0
VERTEX
  5
2FC
  8
0
  6
CONTINUOUS
 10
-20.959268934558889
 20
16.111878746490358
 30
0.0
  0
VERTEX
  5
2FD
  8
0
  6
CONTINUOUS
 10
-20.959268934558889
 20
14.852389531597151
 30
0.0
  0
VERTEX
  5
2FE
  8
0
  6
CONTINUOUS
 10
-20.959268934558889
 20
13.50079131638903
 30
0.0
  0
VERTEX
  5
2FF
  8
0
  6
CONTINUOUS
 10
-20.959268934558889
 20
12.149191890551061
 30
0.0
  0
VERTEX
  5
300
  8
0
  6
CONTINUOUS
 10
-20.959268934558889
 20
10.8897038862877
 30
0.0
  0
VERTEX
  5
301
  8
0
  6
CONTINUOUS
 10
-20.959268934558889
 20
9.8081513633504347
 30
0.0
  0
VERTEX
  5
302
  8
0
  6
CONTINUOUS
 10
-20.959268934558889
 20
8.9782511086035655
 30
0.0
  0
VERTEX
  5
303
  8
0
  6
CONTINUOUS
 10
-20.959268934558889
 20
8.4565543489296502
 30
0.0
  0
VERTEX
  5
304
  8
0
  6
CONTINUOUS
 10
-20.959268934558889
 20
8.2786122435881992
 30
0.0
  0
SEQEND
  5
305
  8
0
  6
CONTINUOUS
  0
LINE
  5
36
  8
0
  6
CONTINUOUS
 10
-8.6888075238092455
 20
11.949361843624731
 30
0.0
 11
-6.5066181975969783
 21
11.859713453396701
 31
0.0
  0
LINE
  5
37
  8
0
  6
CONTINUOUS
 10
-10.99999969652238
 20
11.947085032739301
 30
0.0
 11
-8.6888075238092455
 21
11.949361843624731
 31
0.0
  0
LINE
  5
38
  8
0
  6
CONTINUOUS
 10
-6.5066181975969783
 20
11.859713453396701
 30
0.0
 11
-4.4084951753374213
 21
11.598269138556541
 31
0.0
  0
POLYLINE
  5
39
  8
0
  6
CONTINUOUS
 66
     1
 10
0.0
 20
0.0
 30
0.0
  0
VERTEX
  5
306
  8
0
  6
CONTINUOUS
 10
-18.82998879008866
 20
18.90805338717928
 30
0.0
  0
VERTEX
  5
307
  8
0
  6
CONTINUOUS
 10
-18.76664835897969
 20
18.971177391841341
 30
0.0
  0
VERTEX
  5
308
  8
0
  6
CONTINUOUS
 10
-18.628492648861219
 20
19.38572863636497
 30
0.0
  0
VERTEX
  5
309
  8
0
  6
CONTINUOUS
 10
-18.628492648861219
 20
21.983581766088459
 30
0.0
  0
VERTEX
  5
30A
  8
0
  6
CONTINUOUS
 10
-13.506626906586019
 20
21.983581766088459
 30
0.0
  0
VERTEX
  5
30B
  8
0
  6
CONTINUOUS
 10
-13.506626906586019
 20
19.38572863636497
 30
0.0
  0
VERTEX
  5
30C
  8
0
  6
CONTINUOUS
 10
-13.493168992436029
 20
19.345346703129671
 30
0.0
  0
SEQEND
  5
30D
  8
0
  6
CONTINUOUS
  0
LINE
  5
3A
  8
0
  6
CONTINUOUS
 10
-18.628492648861219
 20
19.38572863636497
 30
0.0
 11
-13.506626906586019
 21
19.38572863636497
 31
0.0
  0
POLYLINE
  5
3B
  8
0
  6
CONTINUOUS
 66
     1
 10
0.0
 20
0.0
 30
0.0
  0
VERTEX
  5
30E
  8
0
  6
CONTINUOUS
 10
11.92986380827846
 20
19.107484311712689
 30
0.0
  0
VERTEX
  5
30F
  8
0
  6
CONTINUOUS
 10
11.92883186455588
 20
19.108340680760229
 30
0.0
  0
VERTEX
  5
310
  8
0
  6
CONTINUOUS
 10
11.02525328750928
 20
19.108335877610919
 30
0.0
  0
VERTEX
  5
311
  8
0
  6
CONTINUOUS
 10
11.025255393808351
 20
7.8583371608292998
 30
0.0
  0
VERTEX
  5
312
  8
0
  6
CONTINUOUS
 10
11.92883906927981
 20
7.8583323576799913
 30
0.0
  0
VERTEX
  5
313
  8
0
  6
CONTINUOUS
 10
13.50573520960303
 20
8.0863548301458277
 30
0.0
  0
SEQEND
  5
314
  8
0
  6
CONTINUOUS
  0
LINE
  5
3C
  8
0
  6
CONTINUOUS
 10
6.5066169968096679
 20
11.859713453396701
 30
0.0
 11
8.6888075238093165
 21
11.949361843624731
 31
0.0
  0
LINE
  5
3D
  8
0
  6
CONTINUOUS
 10
-1.6539547126044589
 20
6.6510191927695308
 30
0.0
 11
-1.5506419039144239
 21
4.2570991609044384
 31
0.0
  0
LINE
  5
3E
  8
0
  6
CONTINUOUS
 10
1.550640703127115
 20
4.2570991609044384
 30
0.0
 11
1.65395231102984
 21
6.6510191927695308
 31
0.0
  0
LINE
  5
3F
  8
0
  6
CONTINUOUS
 10
-1.5506419039144239
 20
4.2570991609044384
 30
0.0
 11
-1.5529139018079969
 21
0.0
 31
0.0
  0
LINE
  5
40
  8
0
  6
CONTINUOUS
 10
1.552912701020758
 20
0.0
 30
0.0
 11
1.550640703127115
 21
4.2570991609044384
 31
0.0
  0
LINE
  5
41
  8
0
  6
CONTINUOUS
 10
-1.9539520959707339
 20
8.9694610894520377
 30
0.0
 11
-1.6539547126044589
 21
6.6510191927695308
 31
0.0
  0
LINE
  5
42
  8
0
  6
CONTINUOUS
 10
-2.4227104828734971
 20
11.18932040353538
 30
0.0
 11
-1.9539520959707339
 21
8.9694610894520377
 31
0.0
  0
LINE
  5
43
  8
0
  6
CONTINUOUS
 10
1.65395231102984
 20
6.6510191927695308
 30
0.0
 11
1.9539508951834961
 21
8.9694610894520377
 31
0.0
  0
LINE
  5
44
  8
0
  6
CONTINUOUS
 10
2.422709282086188
 20
11.18932040353538
 30
0.0
 11
4.4084951753374213
 21
11.598269138556541
 31
0.0
  0
LINE
  5
45
  8
0
  6
CONTINUOUS
 10
1.9539508951834961
 20
8.9694610894520377
 30
0.0
 11
2.422709282086188
 21
11.18932040353538
 31
0.0
  0
LINE
  5
46
  8
0
  6
CONTINUOUS
 10
4.4084951753374213
 20
11.598269138556541
 30
0.0
 11
6.5066169968096679
 21
11.859713453396701
 31
0.0
  0
LINE
  5
47
  8
0
  6
CONTINUOUS
 10
8.6888075238093165
 20
11.949361843624731
 30
0.0
 11
10.99999999179793
 21
11.947085032739301
 31
0.0
  0
POLYLINE
  5
48
  8
0
  6
CONTINUOUS
 66
     1
 10
0.0
 20
0.0
 30
0.0
  0
VERTEX
  5
315
  8
0
  6
CONTINUOUS
 10
-18.430976647070018
 20
41.154448331494258
 30
0.0
  0
VERTEX
  5
316
  8
0
  6
CONTINUOUS
 10
-18.430976647070018
 20
61.742668238732641
 30
0.0
  0
VERTEX
  5
317
  8
0
  6
CONTINUOUS
 10
-17.977391753340719
 20
63.138657514238538
 30
0.0
  0
VERTEX
  5
318
  8
0
  6
CONTINUOUS
 10
-16.789895191558202
 20
64.001425444155856
 30
0.0
  0
VERTEX
  5
319
  8
0
  6
CONTINUOUS
 10
-15.32206224915306
 20
64.001425444155856
 30
0.0
  0
VERTEX
  5
31A
  8
0
  6
CONTINUOUS
 10
-14.134563275953409
 20
63.138657514238538
 30
0.0
  0
VERTEX
  5
31B
  8
0
  6
CONTINUOUS
 10
-13.68097598064942
 20
61.742668238732641
 30
0.0
  0
VERTEX
  5
31C
  8
0
  6
CONTINUOUS
 10
-13.68097598064942
 20
41.154451299451424
 30
0.0
  0
SEQEND
  5
31D
  8
0
  6
CONTINUOUS
  0
POLYLINE
  5
49
  8
0
  6
CONTINUOUS
 66
     1
 10
0.0
 20
0.0
 30
0.0
  0
VERTEX
  5
31E
  8
0
  6
CONTINUOUS
 10
-18.693845922453601
 20
41.283271864368487
 30
0.0
  0
VERTEX
  5
31F
  8
0
  6
CONTINUOUS
 10
-18.69020544039109
 20
37.948227027420756
 30
0.0
  0
VERTEX
  5
320
  8
0
  6
CONTINUOUS
 10
-18.399827091874101
 20
37.425787748106849
 30
0.0
  0
VERTEX
  5
321
  8
0
  6
CONTINUOUS
 10
-17.952191922193059
 20
37.20641683622484
 30
0.0
  0
VERTEX
  5
322
  8
0
  6
CONTINUOUS
 10
-16.780268932299968
 20
37.070834688942263
 30
0.0
  0
VERTEX
  5
323
  8
0
  6
CONTINUOUS
 10
-15.331690900143469
 20
37.070834688942263
 30
0.0
  0
VERTEX
  5
324
  8
0
  6
CONTINUOUS
 10
-14.159760705526381
 20
37.20641683622484
 30
0.0
  0
VERTEX
  5
325
  8
0
  6
CONTINUOUS
 10
-13.71212553584548
 20
37.425787748106849
 30
0.0
  0
VERTEX
  5
326
  8
0
  6
CONTINUOUS
 10
-13.421752000320231
 20
37.948227027420756
 30
0.0
  0
VERTEX
  5
327
  8
0
  6
CONTINUOUS
 10
-13.418111508415221
 20
41.283271864368487
 30
0.0
  0
SEQEND
  5
328
  8
0
  6
CONTINUOUS
  0
POLYLINE
  5
4A
  8
0
  6
CONTINUOUS
 66
     1
 10
0.0
 20
0.0
 30
0.0
  0
VERTEX
  5
329
  8
0
  6
CONTINUOUS
 10
-18.430976647070018
 20
41.412094783138862
 30
0.0
  0
VERTEX
  5
32A
  8
0
  6
CONTINUOUS
 10
-18.693845922453601
 20
41.283271864368487
 30
0.0
  0
VERTEX
  5
32B
  8
0
  6
CONTINUOUS
 10
-18.190058403818689
 20
41.036382273054372
 30
0.0
  0
VERTEX
  5
32C
  8
0
  6
CONTINUOUS
 10
-16.871124802769721
 20
40.883794388615001
 30
0.0
  0
VERTEX
  5
32D
  8
0
  6
CONTINUOUS
 10
-15.24083502967378
 20
40.883794388615001
 30
0.0
  0
VERTEX
  5
32E
  8
0
  6
CONTINUOUS
 10
-13.921901428624819
 20
41.036382273054372
 30
0.0
  0
VERTEX
  5
32F
  8
0
  6
CONTINUOUS
 10
-13.418111508415221
 20
41.283271864368487
 30
0.0
  0
VERTEX
  5
330
  8
0
  6
CONTINUOUS
 10
-13.68097598064942
 20
41.412092429285558
 30
0.0
  0
SEQEND
  5
331
  8
0
  6
CONTINUOUS
  0
POLYLINE
  5
4B
  8
0
  6
CONTINUOUS
 66
     1
 10
0.0
 20
0.0
 30
0.0
  0
VERTEX
  5
332
  8
0
  6
CONTINUOUS
 10
-18.69020544039109
 20
37.948227027420756
 30
0.0
  0
VERTEX
  5
333
  8
0
  6
CONTINUOUS
 10
-17.952189520618511
 20
37.645153856839563
 30
0.0
  0
VERTEX
  5
334
  8
0
  6
CONTINUOUS
 10
-16.870002627641011
 20
37.54930222879905
 30
0.0
  0
VERTEX
  5
335
  8
0
  6
CONTINUOUS
 10
-15.24195721464501
 20
37.54930222879905
 30
0.0
  0
VERTEX
  5
336
  8
0
  6
CONTINUOUS
 10
-14.159760705526381
 20
37.645153856839563
 30
0.0
  0
VERTEX
  5
337
  8
0
  6
CONTINUOUS
 10
-13.421752000320231
 20
37.948227027420756
 30
0.0
  0
SEQEND
  5
338
  8
0
  6
CONTINUOUS
  0
POLYLINE
  5
4C
  8
0
  6
CONTINUOUS
 66
     1
 10
0.0
 20
0.0
 30
0.0
  0
VERTEX
  5
339
  8
0
  6
CONTINUOUS
 10
21.173949866410659
 20
40.750377310098649
 30
0.0
  0
VERTEX
  5
33A
  8
0
  6
CONTINUOUS
 10
21.202313791854468
 20
40.699179872261212
 30
0.0
  0
VERTEX
  5
33B
  8
0
  6
CONTINUOUS
 10
21.269028945285481
 20
40.560312882658337
 30
0.0
  0
VERTEX
  5
33C
  8
0
  6
CONTINUOUS
 10
21.38787808177262
 20
40.370282096948259
 30
0.0
  0
VERTEX
  5
33D
  8
0
  6
CONTINUOUS
 10
21.527024411909739
 20
40.179674608517267
 30
0.0
  0
VERTEX
  5
33E
  8
0
  6
CONTINUOUS
 10
21.722315276040678
 20
40.040312609101903
 30
0.0
  0
VERTEX
  5
33F
  8
0
  6
CONTINUOUS
 10
21.796344425090691
 20
40.020459362275417
 30
0.0
  0
VERTEX
  5
340
  8
0
  6
CONTINUOUS
 10
21.910274103215102
 20
40.007622758723826
 30
0.0
  0
VERTEX
  5
341
  8
0
  6
CONTINUOUS
 10
22.023906419152791
 20
40.021761763771181
 30
0.0
  0
VERTEX
  5
342
  8
0
  6
CONTINUOUS
 10
22.097463993428331
 20
40.04244643771257
 30
0.0
  0
VERTEX
  5
343
  8
0
  6
CONTINUOUS
 10
22.289587751452299
 20
40.184033574788131
 30
0.0
  0
VERTEX
  5
344
  8
0
  6
CONTINUOUS
 10
22.424324052329531
 20
40.376289498158428
 30
0.0
  0
VERTEX
  5
345
  8
0
  6
CONTINUOUS
 10
22.53876977372968
 20
40.567752449135909
 30
0.0
  0
VERTEX
  5
346
  8
0
  6
CONTINUOUS
 10
22.602223500193261
 20
40.707436436720712
 30
0.0
  0
VERTEX
  5
347
  8
0
  6
CONTINUOUS
 10
22.626533636513031
 20
40.758955872570091
 30
0.0
  0
SEQEND
  5
348
  8
0
  6
CONTINUOUS
  0
DIMENSION
  5
A5
  8
COTATION-JACOBDELAFON
  2
*D1
 10
-32.464794373157631
 20
64.001425444155871
 30
0.0
 11
-34.89651333632272
 21
32.000712722077928
 31
0.0
 70
     0
 13
-6.0000000000000142
 23
0.0
 33
0.0
 14
-16.05597872035559
 24
64.001425444155856
 34
0.0
 50
90.0
  0
INSERT
  5
EF
 67
     1
  8
0
  6
CONTINUOUS
  2
ADCADD_ZZ
 10
0.0
 20
0.0
 30
0.0
1001
ADCADD_ZZ
1070
   205
1070
    14
1070
   209
1070
     1
1070
   231
1070
     0
1070
   235
1070
     0
1070
   236
1070
     4
1070
   237
1070
     2
1070
   238
1070
     4
1070
   239
1070
     2
1070
   240
1070
     0
1070
   241
1070
  4096
1070
   242
1070
     2
1070
   244
1070
     0
1070
   245
1070
     1
1070
   303
1040
0.1
1070
   304
1040
4.0
1070
   305
1040
96.0
1070
   306
1040
0.125
1070
   337
1040
0.0
1070
   338
1040
0.3048
1070
   339
1040
0.0625
1070
   340
1040
96.0
1070
   341
1040
4.0
1070
   342
1040
96.0
1070
   530
1010
0.0
1020
0.0
1030
0.0
1070
   531
1010
0.0
1020
0.0
1030
0.0
1070
   107
1000

1070
   108
1000
AIA (256 Color)
1070
   135
1000
L120
1070
   136
1000
'
1070
   137
1000
m
1001
SDSK_PMN
1070
   100
1000
ACADARCH
1070
   300
1040
2453081.674656284
  0
ENDSEC
  0
EOF
