  0
SECTION
  2
HEADER
  9
$ACADVER
  1
AC1009
  9
$INSBASE
 10
0.0
 20
0.0
 30
0.0
  9
$EXTMIN
 10
-17.182343375395771
 20
-10.46389695691601
 30
0.0
  9
$EXTMAX
 10
49.708196811106681
 20
64.901406322549434
 30
0.0
  9
$LIMMIN
 10
0.0
 20
0.0
  9
$LIMMAX
 10
12.0
 20
9.0
  9
$ORTHOMODE
 70
     1
  9
$REGENMODE
 70
     1
  9
$FILLMODE
 70
     1
  9
$QTEXTMODE
 70
     0
  9
$MIRRTEXT
 70
     1
  9
$DRAGMODE
 70
     2
  9
$LTSCALE
 40
1.0
  9
$OSMODE
 70
    35
  9
$ATTMODE
 70
     1
  9
$TEXTSIZE
 40
0.2
  9
$TRACEWID
 40
0.05
  9
$TEXTSTYLE
  7
STANDARD
  9
$CLAYER
  8
0
  9
$CELTYPE
  6
CONTINUOUS
  9
$CECOLOR
 62
   256
  9
$DIMSCALE
 40
96.0
  9
$DIMASZ
 40
0.18
  9
$DIMEXO
 40
0.0625
  9
$DIMDLI
 40
0.38
  9
$DIMRND
 40
0.0
  9
$DIMDLE
 40
0.0
  9
$DIMEXE
 40
0.18
  9
$DIMTP
 40
0.0
  9
$DIMTM
 40
0.0
  9
$DIMTXT
 40
0.18
  9
$DIMCEN
 40
0.09
  9
$DIMTSZ
 40
0.0
  9
$DIMTOL
 70
     0
  9
$DIMLIM
 70
     0
  9
$DIMTIH
 70
     1
  9
$DIMTOH
 70
     1
  9
$DIMSE1
 70
     0
  9
$DIMSE2
 70
     0
  9
$DIMTAD
 70
     0
  9
$DIMZIN
 70
     0
  9
$DIMBLK
  1

  9
$DIMASO
 70
     1
  9
$DIMSHO
 70
     1
  9
$DIMPOST
  1

  9
$DIMAPOST
  1

  9
$DIMALT
 70
     0
  9
$DIMALTD
 70
     2
  9
$DIMALTF
 40
25.399999999999999
  9
$DIMLFAC
 40
1.0
  9
$DIMTOFL
 70
     0
  9
$DIMTVP
 40
0.0
  9
$DIMTIX
 70
     0
  9
$DIMSOXD
 70
     0
  9
$DIMSAH
 70
     0
  9
$DIMBLK1
  1

  9
$DIMBLK2
  1

  9
$DIMSTYLE
  2
STANDARD
  9
$DIMCLRD
 70
     0
  9
$DIMCLRE
 70
     0
  9
$DIMCLRT
 70
     0
  9
$DIMTFAC
 40
1.0
  9
$DIMGAP
 40
0.09
  9
$LUNITS
 70
     2
  9
$LUPREC
 70
     4
  9
$SKETCHINC
 40
0.1
  9
$FILLETRAD
 40
0.0
  9
$AUNITS
 70
     0
  9
$AUPREC
 70
     2
  9
$MENU
  1
.
  9
$ELEVATION
 40
0.0
  9
$PELEVATION
 40
0.0
  9
$THICKNESS
 40
0.0
  9
$LIMCHECK
 70
     0
  9
$BLIPMODE
 70
     0
  9
$CHAMFERA
 40
0.0
  9
$CHAMFERB
 40
0.0
  9
$SKPOLY
 70
     0
  9
$TDCREATE
 40
2453081.5264707869
  9
$TDUPDATE
 40
2453081.6740673948
  9
$TDINDWG
 40
0.0425263079
  9
$TDUSRTIMER
 40
0.0425263079
  9
$USRTIMER
 70
     1
  9
$ANGBASE
 50
0.0
  9
$ANGDIR
 70
     0
  9
$PDMODE
 70
     0
  9
$PDSIZE
 40
0.0
  9
$PLINEWID
 40
0.0
  9
$COORDS
 70
     0
  9
$SPLFRAME
 70
     0
  9
$SPLINETYPE
 70
     6
  9
$SPLINESEGS
 70
     8
  9
$ATTDIA
 70
     1
  9
$ATTREQ
 70
     1
  9
$HANDLING
 70
 22529
  9
$HANDSEED
  5
30C
  9
$SURFTAB1
 70
     6
  9
$SURFTAB2
 70
     6
  9
$SURFTYPE
 70
     6
  9
$SURFU
 70
     6
  9
$SURFV
 70
     6
  9
$UCSNAME
  2

  9
$UCSORG
 10
0.0
 20
0.0
 30
0.0
  9
$UCSXDIR
 10
1.0
 20
0.0
 30
0.0
  9
$UCSYDIR
 10
0.0
 20
1.0
 30
0.0
  9
$PUCSNAME
  2

  9
$PUCSORG
 10
0.0
 20
0.0
 30
0.0
  9
$PUCSXDIR
 10
1.0
 20
0.0
 30
0.0
  9
$PUCSYDIR
 10
0.0
 20
1.0
 30
0.0
  9
$USERI1
 70
     0
  9
$USERI2
 70
     0
  9
$USERI3
 70
     0
  9
$USERI4
 70
     0
  9
$USERI5
 70
     0
  9
$USERR1
 40
0.0
  9
$USERR2
 40
0.0
  9
$USERR3
 40
0.0
  9
$USERR4
 40
0.0
  9
$USERR5
 40
0.0
  9
$WORLDVIEW
 70
     1
  9
$SHADEDGE
 70
     3
  9
$SHADEDIF
 70
    70
  9
$TILEMODE
 70
     1
  9
$MAXACTVP
 70
    64
  9
$PLIMCHECK
 70
     0
  9
$PEXTMIN
 10
1.1294166947912989
 20
-10.0625572617461
 30
0.0
  9
$PEXTMAX
 10
49.498098681720649
 20
18.89727540596131
 30
0.0
  9
$PLIMMIN
 10
-0.1979161059762549
 20
-0.2679166643638311
  9
$PLIMMAX
 10
11.493750144177531
 20
7.9987497780266699
  9
$UNITMODE
 70
     0
  9
$VISRETAIN
 70
     1
  9
$PLINEGEN
 70
     0
  9
$PSLTSCALE
 70
     1
  0
ENDSEC
  0
SECTION
  2
TABLES
  0
TABLE
  2
VPORT
 70
     2
  0
VPORT
  2
*ACTIVE
 70
     0
 10
0.0
 20
0.0
 11
1.0
 21
1.0
 12
16.260899809332031
 22
27.220577704318949
 13
0.0
 23
0.0
 14
1.0
 24
1.0
 15
0.0
 25
0.0
 16
0.0
 26
0.0
 36
1.0
 17
0.0
 27
0.0
 37
0.0
 40
76.244669682997554
 41
1.828516377649325
 42
50.0
 43
0.0
 44
0.0
 50
0.0
 51
0.0
 71
     0
 72
   100
 73
     1
 74
     1
 75
     0
 76
     0
 77
     0
 78
     0
  0
ENDTAB
  0
TABLE
  2
LTYPE
 70
     1
  0
LTYPE
  2
CONTINUOUS
 70
     0
  3
Solid line
 72
    65
 73
     0
 40
0.0
  0
ENDTAB
  0
TABLE
  2
LAYER
 70
     3
  0
LAYER
  2
0
 70
     0
 62
     7
  6
CONTINUOUS
  0
LAYER
  2
DEFPOINTS
 70
     0
 62
     7
  6
CONTINUOUS
  0
LAYER
  2
COTATION-JACOBDELAFON
 70
     0
 62
     8
  6
CONTINUOUS
  0
ENDTAB
  0
TABLE
  2
STYLE
 70
     2
  0
STYLE
  2
STANDARD
 70
     0
 40
0.0
 41
1.0
 50
0.0
 71
     0
 42
0.2
  3
txt
  4

  0
STYLE
  2
JACOB-DELAFON
 70
     0
 40
0.0
 41
1.0
 50
0.0
 71
     0
 42
2.5
  3
txt
  4

  0
ENDTAB
  0
TABLE
  2
VIEW
 70
     0
  0
ENDTAB
  0
TABLE
  2
UCS
 70
     0
  0
ENDTAB
  0
TABLE
  2
APPID
 70
     5
  0
APPID
  2
ACAD
 70
     0
  0
APPID
  2
ADCADD_ZZ
 70
     0
  0
APPID
  2
SDSK_PMN
 70
     0
  0
APPID
  2
AEC_DWGVARSSETUP_DATA
 70
     0
  0
APPID
  2
AEC_DISPREPSET_DATA
 70
     0
  0
ENDTAB
  0
TABLE
  2
DIMSTYLE
 70
     2
  0
DIMSTYLE
  2
STANDARD
 70
     0
  3

  4

  5

  6

  7

 40
1.0
 41
0.18
 42
0.0625
 43
0.38
 44
0.18
 45
0.0
 46
0.0
 47
0.0
 48
0.0
140
0.18
141
0.09
142
0.0
143
25.399999999999999
144
1.0
145
0.0
146
1.0
147
0.09
 71
     0
 72
     0
 73
     1
 74
     1
 75
     0
 76
     0
 77
     0
 78
     0
170
     0
171
     2
172
     0
173
     0
174
     0
175
     0
176
     0
177
     0
178
     0
  0
DIMSTYLE
  2
COTATION-JACOB-DELAFON
 70
     0
  3

  4

  5
OBLIQUE
  6

  7

 40
1.0
 41
1.8
 42
0.625
 43
3.7999999999999989
 44
1.8
 45
0.0
 46
0.0
 47
0.0
 48
0.0
140
3.0
141
0.9
142
0.0
143
25.399999999999999
144
1.0
145
0.0
146
1.0
147
0.9
 71
     0
 72
     0
 73
     0
 74
     0
 75
     0
 76
     0
 77
     1
 78
    12
170
     0
171
     2
172
     0
173
     0
174
     0
175
     0
176
     0
177
     0
178
     0
  0
ENDTAB
  0
ENDSEC
  0
SECTION
  2
BLOCKS
  0
BLOCK
  8
0
  2
$MODEL_SPACE
 70
     0
 10
0.0
 20
0.0
 30
0.0
  3
$MODEL_SPACE
  1

  0
ENDBLK
  5
9
  8
0
  0
BLOCK
 67
     1
  8
0
  2
$PAPER_SPACE
 70
     0
 10
0.0
 20
0.0
 30
0.0
  3
$PAPER_SPACE
  1

  0
ENDBLK
  5
E
 67
     1
  8
0
  0
BLOCK
  8
0
  2
_OBLIQUE
 70
     0
 10
0.0
 20
0.0
 30
0.0
  3
_OBLIQUE
  1

  0
LINE
  5
22
  8
0
  6
BYBLOCK
 62
     0
 10
-0.5
 20
-0.5
 30
0.0
 11
0.5
 21
0.5
 31
0.0
  0
ENDBLK
  5
24
  8
0
  0
BLOCK
  8
0
  2
*D1
 70
     1
 10
0.0
 20
0.0
 30
0.0
  3
*D1
  1

  0
LINE
  5
264
  8
COTATION-JACOBDELAFON
 62
     0
 10
-0.625
 20
0.0000000000000002
 30
0.0
 11
-12.619828373423569
 21
0.0000000000000036
 31
0.0
  0
LINE
  5
265
  8
COTATION-JACOBDELAFON
 62
     0
 10
22.19729345063406
 20
64.001406322549428
 30
0.0
 11
-12.619828373423561
 21
64.001406322549428
 31
0.0
  0
LINE
  5
266
  8
COTATION-JACOBDELAFON
 62
     0
 10
-10.819828373423571
 20
0.0000000000000031
 30
0.0
 11
-10.81982837342356
 21
64.001406322549428
 31
0.0
  0
TEXT
  5
267
  8
0
  6
CONTINUOUS
 62
     0
 10
-13.388346103908731
 20
29.707381196745459
 30
0.0
 40
3.0
  1
64
 50
90.0
  7
JACOB-DELAFON
  0
INSERT
  5
268
  8
COTATION-JACOBDELAFON
 62
     0
  2
_OBLIQUE
 10
-10.819828373423571
 20
0.0000000000000031
 30
0.0
 41
1.8
 42
1.8
 43
1.8
 50
270.0
  0
INSERT
  5
269
  8
COTATION-JACOBDELAFON
 62
     0
  2
_OBLIQUE
 10
-10.81982837342356
 20
64.001406322549428
 30
0.0
 41
1.8
 42
1.8
 43
1.8
 50
90.0
  0
POINT
  5
26A
  8
DEFPOINTS
 62
     0
 10
0.0
 20
0.0
 30
0.0
  0
POINT
  5
26B
  8
DEFPOINTS
 62
     0
 10
22.82229345063406
 20
64.001406322549428
 30
0.0
  0
POINT
  5
26C
  8
DEFPOINTS
 62
     0
 10
-10.81982837342356
 20
64.001406322549428
 30
0.0
  0
ENDBLK
  5
4D
  8
0
  0
BLOCK
  8
0
  2
*D2
 70
     1
 10
0.0
 20
0.0
 30
0.0
  3
*D2
  1

  0
LINE
  5
26D
  8
COTATION-JACOBDELAFON
 62
     0
 10
-6.0000000000000142
 20
-0.625
 30
0.0
 11
-6.0000000000000142
 21
-6.130349957411859
 31
0.0
  0
LINE
  5
26E
  8
COTATION-JACOBDELAFON
 62
     0
 10
6.0000000000000142
 20
-0.625
 30
0.0
 11
6.0000000000000142
 21
-6.130349957411859
 31
0.0
  0
LINE
  5
26F
  8
COTATION-JACOBDELAFON
 62
     0
 10
-6.0000000000000142
 20
-4.33034995741186
 30
0.0
 11
6.0000000000000142
 21
-4.33034995741186
 31
0.0
  0
TEXT
  5
270
  8
0
  6
CONTINUOUS
 62
     0
 10
-2.44849931787176
 20
-9.5757659882939095
 30
0.0
 40
3.0
  1
12
  7
JACOB-DELAFON
  0
INSERT
  5
271
  8
COTATION-JACOBDELAFON
 62
     0
  2
_OBLIQUE
 10
-6.0000000000000142
 20
-4.33034995741186
 30
0.0
 41
1.8
 42
1.8
 43
1.8
 50
180.0
  0
INSERT
  5
272
  8
COTATION-JACOBDELAFON
 62
     0
  2
_OBLIQUE
 10
6.0000000000000142
 20
-4.33034995741186
 30
0.0
 41
1.8
 42
1.8
 43
1.8
  0
POINT
  5
273
  8
DEFPOINTS
 62
     0
 10
-6.0000000000000142
 20
0.0
 30
0.0
  0
POINT
  5
274
  8
DEFPOINTS
 62
     0
 10
6.0000000000000142
 20
0.0
 30
0.0
  0
POINT
  5
275
  8
DEFPOINTS
 62
     0
 10
6.0000000000000142
 20
-4.33034995741186
 30
0.0
  0
ENDBLK
  5
96
  8
0
  0
BLOCK
  8
0
  2
ADCADD_ZZ
 70
     0
 10
0.0
 20
0.0
 30
0.0
  3
ADCADD_ZZ
  1

  0
ENDBLK
  5
DD
  8
0
  0
ENDSEC
  0
SECTION
  2
ENTITIES
  0
POLYLINE
  5
2A
  8
0
  6
CONTINUOUS
 66
     1
 10
0.0
 20
0.0
 30
0.0
  0
VERTEX
  5
280
  8
0
  6
CONTINUOUS
 10
-2.2868266814985811
 20
40.74022495989152
 30
0.0
  0
VERTEX
  5
281
  8
0
  6
CONTINUOUS
 10
-2.2868266814985811
 20
47.393727066292271
 30
0.0
  0
VERTEX
  5
282
  8
0
  6
CONTINUOUS
 10
-1.7085428149194111
 20
51.697357632816363
 30
0.0
  0
VERTEX
  5
283
  8
0
  6
CONTINUOUS
 10
-0.0152984344520491
 20
55.709744888854722
 30
0.0
  0
VERTEX
  5
284
  8
0
  6
CONTINUOUS
 10
2.6086140065767429
 20
59.10597524076978
 30
0.0
  0
VERTEX
  5
285
  8
0
  6
CONTINUOUS
 10
6.0048419667604227
 20
61.72988528022475
 30
0.0
  0
VERTEX
  5
286
  8
0
  6
CONTINUOUS
 10
10.01721959681802
 20
63.423124857544138
 30
0.0
  0
VERTEX
  5
287
  8
0
  6
CONTINUOUS
 10
14.32085977948034
 20
64.001406322549428
 30
0.0
  0
VERTEX
  5
288
  8
0
  6
CONTINUOUS
 10
31.323727121787709
 20
64.001406322549428
 30
0.0
  0
VERTEX
  5
289
  8
0
  6
CONTINUOUS
 10
35.178874404916272
 20
63.537909353615021
 30
0.0
  0
VERTEX
  5
28A
  8
0
  6
CONTINUOUS
 10
38.848729599251541
 20
62.166868006737687
 30
0.0
  0
VERTEX
  5
28B
  8
0
  6
CONTINUOUS
 10
42.064084504483851
 20
60.012990977170773
 30
0.0
  0
VERTEX
  5
28C
  8
0
  6
CONTINUOUS
 10
44.702460345816633
 20
57.181648000595629
 30
0.0
  0
VERTEX
  5
28D
  8
0
  6
CONTINUOUS
 10
46.640369116533542
 20
53.77692078166131
 30
0.0
  0
VERTEX
  5
28E
  8
0
  6
CONTINUOUS
 10
47.711819272072731
 20
50.04475687944673
 30
0.0
  0
VERTEX
  5
28F
  8
0
  6
CONTINUOUS
 10
48.926884612120531
 20
41.772924651210502
 30
0.0
  0
VERTEX
  5
290
  8
0
  6
CONTINUOUS
 10
49.173702042933549
 20
41.812736861284669
 30
0.0
  0
VERTEX
  5
291
  8
0
  6
CONTINUOUS
 10
49.708196811106681
 20
38.477140345804763
 30
0.0
  0
VERTEX
  5
292
  8
0
  6
CONTINUOUS
 10
49.519819319881073
 20
37.910724683613559
 30
0.0
  0
VERTEX
  5
293
  8
0
  6
CONTINUOUS
 10
45.118426800369413
 20
37.200823590803999
 30
0.0
  0
VERTEX
  5
294
  8
0
  6
CONTINUOUS
 10
44.761525058801013
 20
37.679290987418817
 30
0.0
  0
VERTEX
  5
295
  8
0
  6
CONTINUOUS
 10
44.220191474192632
 20
41.013782148966037
 30
0.0
  0
VERTEX
  5
296
  8
0
  6
CONTINUOUS
 10
44.467004101857761
 20
41.053589555892351
 30
0.0
  0
VERTEX
  5
297
  8
0
  6
CONTINUOUS
 10
43.295023795508811
 20
49.058289744488619
 30
0.0
  0
VERTEX
  5
298
  8
0
  6
CONTINUOUS
 10
42.447216935426077
 20
52.011453080742953
 30
0.0
  0
VERTEX
  5
299
  8
0
  6
CONTINUOUS
 10
41.037521606404042
 20
54.488133881872471
 30
0.0
  0
VERTEX
  5
29A
  8
0
  6
CONTINUOUS
 10
39.115501196107942
 20
56.5507369482416
 30
0.0
  0
VERTEX
  5
29B
  8
0
  6
CONTINUOUS
 10
36.773179401717542
 20
58.119796462007059
 30
0.0
  0
VERTEX
  5
29C
  8
0
  6
CONTINUOUS
 10
34.10361315822967
 20
59.11713939029319
 30
0.0
  0
VERTEX
  5
29D
  8
0
  6
CONTINUOUS
 10
31.053130014497789
 20
59.483883648002582
 30
0.0
  0
VERTEX
  5
29E
  8
0
  6
CONTINUOUS
 10
14.62301493643074
 20
59.483883648002582
 30
0.0
  0
VERTEX
  5
29F
  8
0
  6
CONTINUOUS
 10
11.217304902889669
 20
59.026249905303452
 30
0.0
  0
VERTEX
  5
2A0
  8
0
  6
CONTINUOUS
 10
8.3021803915212882
 20
57.796055535270092
 30
0.0
  0
VERTEX
  5
2A1
  8
0
  6
CONTINUOUS
 10
5.8291689099367261
 20
55.885410731114142
 30
0.0
  0
VERTEX
  5
2A2
  8
0
  6
CONTINUOUS
 10
3.9185289089286348
 20
53.412411267241737
 30
0.0
  0
VERTEX
  5
2A3
  8
0
  6
CONTINUOUS
 10
2.688333338108321
 20
50.497277129892588
 30
0.0
  0
VERTEX
  5
2A4
  8
0
  6
CONTINUOUS
 10
2.2307080009179709
 20
47.091574310915853
 30
0.0
  0
VERTEX
  5
2A5
  8
0
  6
CONTINUOUS
 10
2.2307080009179709
 20
40.748083039760161
 30
0.0
  0
SEQEND
  5
2A6
  8
0
  6
CONTINUOUS
  0
POLYLINE
  5
2B
  8
0
  6
CONTINUOUS
 66
     1
 10
0.0
 20
0.0
 30
0.0
  0
VERTEX
  5
2A7
  8
0
  6
CONTINUOUS
 10
2.2307080009179709
 20
40.748083039760161
 30
0.0
  0
VERTEX
  5
2A8
  8
0
  6
CONTINUOUS
 10
2.7108238221361338
 20
40.697740304102503
 30
0.0
  0
VERTEX
  5
2A9
  8
0
  6
CONTINUOUS
 10
3.7274216549064221
 20
40.506287026582811
 30
0.0
  0
VERTEX
  5
2AA
  8
0
  6
CONTINUOUS
 10
4.3424635791162549
 20
40.31402154463116
 30
0.0
  0
VERTEX
  5
2AB
  8
0
  6
CONTINUOUS
 10
4.727429464122749
 20
40.172434449943452
 30
0.0
  0
VERTEX
  5
2AC
  8
0
  6
CONTINUOUS
 10
4.7842642271226756
 20
40.151764201480702
 30
0.0
  0
VERTEX
  5
2AD
  8
0
  6
CONTINUOUS
 10
4.8221228355381376
 20
40.137615584527992
 30
0.0
  0
VERTEX
  5
2AE
  8
0
  6
CONTINUOUS
 10
4.8198520391116508
 20
37.698279159715568
 30
0.0
  0
VERTEX
  5
2AF
  8
0
  6
CONTINUOUS
 10
4.8218248730469782
 20
34.033845046105498
 30
0.0
  0
VERTEX
  5
2B0
  8
0
  6
CONTINUOUS
 10
4.8750984463843841
 20
26.592615421376038
 30
0.0
  0
VERTEX
  5
2B1
  8
0
  6
CONTINUOUS
 10
5.0129201093569966
 20
23.538744099730309
 30
0.0
  0
VERTEX
  5
2B2
  8
0
  6
CONTINUOUS
 10
5.1171195797117264
 20
19.955205567228209
 30
0.0
  0
VERTEX
  5
2B3
  8
0
  6
CONTINUOUS
 10
5.1844550568254268
 20
17.0965157419256
 30
0.0
  0
SEQEND
  5
2B4
  8
0
  6
CONTINUOUS
  0
POLYLINE
  5
2C
  8
0
  6
CONTINUOUS
 66
     1
 10
0.0
 20
0.0
 30
0.0
  0
VERTEX
  5
2B5
  8
0
  6
CONTINUOUS
 10
-4.8501425301734002
 20
40.137610781380118
 30
0.0
  0
VERTEX
  5
2B6
  8
0
  6
CONTINUOUS
 10
-4.8478753361077764
 20
37.698279159715568
 30
0.0
  0
VERTEX
  5
2B7
  8
0
  6
CONTINUOUS
 10
-4.8498457586266852
 20
34.03385465240126
 30
0.0
  0
VERTEX
  5
2B8
  8
0
  6
CONTINUOUS
 10
-4.8298147028472007
 20
30.426659926670041
 30
0.0
  0
VERTEX
  5
2B9
  8
0
  6
CONTINUOUS
 10
-4.9031217433805088
 20
26.592617822949979
 30
0.0
  0
VERTEX
  5
2BA
  8
0
  6
CONTINUOUS
 10
-5.0409446071401467
 20
23.538744099730309
 30
0.0
  0
VERTEX
  5
2BB
  8
0
  6
CONTINUOUS
 10
-5.1451392645044081
 20
19.955205567228209
 30
0.0
  0
VERTEX
  5
2BC
  8
0
  6
CONTINUOUS
 10
-5.2202335368582453
 20
17.05088409385651
 30
0.0
  0
SEQEND
  5
2BD
  8
0
  6
CONTINUOUS
  0
POLYLINE
  5
2D
  8
0
  6
CONTINUOUS
 66
     1
 10
0.0
 20
0.0
 30
0.0
 70
     1
  0
VERTEX
  5
2BE
  8
0
  6
CONTINUOUS
 10
-6.0000000000000142
 20
0.0
 30
0.0
  0
VERTEX
  5
2BF
  8
0
  6
CONTINUOUS
 10
-6.29132442266119
 20
4.3570978864288072
 30
0.0
  0
VERTEX
  5
2C0
  8
0
  6
CONTINUOUS
 10
-6.4202575356847538
 20
6.7510172016104066
 30
0.0
  0
VERTEX
  5
2C1
  8
0
  6
CONTINUOUS
 10
-6.4931116236252251
 20
9.0694584042057969
 30
0.0
  0
VERTEX
  5
2C2
  8
0
  6
CONTINUOUS
 10
-6.5035182340513842
 20
11.28931705371534
 30
0.0
  0
VERTEX
  5
2C3
  8
0
  6
CONTINUOUS
 10
-6.4000000036088522
 20
13.59999549335785
 30
0.0
  0
VERTEX
  5
2C4
  8
0
  6
CONTINUOUS
 10
-6.1659218497049286
 20
15.18253800423698
 30
0.0
  0
VERTEX
  5
2C5
  8
0
  6
CONTINUOUS
 10
-5.4924484012590824
 20
16.703698155328421
 30
0.0
  0
VERTEX
  5
2C6
  8
0
  6
CONTINUOUS
 10
-4.4426416926511081
 20
18.042633588569348
 30
0.0
  0
VERTEX
  5
2C7
  8
0
  6
CONTINUOUS
 10
-3.1037014562622991
 20
19.09244269875126
 30
0.0
  0
VERTEX
  5
2C8
  8
0
  6
CONTINUOUS
 10
-1.582544917374306
 20
19.765919749557991
 30
0.0
  0
VERTEX
  5
2C9
  8
0
  6
CONTINUOUS
 10
0.00000000492129
 20
20.012189306552479
 30
0.0
  0
VERTEX
  5
2CA
  8
0
  6
CONTINUOUS
 10
1.5825437165873519
 20
19.765919749557991
 30
0.0
  0
VERTEX
  5
2CB
  8
0
  6
CONTINUOUS
 10
3.1037002554753448
 20
19.09244269875126
 30
0.0
  0
VERTEX
  5
2CC
  8
0
  6
CONTINUOUS
 10
4.4426428934381326
 20
18.042633588569348
 30
0.0
  0
VERTEX
  5
2CD
  8
0
  6
CONTINUOUS
 10
5.4924472004721991
 20
16.703698155328421
 30
0.0
  0
VERTEX
  5
2CE
  8
0
  6
CONTINUOUS
 10
6.1659218497049997
 20
15.18253800423698
 30
0.0
  0
VERTEX
  5
2CF
  8
0
  6
CONTINUOUS
 10
6.4000012043958767
 20
13.59999549335785
 30
0.0
  0
VERTEX
  5
2D0
  8
0
  6
CONTINUOUS
 10
6.5035182340513842
 20
11.28931705371534
 30
0.0
  0
VERTEX
  5
2D1
  8
0
  6
CONTINUOUS
 10
6.4931110232318181
 20
9.0694584042057969
 30
0.0
  0
VERTEX
  5
2D2
  8
0
  6
CONTINUOUS
 10
6.420258136078302
 20
6.7510172016104066
 30
0.0
  0
VERTEX
  5
2D3
  8
0
  6
CONTINUOUS
 10
6.291325023054668
 20
4.3570978864288072
 30
0.0
  0
VERTEX
  5
2D4
  8
0
  6
CONTINUOUS
 10
6.0000000000000142
 20
0.0
 30
0.0
  0
SEQEND
  5
2D5
  8
0
  6
CONTINUOUS
  0
POLYLINE
  5
2E
  8
0
  6
CONTINUOUS
 66
     1
 10
0.0
 20
0.0
 30
0.0
  0
VERTEX
  5
2D6
  8
0
  6
CONTINUOUS
 10
-4.4426416926511081
 20
18.042633588569348
 30
0.0
  0
VERTEX
  5
2D7
  8
0
  6
CONTINUOUS
 10
-5.3084971584397058
 20
16.675718116190652
 30
0.0
  0
VERTEX
  5
2D8
  8
0
  6
CONTINUOUS
 10
-5.7955515303090968
 20
15.152908329866429
 30
0.0
  0
VERTEX
  5
2D9
  8
0
  6
CONTINUOUS
 10
-6.0000000000000142
 20
13.59999549335785
 30
0.0
  0
VERTEX
  5
2DA
  8
0
  6
CONTINUOUS
 10
-5.7955515303090968
 20
12.04708145606231
 30
0.0
  0
VERTEX
  5
2DB
  8
0
  6
CONTINUOUS
 10
-5.2101597036908478
 20
10.51195171354424
 30
0.0
  0
VERTEX
  5
2DC
  8
0
  6
CONTINUOUS
 10
-4.2566467300952118
 20
9.2673215711497541
 30
0.0
  0
VERTEX
  5
2DD
  8
0
  6
CONTINUOUS
 10
-3.014009844856957
 20
8.3131579973946756
 30
0.0
  0
VERTEX
  5
2DE
  8
0
  6
CONTINUOUS
 10
-1.669898448912903
 20
7.726935954539921
 30
0.0
  0
VERTEX
  5
2DF
  8
0
  6
CONTINUOUS
 10
0.00000000492129
 20
7.4633657049560478
 30
0.0
  0
VERTEX
  5
2E0
  8
0
  6
CONTINUOUS
 10
1.669897248125948
 20
7.726935954539921
 30
0.0
  0
VERTEX
  5
2E1
  8
0
  6
CONTINUOUS
 10
3.2268878981268041
 20
8.4337594598749561
 30
0.0
  0
VERTEX
  5
2E2
  8
0
  6
CONTINUOUS
 10
4.228630647663393
 20
9.2673215711497541
 30
0.0
  0
VERTEX
  5
2E3
  8
0
  6
CONTINUOUS
 10
5.1961504666091676
 20
10.59999970349415
 30
0.0
  0
VERTEX
  5
2E4
  8
0
  6
CONTINUOUS
 10
5.7955515303090968
 20
12.04708145606231
 30
0.0
  0
VERTEX
  5
2E5
  8
0
  6
CONTINUOUS
 10
6.0000000000000142
 20
13.59999549335785
 30
0.0
  0
VERTEX
  5
2E6
  8
0
  6
CONTINUOUS
 10
5.9575565507157791
 20
15.16586748858602
 30
0.0
  0
VERTEX
  5
2E7
  8
0
  6
CONTINUOUS
 10
5.1961504666091676
 20
16.599993694638009
 30
0.0
  0
VERTEX
  5
2E8
  8
0
  6
CONTINUOUS
 10
4.3926253228654133
 20
17.992610004219241
 30
0.0
  0
SEQEND
  5
2E9
  8
0
  6
CONTINUOUS
  0
POLYLINE
  5
2F
  8
0
  6
CONTINUOUS
 66
     1
 10
0.0
 20
0.0
 30
0.0
  0
VERTEX
  5
2EA
  8
0
  6
CONTINUOUS
 10
-6.29132442266119
 20
4.3570978864288072
 30
0.0
  0
VERTEX
  5
2EB
  8
0
  6
CONTINUOUS
 10
-6.0056337381288918
 20
5.244998088374186
 30
0.0
  0
VERTEX
  5
2EC
  8
0
  6
CONTINUOUS
 10
-4.9256422667675528
 20
5.0051282141147349
 30
0.0
  0
VERTEX
  5
2ED
  8
0
  6
CONTINUOUS
 10
-3.4047380309382902
 20
4.480086080333157
 30
0.0
  0
VERTEX
  5
2EE
  8
0
  6
CONTINUOUS
 10
-1.6793949317139569
 20
3.9702582914670139
 30
0.0
  0
VERTEX
  5
2EF
  8
0
  6
CONTINUOUS
 10
0.00000000492129
 20
3.774998725947782
 30
0.0
  0
VERTEX
  5
2F0
  8
0
  6
CONTINUOUS
 10
1.6793961423434209
 20
3.9702582914670139
 30
0.0
  0
VERTEX
  5
2F1
  8
0
  6
CONTINUOUS
 10
3.4047392317253151
 20
4.480086080333157
 30
0.0
  0
VERTEX
  5
2F2
  8
0
  6
CONTINUOUS
 10
4.9256422667675528
 20
5.0051282141147349
 30
0.0
  0
VERTEX
  5
2F3
  8
0
  6
CONTINUOUS
 10
6.0056349389158461
 20
5.244998088374186
 30
0.0
  0
VERTEX
  5
2F4
  8
0
  6
CONTINUOUS
 10
6.291325023054668
 20
4.3570978864288072
 30
0.0
  0
SEQEND
  5
2F5
  8
0
  6
CONTINUOUS
  0
POLYLINE
  5
30
  8
0
  6
CONTINUOUS
 66
     1
 10
0.0
 20
0.0
 30
0.0
  0
VERTEX
  5
2F6
  8
0
  6
CONTINUOUS
 10
2.2307080009179709
 20
22.083575184719791
 30
0.0
  0
VERTEX
  5
2F7
  8
0
  6
CONTINUOUS
 10
2.2307080009179709
 20
40.748083039760161
 30
0.0
  0
SEQEND
  5
2F8
  8
0
  6
CONTINUOUS
  0
POLYLINE
  5
31
  8
0
  6
CONTINUOUS
 66
     1
 10
0.0
 20
0.0
 30
0.0
  0
VERTEX
  5
2F9
  8
0
  6
CONTINUOUS
 10
-2.2868266814985811
 20
40.74022495989152
 30
0.0
  0
VERTEX
  5
2FA
  8
0
  6
CONTINUOUS
 10
-2.2868266814985811
 20
22.083575184719791
 30
0.0
  0
SEQEND
  5
2FB
  8
0
  6
CONTINUOUS
  0
POLYLINE
  5
32
  8
0
  6
CONTINUOUS
 66
     1
 10
0.0
 20
0.0
 30
0.0
  0
VERTEX
  5
2FC
  8
0
  6
CONTINUOUS
 10
-2.5609345158708399
 20
22.083575184719791
 30
0.0
  0
VERTEX
  5
2FD
  8
0
  6
CONTINUOUS
 10
2.560933305241448
 20
22.083575184719791
 30
0.0
  0
VERTEX
  5
2FE
  8
0
  6
CONTINUOUS
 10
2.599739885756378
 20
20.704027364527452
 30
0.0
  0
VERTEX
  5
2FF
  8
0
  6
CONTINUOUS
 10
2.7062365796933099
 20
19.77577188183729
 30
0.0
  0
VERTEX
  5
300
  8
0
  6
CONTINUOUS
 10
2.848185795296132
 20
19.20556920524859
 30
0.0
  0
SEQEND
  5
301
  8
0
  6
CONTINUOUS
  0
POLYLINE
  5
33
  8
0
  6
CONTINUOUS
 66
     1
 10
0.0
 20
0.0
 30
0.0
  0
VERTEX
  5
302
  8
0
  6
CONTINUOUS
 10
-2.5609345158708399
 20
22.083575184719791
 30
0.0
  0
VERTEX
  5
303
  8
0
  6
CONTINUOUS
 10
-2.6277595705491299
 20
20.704027364527452
 30
0.0
  0
VERTEX
  5
304
  8
0
  6
CONTINUOUS
 10
-2.8776183018644721
 20
19.192538784964881
 30
0.0
  0
SEQEND
  5
305
  8
0
  6
CONTINUOUS
  0
POLYLINE
  5
34
  8
0
  6
CONTINUOUS
 66
     1
 10
0.0
 20
0.0
 30
0.0
  0
VERTEX
  5
306
  8
0
  6
CONTINUOUS
 10
-4.8501425301734002
 20
40.137610781380118
 30
0.0
  0
VERTEX
  5
307
  8
0
  6
CONTINUOUS
 10
-4.3704820631219832
 20
40.309652963526993
 30
0.0
  0
VERTEX
  5
308
  8
0
  6
CONTINUOUS
 10
-3.7554425503286382
 20
40.500270011032832
 30
0.0
  0
VERTEX
  5
309
  8
0
  6
CONTINUOUS
 10
-2.7388459183453051
 20
40.690300739852162
 30
0.0
  0
VERTEX
  5
30A
  8
0
  6
CONTINUOUS
 10
-2.2868266814985811
 20
40.74022495989152
 30
0.0
  0
SEQEND
  5
30B
  8
0
  6
CONTINUOUS
  0
LINE
  5
35
  8
0
  6
CONTINUOUS
 10
49.708196811106681
 20
38.47714034580477
 30
0.0
 11
44.761525058801013
 21
37.679290987418817
 31
0.0
  0
LINE
  5
36
  8
0
  6
CONTINUOUS
 10
44.46700410185769
 20
41.053589555892351
 30
0.0
 11
48.926884612120531
 21
41.772924651210481
 31
0.0
  0
DIMENSION
  5
3E
  8
COTATION-JACOBDELAFON
  2
*D1
 10
-10.81982837342356
 20
64.001406322549428
 30
0.0
 11
-14.86276629490464
 21
32.015703161274793
 31
0.0
 70
   128
 13
0.0
 23
0.0
 33
0.0
 14
22.82229345063406
 24
64.001406322549428
 34
0.0
 50
90.0
  0
DIMENSION
  5
89
  8
COTATION-JACOBDELAFON
  2
*D2
 10
6.0000000000000142
 20
-4.33034995741186
 30
0.0
 11
0.0
 21
-8.0757659882939095
 31
0.0
 70
   128
 13
-6.0000000000000142
 23
0.0
 33
0.0
 14
6.0000000000000142
 24
0.0
 34
0.0
  0
INSERT
  5
DE
 67
     1
  8
0
  6
CONTINUOUS
  2
ADCADD_ZZ
 10
0.0
 20
0.0
 30
0.0
1001
ADCADD_ZZ
1070
   205
1070
    14
1070
   209
1070
     1
1070
   231
1070
     0
1070
   235
1070
     0
1070
   236
1070
     4
1070
   237
1070
     2
1070
   238
1070
     4
1070
   239
1070
     2
1070
   240
1070
     0
1070
   241
1070
  4096
1070
   242
1070
     2
1070
   244
1070
     0
1070
   245
1070
     1
1070
   303
1040
0.1
1070
   304
1040
4.0
1070
   305
1040
96.0
1070
   306
1040
0.125
1070
   337
1040
0.0
1070
   338
1040
0.3048
1070
   339
1040
0.0625
1070
   340
1040
96.0
1070
   341
1040
4.0
1070
   342
1040
96.0
1070
   530
1010
0.0
1020
0.0
1030
0.0
1070
   531
1010
0.0
1020
0.0
1030
0.0
1070
   107
1000

1070
   108
1000
AIA (256 Color)
1070
   135
1000
L120
1070
   136
1000
'
1070
   137
1000
m
1001
SDSK_PMN
1070
   100
1000
ACADARCH
1070
   300
1040
2453081.6741170022
  0
ENDSEC
  0
EOF
