  0
SECTION
  2
HEADER
  9
$ACADVER
  1
AC1021
  9
$ACADMAINTVER
 70
    50
  9
$DWGCODEPAGE
  3
ANSI_1252
  9
$LASTSAVEDBY
  1
François
  9
$INSBASE
 10
137.964473
 20
97.000109
 30
0.0
  9
$EXTMIN
 10
123.5693339329435
 20
96.10010899999998
 30
0.0
  9
$EXTMAX
 10
159.880821
 20
127.1232851323756
 30
0.0
  9
$LIMMIN
 10
137.95592
 20
96.95601100000001
  9
$LIMMAX
 10
159.044211
 20
113.04409
  9
$ORTHOMODE
 70
     0
  9
$REGENMODE
 70
     1
  9
$FILLMODE
 70
     1
  9
$QTEXTMODE
 70
     0
  9
$MIRRTEXT
 70
     1
  9
$LTSCALE
 40
1.0
  9
$ATTMODE
 70
     1
  9
$TEXTSIZE
 40
0.0
  9
$TRACEWID
 40
0.05
  9
$TEXTSTYLE
  7
Standard
  9
$CLAYER
  8
Cotation-JacobDelafon
  9
$CELTYPE
  6
Continuous
  9
$CECOLOR
 62
   256
  9
$CELTSCALE
 40
1.0
  9
$DISPSILH
 70
     0
  9
$DIMSCALE
 40
1.0
  9
$DIMASZ
 40
1.8
  9
$DIMEXO
 40
0.625
  9
$DIMDLI
 40
3.799999999999999
  9
$DIMRND
 40
0.0
  9
$DIMDLE
 40
0.0
  9
$DIMEXE
 40
1.8
  9
$DIMTP
 40
0.0
  9
$DIMTM
 40
0.0
  9
$DIMTXT
 40
3.0
  9
$DIMCEN
 40
0.9
  9
$DIMTSZ
 40
0.0
  9
$DIMTOL
 70
     0
  9
$DIMLIM
 70
     0
  9
$DIMTIH
 70
     0
  9
$DIMTOH
 70
     0
  9
$DIMSE1
 70
     0
  9
$DIMSE2
 70
     0
  9
$DIMTAD
 70
     1
  9
$DIMZIN
 70
    12
  9
$DIMBLK
  1
Oblique
  9
$DIMASO
 70
     1
  9
$DIMSHO
 70
     1
  9
$DIMPOST
  1

  9
$DIMAPOST
  1

  9
$DIMALT
 70
     0
  9
$DIMALTD
 70
     2
  9
$DIMALTF
 40
25.4
  9
$DIMLFAC
 40
1.0
  9
$DIMTOFL
 70
     0
  9
$DIMTVP
 40
0.0
  9
$DIMTIX
 70
     0
  9
$DIMSOXD
 70
     0
  9
$DIMSAH
 70
     0
  9
$DIMBLK1
  1

  9
$DIMBLK2
  1

  9
$DIMSTYLE
  2
Cotation-Jacob-Delafon
  9
$DIMCLRD
 70
     0
  9
$DIMCLRE
 70
     0
  9
$DIMCLRT
 70
     0
  9
$DIMTFAC
 40
1.0
  9
$DIMGAP
 40
0.9
  9
$DIMJUST
 70
     0
  9
$DIMSD1
 70
     0
  9
$DIMSD2
 70
     0
  9
$DIMTOLJ
 70
     1
  9
$DIMTZIN
 70
     0
  9
$DIMALTZ
 70
     0
  9
$DIMALTTZ
 70
     0
  9
$DIMUPT
 70
     0
  9
$DIMDEC
 70
     2
  9
$DIMTDEC
 70
     2
  9
$DIMALTU
 70
     2
  9
$DIMALTTD
 70
     2
  9
$DIMTXSTY
  7
Jacob-Delafon
  9
$DIMAUNIT
 70
     0
  9
$DIMADEC
 70
     0
  9
$DIMALTRND
 40
0.0
  9
$DIMAZIN
 70
     3
  9
$DIMDSEP
 70
    46
  9
$DIMATFIT
 70
     3
  9
$DIMFRAC
 70
     0
  9
$DIMLDRBLK
  1
Oblique
  9
$DIMLUNIT
 70
     2
  9
$DIMLWD
 70
    -2
  9
$DIMLWE
 70
    -2
  9
$DIMTMOVE
 70
     2
  9
$DIMFXL
 40
1.0
  9
$DIMFXLON
 70
     0
  9
$DIMJOGANG
 40
0.7853981633974483
  9
$DIMTFILL
 70
     0
  9
$DIMTFILLCLR
 70
     0
  9
$DIMARCSYM
 70
     0
  9
$DIMLTYPE
  6

  9
$DIMLTEX1
  6

  9
$DIMLTEX2
  6

  9
$LUNITS
 70
     2
  9
$LUPREC
 70
     4
  9
$SKETCHINC
 40
0.1
  9
$FILLETRAD
 40
0.0
  9
$AUNITS
 70
     0
  9
$AUPREC
 70
     0
  9
$MENU
  1
acad
  9
$ELEVATION
 40
0.0
  9
$PELEVATION
 40
0.0
  9
$THICKNESS
 40
0.0
  9
$LIMCHECK
 70
     0
  9
$CHAMFERA
 40
0.0
  9
$CHAMFERB
 40
0.0
  9
$CHAMFERC
 40
0.0
  9
$CHAMFERD
 40
0.0
  9
$SKPOLY
 70
     0
  9
$TDCREATE
 40
2454965.312612118
  9
$TDUCREATE
 40
2454965.229278785
  9
$TDUPDATE
 40
2455006.675723379
  9
$TDUUPDATE
 40
2455006.592390046
  9
$TDINDWG
 40
0.0484584838
  9
$TDUSRTIMER
 40
0.0484582986
  9
$USRTIMER
 70
     1
  9
$ANGBASE
 50
0.0
  9
$ANGDIR
 70
     0
  9
$PDMODE
 70
     0
  9
$PDSIZE
 40
0.0
  9
$PLINEWID
 40
0.0
  9
$SPLFRAME
 70
     0
  9
$SPLINETYPE
 70
     6
  9
$SPLINESEGS
 70
     8
  9
$HANDSEED
  5
37B
  9
$SURFTAB1
 70
     6
  9
$SURFTAB2
 70
     6
  9
$SURFTYPE
 70
     6
  9
$SURFU
 70
     6
  9
$SURFV
 70
     6
  9
$UCSBASE
  2

  9
$UCSNAME
  2

  9
$UCSORG
 10
0.0
 20
0.0
 30
0.0
  9
$UCSXDIR
 10
1.0
 20
0.0
 30
0.0
  9
$UCSYDIR
 10
0.0
 20
1.0
 30
0.0
  9
$UCSORTHOREF
  2

  9
$UCSORTHOVIEW
 70
     0
  9
$UCSORGTOP
 10
0.0
 20
0.0
 30
0.0
  9
$UCSORGBOTTOM
 10
0.0
 20
0.0
 30
0.0
  9
$UCSORGLEFT
 10
0.0
 20
0.0
 30
0.0
  9
$UCSORGRIGHT
 10
0.0
 20
0.0
 30
0.0
  9
$UCSORGFRONT
 10
0.0
 20
0.0
 30
0.0
  9
$UCSORGBACK
 10
0.0
 20
0.0
 30
0.0
  9
$PUCSBASE
  2

  9
$PUCSNAME
  2

  9
$PUCSORG
 10
0.0
 20
0.0
 30
0.0
  9
$PUCSXDIR
 10
1.0
 20
0.0
 30
0.0
  9
$PUCSYDIR
 10
0.0
 20
1.0
 30
0.0
  9
$PUCSORTHOREF
  2

  9
$PUCSORTHOVIEW
 70
     0
  9
$PUCSORGTOP
 10
0.0
 20
0.0
 30
0.0
  9
$PUCSORGBOTTOM
 10
0.0
 20
0.0
 30
0.0
  9
$PUCSORGLEFT
 10
0.0
 20
0.0
 30
0.0
  9
$PUCSORGRIGHT
 10
0.0
 20
0.0
 30
0.0
  9
$PUCSORGFRONT
 10
0.0
 20
0.0
 30
0.0
  9
$PUCSORGBACK
 10
0.0
 20
0.0
 30
0.0
  9
$USERI1
 70
     0
  9
$USERI2
 70
     0
  9
$USERI3
 70
     0
  9
$USERI4
 70
     0
  9
$USERI5
 70
     0
  9
$USERR1
 40
0.0
  9
$USERR2
 40
0.0
  9
$USERR3
 40
0.0
  9
$USERR4
 40
0.0
  9
$USERR5
 40
0.0
  9
$WORLDVIEW
 70
     1
  9
$SHADEDGE
 70
     3
  9
$SHADEDIF
 70
    70
  9
$TILEMODE
 70
     1
  9
$MAXACTVP
 70
    16
  9
$PINSBASE
 10
0.0
 20
0.0
 30
0.0
  9
$PLIMCHECK
 70
     0
  9
$PEXTMIN
 10
1.000000000000000E+20
 20
1.000000000000000E+20
 30
1.000000000000000E+20
  9
$PEXTMAX
 10
-1.000000000000000E+20
 20
-1.000000000000000E+20
 30
-1.000000000000000E+20
  9
$PLIMMIN
 10
0.0
 20
0.0
  9
$PLIMMAX
 10
12.0
 20
9.0
  9
$UNITMODE
 70
     0
  9
$VISRETAIN
 70
     0
  9
$PLINEGEN
 70
     1
  9
$PSLTSCALE
 70
     0
  9
$TREEDEPTH
 70
  3020
  9
$CMLSTYLE
  2
Standard
  9
$CMLJUST
 70
     0
  9
$CMLSCALE
 40
1.0
  9
$PROXYGRAPHICS
 70
     0
  9
$MEASUREMENT
 70
     1
  9
$CELWEIGHT
370
     0
  9
$ENDCAPS
280
     0
  9
$JOINSTYLE
280
     0
  9
$LWDISPLAY
290
     0
  9
$INSUNITS
 70
     0
  9
$HYPERLINKBASE
  1

  9
$STYLESHEET
  1

  9
$XEDIT
290
     1
  9
$CEPSNTYPE
380
     0
  9
$PSTYLEMODE
290
     1
  9
$FINGERPRINTGUID
  2

  9
$VERSIONGUID
  2
{93A632DE-1BC7-4245-AFBD-C9ECCA04AF0C}
  9
$EXTNAMES
290
     1
  9
$PSVPSCALE
 40
0.0
  9
$OLESTARTUP
290
     0
  9
$SORTENTS
280
   127
  9
$INDEXCTL
280
     0
  9
$HIDETEXT
280
     0
  9
$XCLIPFRAME
290
     0
  9
$HALOGAP
280
     0
  9
$OBSCOLOR
 70
   257
  9
$OBSLTYPE
280
     0
  9
$INTERSECTIONDISPLAY
280
     0
  9
$INTERSECTIONCOLOR
 70
   257
  9
$DIMASSOC
280
     1
  9
$PROJECTNAME
  1

  9
$CAMERADISPLAY
290
     0
  9
$LENSLENGTH
 40
50.0
  9
$CAMERAHEIGHT
 40
0.0
  9
$STEPSPERSEC
 40
2.0
  9
$STEPSIZE
 40
6.0
  9
$3DDWFPREC
 40
2.0
  9
$PSOLWIDTH
 40
0.25
  9
$PSOLHEIGHT
 40
4.0
  9
$LOFTANG1
 40
1.570796326794896
  9
$LOFTANG2
 40
1.570796326794896
  9
$LOFTMAG1
 40
0.0
  9
$LOFTMAG2
 40
0.0
  9
$LOFTPARAM
 70
     7
  9
$LOFTNORMALS
280
     1
  9
$LATITUDE
 40
37.795
  9
$LONGITUDE
 40
-122.394
  9
$NORTHDIRECTION
 40
0.0
  9
$TIMEZONE
 70
 -8000
  9
$LIGHTGLYPHDISPLAY
280
     1
  9
$TILEMODELIGHTSYNCH
280
     1
  9
$CMATERIAL
347
2DC
  9
$SOLIDHIST
280
     1
  9
$SHOWHIST
280
     1
  9
$DWFFRAME
280
     2
  9
$DGNFRAME
280
     0
  9
$REALWORLDSCALE
290
     1
  9
$INTERFERECOLOR
 62
     1
  9
$INTERFEREOBJVS
345
2FE
  9
$INTERFEREVPVS
346
2FB
  9
$CSHADOW
280
     0
  9
$SHADOWPLANELOCATION
 40
0.0
  0
ENDSEC
  0
SECTION
  2
CLASSES
  0
CLASS
  1
IMAGE
  2
AcDbRasterImage
  3
ISM
 90
     2175
 91
        0
280
     0
281
     1
  0
CLASS
  1
DICTIONARYVAR
  2
AcDbDictionaryVar
  3
ObjectDBX Classes
 90
        0
 91
        7
280
     0
281
     0
  0
CLASS
  1
RASTERVARIABLES
  2
AcDbRasterVariables
  3
ISM
 90
        0
 91
        0
280
     0
281
     0
  0
CLASS
  1
IMAGEDEF
  2
AcDbRasterImageDef
  3
ISM
 90
        0
 91
        0
280
     0
281
     0
  0
CLASS
  1
IMAGEDEF_REACTOR
  2
AcDbRasterImageDefReactor
  3
ISM
 90
        1
 91
        0
280
     0
281
     0
  0
CLASS
  1
IDBUFFER
  2
AcDbIdBuffer
  3
ObjectDBX Classes
 90
        0
 91
        0
280
     0
281
     0
  0
CLASS
  1
SPATIAL_FILTER
  2
AcDbSpatialFilter
  3
ObjectDBX Classes
 90
        0
 91
        0
280
     0
281
     0
  0
CLASS
  1
SORTENTSTABLE
  2
AcDbSortentsTable
  3
ObjectDBX Classes
 90
        0
 91
        0
280
     0
281
     0
  0
CLASS
  1
LAYER_INDEX
  2
AcDbLayerIndex
  3
ObjectDBX Classes
 90
        0
 91
        0
280
     0
281
     0
  0
CLASS
  1
SPATIAL_INDEX
  2
AcDbSpatialIndex
  3
ObjectDBX Classes
 90
        0
 91
        0
280
     0
281
     0
  0
CLASS
  1
OBJECT_PTR
  2
CAseDLPNTableRecord
  3
"ASE-LPNTableRecord"
 90
        1
 91
        0
280
     0
281
     0
  0
CLASS
  1
PLOTSETTINGS
  2
AcDbPlotSettings
  3
ObjectDBX Classes
 90
        0
 91
        0
280
     0
281
     0
  0
CLASS
  1
ACDBDICTIONARYWDFLT
  2
AcDbDictionaryWithDefault
  3
ObjectDBX Classes
 90
        0
 91
        1
280
     0
281
     0
  0
CLASS
  1
WIPEOUT
  2
AcDbWipeout
  3
"WipeOut|Product Desc: Object Enabler for WipeOut entity                        |Company: Autodesk, Inc.                        |WEB Address: www.autodesk.com"
 90
     2175
 91
        0
280
     0
281
     1
  0
CLASS
  1
WIPEOUTVARIABLES
  2
AcDbWipeoutVariables
  3
"WipeOut|Product Desc:     WipeOut Dbx Application|Company:          Autodesk, Inc.|WEB Address:      www.autodesk.com"
 90
        0
 91
        1
280
     0
281
     0
  0
CLASS
  1
RTEXT
  2
RText
  3
RText|AutoCAD Express Tool|expresstools@autodesk.com
 90
        0
 91
        0
280
     0
281
     1
  0
CLASS
  1
ARCALIGNEDTEXT
  2
AcDbArcAlignedText
  3
ATEXT|AutoCAD Express Tool|expresstools@autodesk.com
 90
        0
 91
        0
280
     0
281
     1
  0
CLASS
  1
MATERIAL
  2
AcDbMaterial
  3
ObjectDBX Classes
 90
     1153
 91
        3
280
     0
281
     0
  0
CLASS
  1
VISUALSTYLE
  2
AcDbVisualStyle
  3
ObjectDBX Classes
 90
     4095
 91
       16
280
     0
281
     0
  0
CLASS
  1
TABLESTYLE
  2
AcDbTableStyle
  3
ObjectDBX Classes
 90
     4095
 91
        1
280
     0
281
     0
  0
CLASS
  1
SCALE
  2
AcDbScale
  3
ObjectDBX Classes
 90
     1153
 91
       17
280
     0
281
     0
  0
CLASS
  1
MLEADERSTYLE
  2
AcDbMLeaderStyle
  3
ACDB_MLEADERSTYLE_CLASS
 90
     4095
 91
        1
280
     0
281
     0
  0
CLASS
  1
AEC_REFEDIT_STATUS_TRACKER
  2
AecDbRefEditStatusTracker
  3
AecArchBase50|Product Desc: Autodesk Architectural Desktop 2007 |Company: Autodesk,Inc. |WEB Address: www.autodesk.com
 90
      129
 91
        0
280
     0
281
     0
  0
CLASS
  1
NPOCOLLECTION
  2
AcDbImpNonPersistentObjectsCollection
  3
ObjectDBX Classes
 90
     1153
 91
        0
280
     0
281
     0
  0
CLASS
  1
CELLSTYLEMAP
  2
AcDbCellStyleMap
  3
ObjectDBX Classes
 90
     1152
 91
        2
280
     0
281
     0
  0
ENDSEC
  0
SECTION
  2
TABLES
  0
TABLE
  2
VPORT
  5
7
330
0
100
AcDbSymbolTable
 70
     1
  0
VPORT
  5
15
330
7
100
AcDbSymbolTableRecord
100
AcDbViewportTableRecord
  2
*ACTIVE
 70
     0
 10
0.0
 20
0.0
 11
1.0
 21
1.0
 12
141.2626461976902
 22
110.7533490767167
 13
0.0
 23
0.0
 14
1.0
 24
1.0
 15
0.0
 25
0.0
 16
0.0
 26
0.0
 36
1.0
 17
0.0
 27
0.0
 37
0.0
 40
44.431120037672
 41
1.226824457593688
 42
50.0
 43
0.0
 44
0.0
 50
0.0
 51
0.0
 71
     0
 72
   100
 73
     1
 74
     1
 75
     0
 76
     0
 77
     0
 78
     0
281
     0
 65
     0
110
0.0
120
0.0
130
0.0
111
1.0
121
0.0
131
0.0
112
0.0
122
1.0
132
0.0
 79
     0
146
0.0
348
2FA
 60
     3
 61
     5
292
     1
282
     1
141
0.0
142
0.0
 63
   250
421
  3355443
  0
ENDTAB
  0
TABLE
  2
LTYPE
  5
4
330
0
100
AcDbSymbolTable
 70
     1
  0
LTYPE
  5
11
330
4
100
AcDbSymbolTableRecord
100
AcDbLinetypeTableRecord
  2
ByBlock
 70
     0
  3

 72
    65
 73
     0
 40
0.0
  0
LTYPE
  5
12
330
4
100
AcDbSymbolTableRecord
100
AcDbLinetypeTableRecord
  2
ByLayer
 70
     0
  3

 72
    65
 73
     0
 40
0.0
  0
LTYPE
  5
13
330
4
100
AcDbSymbolTableRecord
100
AcDbLinetypeTableRecord
  2
Continuous
 70
     0
  3
Solid line
 72
    65
 73
     0
 40
0.0
  0
ENDTAB
  0
TABLE
  2
LAYER
  5
2
330
0
100
AcDbSymbolTable
 70
     3
  0
LAYER
  5
14
102
{ACAD_XDICTIONARY
360
365
102
}
330
2
100
AcDbSymbolTableRecord
100
AcDbLayerTableRecord
  2
0
 70
     0
 62
     7
  6
Continuous
370
    -3
390
1D
347
2EC
  0
LAYER
  5
324
330
2
100
AcDbSymbolTableRecord
100
AcDbLayerTableRecord
  2
Defpoints
 70
     0
 62
     7
  6
Continuous
290
     0
370
    -3
390
1D
347
2EC
  0
LAYER
  5
332
102
{ACAD_XDICTIONARY
360
333
102
}
330
2
100
AcDbSymbolTableRecord
100
AcDbLayerTableRecord
  2
Cotation-JacobDelafon
 70
     0
 62
     8
  6
Continuous
370
    -3
390
1D
347
2EC
  0
ENDTAB
  0
TABLE
  2
STYLE
  5
3
330
0
100
AcDbSymbolTable
 70
     7
  0
STYLE
  5
17
330
3
100
AcDbSymbolTableRecord
100
AcDbTextStyleTableRecord
  2
Standard
 70
     0
 40
0.0
 41
1.0
 50
0.0
 71
     0
 42
0.0
  3
txt
  4

  0
STYLE
  5
24
330
3
100
AcDbSymbolTableRecord
100
AcDbTextStyleTableRecord
  2
STD
 70
     0
 40
0.0
 41
1.0
 50
0.0
 71
     0
 42
0.0
  3
txt
  4

  0
STYLE
  5
25
330
3
100
AcDbSymbolTableRecord
100
AcDbTextStyleTableRecord
  2
TATESTD
 70
     4
 40
0.0
 41
1.0
 50
0.0
 71
     0
 42
0.0
  3
txt
  4

  0
STYLE
  5
26
330
3
100
AcDbSymbolTableRecord
100
AcDbTextStyleTableRecord
  2
KANJISTD
 70
     0
 40
0.0
 41
1.0
 50
0.0
 71
     0
 42
0.0
  3
txt
  4
extfont
  0
STYLE
  5
27
330
3
100
AcDbSymbolTableRecord
100
AcDbTextStyleTableRecord
  2
KANJITATE
 70
     4
 40
0.0
 41
1.0
 50
0.0
 71
     0
 42
0.0
  3
txt
  4
extfont
  0
STYLE
  5
325
330
3
100
AcDbSymbolTableRecord
100
AcDbTextStyleTableRecord
  2
Annotative
 70
     0
 40
0.0
 41
1.0
 50
0.0
 71
     0
 42
0.2
  3
txt
  4

1001
AcadAnnotative
1000
AnnotativeData
1002
{
1070
     1
1070
     1
1002
}
  0
STYLE
  5
326
330
3
100
AcDbSymbolTableRecord
100
AcDbTextStyleTableRecord
  2
Jacob-Delafon
 70
     0
 40
0.0
 41
1.0
 50
0.0
 71
     0
 42
2.5
  3
ARIAL.TTF
  4

1001
ACAD
1000
Arial
1071
       34
  0
ENDTAB
  0
TABLE
  2
VIEW
  5
5
330
0
100
AcDbSymbolTable
 70
     0
  0
ENDTAB
  0
TABLE
  2
UCS
  5
6
330
0
100
AcDbSymbolTable
 70
     0
  0
ENDTAB
  0
TABLE
  2
APPID
  5
8
330
0
100
AcDbSymbolTable
 70
     3
  0
APPID
  5
16
330
8
100
AcDbSymbolTableRecord
100
AcDbRegAppTableRecord
  2
ACAD
 70
     0
  0
APPID
  5
31C
330
8
100
AcDbSymbolTableRecord
100
AcDbRegAppTableRecord
  2
ACAD_MLEADERVER
 70
     0
  0
APPID
  5
329
330
8
100
AcDbSymbolTableRecord
100
AcDbRegAppTableRecord
  2
AcadAnnotative
 70
     0
  0
ENDTAB
  0
TABLE
  2
DIMSTYLE
  5
9
330
0
100
AcDbSymbolTable
 70
     3
100
AcDbDimStyleTable
 71
     1
340
328
  0
DIMSTYLE
105
18
330
9
100
AcDbSymbolTableRecord
100
AcDbDimStyleTableRecord
  2
Standard
 70
     0
340
17
  0
DIMSTYLE
105
327
330
9
100
AcDbSymbolTableRecord
100
AcDbDimStyleTableRecord
  2
Annotative
 70
     0
340
17
1001
AcadAnnotative
1000
AnnotativeData
1002
{
1070
     1
1070
     1
1002
}
  0
DIMSTYLE
105
328
102
{ACAD_REACTORS
330
339
330
346
102
}
330
9
100
AcDbSymbolTableRecord
100
AcDbDimStyleTableRecord
  2
Cotation-Jacob-Delafon
 70
     0
 41
1.8
 42
0.625
 43
3.799999999999999
 44
1.8
 73
     0
 74
     0
 77
     1
 78
    12
 79
     3
140
3.0
141
0.9
147
0.9
271
     2
272
     2
279
     2
340
326
341
320
342
320
  0
ENDTAB
  0
TABLE
  2
BLOCK_RECORD
  5
1
330
0
100
AcDbSymbolTable
 70
     3
  0
BLOCK_RECORD
  5
A
330
1
100
AcDbSymbolTableRecord
100
AcDbBlockTableRecord
  2
*MODEL_SPACE
340
20
 70
     0
280
     1
281
     0
  0
BLOCK_RECORD
  5
B
330
1
100
AcDbSymbolTableRecord
100
AcDbBlockTableRecord
  2
*PAPER_SPACE
340
21
 70
     0
280
     1
281
     0
  0
BLOCK_RECORD
  5
320
330
1
100
AcDbSymbolTableRecord
100
AcDbBlockTableRecord
  2
_Oblique
340
0
102
{BLKREFS
331
356
331
357
331
35F
331
360
102
}
 70
     0
280
     1
281
     0
  0
BLOCK_RECORD
  5
33A
330
1
100
AcDbSymbolTableRecord
100
AcDbBlockTableRecord
  2
*D1
340
0
 70
     0
280
     1
281
     0
  0
BLOCK_RECORD
  5
347
330
1
100
AcDbSymbolTableRecord
100
AcDbBlockTableRecord
  2
*D2
340
0
 70
     0
280
     1
281
     0
  0
ENDTAB
  0
ENDSEC
  0
SECTION
  2
BLOCKS
  0
BLOCK
  5
D
330
A
100
AcDbEntity
  8
0
100
AcDbBlockBegin
  2
*MODEL_SPACE
 70
     0
 10
0.0
 20
0.0
 30
0.0
  3
*MODEL_SPACE
  1

  0
ENDBLK
  5
E
330
A
100
AcDbEntity
  8
0
100
AcDbBlockEnd
  0
BLOCK
  5
F
330
B
100
AcDbEntity
 67
     1
  8
0
100
AcDbBlockBegin
  2
*PAPER_SPACE
 70
     0
 10
0.0
 20
0.0
 30
0.0
  3
*PAPER_SPACE
  1

  0
ENDBLK
  5
10
330
B
100
AcDbEntity
 67
     1
  8
0
100
AcDbBlockEnd
  0
BLOCK
  5
321
330
320
100
AcDbEntity
  8
0
100
AcDbBlockBegin
  2
_Oblique
 70
     0
 10
0.0
 20
0.0
 30
0.0
  3
_Oblique
  1

  0
LINE
  5
322
330
320
100
AcDbEntity
  8
0
  6
ByBlock
 62
     0
370
    -2
380
     1
100
AcDbLine
 10
-0.5
 20
-0.5
 30
0.0
 11
0.5
 21
0.5
 31
0.0
  0
ENDBLK
  5
323
330
320
100
AcDbEntity
  8
0
100
AcDbBlockEnd
  0
BLOCK
  5
33B
330
33A
100
AcDbEntity
  8
0
370
     0
100
AcDbBlockBegin
  2
*D1
 70
     1
 10
0.0
 20
0.0
 30
0.0
  3
*D1
  1

  0
LINE
  5
35C
330
33A
100
AcDbEntity
  8
Cotation-JacobDelafon
  6
Continuous
 62
     0
370
    -2
100
AcDbLine
 10
138.000018
 20
97.752922
 30
0.0
 11
138.000018
 21
124.2231487067276
 31
0.0
  0
LINE
  5
35D
330
33A
100
AcDbEntity
  8
Cotation-JacobDelafon
  6
Continuous
 62
     0
370
    -2
100
AcDbLine
 10
158.980821
 20
99.51267600000001
 30
0.0
 11
158.980821
 21
124.2231487067276
 31
0.0
  0
LINE
  5
35E
330
33A
100
AcDbEntity
  8
Cotation-JacobDelafon
  6
Continuous
 62
     0
370
    -2
100
AcDbLine
 10
138.000018
 20
122.4231487067276
 30
0.0
 11
158.980821
 21
122.4231487067276
 31
0.0
  0
INSERT
  5
35F
330
33A
100
AcDbEntity
  8
Cotation-JacobDelafon
  6
Continuous
 62
     0
370
    -2
100
AcDbBlockReference
  2
_Oblique
 10
138.000018
 20
122.4231487067276
 30
0.0
 41
1.8
 42
1.8
 43
1.8
 50
180.0
  0
INSERT
  5
360
330
33A
100
AcDbEntity
  8
Cotation-JacobDelafon
  6
Continuous
 62
     0
370
    -2
100
AcDbBlockReference
  2
_Oblique
 10
158.980821
 20
122.4231487067276
 30
0.0
 41
1.8
 42
1.8
 43
1.8
  0
MTEXT
  5
361
330
33A
100
AcDbEntity
  8
Cotation-JacobDelafon
  6
Continuous
 62
     0
370
     0
100
AcDbMText
 10
148.4904194999999
 20
124.8292878608886
 30
0.0
 40
3.0
 41
0.0
 46
0.0
 71
     5
 72
     1
  1
\A1;21
  7
Jacob-Delafon
 73
     1
 44
1.0
  0
POINT
  5
362
330
33A
100
AcDbEntity
  8
Defpoints
  6
Continuous
 62
     0
370
     0
100
AcDbPoint
 10
138.000018
 20
97.127922
 30
0.0
  0
POINT
  5
363
330
33A
100
AcDbEntity
  8
Defpoints
  6
Continuous
 62
     0
370
     0
100
AcDbPoint
 10
158.980821
 20
98.88767600000001
 30
0.0
  0
POINT
  5
364
330
33A
100
AcDbEntity
  8
Defpoints
  6
Continuous
 62
     0
370
     0
100
AcDbPoint
 10
158.980821
 20
122.4231487067276
 30
0.0
  0
ENDBLK
  5
33C
330
33A
100
AcDbEntity
  8
0
370
     0
100
AcDbBlockEnd
  0
BLOCK
  5
348
330
347
100
AcDbEntity
  8
0
370
     0
100
AcDbBlockBegin
  2
*D2
 70
     1
 10
0.0
 20
0.0
 30
0.0
  3
*D2
  1

  0
LINE
  5
353
330
347
100
AcDbEntity
  8
Cotation-JacobDelafon
  6
Continuous
 62
     0
370
    -2
100
AcDbLine
 10
152.806117
 20
112.9920695
 30
0.0
 11
126.5206299765997
 21
112.9920695
 31
0.0
  0
LINE
  5
354
330
347
100
AcDbEntity
  8
Cotation-JacobDelafon
  6
Continuous
 62
     0
370
    -2
100
AcDbLine
 10
137.964473
 20
97.000109
 30
0.0
 11
126.5206299765997
 21
97.000109
 31
0.0
  0
LINE
  5
355
330
347
100
AcDbEntity
  8
Cotation-JacobDelafon
  6
Continuous
 62
     0
370
    -2
100
AcDbLine
 10
128.3206299765997
 20
112.9920695
 30
0.0
 11
128.3206299765997
 21
97.000109
 31
0.0
  0
INSERT
  5
356
330
347
100
AcDbEntity
  8
Cotation-JacobDelafon
  6
Continuous
 62
     0
370
    -2
100
AcDbBlockReference
  2
_Oblique
 10
128.3206299765997
 20
112.9920695
 30
0.0
 41
1.8
 42
1.8
 43
1.8
 50
90.0
  0
INSERT
  5
357
330
347
100
AcDbEntity
  8
Cotation-JacobDelafon
  6
Continuous
 62
     0
370
    -2
100
AcDbBlockReference
  2
_Oblique
 10
128.3206299765997
 20
97.000109
 30
0.0
 41
1.8
 42
1.8
 43
1.8
 50
270.0
  0
MTEXT
  5
358
330
347
100
AcDbEntity
  8
Cotation-JacobDelafon
  6
Continuous
 62
     0
370
     0
100
AcDbMText
 10
125.8889110134346
 20
104.99608925
 30
0.0
 40
3.0
 41
0.0
 46
0.0
 71
     5
 72
     1
  1
\A1;16
  7
Jacob-Delafon
 11
0.0000000000000001
 21
1.0
 31
0.0
 73
     1
 44
1.0
  0
POINT
  5
359
330
347
100
AcDbEntity
  8
Defpoints
  6
Continuous
 62
     0
370
     0
100
AcDbPoint
 10
153.431117
 20
112.9920695
 30
0.0
  0
POINT
  5
35A
330
347
100
AcDbEntity
  8
Defpoints
  6
Continuous
 62
     0
370
     0
100
AcDbPoint
 10
138.589473
 20
97.000109
 30
0.0
  0
POINT
  5
35B
330
347
100
AcDbEntity
  8
Defpoints
  6
Continuous
 62
     0
370
     0
100
AcDbPoint
 10
128.3206299765997
 20
97.000109
 30
0.0
  0
ENDBLK
  5
349
330
347
100
AcDbEntity
  8
0
370
     0
100
AcDbBlockEnd
  0
ENDSEC
  0
SECTION
  2
ENTITIES
  0
LINE
  5
2D8
330
A
100
AcDbEntity
  8
0
 62
     7
100
AcDbLine
 10
150.032186
 20
108.130695
 30
0.0
 11
150.119347
 21
107.75363
 31
0.0
  0
LINE
  5
2D7
330
A
100
AcDbEntity
  8
0
 62
     7
100
AcDbLine
 10
145.359431
 20
108.592166
 30
0.0
 11
145.200612
 21
108.239388
 31
0.0
  0
LINE
  5
2D6
330
A
100
AcDbEntity
  8
0
 62
     7
100
AcDbLine
 10
149.719371
 20
108.161701
 30
0.0
 11
149.952604
 21
108.138619
 31
0.0
  0
LINE
  5
2D5
330
A
100
AcDbEntity
  8
0
 62
     7
100
AcDbLine
 10
149.952604
 20
108.138619
 30
0.0
 11
150.032186
 21
108.130695
 31
0.0
  0
LINE
  5
2D4
330
A
100
AcDbEntity
  8
0
 62
     7
100
AcDbLine
 10
145.530135
 20
108.206832
 30
0.0
 11
145.284328
 21
108.23112
 31
0.0
  0
LINE
  5
2D3
330
A
100
AcDbEntity
  8
0
 62
     7
100
AcDbLine
 10
145.920981
 20
108.168247
 30
0.0
 11
145.530135
 21
108.206832
 31
0.0
  0
LINE
  5
2D2
330
A
100
AcDbEntity
  8
0
 62
     7
100
AcDbLine
 10
146.430339
 20
108.117948
 30
0.0
 11
145.920981
 21
108.168247
 31
0.0
  0
LINE
  5
2D1
330
A
100
AcDbEntity
  8
0
 62
     7
100
AcDbLine
 10
147.023412
 20
108.059382
 30
0.0
 11
146.430339
 21
108.117948
 31
0.0
  0
LINE
  5
2D0
330
A
100
AcDbEntity
  8
0
 62
     7
100
AcDbLine
 10
147.6598929999999
 20
107.996509
 30
0.0
 11
147.023412
 21
108.059382
 31
0.0
  0
LINE
  5
2CF
330
A
100
AcDbEntity
  8
0
 62
     7
100
AcDbLine
 10
148.296547
 20
107.933636
 30
0.0
 11
147.6598929999999
 21
107.996509
 31
0.0
  0
LINE
  5
2CE
330
A
100
AcDbEntity
  8
0
 62
     7
100
AcDbLine
 10
148.889792
 20
107.875069
 30
0.0
 11
148.296547
 21
107.933636
 31
0.0
  0
LINE
  5
2CD
330
A
100
AcDbEntity
  8
0
 62
     7
100
AcDbLine
 10
149.398977
 20
107.824771
 30
0.0
 11
148.889792
 21
107.875069
 31
0.0
  0
LINE
  5
2CC
330
A
100
AcDbEntity
  8
0
 62
     7
100
AcDbLine
 10
149.789996
 20
107.786186
 30
0.0
 11
149.398977
 21
107.824771
 31
0.0
  0
LINE
  5
2CB
330
A
100
AcDbEntity
  8
0
 62
     7
100
AcDbLine
 10
150.035631
 20
107.761898
 30
0.0
 11
149.789996
 21
107.786186
 31
0.0
  0
LINE
  5
2CA
330
A
100
AcDbEntity
  8
0
 62
     7
100
AcDbLine
 10
150.119347
 20
107.75363
 30
0.0
 11
150.035631
 21
107.761898
 31
0.0
  0
LINE
  5
2C9
330
A
100
AcDbEntity
  8
0
 62
     7
100
AcDbLine
 10
148.889792
 20
107.875069
 30
0.0
 11
149.398977
 21
107.824771
 31
0.0
  0
LINE
  5
2C8
330
A
100
AcDbEntity
  8
0
 62
     7
100
AcDbLine
 10
147.023412
 20
108.059382
 30
0.0
 11
147.6598929999999
 21
107.996509
 31
0.0
  0
LINE
  5
2C7
330
A
100
AcDbEntity
  8
0
 62
     7
100
AcDbLine
 10
145.284328
 20
108.23112
 30
0.0
 11
145.200612
 21
108.239388
 31
0.0
  0
LINE
  5
2C6
330
A
100
AcDbEntity
  8
0
 62
     7
100
AcDbLine
 10
150.397711
 20
108.108302
 30
0.0
 11
150.315373
 21
108.10279
 31
0.0
  0
LINE
  5
2C5
330
A
100
AcDbEntity
  8
0
 62
     7
100
AcDbLine
 10
150.473847
 20
108.140342
 30
0.0
 11
150.397711
 21
108.108302
 31
0.0
  0
LINE
  5
2C4
330
A
100
AcDbEntity
  8
0
 62
     7
100
AcDbLine
 10
144.99649
 20
108.641775
 30
0.0
 11
145.076244
 21
108.620243
 31
0.0
  0
LINE
  5
2C3
330
A
100
AcDbEntity
  8
0
 62
     7
100
AcDbLine
 10
144.928105
 20
108.688112
 30
0.0
 11
144.99649
 21
108.641775
 31
0.0
  0
LINE
  5
2C2
330
A
100
AcDbEntity
  8
0
 62
     7
100
AcDbLine
 10
149.708002
 20
111.150666
 30
0.0
 11
149.77277
 21
111.131029
 31
0.0
  0
LINE
  5
2C1
330
A
100
AcDbEntity
  8
0
 62
     7
100
AcDbLine
 10
146.264974
 20
111.490697
 30
0.0
 11
146.197795
 21
111.484151
 31
0.0
  0
LINE
  5
2C0
330
A
100
AcDbEntity
  8
0
 62
     7
100
AcDbLine
 10
149.77277
 20
111.131029
 30
0.0
 11
149.824791
 21
111.088137
 31
0.0
  0
LINE
  5
2BF
330
A
100
AcDbEntity
  8
0
 62
     7
100
AcDbLine
 10
146.197795
 20
111.484151
 30
0.0
 11
146.138194
 21
111.452112
 31
0.0
  0
LINE
  5
2BE
330
A
100
AcDbEntity
  8
0
 62
     7
100
AcDbLine
 10
149.824791
 20
111.088137
 30
0.0
 11
149.856486
 21
111.028365
 31
0.0
  0
LINE
  5
2BD
330
A
100
AcDbEntity
  8
0
 62
     7
100
AcDbLine
 10
146.138194
 20
111.452112
 30
0.0
 11
146.095303
 21
111.399919
 31
0.0
  0
LINE
  5
2BC
330
A
100
AcDbEntity
  8
0
 62
     7
100
AcDbLine
 10
149.856486
 20
111.028365
 30
0.0
 11
149.863376
 21
110.961013
 31
0.0
  0
LINE
  5
2BB
330
A
100
AcDbEntity
  8
0
 62
     7
100
AcDbLine
 10
146.095303
 20
111.399919
 30
0.0
 11
146.0758379999999
 21
111.335151
 31
0.0
  0
LINE
  5
2BA
330
A
100
AcDbEntity
  8
0
 62
     7
100
AcDbLine
 10
149.863376
 20
110.961013
 30
0.0
 11
149.843739
 21
110.896246
 31
0.0
  0
LINE
  5
2B9
330
A
100
AcDbEntity
  8
0
 62
     7
100
AcDbLine
 10
146.0758379999999
 20
111.335151
 30
0.0
 11
146.082384
 21
111.267799
 31
0.0
  0
LINE
  5
2B8
330
A
100
AcDbEntity
  8
0
 62
     7
100
AcDbLine
 10
149.843739
 20
110.896246
 30
0.0
 11
149.80102
 21
110.844052
 31
0.0
  0
LINE
  5
2B7
330
A
100
AcDbEntity
  8
0
 62
     7
100
AcDbLine
 10
146.082384
 20
111.267799
 30
0.0
 11
146.114251
 21
111.208027
 31
0.0
  0
LINE
  5
2B6
330
A
100
AcDbEntity
  8
0
 62
     7
100
AcDbLine
 10
149.80102
 20
110.844052
 30
0.0
 11
149.74142
 21
110.812013
 31
0.0
  0
LINE
  5
2B5
330
A
100
AcDbEntity
  8
0
 62
     7
100
AcDbLine
 10
146.114251
 20
111.208027
 30
0.0
 11
146.166444
 21
111.165135
 31
0.0
  0
LINE
  5
2B4
330
A
100
AcDbEntity
  8
0
 62
     7
100
AcDbLine
 10
149.74142
 20
110.812013
 30
0.0
 11
149.67424
 21
110.805467
 31
0.0
  0
LINE
  5
2B3
330
A
100
AcDbEntity
  8
0
 62
     7
100
AcDbLine
 10
146.166444
 20
111.165135
 30
0.0
 11
146.2310399999999
 21
111.145498
 31
0.0
  0
LINE
  5
2B2
330
A
100
AcDbEntity
  8
0
 62
     7
100
AcDbLine
 10
147.952554
 20
110.975483
 30
0.0
 11
147.506931
 21
111.019408
 31
0.0
  0
LINE
  5
2B1
330
A
100
AcDbEntity
  8
0
 62
     7
100
AcDbLine
 10
148.398177
 20
110.931386
 30
0.0
 11
147.952554
 21
110.975483
 31
0.0
  0
LINE
  5
2B0
330
A
100
AcDbEntity
  8
0
 62
     7
100
AcDbLine
 10
148.813311
 20
110.890389
 30
0.0
 11
148.398177
 21
110.931386
 31
0.0
  0
LINE
  5
2AF
330
A
100
AcDbEntity
  8
0
 62
     7
100
AcDbLine
 10
149.169878
 20
110.855249
 30
0.0
 11
148.813311
 21
110.890389
 31
0.0
  0
LINE
  5
2AE
330
A
100
AcDbEntity
  8
0
 62
     7
100
AcDbLine
 10
149.443419
 20
110.828205
 30
0.0
 11
149.169878
 21
110.855249
 31
0.0
  0
LINE
  5
2AD
330
A
100
AcDbEntity
  8
0
 62
     7
100
AcDbLine
 10
149.615329
 20
110.811152
 30
0.0
 11
149.443419
 21
110.828205
 31
0.0
  0
LINE
  5
2AC
330
A
100
AcDbEntity
  8
0
 62
     7
100
AcDbLine
 10
149.67424
 20
110.805467
 30
0.0
 11
149.615329
 21
110.811152
 31
0.0
  0
LINE
  5
2AB
330
A
100
AcDbEntity
  8
0
 62
     7
100
AcDbLine
 10
146.289606
 20
111.139642
 30
0.0
 11
146.2310399999999
 21
111.145498
 31
0.0
  0
LINE
  5
2AA
330
A
100
AcDbEntity
  8
0
 62
     7
100
AcDbLine
 10
146.461689
 20
111.122761
 30
0.0
 11
146.289606
 21
111.139642
 31
0.0
  0
LINE
  5
2A9
330
A
100
AcDbEntity
  8
0
 62
     7
100
AcDbLine
 10
146.735229
 20
111.095717
 30
0.0
 11
146.461689
 21
111.122761
 31
0.0
  0
LINE
  5
2A8
330
A
100
AcDbEntity
  8
0
 62
     7
100
AcDbLine
 10
147.091797
 20
111.060404
 30
0.0
 11
146.735229
 21
111.095717
 31
0.0
  0
LINE
  5
2A7
330
A
100
AcDbEntity
  8
0
 62
     7
100
AcDbLine
 10
147.506931
 20
111.019408
 30
0.0
 11
147.091797
 21
111.060404
 31
0.0
  0
LINE
  5
2A6
330
A
100
AcDbEntity
  8
0
 62
     7
100
AcDbLine
 10
149.650125
 20
110.807879
 30
0.0
 11
149.621186
 21
110.80185
 31
0.0
  0
LINE
  5
2A5
330
A
100
AcDbEntity
  8
0
 62
     7
100
AcDbLine
 10
146.255155
 20
111.143087
 30
0.0
 11
146.282199
 21
111.131546
 31
0.0
  0
LINE
  5
2A4
330
A
100
AcDbEntity
  8
0
 62
     7
100
AcDbLine
 10
146.482532
 20
111.120694
 30
0.0
 11
146.313033
 21
111.137402
 31
0.0
  0
LINE
  5
2A3
330
A
100
AcDbEntity
  8
0
 62
     7
100
AcDbLine
 10
149.621186
 20
110.80185
 30
0.0
 11
149.60086
 21
110.780663
 31
0.0
  0
LINE
  5
2A2
330
A
100
AcDbEntity
  8
0
 62
     7
100
AcDbLine
 10
146.282199
 20
111.131546
 30
0.0
 11
146.298047
 21
111.106741
 31
0.0
  0
LINE
  5
2A1
330
A
100
AcDbEntity
  8
0
 62
     7
100
AcDbLine
 10
149.60086
 20
110.780663
 30
0.0
 11
149.5199
 21
110.679549
 31
0.0
  0
LINE
  5
2A0
330
A
100
AcDbEntity
  8
0
 62
     7
100
AcDbLine
 10
146.298047
 20
111.106741
 30
0.0
 11
146.357647
 21
110.991847
 31
0.0
  0
LINE
  5
29F
330
A
100
AcDbEntity
  8
0
 62
     7
100
AcDbLine
 10
149.5199
 20
110.679549
 30
0.0
 11
149.438251
 21
110.575852
 31
0.0
  0
LINE
  5
29E
330
A
100
AcDbEntity
  8
0
 62
     7
100
AcDbLine
 10
146.357647
 20
110.991847
 30
0.0
 11
146.417592
 21
110.874197
 31
0.0
  0
LINE
  5
29D
330
A
100
AcDbEntity
  8
0
 62
     7
100
AcDbLine
 10
149.438251
 20
110.575852
 30
0.0
 11
149.382785
 21
110.463714
 31
0.0
  0
LINE
  5
29C
330
A
100
AcDbEntity
  8
0
 62
     7
100
AcDbLine
 10
146.417592
 20
110.874197
 30
0.0
 11
146.45032
 21
110.753274
 31
0.0
  0
LINE
  5
29B
330
A
100
AcDbEntity
  8
0
 62
     7
100
AcDbLine
 10
149.382785
 20
110.463714
 30
0.0
 11
149.379685
 21
110.33659
 31
0.0
  0
LINE
  5
29A
330
A
100
AcDbEntity
  8
0
 62
     7
100
AcDbLine
 10
146.45032
 20
110.753274
 30
0.0
 11
146.428444
 21
110.628045
 31
0.0
  0
LINE
  5
299
330
A
100
AcDbEntity
  8
0
 62
     7
100
AcDbLine
 10
149.379685
 20
110.33659
 30
0.0
 11
149.44273
 21
110.210672
 31
0.0
  0
LINE
  5
298
330
A
100
AcDbEntity
  8
0
 62
     7
100
AcDbLine
 10
146.428444
 20
110.628045
 30
0.0
 11
146.342316
 21
110.516768
 31
0.0
  0
LINE
  5
297
330
A
100
AcDbEntity
  8
0
 62
     7
100
AcDbLine
 10
149.44273
 20
110.210672
 30
0.0
 11
149.66425
 21
110.062016
 31
0.0
  0
LINE
  5
296
330
A
100
AcDbEntity
  8
0
 62
     7
100
AcDbLine
 10
146.342316
 20
110.516768
 30
0.0
 11
146.095992
 21
110.414449
 31
0.0
  0
LINE
  5
295
330
A
100
AcDbEntity
  8
0
 62
     7
100
AcDbLine
 10
149.66425
 20
110.062016
 30
0.0
 11
149.940546
 21
109.899752
 31
0.0
  0
LINE
  5
294
330
A
100
AcDbEntity
  8
0
 62
     7
100
AcDbLine
 10
146.095992
 20
110.414449
 30
0.0
 11
145.79334
 21
110.309201
 31
0.0
  0
LINE
  5
293
330
A
100
AcDbEntity
  8
0
 62
     7
100
AcDbLine
 10
149.940546
 20
109.899752
 30
0.0
 11
150.142773
 21
109.763154
 31
0.0
  0
LINE
  5
292
330
A
100
AcDbEntity
  8
0
 62
     7
100
AcDbLine
 10
145.79334
 20
110.309201
 30
0.0
 11
145.568376
 21
110.214978
 31
0.0
  0
LINE
  5
291
330
A
100
AcDbEntity
  8
0
 62
     7
100
AcDbLine
 10
150.142773
 20
109.763154
 30
0.0
 11
150.369461
 21
109.565061
 31
0.0
  0
LINE
  5
290
330
A
100
AcDbEntity
  8
0
 62
     7
100
AcDbLine
 10
145.568376
 20
110.214978
 30
0.0
 11
145.307582
 21
110.064944
 31
0.0
  0
LINE
  5
28F
330
A
100
AcDbEntity
  8
0
 62
     7
100
AcDbLine
 10
150.369461
 20
109.565061
 30
0.0
 11
150.592358
 21
109.336651
 31
0.0
  0
LINE
  5
28E
330
A
100
AcDbEntity
  8
0
 62
     7
100
AcDbLine
 10
145.307582
 20
110.064944
 30
0.0
 11
145.044549
 21
109.884593
 31
0.0
  0
LINE
  5
28D
330
A
100
AcDbEntity
  8
0
 62
     7
100
AcDbLine
 10
150.592358
 20
109.336651
 30
0.0
 11
150.76668
 21
109.092049
 31
0.0
  0
LINE
  5
28C
330
A
100
AcDbEntity
  8
0
 62
     7
100
AcDbLine
 10
145.044549
 20
109.884593
 30
0.0
 11
144.82613
 21
109.678577
 31
0.0
  0
LINE
  5
28B
330
A
100
AcDbEntity
  8
0
 62
     7
100
AcDbLine
 10
150.76668
 20
109.092049
 30
0.0
 11
150.842817
 21
108.797666
 31
0.0
  0
LINE
  5
28A
330
A
100
AcDbEntity
  8
0
 62
     7
100
AcDbLine
 10
144.82613
 20
109.678577
 30
0.0
 11
144.694183
 21
109.404864
 31
0.0
  0
LINE
  5
289
330
A
100
AcDbEntity
  8
0
 62
     7
100
AcDbLine
 10
150.842817
 20
108.797666
 30
0.0
 11
150.816979
 21
108.57718
 31
0.0
  0
LINE
  5
288
330
A
100
AcDbEntity
  8
0
 62
     7
100
AcDbLine
 10
144.694183
 20
109.404864
 30
0.0
 11
144.676613
 21
109.183516
 31
0.0
  0
LINE
  5
287
330
A
100
AcDbEntity
  8
0
 62
     7
100
AcDbLine
 10
150.816979
 20
108.57718
 30
0.0
 11
150.729473
 21
108.378053
 31
0.0
  0
LINE
  5
286
330
A
100
AcDbEntity
  8
0
 62
     7
100
AcDbLine
 10
144.676613
 20
109.183516
 30
0.0
 11
144.723638
 21
108.971299
 31
0.0
  0
LINE
  5
285
330
A
100
AcDbEntity
  8
0
 62
     7
100
AcDbLine
 10
150.729473
 20
108.378053
 30
0.0
 11
150.588224
 21
108.213033
 31
0.0
  0
LINE
  5
284
330
A
100
AcDbEntity
  8
0
 62
     7
100
AcDbLine
 10
144.723638
 20
108.971299
 30
0.0
 11
144.829919
 21
108.781646
 31
0.0
  0
LINE
  5
283
330
A
100
AcDbEntity
  8
0
 62
     7
100
AcDbLine
 10
150.588224
 20
108.213033
 30
0.0
 11
150.473847
 21
108.140342
 31
0.0
  0
LINE
  5
282
330
A
100
AcDbEntity
  8
0
 62
     7
100
AcDbLine
 10
144.829919
 20
108.781646
 30
0.0
 11
144.928105
 21
108.688112
 31
0.0
  0
LINE
  5
281
330
A
100
AcDbEntity
  8
0
 62
     7
100
AcDbLine
 10
149.477525
 20
111.173404
 30
0.0
 11
149.649436
 21
111.156523
 31
0.0
  0
LINE
  5
280
330
A
100
AcDbEntity
  8
0
 62
     7
100
AcDbLine
 10
149.203985
 20
111.200448
 30
0.0
 11
149.477525
 21
111.173404
 31
0.0
  0
LINE
  5
27F
330
A
100
AcDbEntity
  8
0
 62
     7
100
AcDbLine
 10
148.847245
 20
111.23576
 30
0.0
 11
149.203985
 21
111.200448
 31
0.0
  0
LINE
  5
27E
330
A
100
AcDbEntity
  8
0
 62
     7
100
AcDbLine
 10
148.432111
 20
111.276756
 30
0.0
 11
148.847245
 21
111.23576
 31
0.0
  0
LINE
  5
27D
330
A
100
AcDbEntity
  8
0
 62
     7
100
AcDbLine
 10
147.986488
 20
111.320681
 30
0.0
 11
148.432111
 21
111.276756
 31
0.0
  0
LINE
  5
27C
330
A
100
AcDbEntity
  8
0
 62
     7
100
AcDbLine
 10
147.540865
 20
111.364779
 30
0.0
 11
147.986488
 21
111.320681
 31
0.0
  0
LINE
  5
27B
330
A
100
AcDbEntity
  8
0
 62
     7
100
AcDbLine
 10
147.125731
 20
111.405775
 30
0.0
 11
147.540865
 21
111.364779
 31
0.0
  0
LINE
  5
27A
330
A
100
AcDbEntity
  8
0
 62
     7
100
AcDbLine
 10
146.769164
 20
111.440915
 30
0.0
 11
147.125731
 21
111.405775
 31
0.0
  0
LINE
  5
279
330
A
100
AcDbEntity
  8
0
 62
     7
100
AcDbLine
 10
146.495623
 20
111.467959
 30
0.0
 11
146.769164
 21
111.440915
 31
0.0
  0
LINE
  5
278
330
A
100
AcDbEntity
  8
0
 62
     7
100
AcDbLine
 10
146.323541
 20
111.48484
 30
0.0
 11
146.495623
 21
111.467959
 31
0.0
  0
LINE
  5
277
330
A
100
AcDbEntity
  8
0
 62
     7
100
AcDbLine
 10
146.264974
 20
111.490697
 30
0.0
 11
146.323541
 21
111.48484
 31
0.0
  0
LINE
  5
276
330
A
100
AcDbEntity
  8
0
 62
     7
100
AcDbLine
 10
149.649436
 20
111.156523
 30
0.0
 11
149.708002
 21
111.150666
 31
0.0
  0
LINE
  5
275
330
A
100
AcDbEntity
  8
0
 62
     7
100
AcDbLine
 10
145.427299
 20
108.585448
 30
0.0
 11
145.165644
 21
108.611286
 31
0.0
  0
LINE
  5
274
330
A
100
AcDbEntity
  8
0
 62
     7
100
AcDbLine
 10
145.843639
 20
108.544451
 30
0.0
 11
145.427299
 21
108.585448
 31
0.0
  0
LINE
  5
273
330
A
100
AcDbEntity
  8
0
 62
     7
100
AcDbLine
 10
146.386069
 20
108.49088
 30
0.0
 11
145.843639
 21
108.544451
 31
0.0
  0
LINE
  5
272
330
A
100
AcDbEntity
  8
0
 62
     7
100
AcDbLine
 10
147.0179
 20
108.428352
 30
0.0
 11
146.386069
 21
108.49088
 31
0.0
  0
LINE
  5
271
330
A
100
AcDbEntity
  8
0
 62
     7
100
AcDbLine
 10
147.695722
 20
108.361517
 30
0.0
 11
147.0179
 21
108.428352
 31
0.0
  0
LINE
  5
270
330
A
100
AcDbEntity
  8
0
 62
     7
100
AcDbLine
 10
148.373717
 20
108.29451
 30
0.0
 11
147.695722
 21
108.361517
 31
0.0
  0
LINE
  5
26F
330
A
100
AcDbEntity
  8
0
 62
     7
100
AcDbLine
 10
149.005547
 20
108.232153
 30
0.0
 11
148.373717
 21
108.29451
 31
0.0
  0
LINE
  5
26E
330
A
100
AcDbEntity
  8
0
 62
     7
100
AcDbLine
 10
149.54815
 20
108.178582
 30
0.0
 11
149.005547
 21
108.232153
 31
0.0
  0
LINE
  5
26D
330
A
100
AcDbEntity
  8
0
 62
     7
100
AcDbLine
 10
149.964317
 20
108.137413
 30
0.0
 11
149.54815
 21
108.178582
 31
0.0
  0
LINE
  5
26C
330
A
100
AcDbEntity
  8
0
 62
     7
100
AcDbLine
 10
150.226145
 20
108.111575
 30
0.0
 11
149.964317
 21
108.137413
 31
0.0
  0
LINE
  5
26B
330
A
100
AcDbEntity
  8
0
 62
     7
100
AcDbLine
 10
150.315373
 20
108.10279
 30
0.0
 11
150.226145
 21
108.111575
 31
0.0
  0
LINE
  5
26A
330
A
100
AcDbEntity
  8
0
 62
     7
100
AcDbLine
 10
145.165644
 20
108.611286
 30
0.0
 11
145.076244
 21
108.620243
 31
0.0
  0
LINE
  5
269
330
A
100
AcDbEntity
  8
0
 62
     7
100
AcDbLine
 10
151.664472
 20
111.812469
 30
0.0
 11
151.374395
 21
111.735815
 31
0.0
  0
LINE
  5
268
330
A
100
AcDbEntity
  8
0
 62
     7
100
AcDbLine
 10
151.951793
 20
111.884471
 30
0.0
 11
151.664472
 21
111.812469
 31
0.0
  0
LINE
  5
267
330
A
100
AcDbEntity
  8
0
 62
     7
100
AcDbLine
 10
152.242215
 20
111.947344
 30
0.0
 11
151.951793
 21
111.884471
 31
0.0
  0
LINE
  5
266
330
A
100
AcDbEntity
  8
0
 62
     7
100
AcDbLine
 10
152.529191
 20
112.004188
 30
0.0
 11
152.242215
 21
111.947344
 31
0.0
  0
LINE
  5
265
330
A
100
AcDbEntity
  8
0
 62
     7
100
AcDbLine
 10
152.808588
 20
112.056037
 30
0.0
 11
152.529191
 21
112.004188
 31
0.0
  0
LINE
  5
264
330
A
100
AcDbEntity
  8
0
 62
     7
100
AcDbLine
 10
153.074205
 20
112.093761
 30
0.0
 11
152.808588
 21
112.056037
 31
0.0
  0
LINE
  5
263
330
A
100
AcDbEntity
  8
0
 62
     7
100
AcDbLine
 10
153.3356879999999
 20
112.108575
 30
0.0
 11
153.074205
 21
112.093761
 31
0.0
  0
LINE
  5
262
330
A
100
AcDbEntity
  8
0
 62
     7
100
AcDbLine
 10
153.682609
 20
112.095139
 30
0.0
 11
153.3356879999999
 21
112.108575
 31
0.0
  0
LINE
  5
261
330
A
100
AcDbEntity
  8
0
 62
     7
100
AcDbLine
 10
154.02643
 20
112.04708
 30
0.0
 11
153.682609
 21
112.095139
 31
0.0
  0
LINE
  5
260
330
A
100
AcDbEntity
  8
0
 62
     7
100
AcDbLine
 10
154.360604
 20
111.964225
 30
0.0
 11
154.02643
 21
112.04708
 31
0.0
  0
LINE
  5
25F
330
A
100
AcDbEntity
  8
0
 62
     7
100
AcDbLine
 10
154.683065
 20
111.859322
 30
0.0
 11
154.360604
 21
111.964225
 31
0.0
  0
LINE
  5
25E
330
A
100
AcDbEntity
  8
0
 62
     7
100
AcDbLine
 10
154.845673
 20
111.795071
 30
0.0
 11
154.683065
 21
111.859322
 31
0.0
  0
LINE
  5
25D
330
A
100
AcDbEntity
  8
0
 62
     7
100
AcDbLine
 10
155.014827
 20
111.717384
 30
0.0
 11
154.845673
 21
111.795071
 31
0.0
  0
LINE
  5
25C
330
A
100
AcDbEntity
  8
0
 62
     7
100
AcDbLine
 10
155.200174
 20
111.614893
 30
0.0
 11
155.014827
 21
111.717384
 31
0.0
  0
LINE
  5
25B
330
A
100
AcDbEntity
  8
0
 62
     7
100
AcDbLine
 10
155.4027449999999
 20
111.516191
 30
0.0
 11
155.200174
 21
111.614893
 31
0.0
  0
LINE
  5
25A
330
A
100
AcDbEntity
  8
0
 62
     7
100
AcDbLine
 10
155.644246
 20
111.406292
 30
0.0
 11
155.4027449999999
 21
111.516191
 31
0.0
  0
LINE
  5
259
330
A
100
AcDbEntity
  8
0
 62
     7
100
AcDbLine
 10
155.401712
 20
112.33664
 30
0.0
 11
155.600494
 21
112.219162
 31
0.0
  0
LINE
  5
258
330
A
100
AcDbEntity
  8
0
 62
     7
100
AcDbLine
 10
155.600494
 20
112.219162
 30
0.0
 11
156.095898
 21
111.815569
 31
0.0
  0
LINE
  5
257
330
A
100
AcDbEntity
  8
0
 62
     7
100
AcDbLine
 10
155.643557
 20
112.181783
 30
0.0
 11
155.600494
 21
112.219162
 31
0.0
  0
LINE
  5
256
330
A
100
AcDbEntity
  8
0
 62
     7
100
AcDbLine
 10
156.102444
 20
111.807301
 30
0.0
 11
156.163078
 21
111.759587
 31
0.0
  0
LINE
  5
255
330
A
100
AcDbEntity
  8
0
 62
     7
100
AcDbLine
 10
156.163078
 20
111.759587
 30
0.0
 11
156.185126
 21
111.742189
 31
0.0
  0
LINE
  5
254
330
A
100
AcDbEntity
  8
0
 62
     7
100
AcDbLine
 10
156.24266
 20
111.441604
 30
0.0
 11
156.257129
 21
111.50086
 31
0.0
  0
LINE
  5
253
330
A
100
AcDbEntity
  8
0
 62
     7
100
AcDbLine
 10
156.257473
 20
111.504305
 30
0.0
 11
156.257473
 21
111.5956
 31
0.0
  0
LINE
  5
252
330
A
100
AcDbEntity
  8
0
 62
     7
100
AcDbLine
 10
156.257129
 20
111.50086
 30
0.0
 11
156.257473
 21
111.504305
 31
0.0
  0
LINE
  5
251
330
A
100
AcDbEntity
  8
0
 62
     7
100
AcDbLine
 10
156.257473
 20
111.5956
 30
0.0
 11
156.2299129999999
 21
111.675526
 31
0.0
  0
LINE
  5
250
330
A
100
AcDbEntity
  8
0
 62
     7
100
AcDbLine
 10
156.2299129999999
 20
111.675526
 30
0.0
 11
156.185126
 21
111.742189
 31
0.0
  0
LINE
  5
24F
330
A
100
AcDbEntity
  8
0
 62
     7
100
AcDbLine
 10
156.24266
 20
111.441604
 30
0.0
 11
156.210965
 21
111.395095
 31
0.0
  0
LINE
  5
24E
330
A
100
AcDbEntity
  8
0
 62
     7
100
AcDbLine
 10
156.202352
 20
111.389239
 30
0.0
 11
156.210965
 21
111.395095
 31
0.0
  0
LINE
  5
24D
330
A
100
AcDbEntity
  8
0
 62
     7
100
AcDbLine
 10
156.121737
 20
111.353927
 30
0.0
 11
156.202352
 21
111.389239
 31
0.0
  0
LINE
  5
24C
330
A
100
AcDbEntity
  8
0
 62
     7
100
AcDbLine
 10
156.015972
 20
111.337907
 30
0.0
 11
156.121737
 21
111.353927
 31
0.0
  0
LINE
  5
24B
330
A
100
AcDbEntity
  8
0
 62
     7
100
AcDbLine
 10
156.015972
 20
111.337907
 30
0.0
 11
155.883336
 21
111.339629
 31
0.0
  0
LINE
  5
24A
330
A
100
AcDbEntity
  8
0
 62
     7
100
AcDbLine
 10
149.609128
 20
111.199931
 30
0.0
 11
149.912986
 21
111.246095
 31
0.0
  0
LINE
  5
249
330
A
100
AcDbEntity
  8
0
 62
     7
100
AcDbLine
 10
149.912986
 20
111.246095
 30
0.0
 11
150.217532
 21
111.337907
 31
0.0
  0
LINE
  5
248
330
A
100
AcDbEntity
  8
0
 62
     7
100
AcDbLine
 10
150.217532
 20
111.337907
 30
0.0
 11
150.515533
 21
111.446772
 31
0.0
  0
LINE
  5
247
330
A
100
AcDbEntity
  8
0
 62
     7
100
AcDbLine
 10
150.515533
 20
111.446772
 30
0.0
 11
150.80182
 21
111.554431
 31
0.0
  0
LINE
  5
246
330
A
100
AcDbEntity
  8
0
 62
     7
100
AcDbLine
 10
150.80182
 20
111.554431
 30
0.0
 11
151.085007
 21
111.657784
 31
0.0
  0
LINE
  5
245
330
A
100
AcDbEntity
  8
0
 62
     7
100
AcDbLine
 10
151.085007
 20
111.657784
 30
0.0
 11
151.374395
 21
111.735126
 31
0.0
  0
LINE
  5
244
330
A
100
AcDbEntity
  8
0
 62
     7
100
AcDbLine
 10
151.374395
 20
111.735126
 30
0.0
 11
151.664472
 21
111.812641
 31
0.0
  0
LINE
  5
243
330
A
100
AcDbEntity
  8
0
 62
     7
100
AcDbLine
 10
149.411724
 20
111.187873
 30
0.0
 11
149.609128
 21
111.199931
 31
0.0
  0
LINE
  5
242
330
A
100
AcDbEntity
  8
0
 62
     7
100
AcDbLine
 10
149.791718
 20
111.946311
 30
0.0
 11
149.49165
 21
111.927018
 31
0.0
  0
LINE
  5
241
330
A
100
AcDbEntity
  8
0
 62
     7
100
AcDbLine
 10
150.066637
 20
112.02796
 30
0.0
 11
149.79413
 21
111.946483
 31
0.0
  0
LINE
  5
240
330
A
100
AcDbEntity
  8
0
 62
     7
100
AcDbLine
 10
150.342589
 20
112.131485
 30
0.0
 11
150.066637
 21
112.02796
 31
0.0
  0
LINE
  5
23F
330
A
100
AcDbEntity
  8
0
 62
     7
100
AcDbLine
 10
150.621986
 20
112.242933
 30
0.0
 11
150.342589
 21
112.131485
 31
0.0
  0
LINE
  5
23E
330
A
100
AcDbEntity
  8
0
 62
     7
100
AcDbLine
 10
150.90414
 20
112.356277
 30
0.0
 11
150.621986
 21
112.242933
 31
0.0
  0
LINE
  5
23D
330
A
100
AcDbEntity
  8
0
 62
     7
100
AcDbLine
 10
151.192494
 20
112.449467
 30
0.0
 11
150.90414
 21
112.356277
 31
0.0
  0
LINE
  5
23C
330
A
100
AcDbEntity
  8
0
 62
     7
100
AcDbLine
 10
151.480849
 20
112.549375
 30
0.0
 11
151.192494
 21
112.449467
 31
0.0
  0
LINE
  5
23B
330
A
100
AcDbEntity
  8
0
 62
     7
100
AcDbLine
 10
151.773682
 20
112.650488
 30
0.0
 11
151.480849
 21
112.549375
 31
0.0
  0
LINE
  5
23A
330
A
100
AcDbEntity
  8
0
 62
     7
100
AcDbLine
 10
152.070993
 20
112.740233
 30
0.0
 11
151.773682
 21
112.650488
 31
0.0
  0
LINE
  5
239
330
A
100
AcDbEntity
  8
0
 62
     7
100
AcDbLine
 10
152.357281
 20
112.814992
 30
0.0
 11
152.070993
 21
112.740233
 31
0.0
  0
LINE
  5
238
330
A
100
AcDbEntity
  8
0
 62
     7
100
AcDbLine
 10
152.645635
 20
112.885272
 30
0.0
 11
152.357281
 21
112.814992
 31
0.0
  0
LINE
  5
237
330
A
100
AcDbEntity
  8
0
 62
     7
100
AcDbLine
 10
152.940535
 20
112.945905
 30
0.0
 11
152.645635
 21
112.885272
 31
0.0
  0
LINE
  5
236
330
A
100
AcDbEntity
  8
0
 62
     7
100
AcDbLine
 10
153.240948
 20
112.984146
 30
0.0
 11
152.940535
 21
112.945905
 31
0.0
  0
LINE
  5
235
330
A
100
AcDbEntity
  8
0
 62
     7
100
AcDbLine
 10
153.621286
 20
112.999993
 30
0.0
 11
153.240948
 21
112.984146
 31
0.0
  0
LINE
  5
234
330
A
100
AcDbEntity
  8
0
 62
     7
100
AcDbLine
 10
154.000936
 20
112.975189
 30
0.0
 11
153.621286
 21
112.999993
 31
0.0
  0
LINE
  5
233
330
A
100
AcDbEntity
  8
0
 62
     7
100
AcDbLine
 10
154.380241
 20
112.87752
 30
0.0
 11
154.000936
 21
112.975189
 31
0.0
  0
LINE
  5
232
330
A
100
AcDbEntity
  8
0
 62
     7
100
AcDbLine
 10
154.75679
 20
112.699409
 30
0.0
 11
154.380241
 21
112.87752
 31
0.0
  0
LINE
  5
231
330
A
100
AcDbEntity
  8
0
 62
     7
100
AcDbLine
 10
154.9852
 20
112.579519
 30
0.0
 11
154.75679
 21
112.699409
 31
0.0
  0
LINE
  5
230
330
A
100
AcDbEntity
  8
0
 62
     7
100
AcDbLine
 10
155.198796
 20
112.45963
 30
0.0
 11
154.9852
 21
112.579519
 31
0.0
  0
LINE
  5
22F
330
A
100
AcDbEntity
  8
0
 62
     7
100
AcDbLine
 10
155.397578
 20
112.339568
 30
0.0
 11
155.198796
 21
112.45963
 31
0.0
  0
LINE
  5
22E
330
A
100
AcDbEntity
  8
0
 62
     7
100
AcDbLine
 10
155.397578
 20
112.339568
 30
0.0
 11
155.401712
 21
112.33664
 31
0.0
  0
LINE
  5
22D
330
A
100
AcDbEntity
  8
0
 62
     7
100
AcDbLine
 10
151.951793
 20
111.884471
 30
0.0
 11
152.242215
 21
111.947344
 31
0.0
  0
LINE
  5
22C
330
A
100
AcDbEntity
  8
0
 62
     7
100
AcDbLine
 10
156.202352
 20
111.389239
 30
0.0
 11
156.121737
 21
111.353927
 31
0.0
  0
LINE
  5
22B
330
A
100
AcDbEntity
  8
0
 62
     7
100
AcDbLine
 10
155.644246
 20
111.405086
 30
0.0
 11
155.879546
 21
111.340491
 31
0.0
  0
LINE
  5
22A
330
A
100
AcDbEntity
  8
0
 62
     7
100
AcDbLine
 10
146.468235
 20
111.498104
 30
0.0
 11
146.562975
 21
111.469165
 31
0.0
  0
LINE
  5
229
330
A
100
AcDbEntity
  8
0
 62
     7
100
AcDbLine
 10
146.394682
 20
111.558738
 30
0.0
 11
146.468235
 21
111.498104
 31
0.0
  0
LINE
  5
228
330
A
100
AcDbEntity
  8
0
 62
     7
100
AcDbLine
 10
146.349207
 20
111.642453
 30
0.0
 11
146.394682
 21
111.558738
 31
0.0
  0
LINE
  5
227
330
A
100
AcDbEntity
  8
0
 62
     7
100
AcDbLine
 10
146.339044
 20
111.740294
 30
0.0
 11
146.349207
 21
111.642453
 31
0.0
  0
LINE
  5
226
330
A
100
AcDbEntity
  8
0
 62
     7
100
AcDbLine
 10
146.39227
 20
112.081014
 30
0.0
 11
146.363331
 21
111.986963
 31
0.0
  0
LINE
  5
225
330
A
100
AcDbEntity
  8
0
 62
     7
100
AcDbLine
 10
146.453076
 20
112.15405
 30
0.0
 11
146.39227
 21
112.081014
 31
0.0
  0
LINE
  5
224
330
A
100
AcDbEntity
  8
0
 62
     7
100
AcDbLine
 10
146.537137
 20
112.199181
 30
0.0
 11
146.453076
 21
112.15405
 31
0.0
  0
LINE
  5
223
330
A
100
AcDbEntity
  8
0
 62
     7
100
AcDbLine
 10
146.635666
 20
112.208999
 30
0.0
 11
146.537137
 21
112.199181
 31
0.0
  0
LINE
  5
222
330
A
100
AcDbEntity
  8
0
 62
     7
100
AcDbLine
 10
146.363331
 20
111.986963
 30
0.0
 11
146.339044
 21
111.740294
 31
0.0
  0
LINE
  5
221
330
A
100
AcDbEntity
  8
0
 62
     7
100
AcDbLine
 10
149.367627
 20
111.95768
 30
0.0
 11
149.49165
 21
111.927018
 31
0.0
  0
LINE
  5
220
330
A
100
AcDbEntity
  8
0
 62
     7
100
AcDbLine
 10
146.684242
 20
112.204176
 30
0.0
 11
146.764341
 21
112.216062
 31
0.0
  0
LINE
  5
21F
330
A
100
AcDbEntity
  8
0
 62
     7
100
AcDbLine
 10
146.635666
 20
112.208999
 30
0.0
 11
146.684242
 21
112.204176
 31
0.0
  0
LINE
  5
21E
330
A
100
AcDbEntity
  8
0
 62
     7
100
AcDbLine
 10
149.411724
 20
111.187873
 30
0.0
 11
149.363148
 21
111.192696
 31
0.0
  0
LINE
  5
21D
330
A
100
AcDbEntity
  8
0
 62
     7
100
AcDbLine
 10
146.611378
 20
111.464342
 30
0.0
 11
146.562975
 21
111.469165
 31
0.0
  0
LINE
  5
21C
330
A
100
AcDbEntity
  8
0
 62
     7
100
AcDbLine
 10
148.062625
 20
112.095483
 30
0.0
 11
148.398522
 21
112.06241
 31
0.0
  0
LINE
  5
21B
330
A
100
AcDbEntity
  8
0
 62
     7
100
AcDbLine
 10
148.398522
 20
112.06241
 30
0.0
 11
148.711681
 21
112.031405
 31
0.0
  0
LINE
  5
21A
330
A
100
AcDbEntity
  8
0
 62
     7
100
AcDbLine
 10
148.711681
 20
112.031405
 30
0.0
 11
148.980743
 21
112.004877
 31
0.0
  0
LINE
  5
219
330
A
100
AcDbEntity
  8
0
 62
     7
100
AcDbLine
 10
148.980743
 20
112.004877
 30
0.0
 11
149.187104
 21
111.984551
 31
0.0
  0
LINE
  5
218
330
A
100
AcDbEntity
  8
0
 62
     7
100
AcDbLine
 10
149.187104
 20
111.984551
 30
0.0
 11
149.3166399999999
 21
111.971632
 31
0.0
  0
LINE
  5
217
330
A
100
AcDbEntity
  8
0
 62
     7
100
AcDbLine
 10
149.3166399999999
 20
111.971632
 30
0.0
 11
149.360737
 21
111.967326
 31
0.0
  0
LINE
  5
216
330
A
100
AcDbEntity
  8
0
 62
     7
100
AcDbLine
 10
149.361426
 20
112.019347
 30
0.0
 11
149.360737
 21
111.967326
 31
0.0
  0
LINE
  5
215
330
A
100
AcDbEntity
  8
0
 62
     7
100
AcDbLine
 10
146.764341
 20
112.223813
 30
0.0
 11
146.80861
 21
112.219335
 31
0.0
  0
LINE
  5
214
330
A
100
AcDbEntity
  8
0
 62
     7
100
AcDbLine
 10
146.773815
 20
112.274801
 30
0.0
 11
146.764341
 21
112.223813
 31
0.0
  0
LINE
  5
213
330
A
100
AcDbEntity
  8
0
 62
     7
100
AcDbLine
 10
146.80861
 20
112.219335
 30
0.0
 11
146.938318
 21
112.206588
 31
0.0
  0
LINE
  5
212
330
A
100
AcDbEntity
  8
0
 62
     7
100
AcDbLine
 10
146.938318
 20
112.206588
 30
0.0
 11
147.144507
 21
112.186262
 31
0.0
  0
LINE
  5
211
330
A
100
AcDbEntity
  8
0
 62
     7
100
AcDbLine
 10
147.144507
 20
112.186262
 30
0.0
 11
147.413397
 21
112.159562
 31
0.0
  0
LINE
  5
210
330
A
100
AcDbEntity
  8
0
 62
     7
100
AcDbLine
 10
147.413397
 20
112.159562
 30
0.0
 11
147.726556
 21
112.128729
 31
0.0
  0
LINE
  5
20F
330
A
100
AcDbEntity
  8
0
 62
     7
100
AcDbLine
 10
147.726556
 20
112.128729
 30
0.0
 11
148.062625
 21
112.095483
 31
0.0
  0
LINE
  5
20E
330
A
100
AcDbEntity
  8
0
 62
     7
100
AcDbLine
 10
149.172635
 20
112.275317
 30
0.0
 11
149.291146
 21
112.135274
 31
0.0
  0
LINE
  5
20D
330
A
100
AcDbEntity
  8
0
 62
     7
100
AcDbLine
 10
149.006581
 20
112.389178
 30
0.0
 11
149.172635
 21
112.275317
 31
0.0
  0
LINE
  5
20C
330
A
100
AcDbEntity
  8
0
 62
     7
100
AcDbLine
 10
148.804009
 20
112.471171
 30
0.0
 11
149.006581
 21
112.389178
 31
0.0
  0
LINE
  5
20B
330
A
100
AcDbEntity
  8
0
 62
     7
100
AcDbLine
 10
148.575944
 20
112.515441
 30
0.0
 11
148.804009
 21
112.471171
 31
0.0
  0
LINE
  5
20A
330
A
100
AcDbEntity
  8
0
 62
     7
100
AcDbLine
 10
147.008942
 20
112.488913
 30
0.0
 11
146.865282
 21
112.374881
 31
0.0
  0
LINE
  5
209
330
A
100
AcDbEntity
  8
0
 62
     7
100
AcDbLine
 10
147.193944
 20
112.56815
 30
0.0
 11
147.008942
 21
112.488913
 31
0.0
  0
LINE
  5
208
330
A
100
AcDbEntity
  8
0
 62
     7
100
AcDbLine
 10
147.408573
 20
112.608975
 30
0.0
 11
147.193944
 21
112.56815
 31
0.0
  0
LINE
  5
207
330
A
100
AcDbEntity
  8
0
 62
     7
100
AcDbLine
 10
147.640773
 20
112.607769
 30
0.0
 11
147.408573
 21
112.608975
 31
0.0
  0
LINE
  5
206
330
A
100
AcDbEntity
  8
0
 62
     7
100
AcDbLine
 10
148.06762
 20
112.14716
 30
0.0
 11
148.402483
 21
112.114087
 31
0.0
  0
LINE
  5
205
330
A
100
AcDbEntity
  8
0
 62
     7
100
AcDbLine
 10
148.402483
 20
112.114087
 30
0.0
 11
148.714609
 21
112.083253
 31
0.0
  0
LINE
  5
204
330
A
100
AcDbEntity
  8
0
 62
     7
100
AcDbLine
 10
148.714609
 20
112.083253
 30
0.0
 11
148.982465
 21
112.056726
 31
0.0
  0
LINE
  5
203
330
A
100
AcDbEntity
  8
0
 62
     7
100
AcDbLine
 10
148.982465
 20
112.056726
 30
0.0
 11
149.188137
 21
112.0364
 31
0.0
  0
LINE
  5
202
330
A
100
AcDbEntity
  8
0
 62
     7
100
AcDbLine
 10
149.188137
 20
112.0364
 30
0.0
 11
149.317329
 21
112.023653
 31
0.0
  0
LINE
  5
201
330
A
100
AcDbEntity
  8
0
 62
     7
100
AcDbLine
 10
149.317329
 20
112.023653
 30
0.0
 11
149.361426
 21
112.019347
 31
0.0
  0
LINE
  5
200
330
A
100
AcDbEntity
  8
0
 62
     7
100
AcDbLine
 10
149.291146
 20
112.135274
 30
0.0
 11
149.361426
 21
112.019347
 31
0.0
  0
LINE
  5
1FF
330
A
100
AcDbEntity
  8
0
 62
     7
100
AcDbLine
 10
146.773815
 20
112.274801
 30
0.0
 11
146.817912
 21
112.270494
 31
0.0
  0
LINE
  5
1FE
330
A
100
AcDbEntity
  8
0
 62
     7
100
AcDbLine
 10
146.865282
 20
112.374881
 30
0.0
 11
146.773815
 21
112.274801
 31
0.0
  0
LINE
  5
1FD
330
A
100
AcDbEntity
  8
0
 62
     7
100
AcDbLine
 10
146.817912
 20
112.270494
 30
0.0
 11
146.947275
 21
112.257747
 31
0.0
  0
LINE
  5
1FC
330
A
100
AcDbEntity
  8
0
 62
     7
100
AcDbLine
 10
146.947275
 20
112.257747
 30
0.0
 11
147.152775
 21
112.237421
 31
0.0
  0
LINE
  5
1FB
330
A
100
AcDbEntity
  8
0
 62
     7
100
AcDbLine
 10
147.152775
 20
112.237421
 30
0.0
 11
147.420803
 21
112.211066
 31
0.0
  0
LINE
  5
1FA
330
A
100
AcDbEntity
  8
0
 62
     7
100
AcDbLine
 10
147.420803
 20
112.211066
 30
0.0
 11
147.732757
 21
112.180233
 31
0.0
  0
LINE
  5
1F9
330
A
100
AcDbEntity
  8
0
 62
     7
100
AcDbLine
 10
147.732757
 20
112.180233
 30
0.0
 11
148.06762
 21
112.14716
 31
0.0
  0
LINE
  5
1F8
330
A
100
AcDbEntity
  8
0
 62
     7
100
AcDbLine
 10
148.513243
 20
112.521642
 30
0.0
 11
148.559924
 21
112.516991
 31
0.0
  0
LINE
  5
1F7
330
A
100
AcDbEntity
  8
0
 62
     7
100
AcDbLine
 10
148.439001
 20
112.528876
 30
0.0
 11
148.513243
 21
112.521642
 31
0.0
  0
LINE
  5
1F6
330
A
100
AcDbEntity
  8
0
 62
     7
100
AcDbLine
 10
148.342194
 20
112.538523
 30
0.0
 11
148.439001
 21
112.528876
 31
0.0
  0
LINE
  5
1F5
330
A
100
AcDbEntity
  8
0
 62
     7
100
AcDbLine
 10
148.229367
 20
112.549547
 30
0.0
 11
148.342194
 21
112.538523
 31
0.0
  0
LINE
  5
1F4
330
A
100
AcDbEntity
  8
0
 62
     7
100
AcDbLine
 10
148.108445
 20
112.561605
 30
0.0
 11
148.229367
 21
112.549547
 31
0.0
  0
LINE
  5
1F3
330
A
100
AcDbEntity
  8
0
 62
     7
100
AcDbLine
 10
147.987349
 20
112.57349
 30
0.0
 11
148.108445
 21
112.561605
 31
0.0
  0
LINE
  5
1F2
330
A
100
AcDbEntity
  8
0
 62
     7
100
AcDbLine
 10
147.874523
 20
112.584687
 30
0.0
 11
147.987349
 21
112.57349
 31
0.0
  0
LINE
  5
1F1
330
A
100
AcDbEntity
  8
0
 62
     7
100
AcDbLine
 10
147.777715
 20
112.594161
 30
0.0
 11
147.874523
 21
112.584687
 31
0.0
  0
LINE
  5
1F0
330
A
100
AcDbEntity
  8
0
 62
     7
100
AcDbLine
 10
147.703474
 20
112.601568
 30
0.0
 11
147.777715
 21
112.594161
 31
0.0
  0
LINE
  5
1EF
330
A
100
AcDbEntity
  8
0
 62
     7
100
AcDbLine
 10
147.656793
 20
112.606219
 30
0.0
 11
147.703474
 21
112.601568
 31
0.0
  0
LINE
  5
1EE
330
A
100
AcDbEntity
  8
0
 62
     7
100
AcDbLine
 10
147.640773
 20
112.607769
 30
0.0
 11
147.656793
 21
112.606219
 31
0.0
  0
LINE
  5
1ED
330
A
100
AcDbEntity
  8
0
 62
     7
100
AcDbLine
 10
148.559924
 20
112.516991
 30
0.0
 11
148.575944
 21
112.515441
 31
0.0
  0
LINE
  5
1EC
330
A
100
AcDbEntity
  8
0
 62
     7
100
AcDbLine
 10
155.521257
 20
98.27272700000001
 30
0.0
 11
155.520912
 21
98.19383399999999
 31
0.0
  0
LINE
  5
1EB
330
A
100
AcDbEntity
  8
0
 62
     7
100
AcDbLine
 10
155.550884
 20
98.343007
 30
0.0
 11
155.521257
 21
98.27272700000001
 31
0.0
  0
LINE
  5
1EA
330
A
100
AcDbEntity
  8
0
 62
     7
100
AcDbLine
 10
155.604628
 20
98.39709499999999
 30
0.0
 11
155.550884
 21
98.343007
 31
0.0
  0
LINE
  5
1E9
330
A
100
AcDbEntity
  8
0
 62
     7
100
AcDbLine
 10
155.677664
 20
98.42775600000001
 30
0.0
 11
155.604628
 21
98.39709499999999
 31
0.0
  0
LINE
  5
1E8
330
A
100
AcDbEntity
  8
0
 62
     7
100
AcDbLine
 10
158.980821
 20
98.88767600000001
 30
0.0
 11
158.95016
 21
98.960368
 31
0.0
  0
LINE
  5
1E7
330
A
100
AcDbEntity
  8
0
 62
     7
100
AcDbLine
 10
158.95016
 20
98.960368
 30
0.0
 11
158.896072
 21
99.013767
 31
0.0
  0
LINE
  5
1E6
330
A
100
AcDbEntity
  8
0
 62
     7
100
AcDbLine
 10
158.896072
 20
99.013767
 30
0.0
 11
158.825448
 21
99.04305
 31
0.0
  0
LINE
  5
1E5
330
A
100
AcDbEntity
  8
0
 62
     7
100
AcDbLine
 10
158.825448
 20
99.04305
 30
0.0
 11
158.746555
 21
99.04305
 31
0.0
  0
LINE
  5
1E4
330
A
100
AcDbEntity
  8
0
 62
     7
100
AcDbLine
 10
155.570866
 20
98.02433499999999
 30
0.0
 11
155.540205
 21
98.096682
 31
0.0
  0
LINE
  5
1E3
330
A
100
AcDbEntity
  8
0
 62
     7
100
AcDbLine
 10
155.624954
 20
97.970936
 30
0.0
 11
155.570866
 21
98.02433499999999
 31
0.0
  0
LINE
  5
1E2
330
A
100
AcDbEntity
  8
0
 62
     7
100
AcDbLine
 10
155.695578
 20
97.94165300000001
 30
0.0
 11
155.624954
 21
97.970936
 31
0.0
  0
LINE
  5
1E1
330
A
100
AcDbEntity
  8
0
 62
     7
100
AcDbLine
 10
155.774816
 20
97.94165300000001
 30
0.0
 11
155.695578
 21
97.94165300000001
 31
0.0
  0
LINE
  5
1E0
330
A
100
AcDbEntity
  8
0
 62
     7
100
AcDbLine
 10
159.000114
 20
98.790525
 30
0.0
 11
158.999769
 21
98.71197600000002
 31
0.0
  0
LINE
  5
1DF
330
A
100
AcDbEntity
  8
0
 62
     7
100
AcDbLine
 10
158.999769
 20
98.71197600000002
 30
0.0
 11
158.970142
 21
98.64169699999999
 31
0.0
  0
LINE
  5
1DE
330
A
100
AcDbEntity
  8
0
 62
     7
100
AcDbLine
 10
158.970142
 20
98.64169699999999
 30
0.0
 11
158.916398
 21
98.587609
 31
0.0
  0
LINE
  5
1DD
330
A
100
AcDbEntity
  8
0
 62
     7
100
AcDbLine
 10
158.916398
 20
98.587609
 30
0.0
 11
158.843362
 21
98.556947
 31
0.0
  0
LINE
  5
1DC
330
A
100
AcDbEntity
  8
0
 62
     7
100
AcDbLine
 10
156.125871
 20
98.51732900000001
 30
0.0
 11
156.443509
 21
98.58106300000001
 31
0.0
  0
LINE
  5
1DB
330
A
100
AcDbEntity
  8
0
 62
     7
100
AcDbLine
 10
155.882303
 20
98.468753
 30
0.0
 11
156.125871
 21
98.51732900000001
 31
0.0
  0
LINE
  5
1DA
330
A
100
AcDbEntity
  8
0
 62
     7
100
AcDbLine
 10
155.729685
 20
98.43809100000001
 30
0.0
 11
155.882303
 21
98.468753
 31
0.0
  0
LINE
  5
1D9
330
A
100
AcDbEntity
  8
0
 62
     7
100
AcDbLine
 10
155.677664
 20
98.42775600000001
 30
0.0
 11
155.729685
 21
98.43809100000001
 31
0.0
  0
LINE
  5
1D8
330
A
100
AcDbEntity
  8
0
 62
     7
100
AcDbLine
 10
158.694189
 20
99.03237
 30
0.0
 11
158.723128
 21
99.038227
 31
0.0
  0
LINE
  5
1D7
330
A
100
AcDbEntity
  8
0
 62
     7
100
AcDbLine
 10
155.826836
 20
97.95198800000001
 30
0.0
 11
155.774816
 21
97.94165300000001
 31
0.0
  0
LINE
  5
1D6
330
A
100
AcDbEntity
  8
0
 62
     7
100
AcDbLine
 10
155.979454
 20
97.98265
 30
0.0
 11
155.826836
 21
97.95198800000001
 31
0.0
  0
LINE
  5
1D5
330
A
100
AcDbEntity
  8
0
 62
     7
100
AcDbLine
 10
156.222678
 20
98.03157
 30
0.0
 11
155.979454
 21
97.98265
 31
0.0
  0
LINE
  5
1D4
330
A
100
AcDbEntity
  8
0
 62
     7
100
AcDbLine
 10
156.540316
 20
98.09530399999999
 30
0.0
 11
156.222678
 21
98.03157
 31
0.0
  0
LINE
  5
1D3
330
A
100
AcDbEntity
  8
0
 62
     7
100
AcDbLine
 10
156.911008
 20
98.169374
 30
0.0
 11
156.540316
 21
98.09530399999999
 31
0.0
  0
LINE
  5
1D2
330
A
100
AcDbEntity
  8
0
 62
     7
100
AcDbLine
 10
157.308917
 20
98.24930000000001
 30
0.0
 11
156.911008
 21
98.169374
 31
0.0
  0
LINE
  5
1D1
330
A
100
AcDbEntity
  8
0
 62
     7
100
AcDbLine
 10
157.706825
 20
98.32922600000001
 30
0.0
 11
157.308917
 21
98.24930000000001
 31
0.0
  0
LINE
  5
1D0
330
A
100
AcDbEntity
  8
0
 62
     7
100
AcDbLine
 10
158.077517
 20
98.403296
 30
0.0
 11
157.706825
 21
98.32922600000001
 31
0.0
  0
LINE
  5
1CF
330
A
100
AcDbEntity
  8
0
 62
     7
100
AcDbLine
 10
158.395155
 20
98.46703000000001
 30
0.0
 11
158.077517
 21
98.403296
 31
0.0
  0
LINE
  5
1CE
330
A
100
AcDbEntity
  8
0
 62
     7
100
AcDbLine
 10
158.638379
 20
98.515951
 30
0.0
 11
158.395155
 21
98.46703000000001
 31
0.0
  0
LINE
  5
1CD
330
A
100
AcDbEntity
  8
0
 62
     7
100
AcDbLine
 10
158.791341
 20
98.546612
 30
0.0
 11
158.638379
 21
98.515951
 31
0.0
  0
LINE
  5
1CC
330
A
100
AcDbEntity
  8
0
 62
     7
100
AcDbLine
 10
158.843362
 20
98.556947
 30
0.0
 11
158.791341
 21
98.546612
 31
0.0
  0
LINE
  5
1CB
330
A
100
AcDbEntity
  8
0
 62
     7
100
AcDbLine
 10
155.540205
 20
98.096682
 30
0.0
 11
155.520912
 21
98.19383399999999
 31
0.0
  0
LINE
  5
1CA
330
A
100
AcDbEntity
  8
0
 62
     7
100
AcDbLine
 10
158.980821
 20
98.88767600000001
 30
0.0
 11
159.000114
 21
98.790525
 31
0.0
  0
LINE
  5
1C9
330
A
100
AcDbEntity
  8
0
 62
     7
100
AcDbLine
 10
144.37999
 20
102.115386
 30
0.0
 11
144.409962
 21
102.065777
 31
0.0
  0
LINE
  5
1C8
330
A
100
AcDbEntity
  8
0
 62
     7
100
AcDbLine
 10
144.409962
 20
105.068867
 30
0.0
 11
144.37999
 21
105.023047
 31
0.0
  0
LINE
  5
1C7
330
A
100
AcDbEntity
  8
0
 62
     7
100
AcDbLine
 10
146.982932
 20
105.574434
 30
0.0
 11
146.713353
 21
105.619737
 31
0.0
  0
LINE
  5
1C6
330
A
100
AcDbEntity
  8
0
 62
     7
100
AcDbLine
 10
147.470241
 20
105.484345
 30
0.0
 11
146.982932
 21
105.574434
 31
0.0
  0
LINE
  5
1C5
330
A
100
AcDbEntity
  8
0
 62
     7
100
AcDbLine
 10
147.941185
 20
105.299516
 30
0.0
 11
147.470241
 21
105.484345
 31
0.0
  0
LINE
  5
1C4
330
A
100
AcDbEntity
  8
0
 62
     7
100
AcDbLine
 10
148.398866
 20
105.02787
 30
0.0
 11
147.941185
 21
105.299516
 31
0.0
  0
LINE
  5
1C3
330
A
100
AcDbEntity
  8
0
 62
     7
100
AcDbLine
 10
148.764046
 20
104.652699
 30
0.0
 11
148.398866
 21
105.02787
 31
0.0
  0
LINE
  5
1C2
330
A
100
AcDbEntity
  8
0
 62
     7
100
AcDbLine
 10
148.966618
 20
104.315769
 30
0.0
 11
148.764046
 21
104.652699
 31
0.0
  0
LINE
  5
1C1
330
A
100
AcDbEntity
  8
0
 62
     7
100
AcDbLine
 10
149.106144
 20
103.951622
 30
0.0
 11
148.966618
 21
104.315769
 31
0.0
  0
LINE
  5
1C0
330
A
100
AcDbEntity
  8
0
 62
     7
100
AcDbLine
 10
149.177113
 20
103.569217
 30
0.0
 11
149.106144
 21
103.951622
 31
0.0
  0
LINE
  5
1BF
330
A
100
AcDbEntity
  8
0
 62
     7
100
AcDbLine
 10
144.409962
 20
105.037861
 30
0.0
 11
144.409962
 21
105.068867
 31
0.0
  0
LINE
  5
1BE
330
A
100
AcDbEntity
  8
0
 62
     7
100
AcDbLine
 10
144.409962
 20
104.939503
 30
0.0
 11
144.409962
 21
105.037861
 31
0.0
  0
LINE
  5
1BD
330
A
100
AcDbEntity
  8
0
 62
     7
100
AcDbLine
 10
144.409962
 20
104.782579
 30
0.0
 11
144.409962
 21
104.939503
 31
0.0
  0
LINE
  5
1BC
330
A
100
AcDbEntity
  8
0
 62
     7
100
AcDbLine
 10
144.409962
 20
104.575357
 30
0.0
 11
144.409962
 21
104.782579
 31
0.0
  0
LINE
  5
1BB
330
A
100
AcDbEntity
  8
0
 62
     7
100
AcDbLine
 10
144.409962
 20
104.364172
 30
0.0
 11
144.409962
 21
104.575357
 31
0.0
  0
LINE
  5
1BA
330
A
100
AcDbEntity
  8
0
 62
     7
100
AcDbLine
 10
144.409962
 20
104.182616
 30
0.0
 11
144.409962
 21
104.364172
 31
0.0
  0
LINE
  5
1B9
330
A
100
AcDbEntity
  8
0
 62
     7
100
AcDbLine
 10
144.409962
 20
103.952311
 30
0.0
 11
144.409962
 21
104.182616
 31
0.0
  0
LINE
  5
1B8
330
A
100
AcDbEntity
  8
0
 62
     7
100
AcDbLine
 10
144.409962
 20
103.56715
 30
0.0
 11
144.409962
 21
103.952311
 31
0.0
  0
LINE
  5
1B7
330
A
100
AcDbEntity
  8
0
 62
     7
100
AcDbLine
 10
145.6930879999999
 20
105.489341
 30
0.0
 11
145.238852
 21
105.382887
 31
0.0
  0
LINE
  5
1B6
330
A
100
AcDbEntity
  8
0
 62
     7
100
AcDbLine
 10
145.238852
 20
105.382887
 30
0.0
 11
144.799947
 21
105.238021
 31
0.0
  0
LINE
  5
1B5
330
A
100
AcDbEntity
  8
0
 62
     7
100
AcDbLine
 10
144.799947
 20
105.238021
 30
0.0
 11
144.409962
 21
105.068867
 31
0.0
  0
LINE
  5
1B4
330
A
100
AcDbEntity
  8
0
 62
     7
100
AcDbLine
 10
146.713353
 20
105.619737
 30
0.0
 11
146.43275
 21
105.607335
 31
0.0
  0
LINE
  5
1B3
330
A
100
AcDbEntity
  8
0
 62
     7
100
AcDbLine
 10
146.43275
 20
105.607335
 30
0.0
 11
146.124242
 21
105.58253
 31
0.0
  0
LINE
  5
1B2
330
A
100
AcDbEntity
  8
0
 62
     7
100
AcDbLine
 10
146.124242
 20
105.58253
 30
0.0
 11
145.656915
 21
105.492097
 31
0.0
  0
LINE
  5
1B1
330
A
100
AcDbEntity
  8
0
 62
     7
100
AcDbLine
 10
145.656915
 20
105.492097
 30
0.0
 11
145.453137
 21
105.433185
 31
0.0
  0
LINE
  5
1B0
330
A
100
AcDbEntity
  8
0
 62
     7
100
AcDbLine
 10
146.713353
 20
101.518696
 30
0.0
 11
146.982932
 21
101.563826
 31
0.0
  0
LINE
  5
1AF
330
A
100
AcDbEntity
  8
0
 62
     7
100
AcDbLine
 10
146.982932
 20
101.563826
 30
0.0
 11
147.470241
 21
101.654088
 31
0.0
  0
LINE
  5
1AE
330
A
100
AcDbEntity
  8
0
 62
     7
100
AcDbLine
 10
147.470241
 20
101.654088
 30
0.0
 11
147.941185
 21
101.838745
 31
0.0
  0
LINE
  5
1AD
330
A
100
AcDbEntity
  8
0
 62
     7
100
AcDbLine
 10
147.941185
 20
101.838745
 30
0.0
 11
148.398866
 21
102.110563
 31
0.0
  0
LINE
  5
1AC
330
A
100
AcDbEntity
  8
0
 62
     7
100
AcDbLine
 10
148.398866
 20
102.110563
 30
0.0
 11
148.764046
 21
102.485734
 31
0.0
  0
LINE
  5
1AB
330
A
100
AcDbEntity
  8
0
 62
     7
100
AcDbLine
 10
148.764046
 20
102.485734
 30
0.0
 11
148.966618
 21
102.822664
 31
0.0
  0
LINE
  5
1AA
330
A
100
AcDbEntity
  8
0
 62
     7
100
AcDbLine
 10
148.966618
 20
102.822664
 30
0.0
 11
149.106144
 21
103.186811
 31
0.0
  0
LINE
  5
1A9
330
A
100
AcDbEntity
  8
0
 62
     7
100
AcDbLine
 10
149.106144
 20
103.186811
 30
0.0
 11
149.177113
 21
103.569217
 31
0.0
  0
LINE
  5
1A8
330
A
100
AcDbEntity
  8
0
 62
     7
100
AcDbLine
 10
144.409962
 20
102.065777
 30
0.0
 11
144.409962
 21
102.096783
 31
0.0
  0
LINE
  5
1A7
330
A
100
AcDbEntity
  8
0
 62
     7
100
AcDbLine
 10
144.409962
 20
102.096783
 30
0.0
 11
144.409962
 21
102.194968
 31
0.0
  0
LINE
  5
1A6
330
A
100
AcDbEntity
  8
0
 62
     7
100
AcDbLine
 10
144.409962
 20
102.194968
 30
0.0
 11
144.409962
 21
102.352064
 31
0.0
  0
LINE
  5
1A5
330
A
100
AcDbEntity
  8
0
 62
     7
100
AcDbLine
 10
144.409962
 20
102.352064
 30
0.0
 11
144.409962
 21
102.559115
 31
0.0
  0
LINE
  5
1A4
330
A
100
AcDbEntity
  8
0
 62
     7
100
AcDbLine
 10
144.409962
 20
102.559115
 30
0.0
 11
144.409962
 21
102.770299
 31
0.0
  0
LINE
  5
1A3
330
A
100
AcDbEntity
  8
0
 62
     7
100
AcDbLine
 10
144.409962
 20
102.770299
 30
0.0
 11
144.409962
 21
102.951855
 31
0.0
  0
LINE
  5
1A2
330
A
100
AcDbEntity
  8
0
 62
     7
100
AcDbLine
 10
144.409962
 20
102.951855
 30
0.0
 11
144.409962
 21
103.182332
 31
0.0
  0
LINE
  5
1A1
330
A
100
AcDbEntity
  8
0
 62
     7
100
AcDbLine
 10
144.409962
 20
103.182332
 30
0.0
 11
144.409962
 21
103.56715
 31
0.0
  0
LINE
  5
1A0
330
A
100
AcDbEntity
  8
0
 62
     7
100
AcDbLine
 10
145.238852
 20
101.755374
 30
0.0
 11
145.6930879999999
 21
101.64892
 31
0.0
  0
LINE
  5
19F
330
A
100
AcDbEntity
  8
0
 62
     7
100
AcDbLine
 10
144.799947
 20
101.900068
 30
0.0
 11
145.238852
 21
101.755374
 31
0.0
  0
LINE
  5
19E
330
A
100
AcDbEntity
  8
0
 62
     7
100
AcDbLine
 10
144.409962
 20
102.065777
 30
0.0
 11
144.799947
 21
101.900068
 31
0.0
  0
LINE
  5
19D
330
A
100
AcDbEntity
  8
0
 62
     7
100
AcDbLine
 10
146.43275
 20
101.531098
 30
0.0
 11
146.713353
 21
101.518696
 31
0.0
  0
LINE
  5
19C
330
A
100
AcDbEntity
  8
0
 62
     7
100
AcDbLine
 10
146.124242
 20
101.555903
 30
0.0
 11
146.43275
 21
101.531098
 31
0.0
  0
LINE
  5
19B
330
A
100
AcDbEntity
  8
0
 62
     7
100
AcDbLine
 10
145.656915
 20
101.646164
 30
0.0
 11
146.124242
 21
101.555903
 31
0.0
  0
LINE
  5
19A
330
A
100
AcDbEntity
  8
0
 62
     7
100
AcDbLine
 10
145.453137
 20
101.705075
 30
0.0
 11
145.656915
 21
101.646164
 31
0.0
  0
LINE
  5
199
330
A
100
AcDbEntity
  8
0
 62
     7
100
AcDbLine
 10
144.37999
 20
102.241132
 30
0.0
 11
144.37999
 21
102.145703
 31
0.0
  0
LINE
  5
198
330
A
100
AcDbEntity
  8
0
 62
     7
100
AcDbLine
 10
144.37999
 20
102.393061
 30
0.0
 11
144.37999
 21
102.241132
 31
0.0
  0
LINE
  5
197
330
A
100
AcDbEntity
  8
0
 62
     7
100
AcDbLine
 10
144.37999
 20
102.594944
 30
0.0
 11
144.37999
 21
102.393061
 31
0.0
  0
LINE
  5
196
330
A
100
AcDbEntity
  8
0
 62
     7
100
AcDbLine
 10
144.37999
 20
102.80096
 30
0.0
 11
144.37999
 21
102.594944
 31
0.0
  0
LINE
  5
195
330
A
100
AcDbEntity
  8
0
 62
     7
100
AcDbLine
 10
144.37999
 20
102.975282
 30
0.0
 11
144.37999
 21
102.80096
 31
0.0
  0
LINE
  5
194
330
A
100
AcDbEntity
  8
0
 62
     7
100
AcDbLine
 10
144.37999
 20
103.195424
 30
0.0
 11
144.37999
 21
102.975282
 31
0.0
  0
LINE
  5
193
330
A
100
AcDbEntity
  8
0
 62
     7
100
AcDbLine
 10
144.37999
 20
103.569217
 30
0.0
 11
144.37999
 21
103.195424
 31
0.0
  0
LINE
  5
192
330
A
100
AcDbEntity
  8
0
 62
     7
100
AcDbLine
 10
144.37999
 20
103.943009
 30
0.0
 11
144.37999
 21
103.569217
 31
0.0
  0
LINE
  5
191
330
A
100
AcDbEntity
  8
0
 62
     7
100
AcDbLine
 10
144.37999
 20
104.163151
 30
0.0
 11
144.37999
 21
103.943009
 31
0.0
  0
LINE
  5
190
330
A
100
AcDbEntity
  8
0
 62
     7
100
AcDbLine
 10
144.37999
 20
104.337301
 30
0.0
 11
144.37999
 21
104.163151
 31
0.0
  0
LINE
  5
18F
330
A
100
AcDbEntity
  8
0
 62
     7
100
AcDbLine
 10
144.37999
 20
104.543317
 30
0.0
 11
144.37999
 21
104.337301
 31
0.0
  0
LINE
  5
18E
330
A
100
AcDbEntity
  8
0
 62
     7
100
AcDbLine
 10
144.37999
 20
104.7452
 30
0.0
 11
144.37999
 21
104.543317
 31
0.0
  0
LINE
  5
18D
330
A
100
AcDbEntity
  8
0
 62
     7
100
AcDbLine
 10
144.37999
 20
104.897301
 30
0.0
 11
144.37999
 21
104.7452
 31
0.0
  0
LINE
  5
18C
330
A
100
AcDbEntity
  8
0
 62
     7
100
AcDbLine
 10
144.37999
 20
104.992558
 30
0.0
 11
144.37999
 21
104.897301
 31
0.0
  0
LINE
  5
18B
330
A
100
AcDbEntity
  8
0
 62
     7
100
AcDbLine
 10
144.37999
 20
105.023047
 30
0.0
 11
144.37999
 21
104.992558
 31
0.0
  0
LINE
  5
18A
330
A
100
AcDbEntity
  8
0
 62
     7
100
AcDbLine
 10
144.37999
 20
102.145703
 30
0.0
 11
144.37999
 21
102.115386
 31
0.0
  0
LINE
  5
189
330
A
100
AcDbEntity
  8
0
 62
     7
100
AcDbLine
 10
150.070082
 20
103.974015
 30
0.0
 11
150.167923
 21
103.7773
 31
0.0
  0
LINE
  5
188
330
A
100
AcDbEntity
  8
0
 62
     7
100
AcDbLine
 10
150.167923
 20
103.7773
 30
0.0
 11
150.448009
 21
103.4824
 31
0.0
  0
LINE
  5
187
330
A
100
AcDbEntity
  8
0
 62
     7
100
AcDbLine
 10
150.448009
 20
103.4824
 30
0.0
 11
151.078806
 21
103.122043
 31
0.0
  0
LINE
  5
186
330
A
100
AcDbEntity
  8
0
 62
     7
100
AcDbLine
 10
157.4408639999999
 20
101.102528
 30
0.0
 11
156.849685
 21
101.596899
 31
0.0
  0
LINE
  5
185
330
A
100
AcDbEntity
  8
0
 62
     7
100
AcDbLine
 10
152.058936
 20
102.882954
 30
0.0
 11
151.078806
 21
103.122043
 31
0.0
  0
LINE
  5
184
330
A
100
AcDbEntity
  8
0
 62
     7
100
AcDbLine
 10
149.112345
 20
103.220573
 30
0.0
 11
149.121992
 21
103.202314
 31
0.0
  0
LINE
  5
183
330
A
100
AcDbEntity
  8
0
 62
     7
100
AcDbLine
 10
145.547361
 20
101.677859
 30
0.0
 11
145.741664
 21
101.366423
 31
0.0
  0
LINE
  5
182
330
A
100
AcDbEntity
  8
0
 62
     7
100
AcDbLine
 10
145.741664
 20
101.366423
 30
0.0
 11
146.105122
 21
101.003654
 31
0.0
  0
LINE
  5
181
330
A
100
AcDbEntity
  8
0
 62
     7
100
AcDbLine
 10
146.105122
 20
101.003654
 30
0.0
 11
146.502341
 21
100.778345
 31
0.0
  0
LINE
  5
180
330
A
100
AcDbEntity
  8
0
 62
     7
100
AcDbLine
 10
146.502341
 20
100.778345
 30
0.0
 11
146.914891
 21
100.689461
 31
0.0
  0
LINE
  5
17F
330
A
100
AcDbEntity
  8
0
 62
     7
100
AcDbLine
 10
149.967763
 20
104.360211
 30
0.0
 11
149.958805
 21
104.765526
 31
0.0
  0
LINE
  5
17E
330
A
100
AcDbEntity
  8
0
 62
     7
100
AcDbLine
 10
150.070082
 20
103.974015
 30
0.0
 11
149.967763
 21
104.360211
 31
0.0
  0
LINE
  5
17D
330
A
100
AcDbEntity
  8
0
 62
     7
100
AcDbLine
 10
144.777554
 20
105.277467
 30
0.0
 11
144.780482
 21
105.22958
 31
0.0
  0
LINE
  5
17C
330
A
100
AcDbEntity
  8
0
 62
     7
100
AcDbLine
 10
145.196822
 20
108.212689
 30
0.0
 11
145.094847
 21
107.902285
 31
0.0
  0
LINE
  5
17B
330
A
100
AcDbEntity
  8
0
 62
     7
100
AcDbLine
 10
145.094847
 20
107.902285
 30
0.0
 11
144.995456
 21
107.570695
 31
0.0
  0
LINE
  5
17A
330
A
100
AcDbEntity
  8
0
 62
     7
100
AcDbLine
 10
144.995456
 20
107.570695
 30
0.0
 11
144.921042
 21
107.256675
 31
0.0
  0
LINE
  5
179
330
A
100
AcDbEntity
  8
0
 62
     7
100
AcDbLine
 10
144.921042
 20
107.256675
 30
0.0
 11
144.870916
 21
107.000187
 31
0.0
  0
LINE
  5
178
330
A
100
AcDbEntity
  8
0
 62
     7
100
AcDbLine
 10
144.870916
 20
107.000187
 30
0.0
 11
144.819067
 21
106.654816
 31
0.0
  0
LINE
  5
177
330
A
100
AcDbEntity
  8
0
 62
     7
100
AcDbLine
 10
144.819067
 20
106.654816
 30
0.0
 11
144.788406
 21
106.379725
 31
0.0
  0
LINE
  5
176
330
A
100
AcDbEntity
  8
0
 62
     7
100
AcDbLine
 10
144.788406
 20
106.379725
 30
0.0
 11
144.76963
 21
105.801466
 31
0.0
  0
LINE
  5
175
330
A
100
AcDbEntity
  8
0
 62
     7
100
AcDbLine
 10
144.76963
 20
105.801466
 30
0.0
 11
144.777554
 21
105.277467
 31
0.0
  0
LINE
  5
174
330
A
100
AcDbEntity
  8
0
 62
     7
100
AcDbLine
 10
150.157932
 20
107.402058
 30
0.0
 11
150.118313
 21
107.726586
 31
0.0
  0
LINE
  5
173
330
A
100
AcDbEntity
  8
0
 62
     7
100
AcDbLine
 10
150.191005
 20
107.057376
 30
0.0
 11
150.157932
 21
107.402058
 31
0.0
  0
LINE
  5
172
330
A
100
AcDbEntity
  8
0
 62
     7
100
AcDbLine
 10
150.203063
 20
106.734915
 30
0.0
 11
150.191005
 21
107.057376
 31
0.0
  0
LINE
  5
171
330
A
100
AcDbEntity
  8
0
 62
     7
100
AcDbLine
 10
150.202029
 20
106.473432
 30
0.0
 11
150.203063
 21
106.734915
 31
0.0
  0
LINE
  5
170
330
A
100
AcDbEntity
  8
0
 62
     7
100
AcDbLine
 10
150.185837
 20
106.124444
 30
0.0
 11
150.202029
 21
106.473432
 31
0.0
  0
LINE
  5
16F
330
A
100
AcDbEntity
  8
0
 62
     7
100
AcDbLine
 10
150.16241
 20
105.848664
 30
0.0
 11
150.185837
 21
106.124444
 31
0.0
  0
LINE
  5
16E
330
A
100
AcDbEntity
  8
0
 62
     7
100
AcDbLine
 10
150.068359
 20
105.277984
 30
0.0
 11
150.16241
 21
105.848664
 31
0.0
  0
LINE
  5
16D
330
A
100
AcDbEntity
  8
0
 62
     7
100
AcDbLine
 10
149.958805
 20
104.765526
 30
0.0
 11
150.068359
 21
105.277984
 31
0.0
  0
LINE
  5
16C
330
A
100
AcDbEntity
  8
0
 62
     7
100
AcDbLine
 10
151.078806
 20
103.122043
 30
0.0
 11
150.448009
 21
103.4824
 31
0.0
  0
LINE
  5
16B
330
A
100
AcDbEntity
  8
0
 62
     7
100
AcDbLine
 10
154.046411
 20
102.4816
 30
0.0
 11
153.414581
 21
102.609068
 31
0.0
  0
LINE
  5
16A
330
A
100
AcDbEntity
  8
0
 62
     7
100
AcDbLine
 10
152.68801
 20
102.75583
 30
0.0
 11
152.058936
 21
102.882954
 31
0.0
  0
LINE
  5
169
330
A
100
AcDbEntity
  8
0
 62
     7
100
AcDbLine
 10
155.006904
 20
102.322781
 30
0.0
 11
154.046411
 21
102.4816
 31
0.0
  0
LINE
  5
168
330
A
100
AcDbEntity
  8
0
 62
     7
100
AcDbLine
 10
156.052835
 20
101.998598
 30
0.0
 11
155.006904
 21
102.322781
 31
0.0
  0
LINE
  5
167
330
A
100
AcDbEntity
  8
0
 62
     7
100
AcDbLine
 10
156.054902
 20
101.99722
 30
0.0
 11
156.851752
 21
101.597933
 31
0.0
  0
LINE
  5
166
330
A
100
AcDbEntity
  8
0
 62
     7
100
AcDbLine
 10
157.396077
 20
101.14008
 30
0.0
 11
156.851752
 21
101.597933
 31
0.0
  0
LINE
  5
165
330
A
100
AcDbEntity
  8
0
 62
     7
100
AcDbLine
 10
158.194995
 20
100.254001
 30
0.0
 11
157.916976
 21
100.662934
 31
0.0
  0
LINE
  5
164
330
A
100
AcDbEntity
  8
0
 62
     7
100
AcDbLine
 10
158.431329
 20
99.87573000000001
 30
0.0
 11
158.194995
 21
100.254001
 31
0.0
  0
LINE
  5
163
330
A
100
AcDbEntity
  8
0
 62
     7
100
AcDbLine
 10
158.61633
 20
99.469208
 30
0.0
 11
158.431329
 21
99.87573000000001
 31
0.0
  0
LINE
  5
162
330
A
100
AcDbEntity
  8
0
 62
     7
100
AcDbLine
 10
158.746555
 20
99.04305
 30
0.0
 11
158.61633
 21
99.469208
 31
0.0
  0
LINE
  5
161
330
A
100
AcDbEntity
  8
0
 62
     7
100
AcDbLine
 10
151.078806
 20
103.122043
 30
0.0
 11
152.058936
 21
102.882954
 31
0.0
  0
LINE
  5
160
330
A
100
AcDbEntity
  8
0
 62
     7
100
AcDbLine
 10
146.914891
 20
100.689461
 30
0.0
 11
147.912935
 21
100.493091
 31
0.0
  0
LINE
  5
15F
330
A
100
AcDbEntity
  8
0
 62
     7
100
AcDbLine
 10
147.912935
 20
100.493091
 30
0.0
 11
149.263241
 21
100.28983
 31
0.0
  0
LINE
  5
15E
330
A
100
AcDbEntity
  8
0
 62
     7
100
AcDbLine
 10
149.263241
 20
100.28983
 30
0.0
 11
150.990267
 21
100.128255
 31
0.0
  0
LINE
  5
15D
330
A
100
AcDbEntity
  8
0
 62
     7
100
AcDbLine
 10
150.990267
 20
100.128255
 30
0.0
 11
151.561464
 21
100.102417
 31
0.0
  0
LINE
  5
15C
330
A
100
AcDbEntity
  8
0
 62
     7
100
AcDbLine
 10
153.511043
 20
100.007332
 30
0.0
 11
154.017817
 21
99.97632600000001
 31
0.0
  0
LINE
  5
15B
330
A
100
AcDbEntity
  8
0
 62
     7
100
AcDbLine
 10
154.017817
 20
99.97632600000001
 30
0.0
 11
154.7027019999999
 21
99.82370899999999
 31
0.0
  0
LINE
  5
15A
330
A
100
AcDbEntity
  8
0
 62
     7
100
AcDbLine
 10
154.7027019999999
 20
99.82370899999999
 30
0.0
 11
155.178125
 21
99.59461000000001
 31
0.0
  0
LINE
  5
159
330
A
100
AcDbEntity
  8
0
 62
     7
100
AcDbLine
 10
155.178125
 20
99.59461000000001
 30
0.0
 11
155.425483
 21
99.346563
 31
0.0
  0
LINE
  5
158
330
A
100
AcDbEntity
  8
0
 62
     7
100
AcDbLine
 10
155.425483
 20
99.346563
 30
0.0
 11
155.577412
 21
99.117809
 31
0.0
  0
LINE
  5
157
330
A
100
AcDbEntity
  8
0
 62
     7
100
AcDbLine
 10
155.577412
 20
99.117809
 30
0.0
 11
155.643557
 21
98.86666099999999
 31
0.0
  0
LINE
  5
156
330
A
100
AcDbEntity
  8
0
 62
     7
100
AcDbLine
 10
155.643557
 20
98.86666099999999
 30
0.0
 11
155.66974
 21
98.64962
 31
0.0
  0
LINE
  5
155
330
A
100
AcDbEntity
  8
0
 62
     7
100
AcDbLine
 10
155.66974
 20
98.64962
 30
0.0
 11
155.678697
 21
98.42775600000001
 31
0.0
  0
LINE
  5
154
330
A
100
AcDbEntity
  8
0
 62
     7
100
AcDbLine
 10
157.379541
 20
97.84622399999999
 30
0.0
 11
157.829126
 21
97.936141
 31
0.0
  0
LINE
  5
153
330
A
100
AcDbEntity
  8
0
 62
     7
100
AcDbLine
 10
157.829126
 20
97.936141
 30
0.0
 11
158.210843
 21
98.012622
 31
0.0
  0
LINE
  5
152
330
A
100
AcDbEntity
  8
0
 62
     7
100
AcDbLine
 10
158.210843
 20
98.012622
 30
0.0
 11
158.467158
 21
98.06360900000001
 31
0.0
  0
LINE
  5
151
330
A
100
AcDbEntity
  8
0
 62
     7
100
AcDbLine
 10
158.467158
 20
98.06360900000001
 30
0.0
 11
158.558797
 21
98.08186800000001
 31
0.0
  0
LINE
  5
150
330
A
100
AcDbEntity
  8
0
 62
     7
100
AcDbLine
 10
158.558797
 20
98.08186800000001
 30
0.0
 11
158.480249
 21
98.029503
 31
0.0
  0
LINE
  5
14F
330
A
100
AcDbEntity
  8
0
 62
     7
100
AcDbLine
 10
158.577745
 20
98.174886
 30
0.0
 11
158.558797
 21
98.08186800000001
 31
0.0
  0
LINE
  5
14E
330
A
100
AcDbEntity
  8
0
 62
     7
100
AcDbLine
 10
156.213032
 20
97.611957
 30
0.0
 11
156.306394
 21
97.59335400000001
 31
0.0
  0
LINE
  5
14D
330
A
100
AcDbEntity
  8
0
 62
     7
100
AcDbLine
 10
156.213032
 20
97.611957
 30
0.0
 11
156.299848
 21
97.62952699999999
 31
0.0
  0
LINE
  5
14C
330
A
100
AcDbEntity
  8
0
 62
     7
100
AcDbLine
 10
156.159977
 20
97.691539
 30
0.0
 11
156.213032
 21
97.611957
 31
0.0
  0
LINE
  5
14B
330
A
100
AcDbEntity
  8
0
 62
     7
100
AcDbLine
 10
156.299848
 20
97.62952699999999
 30
0.0
 11
156.552029
 21
97.68017
 31
0.0
  0
LINE
  5
14A
330
A
100
AcDbEntity
  8
0
 62
     7
100
AcDbLine
 10
156.552029
 20
97.68017
 30
0.0
 11
156.93099
 21
97.756307
 31
0.0
  0
LINE
  5
149
330
A
100
AcDbEntity
  8
0
 62
     7
100
AcDbLine
 10
156.93099
 20
97.756307
 30
0.0
 11
157.379541
 21
97.84622399999999
 31
0.0
  0
LINE
  5
148
330
A
100
AcDbEntity
  8
0
 62
     7
100
AcDbLine
 10
158.520557
 20
98.49217900000001
 30
0.0
 11
158.577745
 21
98.174886
 31
0.0
  0
LINE
  5
147
330
A
100
AcDbEntity
  8
0
 62
     7
100
AcDbLine
 10
156.097276
 20
98.00642100000001
 30
0.0
 11
156.159977
 21
97.691539
 31
0.0
  0
LINE
  5
146
330
A
100
AcDbEntity
  8
0
 62
     7
100
AcDbLine
 10
156.620242
 20
97.656399
 30
0.0
 11
156.386664
 21
97.60954599999999
 31
0.0
  0
LINE
  5
145
330
A
100
AcDbEntity
  8
0
 62
     7
100
AcDbLine
 10
156.971297
 20
97.72667900000001
 30
0.0
 11
156.620242
 21
97.656399
 31
0.0
  0
LINE
  5
144
330
A
100
AcDbEntity
  8
0
 62
     7
100
AcDbLine
 10
157.387465
 20
97.810395
 30
0.0
 11
156.971297
 21
97.72667900000001
 31
0.0
  0
LINE
  5
143
330
A
100
AcDbEntity
  8
0
 62
     7
100
AcDbLine
 10
157.804666
 20
97.893766
 30
0.0
 11
157.387465
 21
97.810395
 31
0.0
  0
LINE
  5
142
330
A
100
AcDbEntity
  8
0
 62
     7
100
AcDbLine
 10
158.158477
 20
97.96473500000001
 30
0.0
 11
157.804666
 21
97.893766
 31
0.0
  0
LINE
  5
141
330
A
100
AcDbEntity
  8
0
 62
     7
100
AcDbLine
 10
158.3955
 20
98.01227800000001
 30
0.0
 11
158.158477
 21
97.96473500000001
 31
0.0
  0
LINE
  5
140
330
A
100
AcDbEntity
  8
0
 62
     7
100
AcDbLine
 10
158.480249
 20
98.029503
 30
0.0
 11
158.3955
 21
98.01227800000001
 31
0.0
  0
LINE
  5
13F
330
A
100
AcDbEntity
  8
0
 62
     7
100
AcDbLine
 10
156.386664
 20
97.60954599999999
 30
0.0
 11
156.306394
 21
97.59335400000001
 31
0.0
  0
LINE
  5
13E
330
A
100
AcDbEntity
  8
0
 62
     7
100
AcDbLine
 10
158.161233
 20
98.42017699999999
 30
0.0
 11
158.425817
 21
98.47323100000002
 31
0.0
  0
LINE
  5
13D
330
A
100
AcDbEntity
  8
0
 62
     7
100
AcDbLine
 10
157.76677
 20
98.341284
 30
0.0
 11
158.161233
 21
98.42017699999999
 31
0.0
  0
LINE
  5
13C
330
A
100
AcDbEntity
  8
0
 62
     7
100
AcDbLine
 10
157.3027149999999
 20
98.247922
 30
0.0
 11
157.76677
 21
98.341284
 31
0.0
  0
LINE
  5
13B
330
A
100
AcDbEntity
  8
0
 62
     7
100
AcDbLine
 10
156.83935
 20
98.15524899999999
 30
0.0
 11
157.3027149999999
 21
98.247922
 31
0.0
  0
LINE
  5
13A
330
A
100
AcDbEntity
  8
0
 62
     7
100
AcDbLine
 10
156.447643
 20
98.07670100000001
 30
0.0
 11
156.83935
 21
98.15524899999999
 31
0.0
  0
LINE
  5
139
330
A
100
AcDbEntity
  8
0
 62
     7
100
AcDbLine
 10
156.187193
 20
98.02433499999999
 30
0.0
 11
156.447643
 21
98.07670100000001
 31
0.0
  0
LINE
  5
138
330
A
100
AcDbEntity
  8
0
 62
     7
100
AcDbLine
 10
156.097276
 20
98.00642100000001
 30
0.0
 11
156.187193
 21
98.02433499999999
 31
0.0
  0
LINE
  5
137
330
A
100
AcDbEntity
  8
0
 62
     7
100
AcDbLine
 10
156.192017
 20
98.02536899999999
 30
0.0
 11
156.097276
 21
98.00642100000001
 31
0.0
  0
LINE
  5
136
330
A
100
AcDbEntity
  8
0
 62
     7
100
AcDbLine
 10
156.851063
 20
98.15766100000001
 30
0.0
 11
156.4566
 21
98.078423
 31
0.0
  0
LINE
  5
135
330
A
100
AcDbEntity
  8
0
 62
     7
100
AcDbLine
 10
158.520557
 20
98.49217900000001
 30
0.0
 11
158.43064
 21
98.474265
 31
0.0
  0
LINE
  5
134
330
A
100
AcDbEntity
  8
0
 62
     7
100
AcDbLine
 10
158.425817
 20
98.47323100000002
 30
0.0
 11
158.520557
 21
98.49217900000001
 31
0.0
  0
LINE
  5
133
330
A
100
AcDbEntity
  8
0
 62
     7
100
AcDbLine
 10
154.467402
 20
105.940993
 30
0.0
 11
153.940991
 21
106.092577
 31
0.0
  0
LINE
  5
132
330
A
100
AcDbEntity
  8
0
 62
     7
100
AcDbLine
 10
153.543772
 20
106.172675
 30
0.0
 11
152.999791
 21
106.236754
 31
0.0
  0
LINE
  5
131
330
A
100
AcDbEntity
  8
0
 62
     7
100
AcDbLine
 10
154.822591
 20
105.731703
 30
0.0
 11
154.467402
 21
105.940993
 31
0.0
  0
LINE
  5
130
330
A
100
AcDbEntity
  8
0
 62
     7
100
AcDbLine
 10
152.999791
 20
106.236754
 30
0.0
 11
152.590169
 21
106.180254
 31
0.0
  0
LINE
  5
12F
330
A
100
AcDbEntity
  8
0
 62
     7
100
AcDbLine
 10
154.829137
 20
105.72154
 30
0.0
 11
154.757479
 21
105.737387
 31
0.0
  0
LINE
  5
12E
330
A
100
AcDbEntity
  8
0
 62
     7
100
AcDbLine
 10
154.797786
 20
105.566338
 30
0.0
 11
154.829137
 21
105.72154
 31
0.0
  0
LINE
  5
12D
330
A
100
AcDbEntity
  8
0
 62
     7
100
AcDbLine
 10
154.757479
 20
105.737387
 30
0.0
 11
154.525968
 21
105.785274
 31
0.0
  0
LINE
  5
12C
330
A
100
AcDbEntity
  8
0
 62
     7
100
AcDbLine
 10
154.525968
 20
105.785274
 30
0.0
 11
154.169401
 21
105.857966
 31
0.0
  0
LINE
  5
12B
330
A
100
AcDbEntity
  8
0
 62
     7
100
AcDbLine
 10
154.169401
 20
105.857966
 30
0.0
 11
153.742209
 21
105.944265
 31
0.0
  0
LINE
  5
12A
330
A
100
AcDbEntity
  8
0
 62
     7
100
AcDbLine
 10
153.742209
 20
105.944265
 30
0.0
 11
153.309505
 21
106.031254
 31
0.0
  0
LINE
  5
129
330
A
100
AcDbEntity
  8
0
 62
     7
100
AcDbLine
 10
153.309505
 20
106.031254
 30
0.0
 11
152.936746
 21
106.105496
 31
0.0
  0
LINE
  5
128
330
A
100
AcDbEntity
  8
0
 62
     7
100
AcDbLine
 10
152.936746
 20
106.105496
 30
0.0
 11
152.681464
 21
106.155794
 31
0.0
  0
LINE
  5
127
330
A
100
AcDbEntity
  8
0
 62
     7
100
AcDbLine
 10
152.581901
 20
106.174398
 30
0.0
 11
152.550551
 21
106.019196
 31
0.0
  0
LINE
  5
126
330
A
100
AcDbEntity
  8
0
 62
     7
100
AcDbLine
 10
152.681464
 20
106.155794
 30
0.0
 11
152.581901
 21
106.174398
 31
0.0
  0
LINE
  5
125
330
A
100
AcDbEntity
  8
0
 62
     7
100
AcDbLine
 10
154.817079
 20
105.562032
 30
0.0
 11
154.744387
 21
105.578224
 31
0.0
  0
LINE
  5
124
330
A
100
AcDbEntity
  8
0
 62
     7
100
AcDbLine
 10
154.856009
 20
105.50381
 30
0.0
 11
154.817079
 21
105.562032
 31
0.0
  0
LINE
  5
123
330
A
100
AcDbEntity
  8
0
 62
     7
100
AcDbLine
 10
154.744387
 20
105.578224
 30
0.0
 11
154.508743
 21
105.626972
 31
0.0
  0
LINE
  5
122
330
A
100
AcDbEntity
  8
0
 62
     7
100
AcDbLine
 10
154.508743
 20
105.626972
 30
0.0
 11
154.146319
 21
105.700869
 31
0.0
  0
LINE
  5
121
330
A
100
AcDbEntity
  8
0
 62
     7
100
AcDbLine
 10
154.146319
 20
105.700869
 30
0.0
 11
153.711548
 21
105.788719
 31
0.0
  0
LINE
  5
120
330
A
100
AcDbEntity
  8
0
 62
     7
100
AcDbLine
 10
153.711548
 20
105.788719
 30
0.0
 11
153.271265
 21
105.877086
 31
0.0
  0
LINE
  5
11F
330
A
100
AcDbEntity
  8
0
 62
     7
100
AcDbLine
 10
153.271265
 20
105.877086
 30
0.0
 11
152.892304
 21
105.952706
 31
0.0
  0
LINE
  5
11E
330
A
100
AcDbEntity
  8
0
 62
     7
100
AcDbLine
 10
152.892304
 20
105.952706
 30
0.0
 11
152.632544
 21
106.003866
 31
0.0
  0
LINE
  5
11D
330
A
100
AcDbEntity
  8
0
 62
     7
100
AcDbLine
 10
152.531258
 20
106.022814
 30
0.0
 11
152.473036
 21
105.984056
 31
0.0
  0
LINE
  5
11C
330
A
100
AcDbEntity
  8
0
 62
     7
100
AcDbLine
 10
152.632544
 20
106.003866
 30
0.0
 11
152.531258
 21
106.022814
 31
0.0
  0
LINE
  5
11B
330
A
100
AcDbEntity
  8
0
 62
     7
100
AcDbLine
 10
154.856009
 20
105.50381
 30
0.0
 11
154.780216
 21
105.520519
 31
0.0
  0
LINE
  5
11A
330
A
100
AcDbEntity
  8
0
 62
     7
100
AcDbLine
 10
154.768503
 20
105.066972
 30
0.0
 11
154.856009
 21
105.50381
 31
0.0
  0
LINE
  5
119
330
A
100
AcDbEntity
  8
0
 62
     7
100
AcDbLine
 10
154.780216
 20
105.520519
 30
0.0
 11
154.534581
 21
105.571334
 31
0.0
  0
LINE
  5
118
330
A
100
AcDbEntity
  8
0
 62
     7
100
AcDbLine
 10
154.534581
 20
105.571334
 30
0.0
 11
154.15631
 21
105.648332
 31
0.0
  0
LINE
  5
117
330
A
100
AcDbEntity
  8
0
 62
     7
100
AcDbLine
 10
154.15631
 20
105.648332
 30
0.0
 11
153.703624
 21
105.739971
 31
0.0
  0
LINE
  5
116
330
A
100
AcDbEntity
  8
0
 62
     7
100
AcDbLine
 10
153.703624
 20
105.739971
 30
0.0
 11
153.244737
 21
105.832128
 31
0.0
  0
LINE
  5
115
330
A
100
AcDbEntity
  8
0
 62
     7
100
AcDbLine
 10
153.244737
 20
105.832128
 30
0.0
 11
152.849585
 21
105.910848
 31
0.0
  0
LINE
  5
114
330
A
100
AcDbEntity
  8
0
 62
     7
100
AcDbLine
 10
152.849585
 20
105.910848
 30
0.0
 11
152.5788
 21
105.964247
 31
0.0
  0
LINE
  5
113
330
A
100
AcDbEntity
  8
0
 62
     7
100
AcDbLine
 10
152.473036
 20
105.984056
 30
0.0
 11
152.385531
 21
105.547046
 31
0.0
  0
LINE
  5
112
330
A
100
AcDbEntity
  8
0
 62
     7
100
AcDbLine
 10
152.5788
 20
105.964247
 30
0.0
 11
152.473036
 21
105.984056
 31
0.0
  0
LINE
  5
111
330
A
100
AcDbEntity
  8
0
 62
     7
100
AcDbLine
 10
154.794341
 20
105.061115
 30
0.0
 11
154.717171
 21
105.078341
 31
0.0
  0
LINE
  5
110
330
A
100
AcDbEntity
  8
0
 62
     7
100
AcDbLine
 10
154.806055
 20
105.029248
 30
0.0
 11
154.794341
 21
105.061115
 31
0.0
  0
LINE
  5
10F
330
A
100
AcDbEntity
  8
0
 62
     7
100
AcDbLine
 10
154.717171
 20
105.078341
 30
0.0
 11
154.466024
 21
105.130189
 31
0.0
  0
LINE
  5
10E
330
A
100
AcDbEntity
  8
0
 62
     7
100
AcDbLine
 10
154.466024
 20
105.130189
 30
0.0
 11
154.079484
 21
105.209082
 31
0.0
  0
LINE
  5
10D
330
A
100
AcDbEntity
  8
0
 62
     7
100
AcDbLine
 10
154.079484
 20
105.209082
 30
0.0
 11
153.616808
 21
105.302616
 31
0.0
  0
LINE
  5
10C
330
A
100
AcDbEntity
  8
0
 62
     7
100
AcDbLine
 10
153.616808
 20
105.302616
 30
0.0
 11
153.147586
 21
105.39684
 31
0.0
  0
LINE
  5
10B
330
A
100
AcDbEntity
  8
0
 62
     7
100
AcDbLine
 10
153.147586
 20
105.39684
 30
0.0
 11
152.744165
 21
105.477283
 31
0.0
  0
LINE
  5
10A
330
A
100
AcDbEntity
  8
0
 62
     7
100
AcDbLine
 10
152.744165
 20
105.477283
 30
0.0
 11
152.467179
 21
105.531715
 31
0.0
  0
LINE
  5
109
330
A
100
AcDbEntity
  8
0
 62
     7
100
AcDbLine
 10
152.359348
 20
105.552041
 30
0.0
 11
152.33661
 21
105.527064
 31
0.0
  0
LINE
  5
108
330
A
100
AcDbEntity
  8
0
 62
     7
100
AcDbLine
 10
152.467179
 20
105.531715
 30
0.0
 11
152.359348
 21
105.552041
 31
0.0
  0
LINE
  5
107
330
A
100
AcDbEntity
  8
0
 62
     7
100
AcDbLine
 10
154.608306
 20
104.783613
 30
0.0
 11
154.806055
 21
105.029248
 31
0.0
  0
LINE
  5
106
330
A
100
AcDbEntity
  8
0
 62
     7
100
AcDbLine
 10
152.33661
 20
105.527064
 30
0.0
 11
152.424116
 21
105.223724
 31
0.0
  0
LINE
  5
105
330
A
100
AcDbEntity
  8
0
 62
     7
100
AcDbLine
 10
154.425716
 20
104.488713
 30
0.0
 11
154.608306
 21
104.783613
 31
0.0
  0
LINE
  5
104
330
A
100
AcDbEntity
  8
0
 62
     7
100
AcDbLine
 10
152.424116
 20
105.223724
 30
0.0
 11
152.478893
 21
104.880937
 31
0.0
  0
LINE
  5
103
330
A
100
AcDbEntity
  8
0
 62
     7
100
AcDbLine
 10
154.280678
 20
104.173486
 30
0.0
 11
154.425716
 21
104.488713
 31
0.0
  0
LINE
  5
102
330
A
100
AcDbEntity
  8
0
 62
     7
100
AcDbLine
 10
152.478893
 20
104.880937
 30
0.0
 11
152.491295
 21
104.534016
 31
0.0
  0
LINE
  5
101
330
A
100
AcDbEntity
  8
0
 62
     7
100
AcDbLine
 10
154.175258
 20
103.841379
 30
0.0
 11
154.280678
 21
104.173486
 31
0.0
  0
LINE
  5
100
330
A
100
AcDbEntity
  8
0
 62
     7
100
AcDbLine
 10
152.491295
 20
104.534016
 30
0.0
 11
152.460634
 21
104.186922
 31
0.0
  0
LINE
  5
FF
330
A
100
AcDbEntity
  8
0
 62
     7
100
AcDbLine
 10
154.148386
 20
103.698063
 30
0.0
 11
154.175258
 21
103.841379
 31
0.0
  0
LINE
  5
FE
330
A
100
AcDbEntity
  8
0
 62
     7
100
AcDbLine
 10
152.460634
 20
104.186922
 30
0.0
 11
152.429972
 21
104.044295
 31
0.0
  0
LINE
  5
FD
330
A
100
AcDbEntity
  8
0
 62
     7
100
AcDbLine
 10
154.139773
 20
103.553025
 30
0.0
 11
154.148386
 21
103.698063
 31
0.0
  0
LINE
  5
FC
330
A
100
AcDbEntity
  8
0
 62
     7
100
AcDbLine
 10
152.429972
 20
104.044295
 30
0.0
 11
152.38243
 21
103.90718
 31
0.0
  0
LINE
  5
FB
330
A
100
AcDbEntity
  8
0
 62
     7
100
AcDbLine
 10
154.14873
 20
103.408331
 30
0.0
 11
154.139773
 21
103.553025
 31
0.0
  0
LINE
  5
FA
330
A
100
AcDbEntity
  8
0
 62
     7
100
AcDbLine
 10
152.38243
 20
103.90718
 30
0.0
 11
152.318351
 21
103.7773
 31
0.0
  0
LINE
  5
F9
330
A
100
AcDbEntity
  8
0
 62
     7
100
AcDbLine
 10
154.175602
 20
103.265015
 30
0.0
 11
154.14873
 21
103.408331
 31
0.0
  0
LINE
  5
F8
330
A
100
AcDbEntity
  8
0
 62
     7
100
AcDbLine
 10
152.318351
 20
103.7773
 30
0.0
 11
152.238425
 21
103.655344
 31
0.0
  0
LINE
  5
F7
330
A
100
AcDbEntity
  8
0
 62
     7
100
AcDbLine
 10
154.175602
 20
103.265015
 30
0.0
 11
154.113935
 21
103.278795
 31
0.0
  0
LINE
  5
F6
330
A
100
AcDbEntity
  8
0
 62
     7
100
AcDbLine
 10
154.23658
 20
103.207137
 30
0.0
 11
154.175602
 21
103.265015
 31
0.0
  0
LINE
  5
F5
330
A
100
AcDbEntity
  8
0
 62
     7
100
AcDbLine
 10
154.113935
 20
103.278795
 30
0.0
 11
153.914464
 21
103.319792
 31
0.0
  0
LINE
  5
F4
330
A
100
AcDbEntity
  8
0
 62
     7
100
AcDbLine
 10
153.914464
 20
103.319792
 30
0.0
 11
153.606817
 21
103.382492
 31
0.0
  0
LINE
  5
F3
330
A
100
AcDbEntity
  8
0
 62
     7
100
AcDbLine
 10
153.606817
 20
103.382492
 30
0.0
 11
153.238536
 21
103.456906
 31
0.0
  0
LINE
  5
F2
330
A
100
AcDbEntity
  8
0
 62
     7
100
AcDbLine
 10
153.238536
 20
103.456906
 30
0.0
 11
152.865432
 21
103.53201
 31
0.0
  0
LINE
  5
F1
330
A
100
AcDbEntity
  8
0
 62
     7
100
AcDbLine
 10
152.865432
 20
103.53201
 30
0.0
 11
152.54435
 21
103.596088
 31
0.0
  0
LINE
  5
F0
330
A
100
AcDbEntity
  8
0
 62
     7
100
AcDbLine
 10
152.54435
 20
103.596088
 30
0.0
 11
152.324208
 21
103.639497
 31
0.0
  0
LINE
  5
EF
330
A
100
AcDbEntity
  8
0
 62
     7
100
AcDbLine
 10
152.238425
 20
103.655344
 30
0.0
 11
152.159877
 21
103.625716
 31
0.0
  0
LINE
  5
EE
330
A
100
AcDbEntity
  8
0
 62
     7
100
AcDbLine
 10
152.324208
 20
103.639497
 30
0.0
 11
152.238425
 21
103.655344
 31
0.0
  0
LINE
  5
ED
330
A
100
AcDbEntity
  8
0
 62
     7
100
AcDbLine
 10
154.248294
 20
103.12411
 30
0.0
 11
154.23658
 21
103.207137
 31
0.0
  0
LINE
  5
EC
330
A
100
AcDbEntity
  8
0
 62
     7
100
AcDbLine
 10
152.159877
 20
103.625716
 30
0.0
 11
152.117158
 21
103.553369
 31
0.0
  0
LINE
  5
EB
330
A
100
AcDbEntity
  8
0
 62
     7
100
AcDbLine
 10
154.20523
 20
103.051763
 30
0.0
 11
154.248294
 21
103.12411
 31
0.0
  0
LINE
  5
EA
330
A
100
AcDbEntity
  8
0
 62
     7
100
AcDbLine
 10
152.117158
 20
103.553369
 30
0.0
 11
152.128871
 21
103.470342
 31
0.0
  0
LINE
  5
E9
330
A
100
AcDbEntity
  8
0
 62
     7
100
AcDbLine
 10
154.127026
 20
103.022135
 30
0.0
 11
154.20523
 21
103.051763
 31
0.0
  0
LINE
  5
E8
330
A
100
AcDbEntity
  8
0
 62
     7
100
AcDbLine
 10
152.128871
 20
103.470342
 30
0.0
 11
152.189505
 21
103.412465
 31
0.0
  0
LINE
  5
E7
330
A
100
AcDbEntity
  8
0
 62
     7
100
AcDbLine
 10
153.887248
 20
106.103773
 30
0.0
 11
153.928244
 21
106.095333
 31
0.0
  0
LINE
  5
E6
330
A
100
AcDbEntity
  8
0
 62
     7
100
AcDbLine
 10
153.824547
 20
106.116692
 30
0.0
 11
153.887248
 21
106.103773
 31
0.0
  0
LINE
  5
E5
330
A
100
AcDbEntity
  8
0
 62
     7
100
AcDbLine
 10
153.748755
 20
106.131851
 30
0.0
 11
153.824547
 21
106.116692
 31
0.0
  0
LINE
  5
E4
330
A
100
AcDbEntity
  8
0
 62
     7
100
AcDbLine
 10
153.672274
 20
106.147354
 30
0.0
 11
153.748755
 21
106.131851
 31
0.0
  0
LINE
  5
E3
330
A
100
AcDbEntity
  8
0
 62
     7
100
AcDbLine
 10
153.606472
 20
106.160445
 30
0.0
 11
153.672274
 21
106.147354
 31
0.0
  0
LINE
  5
E2
330
A
100
AcDbEntity
  8
0
 62
     7
100
AcDbLine
 10
153.561342
 20
106.16923
 30
0.0
 11
153.606472
 21
106.160445
 31
0.0
  0
LINE
  5
E1
330
A
100
AcDbEntity
  8
0
 62
     7
100
AcDbLine
 10
153.543772
 20
106.172675
 30
0.0
 11
153.561342
 21
106.16923
 31
0.0
  0
LINE
  5
E0
330
A
100
AcDbEntity
  8
0
 62
     7
100
AcDbLine
 10
153.928244
 20
106.095333
 30
0.0
 11
153.940991
 21
106.092577
 31
0.0
  0
LINE
  5
DF
330
A
100
AcDbEntity
  8
0
 62
     7
100
AcDbLine
 10
153.820757
 20
103.081391
 30
0.0
 11
154.041243
 21
103.037983
 31
0.0
  0
LINE
  5
DE
330
A
100
AcDbEntity
  8
0
 62
     7
100
AcDbLine
 10
153.521034
 20
103.141336
 30
0.0
 11
153.820757
 21
103.081391
 31
0.0
  0
LINE
  5
DD
330
A
100
AcDbEntity
  8
0
 62
     7
100
AcDbLine
 10
152.75829
 20
103.294987
 30
0.0
 11
152.794463
 21
103.287752
 31
0.0
  0
LINE
  5
DC
330
A
100
AcDbEntity
  8
0
 62
     7
100
AcDbLine
 10
152.450987
 20
103.357688
 30
0.0
 11
152.75829
 21
103.294987
 31
0.0
  0
LINE
  5
DB
330
A
100
AcDbEntity
  8
0
 62
     7
100
AcDbLine
 10
152.251172
 20
103.398684
 30
0.0
 11
152.450987
 21
103.357688
 31
0.0
  0
LINE
  5
DA
330
A
100
AcDbEntity
  8
0
 62
     7
100
AcDbLine
 10
152.189505
 20
103.412465
 30
0.0
 11
152.251172
 21
103.398684
 31
0.0
  0
LINE
  5
D9
330
A
100
AcDbEntity
  8
0
 62
     7
100
AcDbLine
 10
152.275632
 20
103.396273
 30
0.0
 11
152.189505
 21
103.412465
 31
0.0
  0
LINE
  5
D8
330
A
100
AcDbEntity
  8
0
 62
     7
100
AcDbLine
 10
152.495774
 20
103.353209
 30
0.0
 11
152.275632
 21
103.396273
 31
0.0
  0
LINE
  5
D7
330
A
100
AcDbEntity
  8
0
 62
     7
100
AcDbLine
 10
152.816857
 20
103.28913
 30
0.0
 11
152.495774
 21
103.353209
 31
0.0
  0
LINE
  5
D6
330
A
100
AcDbEntity
  8
0
 62
     7
100
AcDbLine
 10
153.18996
 20
103.214027
 30
0.0
 11
152.816857
 21
103.28913
 31
0.0
  0
LINE
  5
D5
330
A
100
AcDbEntity
  8
0
 62
     7
100
AcDbLine
 10
153.558241
 20
103.139613
 30
0.0
 11
153.18996
 21
103.214027
 31
0.0
  0
LINE
  5
D4
330
A
100
AcDbEntity
  8
0
 62
     7
100
AcDbLine
 10
153.865544
 20
103.076912
 30
0.0
 11
153.558241
 21
103.139613
 31
0.0
  0
LINE
  5
D3
330
A
100
AcDbEntity
  8
0
 62
     7
100
AcDbLine
 10
154.065359
 20
103.035571
 30
0.0
 11
153.865544
 21
103.076912
 31
0.0
  0
LINE
  5
D2
330
A
100
AcDbEntity
  8
0
 62
     7
100
AcDbLine
 10
154.127026
 20
103.022135
 30
0.0
 11
154.065359
 21
103.035571
 31
0.0
  0
LINE
  5
D1
330
A
100
AcDbEntity
  8
0
 62
     7
100
AcDbLine
 10
154.041243
 20
103.037983
 30
0.0
 11
154.127026
 21
103.022135
 31
0.0
  0
LINE
  5
D0
330
A
100
AcDbEntity
  8
0
 62
     7
100
AcDbLine
 10
151.580756
 20
99.87194000000002
 30
0.0
 11
151.232802
 21
98.135612
 31
0.0
  0
LINE
  5
CF
330
A
100
AcDbEntity
  8
0
 62
     7
100
AcDbLine
 10
153.325008
 20
99.52054
 30
0.0
 11
152.977398
 21
97.784557
 31
0.0
  0
LINE
  5
CE
330
A
100
AcDbEntity
  8
0
 62
     7
100
AcDbLine
 10
151.580756
 20
99.87194000000002
 30
0.0
 11
151.647247
 21
99.859538
 31
0.0
  0
LINE
  5
CD
330
A
100
AcDbEntity
  8
0
 62
     7
100
AcDbLine
 10
151.539415
 20
99.91741500000001
 30
0.0
 11
151.580756
 21
99.87194000000002
 31
0.0
  0
LINE
  5
CC
330
A
100
AcDbEntity
  8
0
 62
     7
100
AcDbLine
 10
151.647247
 20
99.859538
 30
0.0
 11
151.836382
 21
99.822675
 31
0.0
  0
LINE
  5
CB
330
A
100
AcDbEntity
  8
0
 62
     7
100
AcDbLine
 10
151.836382
 20
99.822675
 30
0.0
 11
152.119225
 21
99.766176
 31
0.0
  0
LINE
  5
CA
330
A
100
AcDbEntity
  8
0
 62
     7
100
AcDbLine
 10
152.119225
 20
99.766176
 30
0.0
 11
152.453054
 21
99.69899599999999
 31
0.0
  0
LINE
  5
C9
330
A
100
AcDbEntity
  8
0
 62
     7
100
AcDbLine
 10
152.453054
 20
99.69899599999999
 30
0.0
 11
152.786884
 21
99.63181699999999
 31
0.0
  0
LINE
  5
C8
330
A
100
AcDbEntity
  8
0
 62
     7
100
AcDbLine
 10
152.786884
 20
99.63181699999999
 30
0.0
 11
153.069727
 21
99.57393899999999
 31
0.0
  0
LINE
  5
C7
330
A
100
AcDbEntity
  8
0
 62
     7
100
AcDbLine
 10
153.069727
 20
99.57393899999999
 30
0.0
 11
153.258862
 21
99.53501000000001
 31
0.0
  0
LINE
  5
C6
330
A
100
AcDbEntity
  8
0
 62
     7
100
AcDbLine
 10
153.258862
 20
99.53501000000001
 30
0.0
 11
153.325008
 21
99.52054
 31
0.0
  0
LINE
  5
C5
330
A
100
AcDbEntity
  8
0
 62
     7
100
AcDbLine
 10
153.380819
 20
99.54637900000001
 30
0.0
 11
153.325008
 21
99.52054
 31
0.0
  0
LINE
  5
C4
330
A
100
AcDbEntity
  8
0
 62
     7
100
AcDbLine
 10
151.539415
 20
99.91741500000001
 30
0.0
 11
151.609351
 21
99.90432400000001
 31
0.0
  0
LINE
  5
C3
330
A
100
AcDbEntity
  8
0
 62
     7
100
AcDbLine
 10
151.561464
 20
100.103106
 30
0.0
 11
151.539415
 21
99.91741500000001
 31
0.0
  0
LINE
  5
C2
330
A
100
AcDbEntity
  8
0
 62
     7
100
AcDbLine
 10
151.609351
 20
99.90432400000001
 30
0.0
 11
151.809166
 21
99.86505000000001
 31
0.0
  0
LINE
  5
C1
330
A
100
AcDbEntity
  8
0
 62
     7
100
AcDbLine
 10
151.809166
 20
99.86505000000001
 30
0.0
 11
152.107856
 21
99.80579399999999
 31
0.0
  0
LINE
  5
C0
330
A
100
AcDbEntity
  8
0
 62
     7
100
AcDbLine
 10
152.107856
 20
99.80579399999999
 30
0.0
 11
152.460289
 21
99.73482500000001
 31
0.0
  0
LINE
  5
BF
330
A
100
AcDbEntity
  8
0
 62
     7
100
AcDbLine
 10
152.460289
 20
99.73482500000001
 30
0.0
 11
152.812722
 21
99.66385600000002
 31
0.0
  0
LINE
  5
BE
330
A
100
AcDbEntity
  8
0
 62
     7
100
AcDbLine
 10
152.812722
 20
99.66385600000002
 30
0.0
 11
153.111412
 21
99.60287800000001
 31
0.0
  0
LINE
  5
BD
330
A
100
AcDbEntity
  8
0
 62
     7
100
AcDbLine
 10
153.111412
 20
99.60287800000001
 30
0.0
 11
153.310883
 21
99.56188199999999
 31
0.0
  0
LINE
  5
BC
330
A
100
AcDbEntity
  8
0
 62
     7
100
AcDbLine
 10
153.310883
 20
99.56188199999999
 30
0.0
 11
153.380819
 21
99.54637900000001
 31
0.0
  0
LINE
  5
BB
330
A
100
AcDbEntity
  8
0
 62
     7
100
AcDbLine
 10
153.511388
 20
100.008021
 30
0.0
 11
153.380819
 21
99.54637900000001
 31
0.0
  0
LINE
  5
BA
330
A
100
AcDbEntity
  8
0
 62
     7
100
AcDbLine
 10
152.721427
 20
97.833822
 30
0.0
 11
152.910908
 21
97.79661500000001
 31
0.0
  0
LINE
  5
B9
330
A
100
AcDbEntity
  8
0
 62
     7
100
AcDbLine
 10
152.438585
 20
97.890321
 30
0.0
 11
152.721427
 21
97.833822
 31
0.0
  0
LINE
  5
B8
330
A
100
AcDbEntity
  8
0
 62
     7
100
AcDbLine
 10
152.104755
 20
97.95715600000001
 30
0.0
 11
152.438585
 21
97.890321
 31
0.0
  0
LINE
  5
B7
330
A
100
AcDbEntity
  8
0
 62
     7
100
AcDbLine
 10
151.770926
 20
98.02468000000001
 30
0.0
 11
152.104755
 21
97.95715600000001
 31
0.0
  0
LINE
  5
B6
330
A
100
AcDbEntity
  8
0
 62
     7
100
AcDbLine
 10
151.488083
 20
98.08221299999999
 30
0.0
 11
151.770926
 21
98.02468000000001
 31
0.0
  0
LINE
  5
B5
330
A
100
AcDbEntity
  8
0
 62
     7
100
AcDbLine
 10
151.298947
 20
98.12114300000001
 30
0.0
 11
151.488083
 21
98.08221299999999
 31
0.0
  0
LINE
  5
B4
330
A
100
AcDbEntity
  8
0
 62
     7
100
AcDbLine
 10
151.232802
 20
98.135612
 30
0.0
 11
151.298947
 21
98.12114300000001
 31
0.0
  0
LINE
  5
B3
330
A
100
AcDbEntity
  8
0
 62
     7
100
AcDbLine
 10
151.299292
 20
98.12355400000001
 30
0.0
 11
151.232802
 21
98.135612
 31
0.0
  0
LINE
  5
B2
330
A
100
AcDbEntity
  8
0
 62
     7
100
AcDbLine
 10
151.488428
 20
98.086347
 30
0.0
 11
151.299292
 21
98.12355400000001
 31
0.0
  0
LINE
  5
B1
330
A
100
AcDbEntity
  8
0
 62
     7
100
AcDbLine
 10
151.771615
 20
98.029848
 30
0.0
 11
151.488428
 21
98.086347
 31
0.0
  0
LINE
  5
B0
330
A
100
AcDbEntity
  8
0
 62
     7
100
AcDbLine
 10
152.105444
 20
97.96301300000001
 30
0.0
 11
151.771615
 21
98.029848
 31
0.0
  0
LINE
  5
AF
330
A
100
AcDbEntity
  8
0
 62
     7
100
AcDbLine
 10
152.43893
 20
97.89548899999999
 30
0.0
 11
152.105444
 21
97.96301300000001
 31
0.0
  0
LINE
  5
AE
330
A
100
AcDbEntity
  8
0
 62
     7
100
AcDbLine
 10
152.722116
 20
97.83795600000001
 30
0.0
 11
152.43893
 21
97.89548899999999
 31
0.0
  0
LINE
  5
AD
330
A
100
AcDbEntity
  8
0
 62
     7
100
AcDbLine
 10
152.910908
 20
97.79868200000001
 30
0.0
 11
152.722116
 21
97.83795600000001
 31
0.0
  0
LINE
  5
AC
330
A
100
AcDbEntity
  8
0
 62
     7
100
AcDbLine
 10
152.977398
 20
97.784557
 30
0.0
 11
152.910908
 21
97.79868200000001
 31
0.0
  0
LINE
  5
AB
330
A
100
AcDbEntity
  8
0
 62
     7
100
AcDbLine
 10
152.910908
 20
97.79661500000001
 30
0.0
 11
152.977398
 21
97.784557
 31
0.0
  0
LINE
  5
AA
330
A
100
AcDbEntity
  8
0
 62
     7
100
AcDbLine
 10
144.138833
 20
102.31279
 30
0.0
 11
144.37999
 21
102.31279
 31
0.0
  0
LINE
  5
A9
330
A
100
AcDbEntity
  8
0
 62
     7
100
AcDbLine
 10
144.138833
 20
104.790675
 30
0.0
 11
144.37999
 21
104.790675
 31
0.0
  0
LINE
  5
A8
330
A
100
AcDbEntity
  8
0
 62
     7
100
AcDbLine
 10
143.152502
 20
105.137596
 30
0.0
 11
143.100998
 21
105.064044
 31
0.0
  0
LINE
  5
A7
330
A
100
AcDbEntity
  8
0
 62
     7
100
AcDbLine
 10
143.152502
 20
101.965869
 30
0.0
 11
143.100998
 21
102.03925
 31
0.0
  0
LINE
  5
A6
330
A
100
AcDbEntity
  8
0
 62
     7
100
AcDbLine
 10
144.138833
 20
102.03925
 30
0.0
 11
144.087329
 21
101.965869
 31
0.0
  0
LINE
  5
A5
330
A
100
AcDbEntity
  8
0
 62
     7
100
AcDbLine
 10
144.138833
 20
105.064044
 30
0.0
 11
144.087329
 21
105.137596
 31
0.0
  0
LINE
  5
A4
330
A
100
AcDbEntity
  8
0
 62
     7
100
AcDbLine
 10
143.152502
 20
102.058542
 30
0.0
 11
143.152502
 21
101.973448
 31
0.0
  0
LINE
  5
A3
330
A
100
AcDbEntity
  8
0
 62
     7
100
AcDbLine
 10
144.087329
 20
101.973448
 30
0.0
 11
144.087329
 21
102.058542
 31
0.0
  0
LINE
  5
A2
330
A
100
AcDbEntity
  8
0
 62
     7
100
AcDbLine
 10
143.152502
 20
101.973448
 30
0.0
 11
143.152502
 21
101.965869
 31
0.0
  0
LINE
  5
A1
330
A
100
AcDbEntity
  8
0
 62
     7
100
AcDbLine
 10
144.087329
 20
101.965869
 30
0.0
 11
144.087329
 21
101.973448
 31
0.0
  0
LINE
  5
A0
330
A
100
AcDbEntity
  8
0
 62
     7
100
AcDbLine
 10
143.152502
 20
103.358032
 30
0.0
 11
143.152502
 21
103.200591
 31
0.0
  0
LINE
  5
9F
330
A
100
AcDbEntity
  8
0
 62
     7
100
AcDbLine
 10
144.087329
 20
103.200591
 30
0.0
 11
144.087329
 21
103.358032
 31
0.0
  0
LINE
  5
9E
330
A
100
AcDbEntity
  8
0
 62
     7
100
AcDbLine
 10
143.152502
 20
103.200591
 30
0.0
 11
143.152502
 21
103.06072
 31
0.0
  0
LINE
  5
9D
330
A
100
AcDbEntity
  8
0
 62
     7
100
AcDbLine
 10
144.087329
 20
103.06072
 30
0.0
 11
144.087329
 21
103.200591
 31
0.0
  0
LINE
  5
9C
330
A
100
AcDbEntity
  8
0
 62
     7
100
AcDbLine
 10
143.152502
 20
104.850964
 30
0.0
 11
143.152502
 21
104.778962
 31
0.0
  0
LINE
  5
9B
330
A
100
AcDbEntity
  8
0
 62
     7
100
AcDbLine
 10
144.087329
 20
104.778962
 30
0.0
 11
144.087329
 21
104.850964
 31
0.0
  0
LINE
  5
9A
330
A
100
AcDbEntity
  8
0
 62
     7
100
AcDbLine
 10
143.152502
 20
104.778962
 30
0.0
 11
143.152502
 21
104.646498
 31
0.0
  0
LINE
  5
99
330
A
100
AcDbEntity
  8
0
 62
     7
100
AcDbLine
 10
144.087329
 20
104.778962
 30
0.0
 11
143.152502
 21
104.778962
 31
0.0
  0
LINE
  5
98
330
A
100
AcDbEntity
  8
0
 62
     7
100
AcDbLine
 10
144.087329
 20
104.646498
 30
0.0
 11
144.087329
 21
104.778962
 31
0.0
  0
LINE
  5
97
330
A
100
AcDbEntity
  8
0
 62
     7
100
AcDbLine
 10
143.100998
 20
104.722979
 30
0.0
 11
143.100998
 21
104.781718
 31
0.0
  0
LINE
  5
96
330
A
100
AcDbEntity
  8
0
 62
     7
100
AcDbLine
 10
143.100998
 20
104.614975
 30
0.0
 11
143.100998
 21
104.722979
 31
0.0
  0
LINE
  5
95
330
A
100
AcDbEntity
  8
0
 62
     7
100
AcDbLine
 10
143.100998
 20
103.344941
 30
0.0
 11
143.100998
 21
104.614975
 31
0.0
  0
LINE
  5
94
330
A
100
AcDbEntity
  8
0
 62
     7
100
AcDbLine
 10
143.100998
 20
103.216783
 30
0.0
 11
143.100998
 21
103.344941
 31
0.0
  0
LINE
  5
93
330
A
100
AcDbEntity
  8
0
 62
     7
100
AcDbLine
 10
143.100998
 20
103.102406
 30
0.0
 11
143.100998
 21
103.216783
 31
0.0
  0
LINE
  5
92
330
A
100
AcDbEntity
  8
0
 62
     7
100
AcDbLine
 10
143.100998
 20
102.115042
 30
0.0
 11
143.100998
 21
103.102406
 31
0.0
  0
LINE
  5
91
330
A
100
AcDbEntity
  8
0
 62
     7
100
AcDbLine
 10
143.100998
 20
102.045451
 30
0.0
 11
143.100998
 21
102.115042
 31
0.0
  0
LINE
  5
90
330
A
100
AcDbEntity
  8
0
 62
     7
100
AcDbLine
 10
143.100998
 20
102.03925
 30
0.0
 11
143.100998
 21
102.045451
 31
0.0
  0
LINE
  5
8F
330
A
100
AcDbEntity
  8
0
 62
     7
100
AcDbLine
 10
143.100998
 20
104.781718
 30
0.0
 11
143.100998
 21
105.064044
 31
0.0
  0
LINE
  5
8E
330
A
100
AcDbEntity
  8
0
 62
     7
100
AcDbLine
 10
144.138833
 20
102.045451
 30
0.0
 11
144.138833
 21
102.03925
 31
0.0
  0
LINE
  5
8D
330
A
100
AcDbEntity
  8
0
 62
     7
100
AcDbLine
 10
144.138833
 20
102.115042
 30
0.0
 11
144.138833
 21
102.045451
 31
0.0
  0
LINE
  5
8C
330
A
100
AcDbEntity
  8
0
 62
     7
100
AcDbLine
 10
144.138833
 20
103.102406
 30
0.0
 11
144.138833
 21
102.115042
 31
0.0
  0
LINE
  5
8B
330
A
100
AcDbEntity
  8
0
 62
     7
100
AcDbLine
 10
144.138833
 20
103.216783
 30
0.0
 11
144.138833
 21
103.102406
 31
0.0
  0
LINE
  5
8A
330
A
100
AcDbEntity
  8
0
 62
     7
100
AcDbLine
 10
144.138833
 20
103.344941
 30
0.0
 11
144.138833
 21
103.216783
 31
0.0
  0
LINE
  5
89
330
A
100
AcDbEntity
  8
0
 62
     7
100
AcDbLine
 10
144.138833
 20
104.614975
 30
0.0
 11
144.138833
 21
103.344941
 31
0.0
  0
LINE
  5
88
330
A
100
AcDbEntity
  8
0
 62
     7
100
AcDbLine
 10
144.138833
 20
104.722979
 30
0.0
 11
144.138833
 21
104.614975
 31
0.0
  0
LINE
  5
87
330
A
100
AcDbEntity
  8
0
 62
     7
100
AcDbLine
 10
144.138833
 20
104.781718
 30
0.0
 11
144.138833
 21
104.722979
 31
0.0
  0
LINE
  5
86
330
A
100
AcDbEntity
  8
0
 62
     7
100
AcDbLine
 10
144.138833
 20
105.064044
 30
0.0
 11
144.138833
 21
104.781718
 31
0.0
  0
LINE
  5
85
330
A
100
AcDbEntity
  8
0
 62
     7
100
AcDbLine
 10
144.087329
 20
101.965869
 30
0.0
 11
143.152502
 21
101.965869
 31
0.0
  0
LINE
  5
84
330
A
100
AcDbEntity
  8
0
 62
     7
100
AcDbLine
 10
144.087329
 20
102.058542
 30
0.0
 11
144.087329
 21
103.06072
 31
0.0
  0
LINE
  5
83
330
A
100
AcDbEntity
  8
0
 62
     7
100
AcDbLine
 10
143.152502
 20
103.06072
 30
0.0
 11
143.152502
 21
102.058542
 31
0.0
  0
LINE
  5
82
330
A
100
AcDbEntity
  8
0
 62
     7
100
AcDbLine
 10
144.087329
 20
103.358032
 30
0.0
 11
144.087329
 21
104.646498
 31
0.0
  0
LINE
  5
81
330
A
100
AcDbEntity
  8
0
 62
     7
100
AcDbLine
 10
143.152502
 20
104.646498
 30
0.0
 11
143.152502
 21
103.358032
 31
0.0
  0
LINE
  5
80
330
A
100
AcDbEntity
  8
0
 62
     7
100
AcDbLine
 10
144.087329
 20
104.850964
 30
0.0
 11
144.087329
 21
105.137596
 31
0.0
  0
LINE
  5
7F
330
A
100
AcDbEntity
  8
0
 62
     7
100
AcDbLine
 10
143.152502
 20
105.137596
 30
0.0
 11
143.152502
 21
104.850964
 31
0.0
  0
LINE
  5
7E
330
A
100
AcDbEntity
  8
0
 62
     7
100
AcDbLine
 10
144.087329
 20
105.137596
 30
0.0
 11
143.152502
 21
105.137596
 31
0.0
  0
LINE
  5
7D
330
A
100
AcDbEntity
  8
0
 62
     7
100
AcDbLine
 10
143.071887
 20
102.094371
 30
0.0
 11
143.072232
 21
102.182221
 31
0.0
  0
LINE
  5
7C
330
A
100
AcDbEntity
  8
0
 62
     7
100
AcDbLine
 10
143.071887
 20
102.094371
 30
0.0
 11
143.100998
 21
102.165685
 31
0.0
  0
LINE
  5
7B
330
A
100
AcDbEntity
  8
0
 62
     7
100
AcDbLine
 10
143.002124
 20
102.064743
 30
0.0
 11
143.071887
 21
102.094371
 31
0.0
  0
LINE
  5
7A
330
A
100
AcDbEntity
  8
0
 62
     7
100
AcDbLine
 10
143.072232
 20
102.182221
 30
0.0
 11
143.072748
 21
102.435436
 31
0.0
  0
LINE
  5
79
330
A
100
AcDbEntity
  8
0
 62
     7
100
AcDbLine
 10
143.072748
 20
102.435436
 30
0.0
 11
143.073093
 21
102.823009
 31
0.0
  0
LINE
  5
78
330
A
100
AcDbEntity
  8
0
 62
     7
100
AcDbLine
 10
143.073093
 20
102.823009
 30
0.0
 11
143.073093
 21
103.298777
 31
0.0
  0
LINE
  5
77
330
A
100
AcDbEntity
  8
0
 62
     7
100
AcDbLine
 10
143.073093
 20
103.298777
 30
0.0
 11
143.072921
 21
103.804861
 31
0.0
  0
LINE
  5
76
330
A
100
AcDbEntity
  8
0
 62
     7
100
AcDbLine
 10
143.072921
 20
103.804861
 30
0.0
 11
143.072576
 21
104.280284
 31
0.0
  0
LINE
  5
75
330
A
100
AcDbEntity
  8
0
 62
     7
100
AcDbLine
 10
143.072576
 20
104.280284
 30
0.0
 11
143.072232
 21
104.66803
 31
0.0
  0
LINE
  5
74
330
A
100
AcDbEntity
  8
0
 62
     7
100
AcDbLine
 10
143.072232
 20
104.66803
 30
0.0
 11
143.072059
 21
104.921072
 31
0.0
  0
LINE
  5
73
330
A
100
AcDbEntity
  8
0
 62
     7
100
AcDbLine
 10
143.072059
 20
104.921072
 30
0.0
 11
143.071887
 21
105.008922
 31
0.0
  0
LINE
  5
72
330
A
100
AcDbEntity
  8
0
 62
     7
100
AcDbLine
 10
143.100998
 20
104.937781
 30
0.0
 11
143.071887
 21
105.008922
 31
0.0
  0
LINE
  5
71
330
A
100
AcDbEntity
  8
0
 62
     7
100
AcDbLine
 10
143.071887
 20
105.008922
 30
0.0
 11
143.002124
 21
105.038378
 31
0.0
  0
LINE
  5
70
330
A
100
AcDbEntity
  8
0
 62
     7
100
AcDbLine
 10
138.000018
 20
97.127922
 30
0.0
 11
138.096136
 21
97.000109
 31
0.0
  0
LINE
  5
6F
330
A
100
AcDbEntity
  8
0
 62
     7
100
AcDbLine
 10
142.308626
 20
97.000109
 30
0.0
 11
142.408879
 21
97.09898299999998
 31
0.0
  0
LINE
  5
6E
330
A
100
AcDbEntity
  8
0
 62
     7
100
AcDbLine
 10
142.408879
 20
101.574162
 30
0.0
 11
142.408879
 21
97.09898299999998
 31
0.0
  0
LINE
  5
6D
330
A
100
AcDbEntity
  8
0
 62
     7
100
AcDbLine
 10
142.408879
 20
101.668557
 30
0.0
 11
142.408879
 21
101.574162
 31
0.0
  0
LINE
  5
6C
330
A
100
AcDbEntity
  8
0
 62
     7
100
AcDbLine
 10
142.423003
 20
101.773977
 30
0.0
 11
142.408879
 21
101.668557
 31
0.0
  0
LINE
  5
6B
330
A
100
AcDbEntity
  8
0
 62
     7
100
AcDbLine
 10
142.462967
 20
101.868373
 30
0.0
 11
142.423003
 21
101.773977
 31
0.0
  0
LINE
  5
6A
330
A
100
AcDbEntity
  8
0
 62
     7
100
AcDbLine
 10
142.524806
 20
101.948644
 30
0.0
 11
142.462967
 21
101.868373
 31
0.0
  0
LINE
  5
69
330
A
100
AcDbEntity
  8
0
 62
     7
100
AcDbLine
 10
142.604732
 20
102.010655
 30
0.0
 11
142.524806
 21
101.948644
 31
0.0
  0
LINE
  5
68
330
A
100
AcDbEntity
  8
0
 62
     7
100
AcDbLine
 10
142.6993
 20
102.050618
 30
0.0
 11
142.604732
 21
102.010655
 31
0.0
  0
LINE
  5
67
330
A
100
AcDbEntity
  8
0
 62
     7
100
AcDbLine
 10
142.804376
 20
102.064743
 30
0.0
 11
142.6993
 21
102.050618
 31
0.0
  0
LINE
  5
66
330
A
100
AcDbEntity
  8
0
 62
     7
100
AcDbLine
 10
143.002124
 20
102.064743
 30
0.0
 11
142.804376
 21
102.064743
 31
0.0
  0
LINE
  5
65
330
A
100
AcDbEntity
  8
0
 62
     7
100
AcDbLine
 10
138.000018
 20
97.127922
 30
0.0
 11
139.522405
 21
102.067499
 31
0.0
  0
LINE
  5
64
330
A
100
AcDbEntity
  8
0
 62
     7
100
AcDbLine
 10
139.522405
 20
102.067499
 30
0.0
 11
139.803525
 21
102.816119
 31
0.0
  0
LINE
  5
63
330
A
100
AcDbEntity
  8
0
 62
     7
100
AcDbLine
 10
139.803525
 20
102.816119
 30
0.0
 11
140.095841
 21
103.546823
 31
0.0
  0
LINE
  5
62
330
A
100
AcDbEntity
  8
0
 62
     7
100
AcDbLine
 10
140.095841
 20
103.546823
 30
0.0
 11
140.394014
 21
104.060487
 31
0.0
  0
LINE
  5
61
330
A
100
AcDbEntity
  8
0
 62
     7
100
AcDbLine
 10
140.394014
 20
104.060487
 30
0.0
 11
140.77642
 21
104.513345
 31
0.0
  0
LINE
  5
60
330
A
100
AcDbEntity
  8
0
 62
     7
100
AcDbLine
 10
140.77642
 20
104.513345
 30
0.0
 11
141.226177
 21
104.832361
 31
0.0
  0
LINE
  5
5F
330
A
100
AcDbEntity
  8
0
 62
     7
100
AcDbLine
 10
141.226177
 20
104.832361
 30
0.0
 11
141.559146
 21
104.96672
 31
0.0
  0
LINE
  5
5E
330
A
100
AcDbEntity
  8
0
 62
     7
100
AcDbLine
 10
141.559146
 20
104.96672
 30
0.0
 11
141.928288
 21
105.038378
 31
0.0
  0
LINE
  5
5D
330
A
100
AcDbEntity
  8
0
 62
     7
100
AcDbLine
 10
141.928288
 20
105.038378
 30
0.0
 11
143.002124
 21
105.038378
 31
0.0
  0
LINE
  5
5C
330
A
100
AcDbEntity
  8
0
 62
     7
100
AcDbLine
 10
141.815633
 20
97.000109
 30
0.0
 11
142.181502
 21
97.000109
 31
0.0
  0
LINE
  5
5B
330
A
100
AcDbEntity
  8
0
 62
     7
100
AcDbLine
 10
141.2552879999999
 20
97.000109
 30
0.0
 11
141.815633
 21
97.000109
 31
0.0
  0
LINE
  5
5A
330
A
100
AcDbEntity
  8
0
 62
     7
100
AcDbLine
 10
140.567992
 20
97.000109
 30
0.0
 11
141.2552879999999
 21
97.000109
 31
0.0
  0
LINE
  5
59
330
A
100
AcDbEntity
  8
0
 62
     7
100
AcDbLine
 10
139.83677
 20
97.000109
 30
0.0
 11
140.567992
 21
97.000109
 31
0.0
  0
LINE
  5
58
330
A
100
AcDbEntity
  8
0
 62
     7
100
AcDbLine
 10
139.149818
 20
97.000109
 30
0.0
 11
139.83677
 21
97.000109
 31
0.0
  0
LINE
  5
57
330
A
100
AcDbEntity
  8
0
 62
     7
100
AcDbLine
 10
138.589473
 20
97.000109
 30
0.0
 11
139.149818
 21
97.000109
 31
0.0
  0
LINE
  5
56
330
A
100
AcDbEntity
  8
0
 62
     7
100
AcDbLine
 10
138.22326
 20
97.000109
 30
0.0
 11
138.589473
 21
97.000109
 31
0.0
  0
LINE
  5
55
330
A
100
AcDbEntity
  8
0
 62
     7
100
AcDbLine
 10
138.096136
 20
97.000109
 30
0.0
 11
138.22326
 21
97.000109
 31
0.0
  0
LINE
  5
54
330
A
100
AcDbEntity
  8
0
 62
     7
100
AcDbLine
 10
142.181502
 20
97.000109
 30
0.0
 11
142.308626
 21
97.000109
 31
0.0
  0
LINE
  5
53
330
A
100
AcDbEntity
  8
0
 62
     7
100
AcDbLine
 10
143.100998
 20
104.937781
 30
0.0
 11
143.100998
 21
104.854237
 31
0.0
  0
LINE
  5
52
330
A
100
AcDbEntity
  8
0
 62
     7
100
AcDbLine
 10
143.152502
 20
105.137596
 30
0.0
 11
143.100998
 21
105.064044
 31
0.0
  0
LINE
  5
51
330
A
100
AcDbEntity
  8
0
 62
     7
100
AcDbLine
 10
152.794808
 20
103.290508
 30
0.0
 11
152.687665
 21
102.756174
 31
0.0
  0
LINE
  5
50
330
A
100
AcDbEntity
  8
0
 62
     7
100
AcDbLine
 10
153.521723
 20
103.144092
 30
0.0
 11
153.414581
 21
102.609068
 31
0.0
  0
LINE
  5
4F
330
A
100
AcDbEntity
  8
0
 62
     7
100
AcDbLine
 10
153.158266
 20
103.218506
 30
0.0
 11
153.41527
 21
103.166485
 31
0.0
  0
LINE
  5
4E
330
A
100
AcDbEntity
  8
0
 62
     7
100
AcDbLine
 10
152.901261
 20
103.269838
 30
0.0
 11
153.158266
 21
103.218506
 31
0.0
  0
LINE
  5
4D
330
A
100
AcDbEntity
  8
0
 62
     7
100
AcDbLine
 10
152.794808
 20
103.290508
 30
0.0
 11
152.901261
 21
103.269838
 31
0.0
  0
LINE
  5
4C
330
A
100
AcDbEntity
  8
0
 62
     7
100
AcDbLine
 10
153.41527
 20
103.166485
 30
0.0
 11
153.521723
 21
103.144092
 31
0.0
  0
LINE
  5
4B
330
A
100
AcDbEntity
  8
0
 62
     7
100
AcDbLine
 10
156.813856
 20
98.655132
 30
0.0
 11
156.809378
 21
98.654443
 31
0.0
  0
LINE
  5
4A
330
A
100
AcDbEntity
  8
0
 62
     7
100
AcDbLine
 10
156.809378
 20
98.654443
 30
0.0
 11
156.446954
 21
98.58175200000001
 31
0.0
  0
LINE
  5
49
330
A
100
AcDbEntity
  8
0
 62
     7
100
AcDbLine
 10
157.212109
 20
98.73505899999999
 30
0.0
 11
157.207631
 21
98.734025
 31
0.0
  0
LINE
  5
48
330
A
100
AcDbEntity
  8
0
 62
     7
100
AcDbLine
 10
157.207631
 20
98.734025
 30
0.0
 11
156.816268
 21
98.655477
 31
0.0
  0
LINE
  5
47
330
A
100
AcDbEntity
  8
0
 62
     7
100
AcDbLine
 10
157.610018
 20
98.81464000000001
 30
0.0
 11
157.213143
 21
98.73505899999999
 31
0.0
  0
LINE
  5
46
330
A
100
AcDbEntity
  8
0
 62
     7
100
AcDbLine
 10
157.97761
 20
98.88836500000001
 30
0.0
 11
157.610707
 21
98.81498499999999
 31
0.0
  0
LINE
  5
45
330
A
100
AcDbEntity
  8
0
 62
     7
100
AcDbLine
 10
158.296281
 20
98.95244400000001
 30
0.0
 11
157.981399
 21
98.889399
 31
0.0
  0
LINE
  5
44
330
A
100
AcDbEntity
  8
0
 62
     7
100
AcDbLine
 10
158.298692
 20
98.95313299999999
 30
0.0
 11
158.540538
 21
99.00170899999999
 31
0.0
  0
LINE
  5
43
330
A
100
AcDbEntity
  8
0
 62
     7
100
AcDbLine
 10
158.541916
 20
99.00205300000001
 30
0.0
 11
158.694189
 21
99.03237
 31
0.0
  0
LINE
  5
42
330
A
100
AcDbEntity
  8
0
 62
     7
100
AcDbLine
 10
158.723128
 20
99.038227
 30
0.0
 11
158.746555
 21
99.04305
 31
0.0
  0
LINE
  5
41
330
A
100
AcDbEntity
  8
0
 62
     7
100
AcDbLine
 10
155.880924
 20
98.468408
 30
0.0
 11
155.734163
 21
98.43878000000001
 31
0.0
  0
LINE
  5
40
330
A
100
AcDbEntity
  8
0
 62
     7
100
AcDbLine
 10
152.793774
 20
102.733436
 30
0.0
 11
152.68801
 21
102.75583
 31
0.0
  0
LINE
  5
3F
330
A
100
AcDbEntity
  8
0
 62
     7
100
AcDbLine
 10
152.948115
 20
102.701742
 30
0.0
 11
152.793774
 21
102.733436
 31
0.0
  0
LINE
  5
3E
330
A
100
AcDbEntity
  8
0
 62
     7
100
AcDbLine
 10
153.32742
 20
102.625949
 30
0.0
 11
153.414581
 21
102.609068
 31
0.0
  0
LINE
  5
3D
330
A
100
AcDbEntity
  8
0
 62
     7
100
AcDbLine
 10
153.050779
 20
102.681071
 30
0.0
 11
152.948115
 21
102.701742
 31
0.0
  0
LINE
  5
3C
330
A
100
AcDbEntity
  8
0
 62
     7
100
AcDbLine
 10
153.307783
 20
102.629739
 30
0.0
 11
153.050779
 21
102.681071
 31
0.0
  0
LINE
  5
3B
330
A
100
AcDbEntity
  8
0
 62
     7
100
AcDbLine
 10
153.307783
 20
102.629739
 30
0.0
 11
153.32742
 21
102.625949
 31
0.0
  0
LINE
  5
3A
330
A
100
AcDbEntity
  8
0
 62
     7
100
AcDbLine
 10
151.638634
 20
100.135834
 30
0.0
 11
151.593159
 21
100.115164
 31
0.0
  0
LINE
  5
39
330
A
100
AcDbEntity
  8
0
 62
     7
100
AcDbLine
 10
151.747499
 20
100.147548
 30
0.0
 11
151.638634
 21
100.135834
 31
0.0
  0
LINE
  5
38
330
A
100
AcDbEntity
  8
0
 62
     7
100
AcDbLine
 10
151.593159
 20
100.115164
 30
0.0
 11
151.561464
 21
100.103106
 31
0.0
  0
LINE
  5
37
330
A
100
AcDbEntity
  8
0
 62
     7
100
AcDbLine
 10
152.178825
 20
100.223684
 30
0.0
 11
152.057213
 21
100.20577
 31
0.0
  0
LINE
  5
36
330
A
100
AcDbEntity
  8
0
 62
     7
100
AcDbLine
 10
152.55813
 20
100.22334
 30
0.0
 11
152.178825
 21
100.223684
 31
0.0
  0
LINE
  5
35
330
A
100
AcDbEntity
  8
0
 62
     7
100
AcDbLine
 10
152.6122179999999
 20
100.216105
 30
0.0
 11
152.55813
 21
100.22334
 31
0.0
  0
LINE
  5
34
330
A
100
AcDbEntity
  8
0
 62
     7
100
AcDbLine
 10
151.854641
 20
100.18131
 30
0.0
 11
151.747499
 21
100.147548
 31
0.0
  0
LINE
  5
33
330
A
100
AcDbEntity
  8
0
 62
     7
100
AcDbLine
 10
152.057213
 20
100.20577
 30
0.0
 11
151.854641
 21
100.18131
 31
0.0
  0
LINE
  5
32
330
A
100
AcDbEntity
  8
0
 62
     7
100
AcDbLine
 10
152.83167
 20
100.194746
 30
0.0
 11
152.6122179999999
 21
100.216105
 31
0.0
  0
LINE
  5
31
330
A
100
AcDbEntity
  8
0
 62
     7
100
AcDbLine
 10
153.347401
 20
100.060042
 30
0.0
 11
153.443519
 21
100.041094
 31
0.0
  0
LINE
  5
30
330
A
100
AcDbEntity
  8
0
 62
     7
100
AcDbLine
 10
153.443519
 20
100.041094
 30
0.0
 11
153.473492
 21
100.024558
 31
0.0
  0
LINE
  5
2F
330
A
100
AcDbEntity
  8
0
 62
     7
100
AcDbLine
 10
153.473492
 20
100.024558
 30
0.0
 11
153.511388
 21
100.008021
 31
0.0
  0
LINE
  5
2E
330
A
100
AcDbEntity
  8
0
 62
     7
100
AcDbLine
 10
152.932612
 20
100.18131
 30
0.0
 11
152.83167
 21
100.194746
 31
0.0
  0
LINE
  5
2D
330
A
100
AcDbEntity
  8
0
 62
     7
100
AcDbLine
 10
153.240948
 20
100.103795
 30
0.0
 11
152.932612
 21
100.18131
 31
0.0
  0
LINE
  5
2C
330
A
100
AcDbEntity
  8
0
 62
     7
100
AcDbLine
 10
153.240948
 20
100.103795
 30
0.0
 11
153.268853
 21
100.090359
 31
0.0
  0
LINE
  5
2B
330
A
100
AcDbEntity
  8
0
 62
     7
100
AcDbLine
 10
153.268853
 20
100.090359
 30
0.0
 11
153.347401
 21
100.060042
 31
0.0
  0
LINE
  5
2A
330
A
100
AcDbEntity
  8
0
 62
     7
100
AcDbLine
 10
157.4408639999999
 20
101.102528
 30
0.0
 11
157.916976
 21
100.662934
 31
0.0
  0
LINE
  5
29
330
A
100
AcDbEntity
  8
0
 62
     7
100
AcDbLine
 10
157.961762
 20
100.957145
 30
0.0
 11
157.961762
 21
100.959212
 31
0.0
  0
DIMENSION
  5
339
330
A
100
AcDbEntity
  8
Cotation-JacobDelafon
  6
Continuous
370
     0
100
AcDbDimension
  2
*D1
 10
158.980821
 20
122.4231487067276
 30
0.0
 11
148.4904194999999
 21
124.8292878608886
 31
0.0
 70
    32
  1
21
 71
     5
 42
20.98080300000001
 73
     0
 74
     0
 75
     0
  3
Cotation-Jacob-Delafon
100
AcDbAlignedDimension
 13
138.000018
 23
97.127922
 33
0.0
 14
158.980821
 24
98.88767600000001
 34
0.0
100
AcDbRotatedDimension
  0
DIMENSION
  5
346
330
A
100
AcDbEntity
  8
Cotation-JacobDelafon
  6
Continuous
370
     0
100
AcDbDimension
  2
*D2
 10
128.3206299765997
 20
97.000109
 30
0.0
 11
125.8889110134346
 21
104.99608925
 31
0.0
 70
    32
  1
16
 71
     5
 42
15.99196049999999
 73
     0
 74
     0
 75
     0
  3
Cotation-Jacob-Delafon
100
AcDbAlignedDimension
 13
153.431117
 23
112.9920695
 33
0.0
 14
138.589473
 24
97.000109
 34
0.0
 50
90.0
100
AcDbRotatedDimension
  0
ENDSEC
  0
SECTION
  2
OBJECTS
  0
DICTIONARY
  5
19
330
0
100
AcDbDictionary
281
     1
  3
ACAD_COLOR
350
305
  3
ACAD_GROUP
350
1A
  3
ACAD_LAYOUT
350
1E
  3
ACAD_MATERIAL
350
2DB
  3
ACAD_MLEADERSTYLE
350
31A
  3
ACAD_MLINESTYLE
350
1B
  3
ACAD_PLOTSETTINGS
350
22
  3
ACAD_PLOTSTYLENAME
350
1F
  3
ACAD_SCALELIST
350
308
  3
ACAD_TABLESTYLE
350
306
  3
ACAD_VISUALSTYLE
350
2F4
  3
ACAD_WIPEOUT_VARS
350
23
  3
ACDB_RECOMPOSE_DATA
350
36A
  3
AcDbVariableDictionary
350
36B
  3
AEC_PROPERTY_SET_DEFS
350
32D
  0
DICTIONARY
  5
365
330
14
100
AcDbDictionary
280
     1
281
     1
  3
ADSK_XREC_LAYER_RECONCILED
360
366
  0
DICTIONARY
  5
333
330
332
100
AcDbDictionary
280
     1
281
     1
  3
ADSK_XREC_LAYER_RECONCILED
360
367
  0
DICTIONARY
  5
305
102
{ACAD_REACTORS
330
19
102
}
330
19
100
AcDbDictionary
281
     1
  0
DICTIONARY
  5
1A
102
{ACAD_REACTORS
330
19
102
}
330
19
100
AcDbDictionary
281
     1
  0
DICTIONARY
  5
1E
102
{ACAD_REACTORS
330
19
102
}
330
19
100
AcDbDictionary
281
     1
  3
Layout1
350
21
  3
Model
350
20
  0
DICTIONARY
  5
2DB
102
{ACAD_REACTORS
330
19
102
}
330
19
100
AcDbDictionary
281
     1
  3
ByBlock
350
2E4
  3
ByLayer
350
2DC
  3
Global
350
2EC
  0
DICTIONARY
  5
31A
102
{ACAD_REACTORS
330
19
102
}
330
19
100
AcDbDictionary
281
     1
  3
Standard
350
31B
  0
DICTIONARY
  5
1B
102
{ACAD_REACTORS
330
19
102
}
330
19
100
AcDbDictionary
281
     1
  3
Standard
350
1C
  0
DICTIONARY
  5
22
102
{ACAD_REACTORS
330
19
102
}
330
19
100
AcDbDictionary
281
     1
  0
ACDBDICTIONARYWDFLT
  5
1F
102
{ACAD_REACTORS
330
19
102
}
330
19
100
AcDbDictionary
281
     1
  3
Normal
350
1D
100
AcDbDictionaryWithDefault
340
1D
  0
DICTIONARY
  5
308
102
{ACAD_REACTORS
330
19
102
}
330
19
100
AcDbDictionary
281
     1
  3
A0
350
309
  3
A1
350
30A
  3
A2
350
30B
  3
A3
350
30C
  3
A4
350
30D
  3
A5
350
30E
  3
A6
350
30F
  3
A7
350
310
  3
A8
350
311
  3
A9
350
312
  3
B0
350
313
  3
B1
350
314
  3
B2
350
315
  3
B3
350
316
  3
B4
350
317
  3
B5
350
318
  3
B6
350
319
  0
DICTIONARY
  5
306
102
{ACAD_REACTORS
330
19
102
}
330
19
100
AcDbDictionary
281
     1
  3
Standard
350
307
  0
DICTIONARY
  5
2F4
102
{ACAD_REACTORS
330
19
102
}
330
19
100
AcDbDictionary
281
     1
  3
2dWireframe
350
2FA
  3
3D Hidden
350
2FC
  3
3dWireframe
350
2FB
  3
Basic
350
2F9
  3
Brighten
350
300
  3
ColorChange
350
304
  3
Conceptual
350
2FD
  3
Dim
350
2FF
  3
Facepattern
350
303
  3
Flat
350
2F5
  3
FlatWithEdges
350
2F6
  3
Gouraud
350
2F7
  3
GouraudWithEdges
350
2F8
  3
Linepattern
350
302
  3
Realistic
350
2FE
  3
Thicken
350
301
  0
WIPEOUTVARIABLES
  5
23
330
19
100
AcDbWipeoutVariables
 70
     1
  0
XRECORD
  5
36A
102
{ACAD_REACTORS
330
19
102
}
330
19
100
AcDbXrecord
280
     1
 90
        1
330
307
  0
DICTIONARY
  5
36B
102
{ACAD_REACTORS
330
19
102
}
330
19
100
AcDbDictionary
281
     1
  3
CANNOSCALE
350
36F
  3
CMLEADERSTYLE
350
36D
  3
CTABLESTYLE
350
36C
  3
LAYEREVAL
350
371
  3
LAYERNOTIFY
350
372
  3
LIGHTINGUNITS
350
370
  3
MSLTSCALE
350
36E
  0
DICTIONARY
  5
32D
102
{ACAD_REACTORS
330
19
102
}
330
19
100
AcDbDictionary
281
     1
  0
XRECORD
  5
366
102
{ACAD_REACTORS
330
365
102
}
330
365
100
AcDbXrecord
280
     1
290
     1
  0
XRECORD
  5
367
102
{ACAD_REACTORS
330
333
102
}
330
333
100
AcDbXrecord
280
     1
290
     1
  0
LAYOUT
  5
21
102
{ACAD_REACTORS
330
1E
102
}
330
1E
100
AcDbPlotSettings
  1

  2

  4

  6

 40
0.0
 41
0.0
 42
0.0
 43
0.0
 44
0.0
 45
0.0
 46
0.0
 47
0.0
 48
0.0
 49
0.0
140
0.0
141
0.0
142
1.0
143
1.0
 70
     0
 72
     0
 73
     0
 74
     0
  7

 75
     0
147
1.0
 76
     0
 77
     2
 78
   300
148
0.0
149
0.0
100
AcDbLayout
  1
Layout1
 70
     0
 71
     1
 10
0.0
 20
0.0
 11
12.0
 21
9.0
 12
0.0
 22
0.0
 32
0.0
 14
1.000000000000000E+20
 24
1.000000000000000E+20
 34
1.000000000000000E+20
 15
-1.000000000000000E+20
 25
-1.000000000000000E+20
 35
-1.000000000000000E+20
146
0.0
 13
0.0
 23
0.0
 33
0.0
 16
1.0
 26
0.0
 36
0.0
 17
0.0
 27
1.0
 37
0.0
 76
     0
330
B
  0
LAYOUT
  5
20
102
{ACAD_REACTORS
330
1E
102
}
330
1E
100
AcDbPlotSettings
  1

  2

  4

  6

 40
0.0
 41
0.0
 42
0.0
 43
0.0
 44
0.0
 45
0.0
 46
0.0
 47
0.0
 48
0.0
 49
0.0
140
0.0
141
0.0
142
1.0
143
1.0
 70
  1024
 72
     0
 73
     0
 74
     0
  7

 75
     0
147
1.0
 76
     0
 77
     2
 78
   300
148
0.0
149
0.0
100
AcDbLayout
  1
Model
 70
     0
 71
     0
 10
0.0
 20
0.0
 11
0.0
 21
0.0
 12
0.0
 22
0.0
 32
0.0
 14
0.0
 24
0.0
 34
0.0
 15
0.0
 25
0.0
 35
0.0
146
0.0
 13
0.0
 23
0.0
 33
0.0
 16
0.0
 26
0.0
 36
0.0
 17
0.0
 27
0.0
 37
0.0
 76
     0
330
A
331
15
  0
MATERIAL
  5
2E4
102
{ACAD_XDICTIONARY
360
2E5
102
}
102
{ACAD_REACTORS
330
2DB
102
}
330
2DB
100
AcDbMaterial
  1
ByBlock
 72
     0
 43
0.0208333333333333
 43
0.0
 43
0.0
 43
0.0
 43
0.0
 43
0.0208333333333333
 43
0.0
 43
0.0
 43
0.0
 43
0.0
 43
1.0
 43
0.0
 43
0.0
 43
0.0
 43
0.0
 43
1.0
 77
     0
 47
0.0208333333333333
 47
0.0
 47
0.0
 47
0.0
 47
0.0
 47
0.0208333333333333
 47
0.0
 47
0.0
 47
0.0
 47
0.0
 47
1.0
 47
0.0
 47
0.0
 47
0.0
 47
0.0
 47
1.0
171
     0
 49
0.0208333333333333
 49
0.0
 49
0.0
 49
0.0
 49
0.0
 49
0.0208333333333333
 49
0.0
 49
0.0
 49
0.0
 49
0.0
 49
1.0
 49
0.0
 49
0.0
 49
0.0
 49
0.0
 49
1.0
175
     0
142
0.0208333333333333
142
0.0
142
0.0
142
0.0
142
0.0
142
0.0208333333333333
142
0.0
142
0.0
142
0.0
142
0.0
142
1.0
142
0.0
142
0.0
142
0.0
142
0.0
142
1.0
179
     0
144
0.0208333333333333
144
0.0
144
0.0
144
0.0
144
0.0
144
0.0208333333333333
144
0.0
144
0.0
144
0.0
144
0.0
144
1.0
144
0.0
144
0.0
144
0.0
144
0.0
144
1.0
147
0.0208333333333333
147
0.0
147
0.0
147
0.0
147
0.0
147
0.0208333333333333
147
0.0
147
0.0
147
0.0
147
0.0
147
1.0
147
0.0
147
0.0
147
0.0
147
0.0
147
1.0
  0
MATERIAL
  5
2DC
102
{ACAD_XDICTIONARY
360
2DD
102
}
102
{ACAD_REACTORS
330
2DB
102
}
330
2DB
100
AcDbMaterial
  1
ByLayer
 72
     0
 43
0.0208333333333333
 43
0.0
 43
0.0
 43
0.0
 43
0.0
 43
0.0208333333333333
 43
0.0
 43
0.0
 43
0.0
 43
0.0
 43
1.0
 43
0.0
 43
0.0
 43
0.0
 43
0.0
 43
1.0
 77
     0
 47
0.0208333333333333
 47
0.0
 47
0.0
 47
0.0
 47
0.0
 47
0.0208333333333333
 47
0.0
 47
0.0
 47
0.0
 47
0.0
 47
1.0
 47
0.0
 47
0.0
 47
0.0
 47
0.0
 47
1.0
171
     0
 49
0.0208333333333333
 49
0.0
 49
0.0
 49
0.0
 49
0.0
 49
0.0208333333333333
 49
0.0
 49
0.0
 49
0.0
 49
0.0
 49
1.0
 49
0.0
 49
0.0
 49
0.0
 49
0.0
 49
1.0
175
     0
142
0.0208333333333333
142
0.0
142
0.0
142
0.0
142
0.0
142
0.0208333333333333
142
0.0
142
0.0
142
0.0
142
0.0
142
1.0
142
0.0
142
0.0
142
0.0
142
0.0
142
1.0
179
     0
144
0.0208333333333333
144
0.0
144
0.0
144
0.0
144
0.0
144
0.0208333333333333
144
0.0
144
0.0
144
0.0
144
0.0
144
1.0
144
0.0
144
0.0
144
0.0
144
0.0
144
1.0
147
0.0208333333333333
147
0.0
147
0.0
147
0.0
147
0.0
147
0.0208333333333333
147
0.0
147
0.0
147
0.0
147
0.0
147
1.0
147
0.0
147
0.0
147
0.0
147
0.0
147
1.0
  0
MATERIAL
  5
2EC
102
{ACAD_XDICTIONARY
360
2ED
102
}
102
{ACAD_REACTORS
330
2DB
102
}
330
2DB
100
AcDbMaterial
  1
Global
 72
     0
 43
0.0208333333333333
 43
0.0
 43
0.0
 43
0.0
 43
0.0
 43
0.0208333333333333
 43
0.0
 43
0.0
 43
0.0
 43
0.0
 43
1.0
 43
0.0
 43
0.0
 43
0.0
 43
0.0
 43
1.0
 77
     0
 47
0.0208333333333333
 47
0.0
 47
0.0
 47
0.0
 47
0.0
 47
0.0208333333333333
 47
0.0
 47
0.0
 47
0.0
 47
0.0
 47
1.0
 47
0.0
 47
0.0
 47
0.0
 47
0.0
 47
1.0
171
     0
 49
0.0208333333333333
 49
0.0
 49
0.0
 49
0.0
 49
0.0
 49
0.0208333333333333
 49
0.0
 49
0.0
 49
0.0
 49
0.0
 49
1.0
 49
0.0
 49
0.0
 49
0.0
 49
0.0
 49
1.0
175
     0
142
0.0208333333333333
142
0.0
142
0.0
142
0.0
142
0.0
142
0.0208333333333333
142
0.0
142
0.0
142
0.0
142
0.0
142
1.0
142
0.0
142
0.0
142
0.0
142
0.0
142
1.0
179
     0
144
0.0208333333333333
144
0.0
144
0.0
144
0.0
144
0.0
144
0.0208333333333333
144
0.0
144
0.0
144
0.0
144
0.0
144
1.0
144
0.0
144
0.0
144
0.0
144
0.0
144
1.0
147
0.0208333333333333
147
0.0
147
0.0
147
0.0
147
0.0
147
0.0208333333333333
147
0.0
147
0.0
147
0.0
147
0.0
147
1.0
147
0.0
147
0.0
147
0.0
147
0.0
147
1.0
  0
MLEADERSTYLE
  5
31B
102
{ACAD_REACTORS
330
31A
102
}
330
31A
100
AcDbMLeaderStyle
170
     2
171
     1
172
     0
 90
        2
 40
0.0
 41
0.0
173
     1
 91
-1056964608
340
11
 92
       -2
290
     1
 42
2.0
291
     1
 43
0.36
  3
Standard
 44
4.0
300

342
17
174
     1
178
     6
175
     1
176
     0
 93
-1056964608
 45
4.0
292
     0
297
     0
 46
4.0
 94
-1056964608
 47
1.0
 49
1.0
140
1.0
293
     1
141
0.0
294
     1
177
     0
142
1.0
295
     0
296
     0
143
0.125
1001
ACAD_MLEADERVER
1070
     2
  0
MLINESTYLE
  5
1C
102
{ACAD_REACTORS
330
1B
102
}
330
1B
100
AcDbMlineStyle
  2
STANDARD
 70
     0
  3

 62
     0
 51
90.0
 52
90.0
 71
     2
 49
0.5
 62
   256
  6
BYLAYER
 49
-0.5
 62
   256
  6
BYLAYER
  0
ACDBPLACEHOLDER
  5
1D
102
{ACAD_REACTORS
330
1F
102
}
330
1F
  0
SCALE
  5
309
102
{ACAD_REACTORS
330
308
102
}
330
308
100
AcDbScale
 70
     0
300
1:1
140
1.0
141
1.0
290
     1
  0
SCALE
  5
30A
102
{ACAD_REACTORS
330
308
102
}
330
308
100
AcDbScale
 70
     0
300
1:2
140
1.0
141
2.0
290
     0
  0
SCALE
  5
30B
102
{ACAD_REACTORS
330
308
102
}
330
308
100
AcDbScale
 70
     0
300
1:4
140
1.0
141
4.0
290
     0
  0
SCALE
  5
30C
102
{ACAD_REACTORS
330
308
102
}
330
308
100
AcDbScale
 70
     0
300
1:5
140
1.0
141
5.0
290
     0
  0
SCALE
  5
30D
102
{ACAD_REACTORS
330
308
102
}
330
308
100
AcDbScale
 70
     0
300
1:8
140
1.0
141
8.0
290
     0
  0
SCALE
  5
30E
102
{ACAD_REACTORS
330
308
102
}
330
308
100
AcDbScale
 70
     0
300
1:10
140
1.0
141
10.0
290
     0
  0
SCALE
  5
30F
102
{ACAD_REACTORS
330
308
102
}
330
308
100
AcDbScale
 70
     0
300
1:16
140
1.0
141
16.0
290
     0
  0
SCALE
  5
310
102
{ACAD_REACTORS
330
308
102
}
330
308
100
AcDbScale
 70
     0
300
1:20
140
1.0
141
20.0
290
     0
  0
SCALE
  5
311
102
{ACAD_REACTORS
330
308
102
}
330
308
100
AcDbScale
 70
     0
300
1:30
140
1.0
141
30.0
290
     0
  0
SCALE
  5
312
102
{ACAD_REACTORS
330
308
102
}
330
308
100
AcDbScale
 70
     0
300
1:40
140
1.0
141
40.0
290
     0
  0
SCALE
  5
313
102
{ACAD_REACTORS
330
308
102
}
330
308
100
AcDbScale
 70
     0
300
1:50
140
1.0
141
50.0
290
     0
  0
SCALE
  5
314
102
{ACAD_REACTORS
330
308
102
}
330
308
100
AcDbScale
 70
     0
300
1:100
140
1.0
141
100.0
290
     0
  0
SCALE
  5
315
102
{ACAD_REACTORS
330
308
102
}
330
308
100
AcDbScale
 70
     0
300
2:1
140
2.0
141
1.0
290
     0
  0
SCALE
  5
316
102
{ACAD_REACTORS
330
308
102
}
330
308
100
AcDbScale
 70
     0
300
4:1
140
4.0
141
1.0
290
     0
  0
SCALE
  5
317
102
{ACAD_REACTORS
330
308
102
}
330
308
100
AcDbScale
 70
     0
300
8:1
140
8.0
141
1.0
290
     0
  0
SCALE
  5
318
102
{ACAD_REACTORS
330
308
102
}
330
308
100
AcDbScale
 70
     0
300
10:1
140
10.0
141
1.0
290
     0
  0
SCALE
  5
319
102
{ACAD_REACTORS
330
308
102
}
330
308
100
AcDbScale
 70
     0
300
100:1
140
100.0
141
1.0
290
     0
  0
TABLESTYLE
  5
307
102
{ACAD_XDICTIONARY
360
368
102
}
102
{ACAD_REACTORS
330
306
102
}
330
306
100
AcDbTableStyle
  3
Standard
 70
     0
 71
     0
 40
1.5
 41
1.5
280
     0
281
     0
  7
Standard
140
4.5
170
     2
 62
     0
 63
     7
283
     0
 90
      512
 91
        0
  1

274
    -2
284
     1
 64
     0
275
    -2
285
     1
 65
     0
276
    -2
286
     1
 66
     0
277
    -2
287
     1
 67
     0
278
    -2
288
     1
 68
     0
279
    -2
289
     1
 69
     0
  7
Standard
140
6.0
170
     5
 62
     0
 63
     7
283
     0
 90
      512
 91
        0
  1

274
    -2
284
     1
 64
     0
275
    -2
285
     1
 65
     0
276
    -2
286
     1
 66
     0
277
    -2
287
     1
 67
     0
278
    -2
288
     1
 68
     0
279
    -2
289
     1
 69
     0
  7
Standard
140
4.5
170
     5
 62
     0
 63
     7
283
     0
 90
      512
 91
        0
  1

274
    -2
284
     1
 64
     0
275
    -2
285
     1
 65
     0
276
    -2
286
     1
 66
     0
277
    -2
287
     1
 67
     0
278
    -2
288
     1
 68
     0
279
    -2
289
     1
 69
     0
  0
VISUALSTYLE
  5
2FA
102
{ACAD_REACTORS
330
2F4
102
}
330
2F4
100
AcDbVisualStyle
  2
2dWireframe
 70
     4
 71
     0
 72
     2
 73
     0
 90
        0
 40
-0.6
 41
-30.0
 62
     5
 63
     7
421
 16777215
 74
     1
 91
        4
 64
     7
 65
   257
 75
     1
175
     1
 42
1.0
 92
        0
 66
   257
 43
1.0
 76
     1
 77
     6
 78
     2
 67
     7
 79
     5
170
     0
171
     0
290
     0
174
     0
 93
        1
 44
0.0
173
     0
291
     0
 45
0.0
  0
VISUALSTYLE
  5
2FC
102
{ACAD_REACTORS
330
2F4
102
}
330
2F4
100
AcDbVisualStyle
  2
3D Hidden
 70
     6
 71
     1
 72
     2
 73
     2
 90
        0
 40
-0.6
 41
-30.0
 62
     5
 63
     7
421
 16777215
 74
     2
 91
        2
 64
     7
 65
   257
 75
     2
175
     1
 42
40.0
 92
        0
 66
   257
 43
1.0
 76
     1
 77
     6
 78
     2
 67
     7
 79
     3
170
     0
171
     0
290
     0
174
     0
 93
        1
 44
0.0
173
     0
291
     0
 45
0.0
  0
VISUALSTYLE
  5
2FB
102
{ACAD_REACTORS
330
2F4
102
}
330
2F4
100
AcDbVisualStyle
  2
3dWireframe
 70
     5
 71
     0
 72
     2
 73
     0
 90
        0
 40
-0.6
 41
-30.0
 62
     5
 63
     7
421
 16777215
 74
     1
 91
        4
 64
     7
 65
   257
 75
     1
175
     1
 42
1.0
 92
        0
 66
   257
 43
1.0
 76
     1
 77
     6
 78
     2
 67
     7
 79
     5
170
     0
171
     0
290
     0
174
     0
 93
        1
 44
0.0
173
     0
291
     0
 45
0.0
  0
VISUALSTYLE
  5
2F9
102
{ACAD_REACTORS
330
2F4
102
}
330
2F4
100
AcDbVisualStyle
  2
Basic
 70
     7
 71
     1
 72
     0
 73
     1
 90
        0
 40
-0.6
 41
-30.0
 62
     5
 63
     7
421
 16777215
 74
     0
 91
        4
 64
     7
 65
   257
 75
     1
175
     1
 42
1.0
 92
        8
 66
     7
 43
1.0
 76
     1
 77
     6
 78
     2
 67
     7
 79
     5
170
     0
171
     0
290
     0
174
     0
 93
        1
 44
0.0
173
     0
291
     1
 45
0.0
  0
VISUALSTYLE
  5
300
102
{ACAD_REACTORS
330
2F4
102
}
330
2F4
100
AcDbVisualStyle
  2
Brighten
 70
    12
 71
     2
 72
     2
 73
     0
 90
        0
 40
-0.6
 41
-30.0
 62
     5
 63
     7
421
 16777215
 74
     1
 91
        4
 64
     7
 65
   257
 75
     1
175
     1
 42
1.0
 92
        8
 66
     7
 43
1.0
 76
     1
 77
     6
 78
     2
 67
     7
 79
     5
170
     0
171
     0
290
     0
174
     0
 93
        1
 44
50.0
173
     0
291
     1
 45
0.0
  0
VISUALSTYLE
  5
304
102
{ACAD_REACTORS
330
2F4
102
}
330
2F4
100
AcDbVisualStyle
  2
ColorChange
 70
    16
 71
     2
 72
     2
 73
     3
 90
        0
 40
-0.6
 41
-30.0
 62
     5
 63
     8
421
  8421504
 74
     1
 91
        4
 64
     7
 65
   257
 75
     1
175
     1
 42
1.0
 92
        8
 66
     8
424
  8421504
 43
1.0
 76
     1
 77
     6
 78
     2
 67
     7
 79
     5
170
     0
171
     0
290
     0
174
     0
 93
        1
 44
0.0
173
     0
291
     1
 45
0.0
  0
VISUALSTYLE
  5
2FD
102
{ACAD_REACTORS
330
2F4
102
}
330
2F4
100
AcDbVisualStyle
  2
Conceptual
 70
     9
 71
     3
 72
     2
 73
     0
 90
        0
 40
-0.6
 41
-30.0
 62
     5
 63
     7
421
 16777215
 74
     2
 91
        2
 64
     7
 65
   257
 75
     1
175
     1
 42
40.0
 92
        8
 66
     7
 43
1.0
 76
     1
 77
     6
 78
     2
 67
     7
 79
     3
170
     0
171
     0
290
     0
174
     0
 93
        1
 44
0.0
173
     0
291
     0
 45
0.0
  0
VISUALSTYLE
  5
2FF
102
{ACAD_REACTORS
330
2F4
102
}
330
2F4
100
AcDbVisualStyle
  2
Dim
 70
    11
 71
     2
 72
     2
 73
     0
 90
        0
 40
-0.6
 41
-30.0
 62
     5
 63
     7
421
 16777215
 74
     1
 91
        4
 64
     7
 65
   257
 75
     1
175
     1
 42
1.0
 92
        8
 66
     7
 43
1.0
 76
     1
 77
     6
 78
     2
 67
     7
 79
     5
170
     0
171
     0
290
     0
174
     0
 93
        1
 44
-50.0
173
     0
291
     1
 45
0.0
  0
VISUALSTYLE
  5
303
102
{ACAD_REACTORS
330
2F4
102
}
330
2F4
100
AcDbVisualStyle
  2
Facepattern
 70
    15
 71
     2
 72
     2
 73
     0
 90
        0
 40
-0.6
 41
-30.0
 62
     5
 63
     7
421
 16777215
 74
     1
 91
        4
 64
     7
 65
   257
 75
     1
175
     1
 42
1.0
 92
        8
 66
     7
 43
1.0
 76
     1
 77
     6
 78
     2
 67
     7
 79
     5
170
     0
171
     0
290
     0
174
     0
 93
        1
 44
0.0
173
     0
291
     1
 45
0.0
  0
VISUALSTYLE
  5
2F5
102
{ACAD_REACTORS
330
2F4
102
}
330
2F4
100
AcDbVisualStyle
  2
Flat
 70
     0
 71
     2
 72
     1
 73
     1
 90
        2
 40
-0.6
 41
30.0
 62
     5
 63
     7
421
 16777215
 74
     0
 91
        4
 64
     7
 65
   257
 75
     1
175
     1
 42
1.0
 92
        8
 66
     7
 43
1.0
 76
     1
 77
     6
 78
     2
 67
     7
 79
     5
170
     0
171
     0
290
     0
174
     0
 93
       13
 44
0.0
173
     0
291
     1
 45
0.0
  0
VISUALSTYLE
  5
2F6
102
{ACAD_REACTORS
330
2F4
102
}
330
2F4
100
AcDbVisualStyle
  2
FlatWithEdges
 70
     1
 71
     2
 72
     1
 73
     1
 90
        2
 40
-0.6
 41
30.0
 62
     5
 63
     7
421
 16777215
 74
     1
 91
        4
 64
     7
 65
   257
 75
     1
175
     1
 42
1.0
 92
        0
 66
   257
 43
1.0
 76
     1
 77
     6
 78
     2
 67
     7
 79
     5
170
     0
171
     0
290
     0
174
     0
 93
       13
 44
0.0
173
     0
291
     1
 45
0.0
  0
VISUALSTYLE
  5
2F7
102
{ACAD_REACTORS
330
2F4
102
}
330
2F4
100
AcDbVisualStyle
  2
Gouraud
 70
     2
 71
     2
 72
     2
 73
     1
 90
        2
 40
-0.6
 41
30.0
 62
     5
 63
     7
421
 16777215
 74
     0
 91
        4
 64
     7
 65
   257
 75
     1
175
     1
 42
1.0
 92
        0
 66
     7
 43
1.0
 76
     1
 77
     6
 78
     2
 67
     7
 79
     5
170
     0
171
     0
290
     0
174
     0
 93
       13
 44
0.0
173
     0
291
     1
 45
0.0
  0
VISUALSTYLE
  5
2F8
102
{ACAD_REACTORS
330
2F4
102
}
330
2F4
100
AcDbVisualStyle
  2
GouraudWithEdges
 70
     3
 71
     2
 72
     2
 73
     1
 90
        2
 40
-0.6
 41
30.0
 62
     5
 63
     7
421
 16777215
 74
     1
 91
        4
 64
     7
 65
   257
 75
     1
175
     1
 42
1.0
 92
        0
 66
   257
 43
1.0
 76
     1
 77
     6
 78
     2
 67
     7
 79
     5
170
     0
171
     0
290
     0
174
     0
 93
       13
 44
0.0
173
     0
291
     1
 45
0.0
  0
VISUALSTYLE
  5
302
102
{ACAD_REACTORS
330
2F4
102
}
330
2F4
100
AcDbVisualStyle
  2
Linepattern
 70
    14
 71
     2
 72
     2
 73
     0
 90
        0
 40
-0.6
 41
-30.0
 62
     5
 63
     7
421
 16777215
 74
     1
 91
        4
 64
     7
 65
   257
 75
     7
175
     7
 42
1.0
 92
        8
 66
     7
 43
1.0
 76
     1
 77
     6
 78
     2
 67
     7
 79
     5
170
     0
171
     0
290
     0
174
     0
 93
        1
 44
0.0
173
     0
291
     1
 45
0.0
  0
VISUALSTYLE
  5
2FE
102
{ACAD_REACTORS
330
2F4
102
}
330
2F4
100
AcDbVisualStyle
  2
Realistic
 70
     8
 71
     2
 72
     2
 73
     0
 90
        0
 40
-0.6
 41
-30.0
 62
     5
 63
     7
421
 16777215
 74
     1
 91
        0
 64
     7
 65
   257
 75
     1
175
     1
 42
1.0
 92
        8
 66
     8
424
  7895160
 43
1.0
 76
     1
 77
     6
 78
     2
 67
     7
 79
     5
170
     0
171
     0
290
     0
174
     0
 93
       13
 44
0.0
173
     0
291
     0
 45
0.0
  0
VISUALSTYLE
  5
301
102
{ACAD_REACTORS
330
2F4
102
}
330
2F4
100
AcDbVisualStyle
  2
Thicken
 70
    13
 71
     2
 72
     2
 73
     0
 90
        0
 40
-0.6
 41
-30.0
 62
     5
 63
     7
421
 16777215
 74
     1
 91
        4
 64
     7
 65
   257
 75
     1
175
     1
 42
1.0
 92
       12
 66
     7
 43
1.0
 76
     1
 77
     6
 78
     2
 67
     7
 79
     5
170
     0
171
     0
290
     0
174
     0
 93
        1
 44
0.0
173
     0
291
     1
 45
0.0
  0
DICTIONARYVAR
  5
36F
102
{ACAD_REACTORS
330
36B
102
}
330
36B
100
DictionaryVariables
280
     0
  1
1:1
  0
DICTIONARYVAR
  5
36D
102
{ACAD_REACTORS
330
36B
102
}
330
36B
100
DictionaryVariables
280
     0
  1
STANDARD
  0
DICTIONARYVAR
  5
36C
102
{ACAD_REACTORS
330
36B
102
}
330
36B
100
DictionaryVariables
280
     0
  1
STANDARD
  0
DICTIONARYVAR
  5
371
102
{ACAD_REACTORS
330
36B
102
}
330
36B
100
DictionaryVariables
280
     0
  1
1
  0
DICTIONARYVAR
  5
372
102
{ACAD_REACTORS
330
36B
102
}
330
36B
100
DictionaryVariables
280
     0
  1
15
  0
DICTIONARYVAR
  5
370
102
{ACAD_REACTORS
330
36B
102
}
330
36B
100
DictionaryVariables
280
     0
  1
0
  0
DICTIONARYVAR
  5
36E
102
{ACAD_REACTORS
330
36B
102
}
330
36B
100
DictionaryVariables
280
     0
  1
0
  0
DICTIONARY
  5
2E5
330
2E4
100
AcDbDictionary
280
     1
281
     1
  3
BUMPTILE
360
2E7
  3
DIFFUSETILE
360
2E6
  3
OPACITYTILE
360
2EA
  3
REFLECTIONTILE
360
2E9
  3
REFRACTIONTILE
360
2EB
  3
SPECULARTILE
360
2E8
  0
DICTIONARY
  5
2DD
330
2DC
100
AcDbDictionary
280
     1
281
     1
  3
BUMPTILE
360
2DF
  3
DIFFUSETILE
360
2DE
  3
OPACITYTILE
360
2E2
  3
REFLECTIONTILE
360
2E1
  3
REFRACTIONTILE
360
2E3
  3
SPECULARTILE
360
2E0
  0
DICTIONARY
  5
2ED
330
2EC
100
AcDbDictionary
280
     1
281
     1
  3
BUMPTILE
360
2EF
  3
DIFFUSETILE
360
2EE
  3
OPACITYTILE
360
2F2
  3
REFLECTIONTILE
360
2F1
  3
REFRACTIONTILE
360
2F3
  3
SPECULARTILE
360
2F0
  0
DICTIONARY
  5
368
330
307
100
AcDbDictionary
280
     1
281
     1
  3
ACAD_ROUNDTRIP_2008_TABLESTYLE_CELLSTYLEMAP
360
37A
  0
XRECORD
  5
2E7
102
{ACAD_REACTORS
330
2E5
102
}
330
2E5
100
AcDbXrecord
280
     1
270
     1
271
     1
  0
XRECORD
  5
2E6
102
{ACAD_REACTORS
330
2E5
102
}
330
2E5
100
AcDbXrecord
280
     1
270
     1
271
     1
  0
XRECORD
  5
2EA
102
{ACAD_REACTORS
330
2E5
102
}
330
2E5
100
AcDbXrecord
280
     1
270
     1
271
     1
  0
XRECORD
  5
2E9
102
{ACAD_REACTORS
330
2E5
102
}
330
2E5
100
AcDbXrecord
280
     1
270
     1
271
     1
  0
XRECORD
  5
2EB
102
{ACAD_REACTORS
330
2E5
102
}
330
2E5
100
AcDbXrecord
280
     1
270
     1
271
     1
  0
XRECORD
  5
2E8
102
{ACAD_REACTORS
330
2E5
102
}
330
2E5
100
AcDbXrecord
280
     1
270
     1
271
     1
  0
XRECORD
  5
2DF
102
{ACAD_REACTORS
330
2DD
102
}
330
2DD
100
AcDbXrecord
280
     1
270
     1
271
     1
  0
XRECORD
  5
2DE
102
{ACAD_REACTORS
330
2DD
102
}
330
2DD
100
AcDbXrecord
280
     1
270
     1
271
     1
  0
XRECORD
  5
2E2
102
{ACAD_REACTORS
330
2DD
102
}
330
2DD
100
AcDbXrecord
280
     1
270
     1
271
     1
  0
XRECORD
  5
2E1
102
{ACAD_REACTORS
330
2DD
102
}
330
2DD
100
AcDbXrecord
280
     1
270
     1
271
     1
  0
XRECORD
  5
2E3
102
{ACAD_REACTORS
330
2DD
102
}
330
2DD
100
AcDbXrecord
280
     1
270
     1
271
     1
  0
XRECORD
  5
2E0
102
{ACAD_REACTORS
330
2DD
102
}
330
2DD
100
AcDbXrecord
280
     1
270
     1
271
     1
  0
XRECORD
  5
2EF
102
{ACAD_REACTORS
330
2ED
102
}
330
2ED
100
AcDbXrecord
280
     1
270
     1
271
     1
  0
XRECORD
  5
2EE
102
{ACAD_REACTORS
330
2ED
102
}
330
2ED
100
AcDbXrecord
280
     1
270
     1
271
     1
  0
XRECORD
  5
2F2
102
{ACAD_REACTORS
330
2ED
102
}
330
2ED
100
AcDbXrecord
280
     1
270
     1
271
     1
  0
XRECORD
  5
2F1
102
{ACAD_REACTORS
330
2ED
102
}
330
2ED
100
AcDbXrecord
280
     1
270
     1
271
     1
  0
XRECORD
  5
2F3
102
{ACAD_REACTORS
330
2ED
102
}
330
2ED
100
AcDbXrecord
280
     1
270
     1
271
     1
  0
XRECORD
  5
2F0
102
{ACAD_REACTORS
330
2ED
102
}
330
2ED
100
AcDbXrecord
280
     1
270
     1
271
     1
  0
CELLSTYLEMAP
  5
37A
102
{ACAD_REACTORS
330
368
102
}
330
368
100
AcDbCellStyleMap
 90
        3
300
CELLSTYLE
  1
TABLEFORMAT_BEGIN
 90
        5
170
     1
 91
        0
 92
    32768
 62
   257
 93
        1
300
CONTENTFORMAT
  1
CONTENTFORMAT_BEGIN
 90
        0
 91
        0
 92
      512
 93
        0
300

 40
0.0
140
1.0
 94
        5
 62
     0
340
17
144
6.0
309
CONTENTFORMAT_END
171
     1
301
MARGIN
  1
CELLMARGIN_BEGIN
 40
1.5
 40
1.5
 40
1.5
 40
1.5
 40
4.5
 40
4.5
309
CELLMARGIN_END
 94
        6
 95
        1
302
GRIDFORMAT
  1
GRIDFORMAT_BEGIN
 90
        0
 91
        1
 62
     0
 92
       -2
340
0
 93
        0
 40
1.125
309
GRIDFORMAT_END
 95
        2
302
GRIDFORMAT
  1
GRIDFORMAT_BEGIN
 90
        0
 91
        1
 62
     0
 92
       -2
340
0
 93
        0
 40
1.125
309
GRIDFORMAT_END
 95
        4
302
GRIDFORMAT
  1
GRIDFORMAT_BEGIN
 90
        0
 91
        1
 62
     0
 92
       -2
340
0
 93
        0
 40
1.125
309
GRIDFORMAT_END
 95
        8
302
GRIDFORMAT
  1
GRIDFORMAT_BEGIN
 90
        0
 91
        1
 62
     0
 92
       -2
340
0
 93
        0
 40
1.125
309
GRIDFORMAT_END
 95
       16
302
GRIDFORMAT
  1
GRIDFORMAT_BEGIN
 90
        0
 91
        1
 62
     0
 92
       -2
340
0
 93
        0
 40
1.125
309
GRIDFORMAT_END
 95
       32
302
GRIDFORMAT
  1
GRIDFORMAT_BEGIN
 90
        0
 91
        1
 62
     0
 92
       -2
340
0
 93
        0
 40
1.125
309
GRIDFORMAT_END
309
TABLEFORMAT_END
  1
CELLSTYLE_BEGIN
 90
        1
 91
        1
300
_TITLE
309
CELLSTYLE_END
300
CELLSTYLE
  1
TABLEFORMAT_BEGIN
 90
        5
170
     1
 91
        0
 92
        0
 62
   257
 93
        1
300
CONTENTFORMAT
  1
CONTENTFORMAT_BEGIN
 90
        0
 91
        0
 92
      512
 93
        0
300

 40
0.0
140
1.0
 94
        5
 62
     0
340
17
144
4.5
309
CONTENTFORMAT_END
171
     1
301
MARGIN
  1
CELLMARGIN_BEGIN
 40
1.5
 40
1.5
 40
1.5
 40
1.5
 40
4.5
 40
4.5
309
CELLMARGIN_END
 94
        6
 95
        1
302
GRIDFORMAT
  1
GRIDFORMAT_BEGIN
 90
        0
 91
        1
 62
     0
 92
       -2
340
0
 93
        0
 40
1.125
309
GRIDFORMAT_END
 95
        2
302
GRIDFORMAT
  1
GRIDFORMAT_BEGIN
 90
        0
 91
        1
 62
     0
 92
       -2
340
0
 93
        0
 40
1.125
309
GRIDFORMAT_END
 95
        4
302
GRIDFORMAT
  1
GRIDFORMAT_BEGIN
 90
        0
 91
        1
 62
     0
 92
       -2
340
0
 93
        0
 40
1.125
309
GRIDFORMAT_END
 95
        8
302
GRIDFORMAT
  1
GRIDFORMAT_BEGIN
 90
        0
 91
        1
 62
     0
 92
       -2
340
0
 93
        0
 40
1.125
309
GRIDFORMAT_END
 95
       16
302
GRIDFORMAT
  1
GRIDFORMAT_BEGIN
 90
        0
 91
        1
 62
     0
 92
       -2
340
0
 93
        0
 40
1.125
309
GRIDFORMAT_END
 95
       32
302
GRIDFORMAT
  1
GRIDFORMAT_BEGIN
 90
        0
 91
        1
 62
     0
 92
       -2
340
0
 93
        0
 40
1.125
309
GRIDFORMAT_END
309
TABLEFORMAT_END
  1
CELLSTYLE_BEGIN
 90
        2
 91
        1
300
_HEADER
309
CELLSTYLE_END
300
CELLSTYLE
  1
TABLEFORMAT_BEGIN
 90
        5
170
     1
 91
        0
 92
        0
 62
   257
 93
        1
300
CONTENTFORMAT
  1
CONTENTFORMAT_BEGIN
 90
        0
 91
        0
 92
      512
 93
        0
300

 40
0.0
140
1.0
 94
        2
 62
     0
340
17
144
4.5
309
CONTENTFORMAT_END
171
     1
301
MARGIN
  1
CELLMARGIN_BEGIN
 40
1.5
 40
1.5
 40
1.5
 40
1.5
 40
4.5
 40
4.5
309
CELLMARGIN_END
 94
        6
 95
        1
302
GRIDFORMAT
  1
GRIDFORMAT_BEGIN
 90
        0
 91
        1
 62
     0
 92
       -2
340
0
 93
        0
 40
1.125
309
GRIDFORMAT_END
 95
        2
302
GRIDFORMAT
  1
GRIDFORMAT_BEGIN
 90
        0
 91
        1
 62
     0
 92
       -2
340
0
 93
        0
 40
1.125
309
GRIDFORMAT_END
 95
        4
302
GRIDFORMAT
  1
GRIDFORMAT_BEGIN
 90
        0
 91
        1
 62
     0
 92
       -2
340
0
 93
        0
 40
1.125
309
GRIDFORMAT_END
 95
        8
302
GRIDFORMAT
  1
GRIDFORMAT_BEGIN
 90
        0
 91
        1
 62
     0
 92
       -2
340
0
 93
        0
 40
1.125
309
GRIDFORMAT_END
 95
       16
302
GRIDFORMAT
  1
GRIDFORMAT_BEGIN
 90
        0
 91
        1
 62
     0
 92
       -2
340
0
 93
        0
 40
1.125
309
GRIDFORMAT_END
 95
       32
302
GRIDFORMAT
  1
GRIDFORMAT_BEGIN
 90
        0
 91
        1
 62
     0
 92
       -2
340
0
 93
        0
 40
1.125
309
GRIDFORMAT_END
309
TABLEFORMAT_END
  1
CELLSTYLE_BEGIN
 90
        3
 91
        2
300
_DATA
309
CELLSTYLE_END
  0
ENDSEC
  0
EOF
