  0
SECTION
  2
HEADER
  9
$ACADVER
  1
AC1021
  9
$ACADMAINTVER
 70
    50
  9
$DWGCODEPAGE
  3
ANSI_1252
  9
$LASTSAVEDBY
  1
François
  9
$INSBASE
 10
186.2153349999999
 20
117.097245
 30
0.0
  9
$EXTMIN
 10
174.6621567122951
 20
112.697372
 30
0.0
  9
$EXTMAX
 10
205.006749
 20
132.9536872414591
 30
0.0
  9
$LIMMIN
 10
168.919922
 20
97.89548899999999
  9
$LIMMAX
 10
190.797312
 20
130.979085
  9
$ORTHOMODE
 70
     0
  9
$REGENMODE
 70
     1
  9
$FILLMODE
 70
     1
  9
$QTEXTMODE
 70
     0
  9
$MIRRTEXT
 70
     1
  9
$LTSCALE
 40
1.0
  9
$ATTMODE
 70
     1
  9
$TEXTSIZE
 40
0.0
  9
$TRACEWID
 40
0.05
  9
$TEXTSTYLE
  7
Standard
  9
$CLAYER
  8
Cotation-JacobDelafon
  9
$CELTYPE
  6
Continuous
  9
$CECOLOR
 62
   256
  9
$CELTSCALE
 40
1.0
  9
$DISPSILH
 70
     0
  9
$DIMSCALE
 40
1.0
  9
$DIMASZ
 40
1.8
  9
$DIMEXO
 40
0.625
  9
$DIMDLI
 40
3.799999999999999
  9
$DIMRND
 40
0.0
  9
$DIMDLE
 40
0.0
  9
$DIMEXE
 40
1.8
  9
$DIMTP
 40
0.0
  9
$DIMTM
 40
0.0
  9
$DIMTXT
 40
3.0
  9
$DIMCEN
 40
0.9
  9
$DIMTSZ
 40
0.0
  9
$DIMTOL
 70
     0
  9
$DIMLIM
 70
     0
  9
$DIMTIH
 70
     0
  9
$DIMTOH
 70
     0
  9
$DIMSE1
 70
     0
  9
$DIMSE2
 70
     0
  9
$DIMTAD
 70
     1
  9
$DIMZIN
 70
    12
  9
$DIMBLK
  1
Oblique
  9
$DIMASO
 70
     1
  9
$DIMSHO
 70
     1
  9
$DIMPOST
  1

  9
$DIMAPOST
  1

  9
$DIMALT
 70
     0
  9
$DIMALTD
 70
     2
  9
$DIMALTF
 40
25.4
  9
$DIMLFAC
 40
1.0
  9
$DIMTOFL
 70
     0
  9
$DIMTVP
 40
0.0
  9
$DIMTIX
 70
     0
  9
$DIMSOXD
 70
     0
  9
$DIMSAH
 70
     0
  9
$DIMBLK1
  1

  9
$DIMBLK2
  1

  9
$DIMSTYLE
  2
Cotation-Jacob-Delafon
  9
$DIMCLRD
 70
     0
  9
$DIMCLRE
 70
     0
  9
$DIMCLRT
 70
     0
  9
$DIMTFAC
 40
1.0
  9
$DIMGAP
 40
0.9
  9
$DIMJUST
 70
     0
  9
$DIMSD1
 70
     0
  9
$DIMSD2
 70
     0
  9
$DIMTOLJ
 70
     1
  9
$DIMTZIN
 70
     0
  9
$DIMALTZ
 70
     0
  9
$DIMALTTZ
 70
     0
  9
$DIMUPT
 70
     0
  9
$DIMDEC
 70
     2
  9
$DIMTDEC
 70
     2
  9
$DIMALTU
 70
     2
  9
$DIMALTTD
 70
     2
  9
$DIMTXSTY
  7
Jacob-Delafon
  9
$DIMAUNIT
 70
     0
  9
$DIMADEC
 70
     0
  9
$DIMALTRND
 40
0.0
  9
$DIMAZIN
 70
     3
  9
$DIMDSEP
 70
    46
  9
$DIMATFIT
 70
     3
  9
$DIMFRAC
 70
     0
  9
$DIMLDRBLK
  1
Oblique
  9
$DIMLUNIT
 70
     2
  9
$DIMLWD
 70
    -2
  9
$DIMLWE
 70
    -2
  9
$DIMTMOVE
 70
     2
  9
$DIMFXL
 40
1.0
  9
$DIMFXLON
 70
     0
  9
$DIMJOGANG
 40
0.7853981633974483
  9
$DIMTFILL
 70
     0
  9
$DIMTFILLCLR
 70
     0
  9
$DIMARCSYM
 70
     0
  9
$DIMLTYPE
  6

  9
$DIMLTEX1
  6

  9
$DIMLTEX2
  6

  9
$LUNITS
 70
     2
  9
$LUPREC
 70
     4
  9
$SKETCHINC
 40
0.1
  9
$FILLETRAD
 40
0.0
  9
$AUNITS
 70
     0
  9
$AUPREC
 70
     0
  9
$MENU
  1
acad
  9
$ELEVATION
 40
0.0
  9
$PELEVATION
 40
0.0
  9
$THICKNESS
 40
0.0
  9
$LIMCHECK
 70
     0
  9
$CHAMFERA
 40
0.0
  9
$CHAMFERB
 40
0.0
  9
$CHAMFERC
 40
0.0
  9
$CHAMFERD
 40
0.0
  9
$SKPOLY
 70
     0
  9
$TDCREATE
 40
2454948.862298900
  9
$TDUCREATE
 40
2454948.778965567
  9
$TDUPDATE
 40
2455006.677616644
  9
$TDUUPDATE
 40
2455006.594283311
  9
$TDINDWG
 40
0.0117408218
  9
$TDUSRTIMER
 40
0.0117408218
  9
$USRTIMER
 70
     1
  9
$ANGBASE
 50
0.0
  9
$ANGDIR
 70
     0
  9
$PDMODE
 70
     0
  9
$PDSIZE
 40
0.0
  9
$PLINEWID
 40
0.0
  9
$SPLFRAME
 70
     0
  9
$SPLINETYPE
 70
     6
  9
$SPLINESEGS
 70
     8
  9
$HANDSEED
  5
3DD
  9
$SURFTAB1
 70
     6
  9
$SURFTAB2
 70
     6
  9
$SURFTYPE
 70
     6
  9
$SURFU
 70
     6
  9
$SURFV
 70
     6
  9
$UCSBASE
  2

  9
$UCSNAME
  2

  9
$UCSORG
 10
0.0
 20
0.0
 30
0.0
  9
$UCSXDIR
 10
1.0
 20
0.0
 30
0.0
  9
$UCSYDIR
 10
0.0
 20
1.0
 30
0.0
  9
$UCSORTHOREF
  2

  9
$UCSORTHOVIEW
 70
     0
  9
$UCSORGTOP
 10
0.0
 20
0.0
 30
0.0
  9
$UCSORGBOTTOM
 10
0.0
 20
0.0
 30
0.0
  9
$UCSORGLEFT
 10
0.0
 20
0.0
 30
0.0
  9
$UCSORGRIGHT
 10
0.0
 20
0.0
 30
0.0
  9
$UCSORGFRONT
 10
0.0
 20
0.0
 30
0.0
  9
$UCSORGBACK
 10
0.0
 20
0.0
 30
0.0
  9
$PUCSBASE
  2

  9
$PUCSNAME
  2

  9
$PUCSORG
 10
0.0
 20
0.0
 30
0.0
  9
$PUCSXDIR
 10
1.0
 20
0.0
 30
0.0
  9
$PUCSYDIR
 10
0.0
 20
1.0
 30
0.0
  9
$PUCSORTHOREF
  2

  9
$PUCSORTHOVIEW
 70
     0
  9
$PUCSORGTOP
 10
0.0
 20
0.0
 30
0.0
  9
$PUCSORGBOTTOM
 10
0.0
 20
0.0
 30
0.0
  9
$PUCSORGLEFT
 10
0.0
 20
0.0
 30
0.0
  9
$PUCSORGRIGHT
 10
0.0
 20
0.0
 30
0.0
  9
$PUCSORGFRONT
 10
0.0
 20
0.0
 30
0.0
  9
$PUCSORGBACK
 10
0.0
 20
0.0
 30
0.0
  9
$USERI1
 70
     0
  9
$USERI2
 70
     0
  9
$USERI3
 70
     0
  9
$USERI4
 70
     0
  9
$USERI5
 70
     0
  9
$USERR1
 40
0.0
  9
$USERR2
 40
0.0
  9
$USERR3
 40
0.0
  9
$USERR4
 40
0.0
  9
$USERR5
 40
0.0
  9
$WORLDVIEW
 70
     1
  9
$SHADEDGE
 70
     3
  9
$SHADEDIF
 70
    70
  9
$TILEMODE
 70
     1
  9
$MAXACTVP
 70
    16
  9
$PINSBASE
 10
0.0
 20
0.0
 30
0.0
  9
$PLIMCHECK
 70
     0
  9
$PEXTMIN
 10
1.000000000000000E+20
 20
1.000000000000000E+20
 30
1.000000000000000E+20
  9
$PEXTMAX
 10
-1.000000000000000E+20
 20
-1.000000000000000E+20
 30
-1.000000000000000E+20
  9
$PLIMMIN
 10
0.0
 20
0.0
  9
$PLIMMAX
 10
12.0
 20
9.0
  9
$UNITMODE
 70
     0
  9
$VISRETAIN
 70
     0
  9
$PLINEGEN
 70
     1
  9
$PSLTSCALE
 70
     0
  9
$TREEDEPTH
 70
  3020
  9
$CMLSTYLE
  2
Standard
  9
$CMLJUST
 70
     0
  9
$CMLSCALE
 40
1.0
  9
$PROXYGRAPHICS
 70
     0
  9
$MEASUREMENT
 70
     1
  9
$CELWEIGHT
370
     0
  9
$ENDCAPS
280
     0
  9
$JOINSTYLE
280
     0
  9
$LWDISPLAY
290
     0
  9
$INSUNITS
 70
     0
  9
$HYPERLINKBASE
  1

  9
$STYLESHEET
  1

  9
$XEDIT
290
     1
  9
$CEPSNTYPE
380
     0
  9
$PSTYLEMODE
290
     1
  9
$FINGERPRINTGUID
  2

  9
$VERSIONGUID
  2
{480992A4-48C5-41DE-BAD9-F00D614817E2}
  9
$EXTNAMES
290
     1
  9
$PSVPSCALE
 40
0.0
  9
$OLESTARTUP
290
     0
  9
$SORTENTS
280
   127
  9
$INDEXCTL
280
     0
  9
$HIDETEXT
280
     0
  9
$XCLIPFRAME
290
     0
  9
$HALOGAP
280
     0
  9
$OBSCOLOR
 70
   257
  9
$OBSLTYPE
280
     0
  9
$INTERSECTIONDISPLAY
280
     0
  9
$INTERSECTIONCOLOR
 70
   257
  9
$DIMASSOC
280
     1
  9
$PROJECTNAME
  1

  9
$CAMERADISPLAY
290
     0
  9
$LENSLENGTH
 40
50.0
  9
$CAMERAHEIGHT
 40
0.0
  9
$STEPSPERSEC
 40
2.0
  9
$STEPSIZE
 40
6.0
  9
$3DDWFPREC
 40
2.0
  9
$PSOLWIDTH
 40
0.25
  9
$PSOLHEIGHT
 40
4.0
  9
$LOFTANG1
 40
1.570796326794896
  9
$LOFTANG2
 40
1.570796326794896
  9
$LOFTMAG1
 40
0.0
  9
$LOFTMAG2
 40
0.0
  9
$LOFTPARAM
 70
     7
  9
$LOFTNORMALS
280
     1
  9
$LATITUDE
 40
37.795
  9
$LONGITUDE
 40
-122.394
  9
$NORTHDIRECTION
 40
0.0
  9
$TIMEZONE
 70
 -8000
  9
$LIGHTGLYPHDISPLAY
280
     1
  9
$TILEMODELIGHTSYNCH
280
     1
  9
$CMATERIAL
347
131
  9
$SOLIDHIST
280
     1
  9
$SHOWHIST
280
     1
  9
$DWFFRAME
280
     2
  9
$DGNFRAME
280
     0
  9
$REALWORLDSCALE
290
     1
  9
$INTERFERECOLOR
 62
     1
  9
$INTERFEREOBJVS
345
153
  9
$INTERFEREVPVS
346
150
  9
$CSHADOW
280
     0
  9
$SHADOWPLANELOCATION
 40
0.0
  0
ENDSEC
  0
SECTION
  2
CLASSES
  0
CLASS
  1
IMAGE
  2
AcDbRasterImage
  3
ISM
 90
     2175
 91
        0
280
     0
281
     1
  0
CLASS
  1
DICTIONARYVAR
  2
AcDbDictionaryVar
  3
ObjectDBX Classes
 90
        0
 91
        7
280
     0
281
     0
  0
CLASS
  1
RASTERVARIABLES
  2
AcDbRasterVariables
  3
ISM
 90
        0
 91
        0
280
     0
281
     0
  0
CLASS
  1
IMAGEDEF
  2
AcDbRasterImageDef
  3
ISM
 90
        0
 91
        0
280
     0
281
     0
  0
CLASS
  1
IMAGEDEF_REACTOR
  2
AcDbRasterImageDefReactor
  3
ISM
 90
        1
 91
        0
280
     0
281
     0
  0
CLASS
  1
IDBUFFER
  2
AcDbIdBuffer
  3
ObjectDBX Classes
 90
        0
 91
        0
280
     0
281
     0
  0
CLASS
  1
SPATIAL_FILTER
  2
AcDbSpatialFilter
  3
ObjectDBX Classes
 90
        0
 91
        0
280
     0
281
     0
  0
CLASS
  1
SORTENTSTABLE
  2
AcDbSortentsTable
  3
ObjectDBX Classes
 90
        0
 91
        1
280
     0
281
     0
  0
CLASS
  1
LAYER_INDEX
  2
AcDbLayerIndex
  3
ObjectDBX Classes
 90
        0
 91
        0
280
     0
281
     0
  0
CLASS
  1
SPATIAL_INDEX
  2
AcDbSpatialIndex
  3
ObjectDBX Classes
 90
        0
 91
        0
280
     0
281
     0
  0
CLASS
  1
OBJECT_PTR
  2
CAseDLPNTableRecord
  3
"ASE-LPNTableRecord"
 90
        1
 91
        0
280
     0
281
     0
  0
CLASS
  1
PLOTSETTINGS
  2
AcDbPlotSettings
  3
ObjectDBX Classes
 90
        0
 91
        0
280
     0
281
     0
  0
CLASS
  1
ACDBDICTIONARYWDFLT
  2
AcDbDictionaryWithDefault
  3
ObjectDBX Classes
 90
        0
 91
        1
280
     0
281
     0
  0
CLASS
  1
WIPEOUT
  2
AcDbWipeout
  3
"WipeOut|Product Desc: Object Enabler for WipeOut entity                        |Company: Autodesk, Inc.                        |WEB Address: www.autodesk.com"
 90
     2175
 91
        0
280
     0
281
     1
  0
CLASS
  1
WIPEOUTVARIABLES
  2
AcDbWipeoutVariables
  3
"WipeOut|Product Desc:     WipeOut Dbx Application|Company:          Autodesk, Inc.|WEB Address:      www.autodesk.com"
 90
        0
 91
        1
280
     0
281
     0
  0
CLASS
  1
RTEXT
  2
RText
  3
RText|AutoCAD Express Tool|expresstools@autodesk.com
 90
        0
 91
        0
280
     0
281
     1
  0
CLASS
  1
ARCALIGNEDTEXT
  2
AcDbArcAlignedText
  3
ATEXT|AutoCAD Express Tool|expresstools@autodesk.com
 90
        0
 91
        0
280
     0
281
     1
  0
CLASS
  1
MATERIAL
  2
AcDbMaterial
  3
ObjectDBX Classes
 90
     1153
 91
        3
280
     0
281
     0
  0
CLASS
  1
VISUALSTYLE
  2
AcDbVisualStyle
  3
ObjectDBX Classes
 90
     4095
 91
       16
280
     0
281
     0
  0
CLASS
  1
TABLESTYLE
  2
AcDbTableStyle
  3
ObjectDBX Classes
 90
     4095
 91
        1
280
     0
281
     0
  0
CLASS
  1
SCALE
  2
AcDbScale
  3
ObjectDBX Classes
 90
     1153
 91
       17
280
     0
281
     0
  0
CLASS
  1
MLEADERSTYLE
  2
AcDbMLeaderStyle
  3
ACDB_MLEADERSTYLE_CLASS
 90
     4095
 91
        1
280
     0
281
     0
  0
CLASS
  1
AEC_REFEDIT_STATUS_TRACKER
  2
AecDbRefEditStatusTracker
  3
AecArchBase50|Product Desc: Autodesk Architectural Desktop 2007 |Company: Autodesk,Inc. |WEB Address: www.autodesk.com
 90
      129
 91
        0
280
     0
281
     0
  0
CLASS
  1
NPOCOLLECTION
  2
AcDbImpNonPersistentObjectsCollection
  3
ObjectDBX Classes
 90
     1153
 91
        0
280
     0
281
     0
  0
CLASS
  1
CELLSTYLEMAP
  2
AcDbCellStyleMap
  3
ObjectDBX Classes
 90
     1152
 91
        2
280
     0
281
     0
  0
ENDSEC
  0
SECTION
  2
TABLES
  0
TABLE
  2
VPORT
  5
7
330
0
100
AcDbSymbolTable
 70
     1
  0
VPORT
  5
15
330
7
100
AcDbSymbolTableRecord
100
AcDbViewportTableRecord
  2
*ACTIVE
 70
     0
 10
0.0
 20
0.0
 11
1.0
 21
1.0
 12
187.0479206492587
 22
125.8735213729136
 13
0.0
 23
0.0
 14
1.0
 24
1.0
 15
0.0
 25
0.0
 16
0.0
 26
0.0
 36
1.0
 17
0.0
 27
0.0
 37
0.0
 40
37.56668681285139
 41
1.226824457593688
 42
50.0
 43
0.0
 44
0.0
 50
0.0
 51
0.0
 71
     0
 72
   100
 73
     1
 74
     1
 75
     0
 76
     0
 77
     0
 78
     0
281
     0
 65
     0
110
0.0
120
0.0
130
0.0
111
1.0
121
0.0
131
0.0
112
0.0
122
1.0
132
0.0
 79
     0
146
0.0
348
14F
 60
     3
 61
     5
292
     1
282
     1
141
0.0
142
0.0
 63
   250
421
  3355443
  0
ENDTAB
  0
TABLE
  2
LTYPE
  5
4
330
0
100
AcDbSymbolTable
 70
     1
  0
LTYPE
  5
11
330
4
100
AcDbSymbolTableRecord
100
AcDbLinetypeTableRecord
  2
ByBlock
 70
     0
  3

 72
    65
 73
     0
 40
0.0
  0
LTYPE
  5
12
330
4
100
AcDbSymbolTableRecord
100
AcDbLinetypeTableRecord
  2
ByLayer
 70
     0
  3

 72
    65
 73
     0
 40
0.0
  0
LTYPE
  5
13
330
4
100
AcDbSymbolTableRecord
100
AcDbLinetypeTableRecord
  2
Continuous
 70
     0
  3
Solid line
 72
    65
 73
     0
 40
0.0
  0
ENDTAB
  0
TABLE
  2
LAYER
  5
2
330
0
100
AcDbSymbolTable
 70
     3
  0
LAYER
  5
14
102
{ACAD_XDICTIONARY
360
27E
102
}
330
2
100
AcDbSymbolTableRecord
100
AcDbLayerTableRecord
  2
0
 70
     0
 62
     7
  6
Continuous
370
    -3
390
1D
347
141
  0
LAYER
  5
39F
330
2
100
AcDbSymbolTableRecord
100
AcDbLayerTableRecord
  2
Defpoints
 70
     0
 62
     7
  6
Continuous
290
     0
370
    -3
390
1D
347
141
  0
LAYER
  5
3AB
102
{ACAD_XDICTIONARY
360
3AC
102
}
330
2
100
AcDbSymbolTableRecord
100
AcDbLayerTableRecord
  2
Cotation-JacobDelafon
 70
     0
 62
     8
  6
Continuous
370
    -3
390
1D
347
141
  0
ENDTAB
  0
TABLE
  2
STYLE
  5
3
330
0
100
AcDbSymbolTable
 70
     4
  0
STYLE
  5
17
330
3
100
AcDbSymbolTableRecord
100
AcDbTextStyleTableRecord
  2
Standard
 70
     0
 40
0.0
 41
1.0
 50
0.0
 71
     0
 42
0.0
  3
txt
  4

  0
STYLE
  5
24
330
3
100
AcDbSymbolTableRecord
100
AcDbTextStyleTableRecord
  2
STD
 70
     0
 40
0.0
 41
1.0
 50
0.0
 71
     0
 42
0.0
  3
txt
  4

  0
STYLE
  5
3A0
330
3
100
AcDbSymbolTableRecord
100
AcDbTextStyleTableRecord
  2
Annotative
 70
     0
 40
0.0
 41
1.0
 50
0.0
 71
     0
 42
0.2
  3
txt
  4

1001
AcadAnnotative
1000
AnnotativeData
1002
{
1070
     1
1070
     1
1002
}
  0
STYLE
  5
3A1
330
3
100
AcDbSymbolTableRecord
100
AcDbTextStyleTableRecord
  2
Jacob-Delafon
 70
     0
 40
0.0
 41
1.0
 50
0.0
 71
     0
 42
2.5
  3
ARIAL.TTF
  4

1001
ACAD
1000
Arial
1071
       34
  0
ENDTAB
  0
TABLE
  2
VIEW
  5
5
330
0
100
AcDbSymbolTable
 70
     0
  0
ENDTAB
  0
TABLE
  2
UCS
  5
6
330
0
100
AcDbSymbolTable
 70
     0
  0
ENDTAB
  0
TABLE
  2
APPID
  5
8
330
0
100
AcDbSymbolTable
 70
     3
  0
APPID
  5
16
330
8
100
AcDbSymbolTableRecord
100
AcDbRegAppTableRecord
  2
ACAD
 70
     0
  0
APPID
  5
171
330
8
100
AcDbSymbolTableRecord
100
AcDbRegAppTableRecord
  2
ACAD_MLEADERVER
 70
     0
  0
APPID
  5
3A4
330
8
100
AcDbSymbolTableRecord
100
AcDbRegAppTableRecord
  2
AcadAnnotative
 70
     0
  0
ENDTAB
  0
TABLE
  2
DIMSTYLE
  5
9
330
0
100
AcDbSymbolTable
 70
     3
100
AcDbDimStyleTable
 71
     1
340
3A3
  0
DIMSTYLE
105
18
330
9
100
AcDbSymbolTableRecord
100
AcDbDimStyleTableRecord
  2
Standard
 70
     0
340
17
  0
DIMSTYLE
105
3A2
330
9
100
AcDbSymbolTableRecord
100
AcDbDimStyleTableRecord
  2
Annotative
 70
     0
340
17
1001
AcadAnnotative
1000
AnnotativeData
1002
{
1070
     1
1070
     1
1002
}
  0
DIMSTYLE
105
3A3
102
{ACAD_REACTORS
330
3B2
330
3BF
102
}
330
9
100
AcDbSymbolTableRecord
100
AcDbDimStyleTableRecord
  2
Cotation-Jacob-Delafon
 70
     0
 41
1.8
 42
0.625
 43
3.799999999999999
 44
1.8
 73
     0
 74
     0
 77
     1
 78
    12
 79
     3
140
3.0
141
0.9
147
0.9
271
     2
272
     2
279
     2
340
3A1
341
39B
342
39B
  0
ENDTAB
  0
TABLE
  2
BLOCK_RECORD
  5
1
330
0
100
AcDbSymbolTable
 70
     3
  0
BLOCK_RECORD
  5
A
102
{ACAD_XDICTIONARY
360
399
102
}
330
1
100
AcDbSymbolTableRecord
100
AcDbBlockTableRecord
  2
*MODEL_SPACE
340
20
 70
     0
280
     1
281
     0
  0
BLOCK_RECORD
  5
B
330
1
100
AcDbSymbolTableRecord
100
AcDbBlockTableRecord
  2
*PAPER_SPACE
340
21
 70
     0
280
     1
281
     0
  0
BLOCK_RECORD
  5
39B
330
1
100
AcDbSymbolTableRecord
100
AcDbBlockTableRecord
  2
_Oblique
340
0
102
{BLKREFS
331
3C6
331
3C7
331
3CF
331
3D0
102
}
 70
     0
280
     1
281
     0
  0
BLOCK_RECORD
  5
3B3
330
1
100
AcDbSymbolTableRecord
100
AcDbBlockTableRecord
  2
*D1
340
0
 70
     0
280
     1
281
     0
  0
BLOCK_RECORD
  5
3C0
330
1
100
AcDbSymbolTableRecord
100
AcDbBlockTableRecord
  2
*D2
340
0
 70
     0
280
     1
281
     0
  0
ENDTAB
  0
ENDSEC
  0
SECTION
  2
BLOCKS
  0
BLOCK
  5
D
330
A
100
AcDbEntity
  8
0
100
AcDbBlockBegin
  2
*MODEL_SPACE
 70
     0
 10
0.0
 20
0.0
 30
0.0
  3
*MODEL_SPACE
  1

  0
ENDBLK
  5
E
330
A
100
AcDbEntity
  8
0
100
AcDbBlockEnd
  0
BLOCK
  5
F
330
B
100
AcDbEntity
 67
     1
  8
0
100
AcDbBlockBegin
  2
*PAPER_SPACE
 70
     0
 10
0.0
 20
0.0
 30
0.0
  3
*PAPER_SPACE
  1

  0
ENDBLK
  5
10
330
B
100
AcDbEntity
 67
     1
  8
0
100
AcDbBlockEnd
  0
BLOCK
  5
39C
330
39B
100
AcDbEntity
  8
0
100
AcDbBlockBegin
  2
_Oblique
 70
     0
 10
0.0
 20
0.0
 30
0.0
  3
_Oblique
  1

  0
LINE
  5
39D
330
39B
100
AcDbEntity
  8
0
  6
ByBlock
 62
     0
370
    -2
380
     1
100
AcDbLine
 10
-0.5
 20
-0.5
 30
0.0
 11
0.5
 21
0.5
 31
0.0
  0
ENDBLK
  5
39E
330
39B
100
AcDbEntity
  8
0
100
AcDbBlockEnd
  0
BLOCK
  5
3B4
330
3B3
100
AcDbEntity
  8
0
370
     0
100
AcDbBlockBegin
  2
*D1
 70
     1
 10
0.0
 20
0.0
 30
0.0
  3
*D1
  1

  0
LINE
  5
3CC
330
3B3
100
AcDbEntity
  8
Cotation-JacobDelafon
  6
Continuous
 62
     0
370
    -2
100
AcDbLine
 10
186.131619
 20
117.722245
 30
0.0
 11
186.131619
 21
130.0023911978029
 31
0.0
  0
LINE
  5
3CD
330
3B3
100
AcDbEntity
  8
Cotation-JacobDelafon
  6
Continuous
 62
     0
370
    -2
100
AcDbLine
 10
204.106749
 20
117.906558
 30
0.0
 11
204.106749
 21
130.0023911978029
 31
0.0
  0
LINE
  5
3CE
330
3B3
100
AcDbEntity
  8
Cotation-JacobDelafon
  6
Continuous
 62
     0
370
    -2
100
AcDbLine
 10
186.131619
 20
128.2023911978029
 30
0.0
 11
204.106749
 21
128.2023911978029
 31
0.0
  0
INSERT
  5
3CF
330
3B3
100
AcDbEntity
  8
Cotation-JacobDelafon
  6
Continuous
 62
     0
370
    -2
100
AcDbBlockReference
  2
_Oblique
 10
186.131619
 20
128.2023911978029
 30
0.0
 41
1.8
 42
1.8
 43
1.8
 50
180.0
  0
INSERT
  5
3D0
330
3B3
100
AcDbEntity
  8
Cotation-JacobDelafon
  6
Continuous
 62
     0
370
    -2
100
AcDbBlockReference
  2
_Oblique
 10
204.106749
 20
128.2023911978029
 30
0.0
 41
1.8
 42
1.8
 43
1.8
  0
MTEXT
  5
3D1
330
3B3
100
AcDbEntity
  8
Cotation-JacobDelafon
  6
Continuous
 62
     0
370
     0
100
AcDbMText
 10
195.119184
 20
130.634110160968
 30
0.0
 40
3.0
 41
0.0
 46
0.0
 71
     5
 72
     1
  1
\A1;18
  7
Jacob-Delafon
 73
     1
 44
1.0
  0
POINT
  5
3D2
330
3B3
100
AcDbEntity
  8
Defpoints
  6
Continuous
 62
     0
370
     0
100
AcDbPoint
 10
186.131619
 20
117.097245
 30
0.0
  0
POINT
  5
3D3
330
3B3
100
AcDbEntity
  8
Defpoints
  6
Continuous
 62
     0
370
     0
100
AcDbPoint
 10
204.106749
 20
117.281558
 30
0.0
  0
POINT
  5
3D4
330
3B3
100
AcDbEntity
  8
Defpoints
  6
Continuous
 62
     0
370
     0
100
AcDbPoint
 10
204.106749
 20
128.2023911978029
 30
0.0
  0
ENDBLK
  5
3B5
330
3B3
100
AcDbEntity
  8
0
370
     0
100
AcDbBlockEnd
  0
BLOCK
  5
3C1
330
3C0
100
AcDbEntity
  8
0
370
     0
100
AcDbBlockBegin
  2
*D2
 70
     1
 10
0.0
 20
0.0
 30
0.0
  3
*D2
  1

  0
LINE
  5
3C3
330
3C0
100
AcDbEntity
  8
Cotation-JacobDelafon
  6
Continuous
 62
     0
370
    -2
100
AcDbLine
 10
188.938967
 20
120.597462
 30
0.0
 11
177.5561539837822
 21
120.597462
 31
0.0
  0
LINE
  5
3C4
330
3C0
100
AcDbEntity
  8
Cotation-JacobDelafon
  6
Continuous
 62
     0
370
    -2
100
AcDbLine
 10
188.938967
 20
113.597372
 30
0.0
 11
177.5561539837822
 21
113.597372
 31
0.0
  0
LINE
  5
3C5
330
3C0
100
AcDbEntity
  8
Cotation-JacobDelafon
  6
Continuous
 62
     0
370
    -2
100
AcDbLine
 10
179.3561539837822
 20
120.597462
 30
0.0
 11
179.3561539837822
 21
113.597372
 31
0.0
  0
INSERT
  5
3C6
330
3C0
100
AcDbEntity
  8
Cotation-JacobDelafon
  6
Continuous
 62
     0
370
    -2
100
AcDbBlockReference
  2
_Oblique
 10
179.3561539837822
 20
120.597462
 30
0.0
 41
1.8
 42
1.8
 43
1.8
 50
90.0
  0
INSERT
  5
3C7
330
3C0
100
AcDbEntity
  8
Cotation-JacobDelafon
  6
Continuous
 62
     0
370
    -2
100
AcDbBlockReference
  2
_Oblique
 10
179.3561539837822
 20
113.597372
 30
0.0
 41
1.8
 42
1.8
 43
1.8
 50
270.0
  0
MTEXT
  5
3C8
330
3C0
100
AcDbEntity
  8
Cotation-JacobDelafon
  6
Continuous
 62
     0
370
     0
100
AcDbMText
 10
176.9561539837822
 20
117.097417
 30
0.0
 40
3.0
 41
0.0
 46
0.0
 71
     5
 72
     1
  1
\A1;7
  7
Jacob-Delafon
 11
0.0000000000000001
 21
1.0
 31
0.0
 73
     1
 44
1.0
  0
POINT
  5
3C9
330
3C0
100
AcDbEntity
  8
Defpoints
  6
Continuous
 62
     0
370
     0
100
AcDbPoint
 10
189.563967
 20
120.597462
 30
0.0
  0
POINT
  5
3CA
330
3C0
100
AcDbEntity
  8
Defpoints
  6
Continuous
 62
     0
370
     0
100
AcDbPoint
 10
189.563967
 20
113.597372
 30
0.0
  0
POINT
  5
3CB
330
3C0
100
AcDbEntity
  8
Defpoints
  6
Continuous
 62
     0
370
     0
100
AcDbPoint
 10
179.3561539837822
 20
113.597372
 30
0.0
  0
ENDBLK
  5
3C2
330
3C0
100
AcDbEntity
  8
0
370
     0
100
AcDbBlockEnd
  0
ENDSEC
  0
SECTION
  2
ENTITIES
  0
LINE
  5
294
330
A
100
AcDbEntity
  8
0
 62
     7
100
AcDbLine
 10
189.563967
 20
113.903297
 30
0.0
 11
189.553804
 21
113.904675
 31
0.0
  0
LINE
  5
295
330
A
100
AcDbEntity
  8
0
 62
     7
100
AcDbLine
 10
189.553977
 20
120.290159
 30
0.0
 11
189.563967
 21
120.291537
 31
0.0
  0
LINE
  5
296
330
A
100
AcDbEntity
  8
0
 62
     7
100
AcDbLine
 10
204.081427
 20
117.48344
 30
0.0
 11
203.933977
 21
117.856199
 31
0.0
  0
LINE
  5
297
330
A
100
AcDbEntity
  8
0
 62
     7
100
AcDbLine
 10
203.933977
 20
117.856199
 30
0.0
 11
203.699366
 21
118.176249
 31
0.0
  0
LINE
  5
298
330
A
100
AcDbEntity
  8
0
 62
     7
100
AcDbLine
 10
203.699366
 20
118.176249
 30
0.0
 11
203.393786
 21
118.421884
 31
0.0
  0
LINE
  5
299
330
A
100
AcDbEntity
  8
0
 62
     7
100
AcDbLine
 10
203.393786
 20
118.421884
 30
0.0
 11
203.037908
 21
118.576569
 31
0.0
  0
LINE
  5
29A
330
A
100
AcDbEntity
  8
0
 62
     7
100
AcDbLine
 10
203.037908
 20
118.576569
 30
0.0
 11
202.677207
 21
118.626178
 31
0.0
  0
LINE
  5
29B
330
A
100
AcDbEntity
  8
0
 62
     7
100
AcDbLine
 10
202.655847
 20
115.53765
 30
0.0
 11
202.638966
 21
115.53765
 31
0.0
  0
LINE
  5
29C
330
A
100
AcDbEntity
  8
0
 62
     7
100
AcDbLine
 10
202.638966
 20
115.53765
 30
0.0
 11
202.591424
 21
115.544196
 31
0.0
  0
LINE
  5
29D
330
A
100
AcDbEntity
  8
0
 62
     7
100
AcDbLine
 10
202.655847
 20
115.53765
 30
0.0
 11
203.037908
 21
115.59036
 31
0.0
  0
LINE
  5
29E
330
A
100
AcDbEntity
  8
0
 62
     7
100
AcDbLine
 10
203.037908
 20
115.59036
 30
0.0
 11
203.393786
 21
115.7447
 31
0.0
  0
LINE
  5
29F
330
A
100
AcDbEntity
  8
0
 62
     7
100
AcDbLine
 10
203.393786
 20
115.7447
 30
0.0
 11
203.699366
 21
115.990336
 31
0.0
  0
LINE
  5
2A0
330
A
100
AcDbEntity
  8
0
 62
     7
100
AcDbLine
 10
203.699366
 20
115.990336
 30
0.0
 11
203.933977
 21
116.310385
 31
0.0
  0
LINE
  5
2A1
330
A
100
AcDbEntity
  8
0
 62
     7
100
AcDbLine
 10
203.933977
 20
116.310385
 30
0.0
 11
204.081427
 21
116.683489
 31
0.0
  0
LINE
  5
2A2
330
A
100
AcDbEntity
  8
0
 62
     7
100
AcDbLine
 10
204.081772
 20
117.479651
 30
0.0
 11
204.131726
 21
117.083465
 31
0.0
  0
LINE
  5
2A3
330
A
100
AcDbEntity
  8
0
 62
     7
100
AcDbLine
 10
204.081772
 20
117.479651
 30
0.0
 11
204.081427
 21
117.48344
 31
0.0
  0
LINE
  5
2A4
330
A
100
AcDbEntity
  8
0
 62
     7
100
AcDbLine
 10
204.081772
 20
116.686934
 30
0.0
 11
204.081427
 21
116.683489
 31
0.0
  0
LINE
  5
2A5
330
A
100
AcDbEntity
  8
0
 62
     7
100
AcDbLine
 10
204.131726
 20
117.083465
 30
0.0
 11
204.081772
 21
116.686934
 31
0.0
  0
LINE
  5
2A6
330
A
100
AcDbEntity
  8
0
 62
     7
100
AcDbLine
 10
189.009135
 20
115.788453
 30
0.0
 11
189.350716
 21
115.742289
 31
0.0
  0
LINE
  5
2A7
330
A
100
AcDbEntity
  8
0
 62
     7
100
AcDbLine
 10
188.69098
 20
115.923845
 30
0.0
 11
189.009135
 21
115.788453
 31
0.0
  0
LINE
  5
2A8
330
A
100
AcDbEntity
  8
0
 62
     7
100
AcDbLine
 10
188.4177839999999
 20
116.1391639999999
 30
0.0
 11
188.69098
 21
115.923845
 31
0.0
  0
LINE
  5
2A9
330
A
100
AcDbEntity
  8
0
 62
     7
100
AcDbLine
 10
188.207978
 20
116.419595
 30
0.0
 11
188.4177839999999
 21
116.1391639999999
 31
0.0
  0
LINE
  5
2AA
330
A
100
AcDbEntity
  8
0
 62
     7
100
AcDbLine
 10
188.0762029999999
 20
116.746534
 30
0.0
 11
188.207978
 21
116.419595
 31
0.0
  0
LINE
  5
2AB
330
A
100
AcDbEntity
  8
0
 62
     7
100
AcDbLine
 10
188.031244
 20
117.097245
 30
0.0
 11
188.0762029999999
 21
116.746534
 31
0.0
  0
LINE
  5
2AC
330
A
100
AcDbEntity
  8
0
 62
     7
100
AcDbLine
 10
188.0762029999999
 20
117.4483
 30
0.0
 11
188.031244
 21
117.097245
 31
0.0
  0
LINE
  5
2AD
330
A
100
AcDbEntity
  8
0
 62
     7
100
AcDbLine
 10
188.207978
 20
117.774895
 30
0.0
 11
188.0762029999999
 21
117.4483
 31
0.0
  0
LINE
  5
2AE
330
A
100
AcDbEntity
  8
0
 62
     7
100
AcDbLine
 10
188.4177839999999
 20
118.05567
 30
0.0
 11
188.207978
 21
117.774895
 31
0.0
  0
LINE
  5
2AF
330
A
100
AcDbEntity
  8
0
 62
     7
100
AcDbLine
 10
188.69098
 20
118.270989
 30
0.0
 11
188.4177839999999
 21
118.05567
 31
0.0
  0
LINE
  5
2B0
330
A
100
AcDbEntity
  8
0
 62
     7
100
AcDbLine
 10
189.009135
 20
118.406381
 30
0.0
 11
188.69098
 21
118.270989
 31
0.0
  0
LINE
  5
2B1
330
A
100
AcDbEntity
  8
0
 62
     7
100
AcDbLine
 10
189.350716
 20
118.452545
 30
0.0
 11
189.009135
 21
118.406381
 31
0.0
  0
LINE
  5
2B2
330
A
100
AcDbEntity
  8
0
 62
     7
100
AcDbLine
 10
189.692297
 20
118.406381
 30
0.0
 11
189.350716
 21
118.452545
 31
0.0
  0
LINE
  5
2B3
330
A
100
AcDbEntity
  8
0
 62
     7
100
AcDbLine
 10
190.010452
 20
118.270989
 30
0.0
 11
189.692297
 21
118.406381
 31
0.0
  0
LINE
  5
2B4
330
A
100
AcDbEntity
  8
0
 62
     7
100
AcDbLine
 10
190.28382
 20
118.05567
 30
0.0
 11
190.010452
 21
118.270989
 31
0.0
  0
LINE
  5
2B5
330
A
100
AcDbEntity
  8
0
 62
     7
100
AcDbLine
 10
190.493454
 20
117.774895
 30
0.0
 11
190.28382
 21
118.05567
 31
0.0
  0
LINE
  5
2B6
330
A
100
AcDbEntity
  8
0
 62
     7
100
AcDbLine
 10
190.625229
 20
117.4483
 30
0.0
 11
190.493454
 21
117.774895
 31
0.0
  0
LINE
  5
2B7
330
A
100
AcDbEntity
  8
0
 62
     7
100
AcDbLine
 10
190.670188
 20
117.097245
 30
0.0
 11
190.625229
 21
117.4483
 31
0.0
  0
LINE
  5
2B8
330
A
100
AcDbEntity
  8
0
 62
     7
100
AcDbLine
 10
190.625229
 20
116.746534
 30
0.0
 11
190.670188
 21
117.097245
 31
0.0
  0
LINE
  5
2B9
330
A
100
AcDbEntity
  8
0
 62
     7
100
AcDbLine
 10
190.493454
 20
116.419595
 30
0.0
 11
190.625229
 21
116.746534
 31
0.0
  0
LINE
  5
2BA
330
A
100
AcDbEntity
  8
0
 62
     7
100
AcDbLine
 10
190.28382
 20
116.1391639999999
 30
0.0
 11
190.493454
 21
116.419595
 31
0.0
  0
LINE
  5
2BB
330
A
100
AcDbEntity
  8
0
 62
     7
100
AcDbLine
 10
190.010452
 20
115.923845
 30
0.0
 11
190.28382
 21
116.1391639999999
 31
0.0
  0
LINE
  5
2BC
330
A
100
AcDbEntity
  8
0
 62
     7
100
AcDbLine
 10
189.692297
 20
115.788453
 30
0.0
 11
190.010452
 21
115.923845
 31
0.0
  0
LINE
  5
2BD
330
A
100
AcDbEntity
  8
0
 62
     7
100
AcDbLine
 10
189.350716
 20
115.742289
 30
0.0
 11
189.692297
 21
115.788453
 31
0.0
  0
LINE
  5
2BE
330
A
100
AcDbEntity
  8
0
 62
     7
100
AcDbLine
 10
189.008101
 20
115.78363
 30
0.0
 11
189.350716
 21
115.737466
 31
0.0
  0
LINE
  5
2BF
330
A
100
AcDbEntity
  8
0
 62
     7
100
AcDbLine
 10
188.688741
 20
115.919711
 30
0.0
 11
189.008101
 21
115.78363
 31
0.0
  0
LINE
  5
2C0
330
A
100
AcDbEntity
  8
0
 62
     7
100
AcDbLine
 10
188.414511
 20
116.135719
 30
0.0
 11
188.688741
 21
115.919711
 31
0.0
  0
LINE
  5
2C1
330
A
100
AcDbEntity
  8
0
 62
     7
100
AcDbLine
 10
188.204016
 20
116.417528
 30
0.0
 11
188.414511
 21
116.135719
 31
0.0
  0
LINE
  5
2C2
330
A
100
AcDbEntity
  8
0
 62
     7
100
AcDbLine
 10
188.071724
 20
116.745501
 30
0.0
 11
188.204016
 21
116.417528
 31
0.0
  0
LINE
  5
2C3
330
A
100
AcDbEntity
  8
0
 62
     7
100
AcDbLine
 10
188.026593
 20
117.097245
 30
0.0
 11
188.071724
 21
116.745501
 31
0.0
  0
LINE
  5
2C4
330
A
100
AcDbEntity
  8
0
 62
     7
100
AcDbLine
 10
188.071724
 20
117.449334
 30
0.0
 11
188.026593
 21
117.097245
 31
0.0
  0
LINE
  5
2C5
330
A
100
AcDbEntity
  8
0
 62
     7
100
AcDbLine
 10
188.204016
 20
117.777307
 30
0.0
 11
188.071724
 21
117.449334
 31
0.0
  0
LINE
  5
2C6
330
A
100
AcDbEntity
  8
0
 62
     7
100
AcDbLine
 10
188.414511
 20
118.059116
 30
0.0
 11
188.204016
 21
117.777307
 31
0.0
  0
LINE
  5
2C7
330
A
100
AcDbEntity
  8
0
 62
     7
100
AcDbLine
 10
188.688741
 20
118.275123
 30
0.0
 11
188.414511
 21
118.059116
 31
0.0
  0
LINE
  5
2C8
330
A
100
AcDbEntity
  8
0
 62
     7
100
AcDbLine
 10
189.008101
 20
118.41086
 30
0.0
 11
188.688741
 21
118.275123
 31
0.0
  0
LINE
  5
2C9
330
A
100
AcDbEntity
  8
0
 62
     7
100
AcDbLine
 10
189.350716
 20
118.457369
 30
0.0
 11
189.008101
 21
118.41086
 31
0.0
  0
LINE
  5
2CA
330
A
100
AcDbEntity
  8
0
 62
     7
100
AcDbLine
 10
189.693503
 20
118.41086
 30
0.0
 11
189.350716
 21
118.457369
 31
0.0
  0
LINE
  5
2CB
330
A
100
AcDbEntity
  8
0
 62
     7
100
AcDbLine
 10
190.012691
 20
118.275123
 30
0.0
 11
189.693503
 21
118.41086
 31
0.0
  0
LINE
  5
2CC
330
A
100
AcDbEntity
  8
0
 62
     7
100
AcDbLine
 10
190.286921
 20
118.059116
 30
0.0
 11
190.012691
 21
118.275123
 31
0.0
  0
LINE
  5
2CD
330
A
100
AcDbEntity
  8
0
 62
     7
100
AcDbLine
 10
190.497416
 20
117.777307
 30
0.0
 11
190.286921
 21
118.059116
 31
0.0
  0
LINE
  5
2CE
330
A
100
AcDbEntity
  8
0
 62
     7
100
AcDbLine
 10
190.629708
 20
117.449334
 30
0.0
 11
190.497416
 21
117.777307
 31
0.0
  0
LINE
  5
2CF
330
A
100
AcDbEntity
  8
0
 62
     7
100
AcDbLine
 10
190.674838
 20
117.097245
 30
0.0
 11
190.629708
 21
117.449334
 31
0.0
  0
LINE
  5
2D0
330
A
100
AcDbEntity
  8
0
 62
     7
100
AcDbLine
 10
190.629708
 20
116.745501
 30
0.0
 11
190.674838
 21
117.097245
 31
0.0
  0
LINE
  5
2D1
330
A
100
AcDbEntity
  8
0
 62
     7
100
AcDbLine
 10
190.497416
 20
116.417528
 30
0.0
 11
190.629708
 21
116.745501
 31
0.0
  0
LINE
  5
2D2
330
A
100
AcDbEntity
  8
0
 62
     7
100
AcDbLine
 10
190.286921
 20
116.135719
 30
0.0
 11
190.497416
 21
116.417528
 31
0.0
  0
LINE
  5
2D3
330
A
100
AcDbEntity
  8
0
 62
     7
100
AcDbLine
 10
190.012691
 20
115.919711
 30
0.0
 11
190.286921
 21
116.135719
 31
0.0
  0
LINE
  5
2D4
330
A
100
AcDbEntity
  8
0
 62
     7
100
AcDbLine
 10
189.693503
 20
115.78363
 30
0.0
 11
190.012691
 21
115.919711
 31
0.0
  0
LINE
  5
2D5
330
A
100
AcDbEntity
  8
0
 62
     7
100
AcDbLine
 10
189.350716
 20
115.737466
 30
0.0
 11
189.693503
 21
115.78363
 31
0.0
  0
LINE
  5
2D6
330
A
100
AcDbEntity
  8
0
 62
     7
100
AcDbLine
 10
197.686813
 20
117.386288
 30
0.0
 11
197.686813
 21
117.097245
 31
0.0
  0
LINE
  5
2D7
330
A
100
AcDbEntity
  8
0
 62
     7
100
AcDbLine
 10
197.645645
 20
117.670853
 30
0.0
 11
197.686813
 21
117.386288
 31
0.0
  0
LINE
  5
2D8
330
A
100
AcDbEntity
  8
0
 62
     7
100
AcDbLine
 10
197.5510769999999
 20
117.850687
 30
0.0
 11
197.530062
 21
117.89823
 31
0.0
  0
LINE
  5
2D9
330
A
100
AcDbEntity
  8
0
 62
     7
100
AcDbLine
 10
197.530062
 20
117.89823
 30
0.0
 11
197.645645
 21
117.670853
 31
0.0
  0
LINE
  5
2DA
330
A
100
AcDbEntity
  8
0
 62
     7
100
AcDbLine
 10
197.530062
 20
117.89823
 30
0.0
 11
197.509047
 21
117.920623
 31
0.0
  0
LINE
  5
2DB
330
A
100
AcDbEntity
  8
0
 62
     7
100
AcDbLine
 10
197.260483
 20
118.0904659999999
 30
0.0
 11
197.509047
 21
117.920623
 31
0.0
  0
LINE
  5
2DC
330
A
100
AcDbEntity
  8
0
 62
     7
100
AcDbLine
 10
196.797634
 20
118.192441
 30
0.0
 11
197.0203599999999
 21
118.166603
 31
0.0
  0
LINE
  5
2DD
330
A
100
AcDbEntity
  8
0
 62
     7
100
AcDbLine
 10
194.100469
 20
117.945083
 30
0.0
 11
194.385723
 21
117.988491
 31
0.0
  0
LINE
  5
2DE
330
A
100
AcDbEntity
  8
0
 62
     7
100
AcDbLine
 10
193.818488
 20
117.907876
 30
0.0
 11
194.100469
 21
117.945083
 31
0.0
  0
LINE
  5
2DF
330
A
100
AcDbEntity
  8
0
 62
     7
100
AcDbLine
 10
193.537713
 20
117.885138
 30
0.0
 11
193.818488
 21
117.907876
 31
0.0
  0
LINE
  5
2E0
330
A
100
AcDbEntity
  8
0
 62
     7
100
AcDbLine
 10
191.951763
 20
117.993314
 30
0.0
 11
192.398247
 21
117.930614
 31
0.0
  0
LINE
  5
2E1
330
A
100
AcDbEntity
  8
0
 62
     7
100
AcDbLine
 10
191.022276
 20
118.237572
 30
0.0
 11
191.300984
 21
118.142831
 31
0.0
  0
LINE
  5
2E2
330
A
100
AcDbEntity
  8
0
 62
     7
100
AcDbLine
 10
190.745807
 20
118.348159
 30
0.0
 11
191.022276
 21
118.237572
 31
0.0
  0
LINE
  5
2E3
330
A
100
AcDbEntity
  8
0
 62
     7
100
AcDbLine
 10
190.472611
 20
118.473905
 30
0.0
 11
190.745807
 21
118.348159
 31
0.0
  0
LINE
  5
2E4
330
A
100
AcDbEntity
  8
0
 62
     7
100
AcDbLine
 10
190.203549
 20
118.614465
 30
0.0
 11
190.472611
 21
118.473905
 31
0.0
  0
LINE
  5
2E5
330
A
100
AcDbEntity
  8
0
 62
     7
100
AcDbLine
 10
197.260483
 20
118.0946
 30
0.0
 11
197.309059
 21
118.057393
 31
0.0
  0
LINE
  5
2E6
330
A
100
AcDbEntity
  8
0
 62
     7
100
AcDbLine
 10
197.0203599999999
 20
118.166603
 30
0.0
 11
197.260483
 21
118.0946
 31
0.0
  0
LINE
  5
2E7
330
A
100
AcDbEntity
  8
0
 62
     7
100
AcDbLine
 10
196.588517
 20
118.210011
 30
0.0
 11
196.787988
 21
118.194163
 31
0.0
  0
LINE
  5
2E8
330
A
100
AcDbEntity
  8
0
 62
     7
100
AcDbLine
 10
196.177689
 20
118.215867
 30
0.0
 11
196.588517
 21
118.210011
 31
0.0
  0
LINE
  5
2E9
330
A
100
AcDbEntity
  8
0
 62
     7
100
AcDbLine
 10
196.394041
 20
118.215867
 30
0.0
 11
196.386979
 21
118.215867
 31
0.0
  0
LINE
  5
2EA
330
A
100
AcDbEntity
  8
0
 62
     7
100
AcDbLine
 10
195.804241
 20
118.185206
 30
0.0
 11
196.177689
 21
118.212422
 31
0.0
  0
LINE
  5
2EB
330
A
100
AcDbEntity
  8
0
 62
     7
100
AcDbLine
 10
195.429242
 20
118.137664
 30
0.0
 11
195.804241
 21
118.185206
 31
0.0
  0
LINE
  5
2EC
330
A
100
AcDbEntity
  8
0
 62
     7
100
AcDbLine
 10
195.05321
 20
118.081853
 30
0.0
 11
195.429242
 21
118.137664
 31
0.0
  0
LINE
  5
2ED
330
A
100
AcDbEntity
  8
0
 62
     7
100
AcDbLine
 10
194.385723
 20
117.991592
 30
0.0
 11
195.05321
 21
118.078408
 31
0.0
  0
LINE
  5
2EE
330
A
100
AcDbEntity
  8
0
 62
     7
100
AcDbLine
 10
193.249358
 20
117.878937
 30
0.0
 11
193.537713
 21
117.885138
 31
0.0
  0
LINE
  5
2EF
330
A
100
AcDbEntity
  8
0
 62
     7
100
AcDbLine
 10
192.964104
 20
117.885138
 30
0.0
 11
193.249358
 21
117.878937
 31
0.0
  0
LINE
  5
2F0
330
A
100
AcDbEntity
  8
0
 62
     7
100
AcDbLine
 10
192.680917
 20
117.902708
 30
0.0
 11
192.964104
 21
117.885138
 31
0.0
  0
LINE
  5
2F1
330
A
100
AcDbEntity
  8
0
 62
     7
100
AcDbLine
 10
192.398247
 20
117.930614
 30
0.0
 11
192.680917
 21
117.902708
 31
0.0
  0
LINE
  5
2F2
330
A
100
AcDbEntity
  8
0
 62
     7
100
AcDbLine
 10
191.848066
 20
118.010195
 30
0.0
 11
191.951763
 21
117.993314
 31
0.0
  0
LINE
  5
2F3
330
A
100
AcDbEntity
  8
0
 62
     7
100
AcDbLine
 10
191.575042
 20
118.067728
 30
0.0
 11
191.848066
 21
118.010195
 31
0.0
  0
LINE
  5
2F4
330
A
100
AcDbEntity
  8
0
 62
     7
100
AcDbLine
 10
191.300984
 20
118.142831
 30
0.0
 11
191.575042
 21
118.067728
 31
0.0
  0
LINE
  5
2F5
330
A
100
AcDbEntity
  8
0
 62
     7
100
AcDbLine
 10
197.686813
 20
117.097245
 30
0.0
 11
197.686813
 21
116.808546
 31
0.0
  0
LINE
  5
2F6
330
A
100
AcDbEntity
  8
0
 62
     7
100
AcDbLine
 10
197.686813
 20
116.808546
 30
0.0
 11
197.645645
 21
116.523637
 31
0.0
  0
LINE
  5
2F7
330
A
100
AcDbEntity
  8
0
 62
     7
100
AcDbLine
 10
197.645645
 20
116.523637
 30
0.0
 11
197.530062
 21
116.296605
 31
0.0
  0
LINE
  5
2F8
330
A
100
AcDbEntity
  8
0
 62
     7
100
AcDbLine
 10
197.530062
 20
116.296605
 30
0.0
 11
197.5510769999999
 21
116.343803
 31
0.0
  0
LINE
  5
2F9
330
A
100
AcDbEntity
  8
0
 62
     7
100
AcDbLine
 10
197.509047
 20
116.274212
 30
0.0
 11
197.530062
 21
116.296605
 31
0.0
  0
LINE
  5
2FA
330
A
100
AcDbEntity
  8
0
 62
     7
100
AcDbLine
 10
197.509047
 20
116.274212
 30
0.0
 11
197.260483
 21
116.104024
 31
0.0
  0
LINE
  5
2FB
330
A
100
AcDbEntity
  8
0
 62
     7
100
AcDbLine
 10
197.0203599999999
 20
116.027887
 30
0.0
 11
196.797634
 21
116.002049
 31
0.0
  0
LINE
  5
2FC
330
A
100
AcDbEntity
  8
0
 62
     7
100
AcDbLine
 10
194.385723
 20
116.206343
 30
0.0
 11
194.100469
 21
116.249407
 31
0.0
  0
LINE
  5
2FD
330
A
100
AcDbEntity
  8
0
 62
     7
100
AcDbLine
 10
194.100469
 20
116.249407
 30
0.0
 11
193.818488
 21
116.286958
 31
0.0
  0
LINE
  5
2FE
330
A
100
AcDbEntity
  8
0
 62
     7
100
AcDbLine
 10
193.818488
 20
116.286958
 30
0.0
 11
193.537713
 21
116.309696
 31
0.0
  0
LINE
  5
2FF
330
A
100
AcDbEntity
  8
0
 62
     7
100
AcDbLine
 10
192.398247
 20
116.264221
 30
0.0
 11
191.956758
 21
116.202209
 31
0.0
  0
LINE
  5
300
330
A
100
AcDbEntity
  8
0
 62
     7
100
AcDbLine
 10
191.300984
 20
116.052003
 30
0.0
 11
191.022276
 21
115.956918
 31
0.0
  0
LINE
  5
301
330
A
100
AcDbEntity
  8
0
 62
     7
100
AcDbLine
 10
191.022276
 20
115.956918
 30
0.0
 11
190.745807
 21
115.846331
 31
0.0
  0
LINE
  5
302
330
A
100
AcDbEntity
  8
0
 62
     7
100
AcDbLine
 10
190.745807
 20
115.846331
 30
0.0
 11
190.472611
 21
115.720585
 31
0.0
  0
LINE
  5
303
330
A
100
AcDbEntity
  8
0
 62
     7
100
AcDbLine
 10
190.472611
 20
115.720585
 30
0.0
 11
190.203549
 21
115.580369
 31
0.0
  0
LINE
  5
304
330
A
100
AcDbEntity
  8
0
 62
     7
100
AcDbLine
 10
197.309059
 20
116.137441
 30
0.0
 11
197.260483
 21
116.09989
 31
0.0
  0
LINE
  5
305
330
A
100
AcDbEntity
  8
0
 62
     7
100
AcDbLine
 10
197.0203599999999
 20
116.027887
 30
0.0
 11
197.260483
 21
116.09989
 31
0.0
  0
LINE
  5
306
330
A
100
AcDbEntity
  8
0
 62
     7
100
AcDbLine
 10
196.787988
 20
116.000671
 30
0.0
 11
196.588517
 21
115.984824
 31
0.0
  0
LINE
  5
307
330
A
100
AcDbEntity
  8
0
 62
     7
100
AcDbLine
 10
196.386979
 20
115.978967
 30
0.0
 11
196.394041
 21
115.978967
 31
0.0
  0
LINE
  5
308
330
A
100
AcDbEntity
  8
0
 62
     7
100
AcDbLine
 10
196.394041
 20
115.978967
 30
0.0
 11
196.588517
 21
115.984824
 31
0.0
  0
LINE
  5
309
330
A
100
AcDbEntity
  8
0
 62
     7
100
AcDbLine
 10
196.386979
 20
115.978967
 30
0.0
 11
196.177689
 21
115.982068
 31
0.0
  0
LINE
  5
30A
330
A
100
AcDbEntity
  8
0
 62
     7
100
AcDbLine
 10
196.177689
 20
115.982068
 30
0.0
 11
195.804241
 21
116.009628
 31
0.0
  0
LINE
  5
30B
330
A
100
AcDbEntity
  8
0
 62
     7
100
AcDbLine
 10
195.804241
 20
116.009628
 30
0.0
 11
195.429242
 21
116.057171
 31
0.0
  0
LINE
  5
30C
330
A
100
AcDbEntity
  8
0
 62
     7
100
AcDbLine
 10
195.429242
 20
116.057171
 30
0.0
 11
195.05321
 21
116.112981
 31
0.0
  0
LINE
  5
30D
330
A
100
AcDbEntity
  8
0
 62
     7
100
AcDbLine
 10
195.05321
 20
116.112981
 30
0.0
 11
194.385723
 21
116.206343
 31
0.0
  0
LINE
  5
30E
330
A
100
AcDbEntity
  8
0
 62
     7
100
AcDbLine
 10
193.537713
 20
116.309696
 30
0.0
 11
193.249358
 21
116.315897
 31
0.0
  0
LINE
  5
30F
330
A
100
AcDbEntity
  8
0
 62
     7
100
AcDbLine
 10
193.249358
 20
116.315897
 30
0.0
 11
192.964104
 21
116.309696
 31
0.0
  0
LINE
  5
310
330
A
100
AcDbEntity
  8
0
 62
     7
100
AcDbLine
 10
192.964104
 20
116.309696
 30
0.0
 11
192.680917
 21
116.292126
 31
0.0
  0
LINE
  5
311
330
A
100
AcDbEntity
  8
0
 62
     7
100
AcDbLine
 10
192.680917
 20
116.292126
 30
0.0
 11
192.398247
 21
116.264221
 31
0.0
  0
LINE
  5
312
330
A
100
AcDbEntity
  8
0
 62
     7
100
AcDbLine
 10
191.956758
 20
116.202209
 30
0.0
 11
191.848066
 21
116.184639
 31
0.0
  0
LINE
  5
313
330
A
100
AcDbEntity
  8
0
 62
     7
100
AcDbLine
 10
191.848066
 20
116.184639
 30
0.0
 11
191.575042
 21
116.127106
 31
0.0
  0
LINE
  5
314
330
A
100
AcDbEntity
  8
0
 62
     7
100
AcDbLine
 10
191.575042
 20
116.127106
 30
0.0
 11
191.300984
 21
116.052003
 31
0.0
  0
LINE
  5
315
330
A
100
AcDbEntity
  8
0
 62
     7
100
AcDbLine
 10
191.3232049999999
 20
119.64696
 30
0.0
 11
191.196598
 21
119.666942
 31
0.0
  0
LINE
  5
316
330
A
100
AcDbEntity
  8
0
 62
     7
100
AcDbLine
 10
192.013947
 20
119.535684
 30
0.0
 11
192.688324
 21
119.423718
 31
0.0
  0
LINE
  5
317
330
A
100
AcDbEntity
  8
0
 62
     7
100
AcDbLine
 10
191.815854
 20
119.565656
 30
0.0
 11
192.013947
 21
119.535684
 31
0.0
  0
LINE
  5
318
330
A
100
AcDbEntity
  8
0
 62
     7
100
AcDbLine
 10
191.3232049999999
 20
119.64696
 30
0.0
 11
191.999133
 21
119.535684
 31
0.0
  0
LINE
  5
319
330
A
100
AcDbEntity
  8
0
 62
     7
100
AcDbLine
 10
192.688324
 20
119.423718
 30
0.0
 11
193.197682
 21
119.352749
 31
0.0
  0
LINE
  5
31A
330
A
100
AcDbEntity
  8
0
 62
     7
100
AcDbLine
 10
193.197682
 20
119.352749
 30
0.0
 11
193.786104
 21
119.260076
 31
0.0
  0
LINE
  5
31B
330
A
100
AcDbEntity
  8
0
 62
     7
100
AcDbLine
 10
193.786104
 20
119.260076
 30
0.0
 11
194.4365379999999
 21
119.168436
 31
0.0
  0
LINE
  5
31C
330
A
100
AcDbEntity
  8
0
 62
     7
100
AcDbLine
 10
194.4365379999999
 20
119.168436
 30
0.0
 11
195.13796
 21
119.122617
 31
0.0
  0
LINE
  5
31D
330
A
100
AcDbEntity
  8
0
 62
     7
100
AcDbLine
 10
195.13796
 20
119.122617
 30
0.0
 11
197.408105
 21
118.9762
 31
0.0
  0
LINE
  5
31E
330
A
100
AcDbEntity
  8
0
 62
     7
100
AcDbLine
 10
197.408105
 20
118.9762
 30
0.0
 11
198.111938
 21
118.928313
 31
0.0
  0
LINE
  5
31F
330
A
100
AcDbEntity
  8
0
 62
     7
100
AcDbLine
 10
198.111938
 20
118.928313
 30
0.0
 11
198.784593
 21
118.88456
 31
0.0
  0
LINE
  5
320
330
A
100
AcDbEntity
  8
0
 62
     7
100
AcDbLine
 10
198.784593
 20
118.88456
 30
0.0
 11
199.433994
 21
118.842186
 31
0.0
  0
LINE
  5
321
330
A
100
AcDbEntity
  8
0
 62
     7
100
AcDbLine
 10
199.433994
 20
118.842186
 30
0.0
 11
200.048943
 21
118.802223
 31
0.0
  0
LINE
  5
322
330
A
100
AcDbEntity
  8
0
 62
     7
100
AcDbLine
 10
200.048943
 20
118.802223
 30
0.0
 11
200.619107
 21
118.765016
 31
0.0
  0
LINE
  5
323
330
A
100
AcDbEntity
  8
0
 62
     7
100
AcDbLine
 10
200.619107
 20
118.765016
 30
0.0
 11
201.134837
 21
118.731598
 31
0.0
  0
LINE
  5
324
330
A
100
AcDbEntity
  8
0
 62
     7
100
AcDbLine
 10
201.134837
 20
118.731598
 30
0.0
 11
201.586834
 21
118.70197
 31
0.0
  0
LINE
  5
325
330
A
100
AcDbEntity
  8
0
 62
     7
100
AcDbLine
 10
201.586834
 20
118.70197
 30
0.0
 11
201.967861
 21
118.6771659999999
 31
0.0
  0
LINE
  5
326
330
A
100
AcDbEntity
  8
0
 62
     7
100
AcDbLine
 10
201.967861
 20
118.6771659999999
 30
0.0
 11
202.27103
 21
118.657529
 31
0.0
  0
LINE
  5
327
330
A
100
AcDbEntity
  8
0
 62
     7
100
AcDbLine
 10
202.27103
 20
118.657529
 30
0.0
 11
202.491516
 21
118.643059
 31
0.0
  0
LINE
  5
328
330
A
100
AcDbEntity
  8
0
 62
     7
100
AcDbLine
 10
202.491516
 20
118.643059
 30
0.0
 11
202.622774
 21
118.634447
 31
0.0
  0
LINE
  5
329
330
A
100
AcDbEntity
  8
0
 62
     7
100
AcDbLine
 10
203.932944
 20
117.090355
 30
0.0
 11
203.888158
 21
117.488263
 31
0.0
  0
LINE
  5
32A
330
A
100
AcDbEntity
  8
0
 62
     7
100
AcDbLine
 10
203.888158
 20
117.488263
 30
0.0
 11
203.756899
 21
117.861023
 31
0.0
  0
LINE
  5
32B
330
A
100
AcDbEntity
  8
0
 62
     7
100
AcDbLine
 10
203.756899
 20
117.861023
 30
0.0
 11
203.547782
 21
118.181761
 31
0.0
  0
LINE
  5
32C
330
A
100
AcDbEntity
  8
0
 62
     7
100
AcDbLine
 10
203.547782
 20
118.181761
 30
0.0
 11
203.274586
 21
118.428085
 31
0.0
  0
LINE
  5
32D
330
A
100
AcDbEntity
  8
0
 62
     7
100
AcDbLine
 10
203.274586
 20
118.428085
 30
0.0
 11
202.956259
 21
118.583459
 31
0.0
  0
LINE
  5
32E
330
A
100
AcDbEntity
  8
0
 62
     7
100
AcDbLine
 10
202.956259
 20
118.583459
 30
0.0
 11
202.622774
 21
118.634447
 31
0.0
  0
LINE
  5
32F
330
A
100
AcDbEntity
  8
0
 62
     7
100
AcDbLine
 10
192.675233
 20
114.757336
 30
0.0
 11
192.036857
 21
114.658462
 31
0.0
  0
LINE
  5
330
330
A
100
AcDbEntity
  8
0
 62
     7
100
AcDbLine
 10
191.174377
 20
114.510323
 30
0.0
 11
191.3232049999999
 21
114.533749
 31
0.0
  0
LINE
  5
331
330
A
100
AcDbEntity
  8
0
 62
     7
100
AcDbLine
 10
191.517164
 20
114.569923
 30
0.0
 11
192.036857
 21
114.658462
 31
0.0
  0
LINE
  5
332
330
A
100
AcDbEntity
  8
0
 62
     7
100
AcDbLine
 10
192.688324
 20
114.757336
 30
0.0
 11
192.013947
 21
114.645026
 31
0.0
  0
LINE
  5
333
330
A
100
AcDbEntity
  8
0
 62
     7
100
AcDbLine
 10
192.013947
 20
114.645026
 30
0.0
 11
191.815854
 21
114.615054
 31
0.0
  0
LINE
  5
334
330
A
100
AcDbEntity
  8
0
 62
     7
100
AcDbLine
 10
191.3232049999999
 20
114.533749
 30
0.0
 11
191.999133
 21
114.64537
 31
0.0
  0
LINE
  5
335
330
A
100
AcDbEntity
  8
0
 62
     7
100
AcDbLine
 10
193.197682
 20
114.827961
 30
0.0
 11
192.688324
 21
114.757336
 31
0.0
  0
LINE
  5
336
330
A
100
AcDbEntity
  8
0
 62
     7
100
AcDbLine
 10
193.786104
 20
114.920978
 30
0.0
 11
193.197682
 21
114.827961
 31
0.0
  0
LINE
  5
337
330
A
100
AcDbEntity
  8
0
 62
     7
100
AcDbLine
 10
194.4365379999999
 20
115.012273
 30
0.0
 11
193.786104
 21
114.920978
 31
0.0
  0
LINE
  5
338
330
A
100
AcDbEntity
  8
0
 62
     7
100
AcDbLine
 10
195.13796
 20
115.058093
 30
0.0
 11
194.4365379999999
 21
115.012273
 31
0.0
  0
LINE
  5
339
330
A
100
AcDbEntity
  8
0
 62
     7
100
AcDbLine
 10
195.878827
 20
115.106669
 30
0.0
 11
195.13796
 21
115.058093
 31
0.0
  0
LINE
  5
33A
330
A
100
AcDbEntity
  8
0
 62
     7
100
AcDbLine
 10
196.646739
 20
115.156623
 30
0.0
 11
195.878827
 21
115.106669
 31
0.0
  0
LINE
  5
33B
330
A
100
AcDbEntity
  8
0
 62
     7
100
AcDbLine
 10
197.408105
 20
115.204509
 30
0.0
 11
196.646739
 21
115.156623
 31
0.0
  0
LINE
  5
33C
330
A
100
AcDbEntity
  8
0
 62
     7
100
AcDbLine
 10
198.111938
 20
115.252396
 30
0.0
 11
197.408105
 21
115.204509
 31
0.0
  0
LINE
  5
33D
330
A
100
AcDbEntity
  8
0
 62
     7
100
AcDbLine
 10
199.433994
 20
115.338524
 30
0.0
 11
198.784593
 21
115.296149
 31
0.0
  0
LINE
  5
33E
330
A
100
AcDbEntity
  8
0
 62
     7
100
AcDbLine
 10
198.784593
 20
115.296149
 30
0.0
 11
198.111938
 21
115.252396
 31
0.0
  0
LINE
  5
33F
330
A
100
AcDbEntity
  8
0
 62
     7
100
AcDbLine
 10
200.048943
 20
115.378487
 30
0.0
 11
199.433994
 21
115.338524
 31
0.0
  0
LINE
  5
340
330
A
100
AcDbEntity
  8
0
 62
     7
100
AcDbLine
 10
200.619107
 20
115.415694
 30
0.0
 11
200.048943
 21
115.378487
 31
0.0
  0
LINE
  5
341
330
A
100
AcDbEntity
  8
0
 62
     7
100
AcDbLine
 10
201.134837
 20
115.449456
 30
0.0
 11
200.619107
 21
115.415694
 31
0.0
  0
LINE
  5
342
330
A
100
AcDbEntity
  8
0
 62
     7
100
AcDbLine
 10
201.586834
 20
115.478739
 30
0.0
 11
201.134837
 21
115.449456
 31
0.0
  0
LINE
  5
343
330
A
100
AcDbEntity
  8
0
 62
     7
100
AcDbLine
 10
201.967861
 20
115.503544
 30
0.0
 11
201.586834
 21
115.478739
 31
0.0
  0
LINE
  5
344
330
A
100
AcDbEntity
  8
0
 62
     7
100
AcDbLine
 10
202.27103
 20
115.523525
 30
0.0
 11
201.967861
 21
115.503544
 31
0.0
  0
LINE
  5
345
330
A
100
AcDbEntity
  8
0
 62
     7
100
AcDbLine
 10
202.491516
 20
115.53765
 30
0.0
 11
202.27103
 21
115.523525
 31
0.0
  0
LINE
  5
346
330
A
100
AcDbEntity
  8
0
 62
     7
100
AcDbLine
 10
202.622774
 20
115.546263
 30
0.0
 11
202.491516
 21
115.53765
 31
0.0
  0
LINE
  5
347
330
A
100
AcDbEntity
  8
0
 62
     7
100
AcDbLine
 10
203.888158
 20
116.692446
 30
0.0
 11
203.932944
 21
117.090355
 31
0.0
  0
LINE
  5
348
330
A
100
AcDbEntity
  8
0
 62
     7
100
AcDbLine
 10
203.756899
 20
116.319687
 30
0.0
 11
203.888158
 21
116.692446
 31
0.0
  0
LINE
  5
349
330
A
100
AcDbEntity
  8
0
 62
     7
100
AcDbLine
 10
203.547782
 20
115.998948
 30
0.0
 11
203.756899
 21
116.319687
 31
0.0
  0
LINE
  5
34A
330
A
100
AcDbEntity
  8
0
 62
     7
100
AcDbLine
 10
203.274586
 20
115.752624
 30
0.0
 11
203.547782
 21
115.998948
 31
0.0
  0
LINE
  5
34B
330
A
100
AcDbEntity
  8
0
 62
     7
100
AcDbLine
 10
202.956259
 20
115.59725
 30
0.0
 11
203.274586
 21
115.752624
 31
0.0
  0
LINE
  5
34C
330
A
100
AcDbEntity
  8
0
 62
     7
100
AcDbLine
 10
202.622774
 20
115.546263
 30
0.0
 11
202.956259
 21
115.59725
 31
0.0
  0
LINE
  5
34D
330
A
100
AcDbEntity
  8
0
 62
     7
100
AcDbLine
 10
189.350716
 20
113.877114
 30
0.0
 11
188.539224
 21
113.986668
 31
0.0
  0
LINE
  5
34E
330
A
100
AcDbEntity
  8
0
 62
     7
100
AcDbLine
 10
188.539224
 20
113.986668
 30
0.0
 11
187.783025
 21
114.30844
 31
0.0
  0
LINE
  5
34F
330
A
100
AcDbEntity
  8
0
 62
     7
100
AcDbLine
 10
187.783025
 20
114.30844
 30
0.0
 11
187.133625
 21
114.820381
 31
0.0
  0
LINE
  5
350
330
A
100
AcDbEntity
  8
0
 62
     7
100
AcDbLine
 10
187.133625
 20
114.820381
 30
0.0
 11
186.635464
 21
115.487352
 31
0.0
  0
LINE
  5
351
330
A
100
AcDbEntity
  8
0
 62
     7
100
AcDbLine
 10
186.635464
 20
115.487352
 30
0.0
 11
186.322133
 21
116.263876
 31
0.0
  0
LINE
  5
352
330
A
100
AcDbEntity
  8
0
 62
     7
100
AcDbLine
 10
186.322133
 20
116.263876
 30
0.0
 11
186.2153349999999
 21
117.097245
 31
0.0
  0
LINE
  5
353
330
A
100
AcDbEntity
  8
0
 62
     7
100
AcDbLine
 10
186.2153349999999
 20
117.097245
 30
0.0
 11
186.322133
 21
117.930958
 31
0.0
  0
LINE
  5
354
330
A
100
AcDbEntity
  8
0
 62
     7
100
AcDbLine
 10
186.322133
 20
117.930958
 30
0.0
 11
186.635464
 21
118.707483
 31
0.0
  0
LINE
  5
355
330
A
100
AcDbEntity
  8
0
 62
     7
100
AcDbLine
 10
186.635464
 20
118.707483
 30
0.0
 11
187.133625
 21
119.374453
 31
0.0
  0
LINE
  5
356
330
A
100
AcDbEntity
  8
0
 62
     7
100
AcDbLine
 10
187.133625
 20
119.374453
 30
0.0
 11
187.783025
 21
119.886394
 31
0.0
  0
LINE
  5
357
330
A
100
AcDbEntity
  8
0
 62
     7
100
AcDbLine
 10
187.783025
 20
119.886394
 30
0.0
 11
188.539224
 21
120.207822
 31
0.0
  0
LINE
  5
358
330
A
100
AcDbEntity
  8
0
 62
     7
100
AcDbLine
 10
188.539224
 20
120.207822
 30
0.0
 11
189.350716
 21
120.31772
 31
0.0
  0
LINE
  5
359
330
A
100
AcDbEntity
  8
0
 62
     7
100
AcDbLine
 10
189.350716
 20
120.31772
 30
0.0
 11
190.162208
 21
120.207822
 31
0.0
  0
LINE
  5
35A
330
A
100
AcDbEntity
  8
0
 62
     7
100
AcDbLine
 10
190.162208
 20
120.207822
 30
0.0
 11
190.918407
 21
119.886394
 31
0.0
  0
LINE
  5
35B
330
A
100
AcDbEntity
  8
0
 62
     7
100
AcDbLine
 10
190.918407
 20
119.886394
 30
0.0
 11
191.567807
 21
119.374453
 31
0.0
  0
LINE
  5
35C
330
A
100
AcDbEntity
  8
0
 62
     7
100
AcDbLine
 10
191.567807
 20
119.374453
 30
0.0
 11
192.065968
 21
118.707483
 31
0.0
  0
LINE
  5
35D
330
A
100
AcDbEntity
  8
0
 62
     7
100
AcDbLine
 10
192.065968
 20
118.707483
 30
0.0
 11
192.378266
 21
117.93337
 31
0.0
  0
LINE
  5
35E
330
A
100
AcDbEntity
  8
0
 62
     7
100
AcDbLine
 10
192.378266
 20
116.261465
 30
0.0
 11
192.065968
 21
115.487352
 31
0.0
  0
LINE
  5
35F
330
A
100
AcDbEntity
  8
0
 62
     7
100
AcDbLine
 10
192.065968
 20
115.487352
 30
0.0
 11
191.567807
 21
114.820381
 31
0.0
  0
LINE
  5
360
330
A
100
AcDbEntity
  8
0
 62
     7
100
AcDbLine
 10
191.567807
 20
114.820381
 30
0.0
 11
190.918407
 21
114.30844
 31
0.0
  0
LINE
  5
361
330
A
100
AcDbEntity
  8
0
 62
     7
100
AcDbLine
 10
190.918407
 20
114.30844
 30
0.0
 11
190.162208
 21
113.986668
 31
0.0
  0
LINE
  5
362
330
A
100
AcDbEntity
  8
0
 62
     7
100
AcDbLine
 10
190.162208
 20
113.986668
 30
0.0
 11
189.350716
 21
113.877114
 31
0.0
  0
LINE
  5
363
330
A
100
AcDbEntity
  8
0
 62
     7
100
AcDbLine
 10
189.350716
 20
115.113559
 30
0.0
 11
188.850833
 21
115.181083
 31
0.0
  0
LINE
  5
364
330
A
100
AcDbEntity
  8
0
 62
     7
100
AcDbLine
 10
188.850833
 20
115.181083
 30
0.0
 11
188.385056
 21
115.37952
 31
0.0
  0
LINE
  5
365
330
A
100
AcDbEntity
  8
0
 62
     7
100
AcDbLine
 10
188.385056
 20
115.37952
 30
0.0
 11
187.9850799999999
 21
115.694747
 31
0.0
  0
LINE
  5
366
330
A
100
AcDbEntity
  8
0
 62
     7
100
AcDbLine
 10
187.9850799999999
 20
115.694747
 30
0.0
 11
187.678122
 21
116.105402
 31
0.0
  0
LINE
  5
367
330
A
100
AcDbEntity
  8
0
 62
     7
100
AcDbLine
 10
187.678122
 20
116.105402
 30
0.0
 11
187.485197
 21
116.583926
 31
0.0
  0
LINE
  5
368
330
A
100
AcDbEntity
  8
0
 62
     7
100
AcDbLine
 10
187.485197
 20
116.583926
 30
0.0
 11
187.419395
 21
117.097245
 31
0.0
  0
LINE
  5
369
330
A
100
AcDbEntity
  8
0
 62
     7
100
AcDbLine
 10
187.419395
 20
117.097245
 30
0.0
 11
187.485197
 21
117.610909
 31
0.0
  0
LINE
  5
36A
330
A
100
AcDbEntity
  8
0
 62
     7
100
AcDbLine
 10
187.485197
 20
117.610909
 30
0.0
 11
187.678122
 21
118.089088
 31
0.0
  0
LINE
  5
36B
330
A
100
AcDbEntity
  8
0
 62
     7
100
AcDbLine
 10
187.678122
 20
118.089088
 30
0.0
 11
187.9850799999999
 21
118.500088
 31
0.0
  0
LINE
  5
36C
330
A
100
AcDbEntity
  8
0
 62
     7
100
AcDbLine
 10
187.9850799999999
 20
118.500088
 30
0.0
 11
188.385056
 21
118.815314
 31
0.0
  0
LINE
  5
36D
330
A
100
AcDbEntity
  8
0
 62
     7
100
AcDbLine
 10
188.385056
 20
118.815314
 30
0.0
 11
188.850833
 21
119.013407
 31
0.0
  0
LINE
  5
36E
330
A
100
AcDbEntity
  8
0
 62
     7
100
AcDbLine
 10
188.850833
 20
119.013407
 30
0.0
 11
189.350716
 21
119.080931
 31
0.0
  0
LINE
  5
36F
330
A
100
AcDbEntity
  8
0
 62
     7
100
AcDbLine
 10
189.350716
 20
119.080931
 30
0.0
 11
189.850599
 21
119.013407
 31
0.0
  0
LINE
  5
370
330
A
100
AcDbEntity
  8
0
 62
     7
100
AcDbLine
 10
189.850599
 20
119.013407
 30
0.0
 11
190.316376
 21
118.815314
 31
0.0
  0
LINE
  5
371
330
A
100
AcDbEntity
  8
0
 62
     7
100
AcDbLine
 10
190.316376
 20
118.815314
 30
0.0
 11
190.7163519999999
 21
118.500088
 31
0.0
  0
LINE
  5
372
330
A
100
AcDbEntity
  8
0
 62
     7
100
AcDbLine
 10
190.7163519999999
 20
118.500088
 30
0.0
 11
190.865697
 21
118.300272
 31
0.0
  0
LINE
  5
373
330
A
100
AcDbEntity
  8
0
 62
     7
100
AcDbLine
 10
190.865697
 20
115.894562
 30
0.0
 11
190.7163519999999
 21
115.694747
 31
0.0
  0
LINE
  5
374
330
A
100
AcDbEntity
  8
0
 62
     7
100
AcDbLine
 10
190.7163519999999
 20
115.694747
 30
0.0
 11
190.316376
 21
115.37952
 31
0.0
  0
LINE
  5
375
330
A
100
AcDbEntity
  8
0
 62
     7
100
AcDbLine
 10
190.316376
 20
115.37952
 30
0.0
 11
189.850599
 21
115.181083
 31
0.0
  0
LINE
  5
376
330
A
100
AcDbEntity
  8
0
 62
     7
100
AcDbLine
 10
189.850599
 20
115.181083
 30
0.0
 11
189.350716
 21
115.113559
 31
0.0
  0
LINE
  5
377
330
A
100
AcDbEntity
  8
0
 62
     7
100
AcDbLine
 10
191.267739
 20
114.06625
 30
0.0
 11
190.445912
 21
113.716573
 31
0.0
  0
LINE
  5
378
330
A
100
AcDbEntity
  8
0
 62
     7
100
AcDbLine
 10
190.445912
 20
113.716573
 30
0.0
 11
189.563967
 21
113.597372
 31
0.0
  0
LINE
  5
379
330
A
100
AcDbEntity
  8
0
 62
     7
100
AcDbLine
 10
189.563967
 20
113.597372
 30
0.0
 11
188.682023
 21
113.716573
 31
0.0
  0
LINE
  5
37A
330
A
100
AcDbEntity
  8
0
 62
     7
100
AcDbLine
 10
188.682023
 20
113.716573
 30
0.0
 11
187.860195
 21
114.06625
 31
0.0
  0
LINE
  5
37B
330
A
100
AcDbEntity
  8
0
 62
     7
100
AcDbLine
 10
187.860195
 20
114.06625
 30
0.0
 11
187.154295
 21
114.622633
 31
0.0
  0
LINE
  5
37C
330
A
100
AcDbEntity
  8
0
 62
     7
100
AcDbLine
 10
187.154295
 20
114.622633
 30
0.0
 11
186.612899
 21
115.347481
 31
0.0
  0
LINE
  5
37D
330
A
100
AcDbEntity
  8
0
 62
     7
100
AcDbLine
 10
186.612899
 20
115.347481
 30
0.0
 11
186.27304
 21
116.189462
 31
0.0
  0
LINE
  5
37E
330
A
100
AcDbEntity
  8
0
 62
     7
100
AcDbLine
 10
186.27304
 20
116.189462
 30
0.0
 11
186.131619
 21
117.097245
 31
0.0
  0
LINE
  5
37F
330
A
100
AcDbEntity
  8
0
 62
     7
100
AcDbLine
 10
186.131619
 20
117.097245
 30
0.0
 11
186.27304
 21
118.005372
 31
0.0
  0
LINE
  5
380
330
A
100
AcDbEntity
  8
0
 62
     7
100
AcDbLine
 10
186.27304
 20
118.005372
 30
0.0
 11
186.612899
 21
118.847353
 31
0.0
  0
LINE
  5
381
330
A
100
AcDbEntity
  8
0
 62
     7
100
AcDbLine
 10
186.612899
 20
118.847353
 30
0.0
 11
187.154295
 21
119.572202
 31
0.0
  0
LINE
  5
382
330
A
100
AcDbEntity
  8
0
 62
     7
100
AcDbLine
 10
187.154295
 20
119.572202
 30
0.0
 11
187.860195
 21
120.128584
 31
0.0
  0
LINE
  5
383
330
A
100
AcDbEntity
  8
0
 62
     7
100
AcDbLine
 10
187.860195
 20
120.128584
 30
0.0
 11
188.682023
 21
120.478262
 31
0.0
  0
LINE
  5
384
330
A
100
AcDbEntity
  8
0
 62
     7
100
AcDbLine
 10
188.682023
 20
120.478262
 30
0.0
 11
189.563967
 21
120.597462
 31
0.0
  0
LINE
  5
385
330
A
100
AcDbEntity
  8
0
 62
     7
100
AcDbLine
 10
189.563967
 20
120.597462
 30
0.0
 11
190.445912
 21
120.478262
 31
0.0
  0
LINE
  5
386
330
A
100
AcDbEntity
  8
0
 62
     7
100
AcDbLine
 10
190.445912
 20
120.478262
 30
0.0
 11
191.267739
 21
120.128584
 31
0.0
  0
LINE
  5
387
330
A
100
AcDbEntity
  8
0
 62
     7
100
AcDbLine
 10
191.273768
 20
114.069695
 30
0.0
 11
191.990693
 21
114.639514
 31
0.0
  0
LINE
  5
388
330
A
100
AcDbEntity
  8
0
 62
     7
100
AcDbLine
 10
191.267739
 20
120.128584
 30
0.0
 11
191.973467
 21
119.572202
 31
0.0
  0
LINE
  5
389
330
A
100
AcDbEntity
  8
0
 62
     7
100
AcDbLine
 10
191.973467
 20
119.572202
 30
0.0
 11
191.999133
 21
119.538095
 31
0.0
  0
LINE
  5
38A
330
A
100
AcDbEntity
  8
0
 62
     7
100
AcDbLine
 10
187.243007
 20
114.713583
 30
0.0
 11
187.205799
 21
114.763537
 31
0.0
  0
DIMENSION
  5
3B2
330
A
100
AcDbEntity
  8
Cotation-JacobDelafon
  6
Continuous
370
     0
100
AcDbDimension
  2
*D1
 10
204.106749
 20
128.2023911978029
 30
0.0
 11
195.119184
 21
130.634110160968
 31
0.0
 70
    32
  1
18
 71
     5
 42
17.97513000000001
 73
     0
 74
     0
 75
     0
  3
Cotation-Jacob-Delafon
100
AcDbAlignedDimension
 13
186.131619
 23
117.097245
 33
0.0
 14
204.106749
 24
117.281558
 34
0.0
100
AcDbRotatedDimension
  0
DIMENSION
  5
3BF
330
A
100
AcDbEntity
  8
Cotation-JacobDelafon
  6
Continuous
370
     0
100
AcDbDimension
  2
*D2
 10
179.3561539837822
 20
113.597372
 30
0.0
 11
176.9561539837822
 21
117.097417
 31
0.0
 70
    32
 71
     5
 42
7.000090000000028
 73
     0
 74
     0
 75
     0
  3
Cotation-Jacob-Delafon
100
AcDbAlignedDimension
 13
189.563967
 23
120.597462
 33
0.0
 14
189.563967
 24
113.597372
 34
0.0
 50
90.0
100
AcDbRotatedDimension
  0
ENDSEC
  0
SECTION
  2
OBJECTS
  0
DICTIONARY
  5
19
330
0
100
AcDbDictionary
281
     1
  3
ACAD_COLOR
350
15A
  3
ACAD_GROUP
350
1A
  3
ACAD_LAYOUT
350
1E
  3
ACAD_MATERIAL
350
130
  3
ACAD_MLEADERSTYLE
350
16F
  3
ACAD_MLINESTYLE
350
1B
  3
ACAD_PLOTSETTINGS
350
22
  3
ACAD_PLOTSTYLENAME
350
1F
  3
ACAD_SCALELIST
350
15D
  3
ACAD_TABLESTYLE
350
15B
  3
ACAD_VISUALSTYLE
350
149
  3
ACAD_WIPEOUT_VARS
350
23
  3
ACDB_RECOMPOSE_DATA
350
286
  3
AcDbVariableDictionary
350
287
  3
AEC_PROPERTY_SET_DEFS
350
3A8
  0
DICTIONARY
  5
27E
330
14
100
AcDbDictionary
280
     1
281
     1
  3
ADSK_XREC_LAYER_RECONCILED
360
27F
  0
DICTIONARY
  5
3AC
330
3AB
100
AcDbDictionary
280
     1
281
     1
  0
DICTIONARY
  5
399
330
A
100
AcDbDictionary
280
     1
281
     1
  3
ACAD_SORTENTS
360
39A
  0
DICTIONARY
  5
15A
102
{ACAD_REACTORS
330
19
102
}
330
19
100
AcDbDictionary
281
     1
  0
DICTIONARY
  5
1A
102
{ACAD_REACTORS
330
19
102
}
330
19
100
AcDbDictionary
281
     1
  0
DICTIONARY
  5
1E
102
{ACAD_REACTORS
330
19
102
}
330
19
100
AcDbDictionary
281
     1
  3
Layout1
350
21
  3
Model
350
20
  0
DICTIONARY
  5
130
102
{ACAD_REACTORS
330
19
102
}
330
19
100
AcDbDictionary
281
     1
  3
ByBlock
350
139
  3
ByLayer
350
131
  3
Global
350
141
  0
DICTIONARY
  5
16F
102
{ACAD_REACTORS
330
19
102
}
330
19
100
AcDbDictionary
281
     1
  3
Standard
350
170
  0
DICTIONARY
  5
1B
102
{ACAD_REACTORS
330
19
102
}
330
19
100
AcDbDictionary
281
     1
  3
Standard
350
1C
  0
DICTIONARY
  5
22
102
{ACAD_REACTORS
330
19
102
}
330
19
100
AcDbDictionary
281
     1
  0
ACDBDICTIONARYWDFLT
  5
1F
102
{ACAD_REACTORS
330
19
102
}
330
19
100
AcDbDictionary
281
     1
  3
Normal
350
1D
100
AcDbDictionaryWithDefault
340
1D
  0
DICTIONARY
  5
15D
102
{ACAD_REACTORS
330
19
102
}
330
19
100
AcDbDictionary
281
     1
  3
A0
350
15E
  3
A1
350
15F
  3
A2
350
160
  3
A3
350
161
  3
A4
350
162
  3
A5
350
163
  3
A6
350
164
  3
A7
350
165
  3
A8
350
166
  3
A9
350
167
  3
B0
350
168
  3
B1
350
169
  3
B2
350
16A
  3
B3
350
16B
  3
B4
350
16C
  3
B5
350
16D
  3
B6
350
16E
  0
DICTIONARY
  5
15B
102
{ACAD_REACTORS
330
19
102
}
330
19
100
AcDbDictionary
281
     1
  3
Standard
350
15C
  0
DICTIONARY
  5
149
102
{ACAD_REACTORS
330
19
102
}
330
19
100
AcDbDictionary
281
     1
  3
2dWireframe
350
14F
  3
3D Hidden
350
151
  3
3dWireframe
350
150
  3
Basic
350
14E
  3
Brighten
350
155
  3
ColorChange
350
159
  3
Conceptual
350
152
  3
Dim
350
154
  3
Facepattern
350
158
  3
Flat
350
14A
  3
FlatWithEdges
350
14B
  3
Gouraud
350
14C
  3
GouraudWithEdges
350
14D
  3
Linepattern
350
157
  3
Realistic
350
153
  3
Thicken
350
156
  0
WIPEOUTVARIABLES
  5
23
330
19
100
AcDbWipeoutVariables
 70
     1
  0
XRECORD
  5
286
102
{ACAD_REACTORS
330
19
102
}
330
19
100
AcDbXrecord
280
     1
 90
        1
330
15C
  0
DICTIONARY
  5
287
102
{ACAD_REACTORS
330
19
102
}
330
19
100
AcDbDictionary
281
     1
  3
CANNOSCALE
350
28B
  3
CMLEADERSTYLE
350
289
  3
CTABLESTYLE
350
288
  3
LAYEREVAL
350
28D
  3
LAYERNOTIFY
350
28E
  3
LIGHTINGUNITS
350
28C
  3
MSLTSCALE
350
28A
  0
DICTIONARY
  5
3A8
102
{ACAD_REACTORS
330
19
102
}
330
19
100
AcDbDictionary
281
     1
  0
XRECORD
  5
27F
102
{ACAD_REACTORS
330
27E
102
}
330
27E
100
AcDbXrecord
280
     1
290
     1
  0
SORTENTSTABLE
  5
39A
102
{ACAD_REACTORS
330
399
102
}
330
399
100
AcDbSortentsTable
330
A
331
2A0
  5
2A0
331
35D
  5
35D
331
2A8
  5
2A8
331
2E7
  5
2E7
331
31E
  5
31E
331
326
  5
326
331
2B0
  5
2B0
331
2EF
  5
2EF
331
365
  5
365
331
36D
  5
36D
331
2F7
  5
2F7
331
32E
  5
32E
331
2B8
  5
2B8
331
336
  5
336
331
2C0
  5
2C0
331
375
  5
375
331
2C8
  5
2C8
331
2FF
  5
2FF
331
33E
  5
33E
331
37D
  5
37D
331
2D0
  5
2D0
331
307
  5
307
331
346
  5
346
331
34E
  5
34E
331
299
  5
299
331
2D8
  5
2D8
331
30F
  5
30F
331
385
  5
385
331
317
  5
317
331
356
  5
356
331
2A1
  5
2A1
331
2E0
  5
2E0
331
35E
  5
35E
331
2E8
  5
2E8
331
31F
  5
31F
331
2A9
  5
2A9
331
366
  5
366
331
2F0
  5
2F0
331
327
  5
327
331
2B1
  5
2B1
331
36E
  5
36E
331
2B9
  5
2B9
331
32F
  5
32F
331
337
  5
337
331
2C1
  5
2C1
331
2F8
  5
2F8
331
33F
  5
33F
331
2C9
  5
2C9
331
300
  5
300
331
376
  5
376
331
37E
  5
37E
331
308
  5
308
331
347
  5
347
331
2D1
  5
2D1
331
386
  5
386
331
2D9
  5
2D9
331
310
  5
310
331
29A
  5
29A
331
34F
  5
34F
331
357
  5
357
331
2E1
  5
2E1
331
318
  5
318
331
2A2
  5
2A2
331
35F
  5
35F
331
2AA
  5
2AA
331
2E9
  5
2E9
331
320
  5
320
331
328
  5
328
331
2B2
  5
2B2
331
2F1
  5
2F1
331
367
  5
367
331
36F
  5
36F
331
330
  5
330
331
2BA
  5
2BA
331
2F9
  5
2F9
331
338
  5
338
331
2C2
  5
2C2
331
377
  5
377
331
2CA
  5
2CA
331
301
  5
301
331
340
  5
340
331
348
  5
348
331
2D2
  5
2D2
331
309
  5
309
331
37F
  5
37F
331
350
  5
350
331
29B
  5
29B
331
2DA
  5
2DA
331
311
  5
311
331
387
  5
387
331
358
  5
358
331
2E2
  5
2E2
331
319
  5
319
331
2A3
  5
2A3
331
360
  5
360
331
2EA
  5
2EA
331
321
  5
321
331
2AB
  5
2AB
331
368
  5
368
331
2F2
  5
2F2
331
329
  5
329
331
2B3
  5
2B3
331
2BB
  5
2BB
331
331
  5
331
331
339
  5
339
331
2C3
  5
2C3
331
2FA
  5
2FA
331
370
  5
370
331
341
  5
341
331
2CB
  5
2CB
331
302
  5
302
331
378
  5
378
331
380
  5
380
331
30A
  5
30A
331
349
  5
349
331
294
  5
294
331
2D3
  5
2D3
331
351
  5
351
331
2DB
  5
2DB
331
312
  5
312
331
388
  5
388
331
29C
  5
29C
331
359
  5
359
331
2E3
  5
2E3
331
31A
  5
31A
331
2A4
  5
2A4
331
361
  5
361
331
2AC
  5
2AC
331
2EB
  5
2EB
331
322
  5
322
331
369
  5
369
331
2F3
  5
2F3
331
32A
  5
32A
331
2B4
  5
2B4
331
332
  5
332
331
2BC
  5
2BC
331
371
  5
371
331
2FB
  5
2FB
331
33A
  5
33A
331
2C4
  5
2C4
331
379
  5
379
331
2CC
  5
2CC
331
303
  5
303
331
342
  5
342
331
34A
  5
34A
331
295
  5
295
331
2D4
  5
2D4
331
30B
  5
30B
331
381
  5
381
331
352
  5
352
331
29D
  5
29D
331
2DC
  5
2DC
331
313
  5
313
331
389
  5
389
331
35A
  5
35A
331
2E4
  5
2E4
331
31B
  5
31B
331
2A5
  5
2A5
331
362
  5
362
331
2EC
  5
2EC
331
323
  5
323
331
2AD
  5
2AD
331
36A
  5
36A
331
2F4
  5
2F4
331
32B
  5
32B
331
2B5
  5
2B5
331
2BD
  5
2BD
331
333
  5
333
331
33B
  5
33B
331
2C5
  5
2C5
331
2FC
  5
2FC
331
372
  5
372
331
37A
  5
37A
331
304
  5
304
331
343
  5
343
331
2CD
  5
2CD
331
382
  5
382
331
30C
  5
30C
331
34B
  5
34B
331
296
  5
296
331
2D5
  5
2D5
331
353
  5
353
331
2DD
  5
2DD
331
314
  5
314
331
38A
  5
38A
331
29E
  5
29E
331
35B
  5
35B
331
2A6
  5
2A6
331
2E5
  5
2E5
331
31C
  5
31C
331
363
  5
363
331
2AE
  5
2AE
331
2ED
  5
2ED
331
324
  5
324
331
36B
  5
36B
331
2F5
  5
2F5
331
32C
  5
32C
331
2B6
  5
2B6
331
334
  5
334
331
2BE
  5
2BE
331
373
  5
373
331
2FD
  5
2FD
331
33C
  5
33C
331
2C6
  5
2C6
331
37B
  5
37B
331
2CE
  5
2CE
331
305
  5
305
331
344
  5
344
331
34C
  5
34C
331
297
  5
297
331
2D6
  5
2D6
331
30D
  5
30D
331
383
  5
383
331
315
  5
315
331
29F
  5
29F
331
2DE
  5
2DE
331
354
  5
354
331
35C
  5
35C
331
2E6
  5
2E6
331
31D
  5
31D
331
2A7
  5
2A7
331
364
  5
364
331
2EE
  5
2EE
331
325
  5
325
331
2AF
  5
2AF
331
36C
  5
36C
331
2B7
  5
2B7
331
2F6
  5
2F6
331
32D
  5
32D
331
2BF
  5
2BF
331
335
  5
335
331
33D
  5
33D
331
2C7
  5
2C7
331
2FE
  5
2FE
331
374
  5
374
331
37C
  5
37C
331
306
  5
306
331
345
  5
345
331
2CF
  5
2CF
331
384
  5
384
331
30E
  5
30E
331
34D
  5
34D
331
298
  5
298
331
2D7
  5
2D7
331
355
  5
355
331
2DF
  5
2DF
331
316
  5
316
  0
LAYOUT
  5
21
102
{ACAD_REACTORS
330
1E
102
}
330
1E
100
AcDbPlotSettings
  1

  2

  4

  6

 40
0.0
 41
0.0
 42
0.0
 43
0.0
 44
0.0
 45
0.0
 46
0.0
 47
0.0
 48
0.0
 49
0.0
140
0.0
141
0.0
142
1.0
143
1.0
 70
     0
 72
     0
 73
     0
 74
     0
  7

 75
     0
147
1.0
 76
     0
 77
     2
 78
   300
148
0.0
149
0.0
100
AcDbLayout
  1
Layout1
 70
     0
 71
     1
 10
0.0
 20
0.0
 11
12.0
 21
9.0
 12
0.0
 22
0.0
 32
0.0
 14
1.000000000000000E+20
 24
1.000000000000000E+20
 34
1.000000000000000E+20
 15
-1.000000000000000E+20
 25
-1.000000000000000E+20
 35
-1.000000000000000E+20
146
0.0
 13
0.0
 23
0.0
 33
0.0
 16
1.0
 26
0.0
 36
0.0
 17
0.0
 27
1.0
 37
0.0
 76
     0
330
B
  0
LAYOUT
  5
20
102
{ACAD_REACTORS
330
1E
102
}
330
1E
100
AcDbPlotSettings
  1

  2

  4

  6

 40
0.0
 41
0.0
 42
0.0
 43
0.0
 44
0.0
 45
0.0
 46
0.0
 47
0.0
 48
0.0
 49
0.0
140
0.0
141
0.0
142
1.0
143
1.0
 70
  1024
 72
     0
 73
     0
 74
     0
  7

 75
     0
147
1.0
 76
     0
 77
     2
 78
   300
148
0.0
149
0.0
100
AcDbLayout
  1
Model
 70
     0
 71
     0
 10
0.0
 20
0.0
 11
0.0
 21
0.0
 12
0.0
 22
0.0
 32
0.0
 14
0.0
 24
0.0
 34
0.0
 15
0.0
 25
0.0
 35
0.0
146
0.0
 13
0.0
 23
0.0
 33
0.0
 16
0.0
 26
0.0
 36
0.0
 17
0.0
 27
0.0
 37
0.0
 76
     0
330
A
331
15
  0
MATERIAL
  5
139
102
{ACAD_XDICTIONARY
360
13A
102
}
102
{ACAD_REACTORS
330
130
102
}
330
130
100
AcDbMaterial
  1
ByBlock
 72
     0
 43
0.0208333333333333
 43
0.0
 43
0.0
 43
0.0
 43
0.0
 43
0.0208333333333333
 43
0.0
 43
0.0
 43
0.0
 43
0.0
 43
1.0
 43
0.0
 43
0.0
 43
0.0
 43
0.0
 43
1.0
 77
     0
 47
0.0208333333333333
 47
0.0
 47
0.0
 47
0.0
 47
0.0
 47
0.0208333333333333
 47
0.0
 47
0.0
 47
0.0
 47
0.0
 47
1.0
 47
0.0
 47
0.0
 47
0.0
 47
0.0
 47
1.0
171
     0
 49
0.0208333333333333
 49
0.0
 49
0.0
 49
0.0
 49
0.0
 49
0.0208333333333333
 49
0.0
 49
0.0
 49
0.0
 49
0.0
 49
1.0
 49
0.0
 49
0.0
 49
0.0
 49
0.0
 49
1.0
175
     0
142
0.0208333333333333
142
0.0
142
0.0
142
0.0
142
0.0
142
0.0208333333333333
142
0.0
142
0.0
142
0.0
142
0.0
142
1.0
142
0.0
142
0.0
142
0.0
142
0.0
142
1.0
179
     0
144
0.0208333333333333
144
0.0
144
0.0
144
0.0
144
0.0
144
0.0208333333333333
144
0.0
144
0.0
144
0.0
144
0.0
144
1.0
144
0.0
144
0.0
144
0.0
144
0.0
144
1.0
147
0.0208333333333333
147
0.0
147
0.0
147
0.0
147
0.0
147
0.0208333333333333
147
0.0
147
0.0
147
0.0
147
0.0
147
1.0
147
0.0
147
0.0
147
0.0
147
0.0
147
1.0
  0
MATERIAL
  5
131
102
{ACAD_XDICTIONARY
360
132
102
}
102
{ACAD_REACTORS
330
130
102
}
330
130
100
AcDbMaterial
  1
ByLayer
 72
     0
 43
0.0208333333333333
 43
0.0
 43
0.0
 43
0.0
 43
0.0
 43
0.0208333333333333
 43
0.0
 43
0.0
 43
0.0
 43
0.0
 43
1.0
 43
0.0
 43
0.0
 43
0.0
 43
0.0
 43
1.0
 77
     0
 47
0.0208333333333333
 47
0.0
 47
0.0
 47
0.0
 47
0.0
 47
0.0208333333333333
 47
0.0
 47
0.0
 47
0.0
 47
0.0
 47
1.0
 47
0.0
 47
0.0
 47
0.0
 47
0.0
 47
1.0
171
     0
 49
0.0208333333333333
 49
0.0
 49
0.0
 49
0.0
 49
0.0
 49
0.0208333333333333
 49
0.0
 49
0.0
 49
0.0
 49
0.0
 49
1.0
 49
0.0
 49
0.0
 49
0.0
 49
0.0
 49
1.0
175
     0
142
0.0208333333333333
142
0.0
142
0.0
142
0.0
142
0.0
142
0.0208333333333333
142
0.0
142
0.0
142
0.0
142
0.0
142
1.0
142
0.0
142
0.0
142
0.0
142
0.0
142
1.0
179
     0
144
0.0208333333333333
144
0.0
144
0.0
144
0.0
144
0.0
144
0.0208333333333333
144
0.0
144
0.0
144
0.0
144
0.0
144
1.0
144
0.0
144
0.0
144
0.0
144
0.0
144
1.0
147
0.0208333333333333
147
0.0
147
0.0
147
0.0
147
0.0
147
0.0208333333333333
147
0.0
147
0.0
147
0.0
147
0.0
147
1.0
147
0.0
147
0.0
147
0.0
147
0.0
147
1.0
  0
MATERIAL
  5
141
102
{ACAD_XDICTIONARY
360
142
102
}
102
{ACAD_REACTORS
330
130
102
}
330
130
100
AcDbMaterial
  1
Global
 72
     0
 43
0.0208333333333333
 43
0.0
 43
0.0
 43
0.0
 43
0.0
 43
0.0208333333333333
 43
0.0
 43
0.0
 43
0.0
 43
0.0
 43
1.0
 43
0.0
 43
0.0
 43
0.0
 43
0.0
 43
1.0
 77
     0
 47
0.0208333333333333
 47
0.0
 47
0.0
 47
0.0
 47
0.0
 47
0.0208333333333333
 47
0.0
 47
0.0
 47
0.0
 47
0.0
 47
1.0
 47
0.0
 47
0.0
 47
0.0
 47
0.0
 47
1.0
171
     0
 49
0.0208333333333333
 49
0.0
 49
0.0
 49
0.0
 49
0.0
 49
0.0208333333333333
 49
0.0
 49
0.0
 49
0.0
 49
0.0
 49
1.0
 49
0.0
 49
0.0
 49
0.0
 49
0.0
 49
1.0
175
     0
142
0.0208333333333333
142
0.0
142
0.0
142
0.0
142
0.0
142
0.0208333333333333
142
0.0
142
0.0
142
0.0
142
0.0
142
1.0
142
0.0
142
0.0
142
0.0
142
0.0
142
1.0
179
     0
144
0.0208333333333333
144
0.0
144
0.0
144
0.0
144
0.0
144
0.0208333333333333
144
0.0
144
0.0
144
0.0
144
0.0
144
1.0
144
0.0
144
0.0
144
0.0
144
0.0
144
1.0
147
0.0208333333333333
147
0.0
147
0.0
147
0.0
147
0.0
147
0.0208333333333333
147
0.0
147
0.0
147
0.0
147
0.0
147
1.0
147
0.0
147
0.0
147
0.0
147
0.0
147
1.0
  0
MLEADERSTYLE
  5
170
102
{ACAD_REACTORS
330
16F
102
}
330
16F
100
AcDbMLeaderStyle
170
     2
171
     1
172
     0
 90
        2
 40
0.0
 41
0.0
173
     1
 91
-1056964608
340
11
 92
       -2
290
     1
 42
2.0
291
     1
 43
0.36
  3
Standard
 44
4.0
300

342
17
174
     1
178
     6
175
     1
176
     0
 93
-1056964608
 45
4.0
292
     0
297
     0
 46
4.0
 94
-1056964608
 47
1.0
 49
1.0
140
1.0
293
     1
141
0.0
294
     1
177
     0
142
1.0
295
     0
296
     0
143
0.125
1001
ACAD_MLEADERVER
1070
     2
  0
MLINESTYLE
  5
1C
102
{ACAD_REACTORS
330
1B
102
}
330
1B
100
AcDbMlineStyle
  2
STANDARD
 70
     0
  3

 62
     0
 51
90.0
 52
90.0
 71
     2
 49
0.5
 62
   256
  6
BYLAYER
 49
-0.5
 62
   256
  6
BYLAYER
  0
ACDBPLACEHOLDER
  5
1D
102
{ACAD_REACTORS
330
1F
102
}
330
1F
  0
SCALE
  5
15E
102
{ACAD_REACTORS
330
15D
102
}
330
15D
100
AcDbScale
 70
     0
300
1:1
140
1.0
141
1.0
290
     1
  0
SCALE
  5
15F
102
{ACAD_REACTORS
330
15D
102
}
330
15D
100
AcDbScale
 70
     0
300
1:2
140
1.0
141
2.0
290
     0
  0
SCALE
  5
160
102
{ACAD_REACTORS
330
15D
102
}
330
15D
100
AcDbScale
 70
     0
300
1:4
140
1.0
141
4.0
290
     0
  0
SCALE
  5
161
102
{ACAD_REACTORS
330
15D
102
}
330
15D
100
AcDbScale
 70
     0
300
1:5
140
1.0
141
5.0
290
     0
  0
SCALE
  5
162
102
{ACAD_REACTORS
330
15D
102
}
330
15D
100
AcDbScale
 70
     0
300
1:8
140
1.0
141
8.0
290
     0
  0
SCALE
  5
163
102
{ACAD_REACTORS
330
15D
102
}
330
15D
100
AcDbScale
 70
     0
300
1:10
140
1.0
141
10.0
290
     0
  0
SCALE
  5
164
102
{ACAD_REACTORS
330
15D
102
}
330
15D
100
AcDbScale
 70
     0
300
1:16
140
1.0
141
16.0
290
     0
  0
SCALE
  5
165
102
{ACAD_REACTORS
330
15D
102
}
330
15D
100
AcDbScale
 70
     0
300
1:20
140
1.0
141
20.0
290
     0
  0
SCALE
  5
166
102
{ACAD_REACTORS
330
15D
102
}
330
15D
100
AcDbScale
 70
     0
300
1:30
140
1.0
141
30.0
290
     0
  0
SCALE
  5
167
102
{ACAD_REACTORS
330
15D
102
}
330
15D
100
AcDbScale
 70
     0
300
1:40
140
1.0
141
40.0
290
     0
  0
SCALE
  5
168
102
{ACAD_REACTORS
330
15D
102
}
330
15D
100
AcDbScale
 70
     0
300
1:50
140
1.0
141
50.0
290
     0
  0
SCALE
  5
169
102
{ACAD_REACTORS
330
15D
102
}
330
15D
100
AcDbScale
 70
     0
300
1:100
140
1.0
141
100.0
290
     0
  0
SCALE
  5
16A
102
{ACAD_REACTORS
330
15D
102
}
330
15D
100
AcDbScale
 70
     0
300
2:1
140
2.0
141
1.0
290
     0
  0
SCALE
  5
16B
102
{ACAD_REACTORS
330
15D
102
}
330
15D
100
AcDbScale
 70
     0
300
4:1
140
4.0
141
1.0
290
     0
  0
SCALE
  5
16C
102
{ACAD_REACTORS
330
15D
102
}
330
15D
100
AcDbScale
 70
     0
300
8:1
140
8.0
141
1.0
290
     0
  0
SCALE
  5
16D
102
{ACAD_REACTORS
330
15D
102
}
330
15D
100
AcDbScale
 70
     0
300
10:1
140
10.0
141
1.0
290
     0
  0
SCALE
  5
16E
102
{ACAD_REACTORS
330
15D
102
}
330
15D
100
AcDbScale
 70
     0
300
100:1
140
100.0
141
1.0
290
     0
  0
TABLESTYLE
  5
15C
102
{ACAD_XDICTIONARY
360
284
102
}
102
{ACAD_REACTORS
330
15B
102
}
330
15B
100
AcDbTableStyle
  3
Standard
 70
     0
 71
     0
 40
1.5
 41
1.5
280
     0
281
     0
  7
Standard
140
4.5
170
     2
 62
     0
 63
     7
283
     0
 90
      512
 91
        0
  1

274
    -2
284
     1
 64
     0
275
    -2
285
     1
 65
     0
276
    -2
286
     1
 66
     0
277
    -2
287
     1
 67
     0
278
    -2
288
     1
 68
     0
279
    -2
289
     1
 69
     0
  7
Standard
140
6.0
170
     5
 62
     0
 63
     7
283
     0
 90
      512
 91
        0
  1

274
    -2
284
     1
 64
     0
275
    -2
285
     1
 65
     0
276
    -2
286
     1
 66
     0
277
    -2
287
     1
 67
     0
278
    -2
288
     1
 68
     0
279
    -2
289
     1
 69
     0
  7
Standard
140
4.5
170
     5
 62
     0
 63
     7
283
     0
 90
      512
 91
        0
  1

274
    -2
284
     1
 64
     0
275
    -2
285
     1
 65
     0
276
    -2
286
     1
 66
     0
277
    -2
287
     1
 67
     0
278
    -2
288
     1
 68
     0
279
    -2
289
     1
 69
     0
  0
VISUALSTYLE
  5
14F
102
{ACAD_REACTORS
330
149
102
}
330
149
100
AcDbVisualStyle
  2
2dWireframe
 70
     4
 71
     0
 72
     2
 73
     0
 90
        0
 40
-0.6
 41
-30.0
 62
     5
 63
     7
421
 16777215
 74
     1
 91
        4
 64
     7
 65
   257
 75
     1
175
     1
 42
1.0
 92
        0
 66
   257
 43
1.0
 76
     1
 77
     6
 78
     2
 67
     7
 79
     5
170
     0
171
     0
290
     0
174
     0
 93
        1
 44
0.0
173
     0
291
     0
 45
0.0
  0
VISUALSTYLE
  5
151
102
{ACAD_REACTORS
330
149
102
}
330
149
100
AcDbVisualStyle
  2
3D Hidden
 70
     6
 71
     1
 72
     2
 73
     2
 90
        0
 40
-0.6
 41
-30.0
 62
     5
 63
     7
421
 16777215
 74
     2
 91
        2
 64
     7
 65
   257
 75
     2
175
     1
 42
40.0
 92
        0
 66
   257
 43
1.0
 76
     1
 77
     6
 78
     2
 67
     7
 79
     3
170
     0
171
     0
290
     0
174
     0
 93
        1
 44
0.0
173
     0
291
     0
 45
0.0
  0
VISUALSTYLE
  5
150
102
{ACAD_REACTORS
330
149
102
}
330
149
100
AcDbVisualStyle
  2
3dWireframe
 70
     5
 71
     0
 72
     2
 73
     0
 90
        0
 40
-0.6
 41
-30.0
 62
     5
 63
     7
421
 16777215
 74
     1
 91
        4
 64
     7
 65
   257
 75
     1
175
     1
 42
1.0
 92
        0
 66
   257
 43
1.0
 76
     1
 77
     6
 78
     2
 67
     7
 79
     5
170
     0
171
     0
290
     0
174
     0
 93
        1
 44
0.0
173
     0
291
     0
 45
0.0
  0
VISUALSTYLE
  5
14E
102
{ACAD_REACTORS
330
149
102
}
330
149
100
AcDbVisualStyle
  2
Basic
 70
     7
 71
     1
 72
     0
 73
     1
 90
        0
 40
-0.6
 41
-30.0
 62
     5
 63
     7
421
 16777215
 74
     0
 91
        4
 64
     7
 65
   257
 75
     1
175
     1
 42
1.0
 92
        8
 66
     7
 43
1.0
 76
     1
 77
     6
 78
     2
 67
     7
 79
     5
170
     0
171
     0
290
     0
174
     0
 93
        1
 44
0.0
173
     0
291
     1
 45
0.0
  0
VISUALSTYLE
  5
155
102
{ACAD_REACTORS
330
149
102
}
330
149
100
AcDbVisualStyle
  2
Brighten
 70
    12
 71
     2
 72
     2
 73
     0
 90
        0
 40
-0.6
 41
-30.0
 62
     5
 63
     7
421
 16777215
 74
     1
 91
        4
 64
     7
 65
   257
 75
     1
175
     1
 42
1.0
 92
        8
 66
     7
 43
1.0
 76
     1
 77
     6
 78
     2
 67
     7
 79
     5
170
     0
171
     0
290
     0
174
     0
 93
        1
 44
50.0
173
     0
291
     1
 45
0.0
  0
VISUALSTYLE
  5
159
102
{ACAD_REACTORS
330
149
102
}
330
149
100
AcDbVisualStyle
  2
ColorChange
 70
    16
 71
     2
 72
     2
 73
     3
 90
        0
 40
-0.6
 41
-30.0
 62
     5
 63
     8
421
  8421504
 74
     1
 91
        4
 64
     7
 65
   257
 75
     1
175
     1
 42
1.0
 92
        8
 66
     8
424
  8421504
 43
1.0
 76
     1
 77
     6
 78
     2
 67
     7
 79
     5
170
     0
171
     0
290
     0
174
     0
 93
        1
 44
0.0
173
     0
291
     1
 45
0.0
  0
VISUALSTYLE
  5
152
102
{ACAD_REACTORS
330
149
102
}
330
149
100
AcDbVisualStyle
  2
Conceptual
 70
     9
 71
     3
 72
     2
 73
     0
 90
        0
 40
-0.6
 41
-30.0
 62
     5
 63
     7
421
 16777215
 74
     2
 91
        2
 64
     7
 65
   257
 75
     1
175
     1
 42
40.0
 92
        8
 66
     7
 43
1.0
 76
     1
 77
     6
 78
     2
 67
     7
 79
     3
170
     0
171
     0
290
     0
174
     0
 93
        1
 44
0.0
173
     0
291
     0
 45
0.0
  0
VISUALSTYLE
  5
154
102
{ACAD_REACTORS
330
149
102
}
330
149
100
AcDbVisualStyle
  2
Dim
 70
    11
 71
     2
 72
     2
 73
     0
 90
        0
 40
-0.6
 41
-30.0
 62
     5
 63
     7
421
 16777215
 74
     1
 91
        4
 64
     7
 65
   257
 75
     1
175
     1
 42
1.0
 92
        8
 66
     7
 43
1.0
 76
     1
 77
     6
 78
     2
 67
     7
 79
     5
170
     0
171
     0
290
     0
174
     0
 93
        1
 44
-50.0
173
     0
291
     1
 45
0.0
  0
VISUALSTYLE
  5
158
102
{ACAD_REACTORS
330
149
102
}
330
149
100
AcDbVisualStyle
  2
Facepattern
 70
    15
 71
     2
 72
     2
 73
     0
 90
        0
 40
-0.6
 41
-30.0
 62
     5
 63
     7
421
 16777215
 74
     1
 91
        4
 64
     7
 65
   257
 75
     1
175
     1
 42
1.0
 92
        8
 66
     7
 43
1.0
 76
     1
 77
     6
 78
     2
 67
     7
 79
     5
170
     0
171
     0
290
     0
174
     0
 93
        1
 44
0.0
173
     0
291
     1
 45
0.0
  0
VISUALSTYLE
  5
14A
102
{ACAD_REACTORS
330
149
102
}
330
149
100
AcDbVisualStyle
  2
Flat
 70
     0
 71
     2
 72
     1
 73
     1
 90
        2
 40
-0.6
 41
30.0
 62
     5
 63
     7
421
 16777215
 74
     0
 91
        4
 64
     7
 65
   257
 75
     1
175
     1
 42
1.0
 92
        8
 66
     7
 43
1.0
 76
     1
 77
     6
 78
     2
 67
     7
 79
     5
170
     0
171
     0
290
     0
174
     0
 93
       13
 44
0.0
173
     0
291
     1
 45
0.0
  0
VISUALSTYLE
  5
14B
102
{ACAD_REACTORS
330
149
102
}
330
149
100
AcDbVisualStyle
  2
FlatWithEdges
 70
     1
 71
     2
 72
     1
 73
     1
 90
        2
 40
-0.6
 41
30.0
 62
     5
 63
     7
421
 16777215
 74
     1
 91
        4
 64
     7
 65
   257
 75
     1
175
     1
 42
1.0
 92
        0
 66
   257
 43
1.0
 76
     1
 77
     6
 78
     2
 67
     7
 79
     5
170
     0
171
     0
290
     0
174
     0
 93
       13
 44
0.0
173
     0
291
     1
 45
0.0
  0
VISUALSTYLE
  5
14C
102
{ACAD_REACTORS
330
149
102
}
330
149
100
AcDbVisualStyle
  2
Gouraud
 70
     2
 71
     2
 72
     2
 73
     1
 90
        2
 40
-0.6
 41
30.0
 62
     5
 63
     7
421
 16777215
 74
     0
 91
        4
 64
     7
 65
   257
 75
     1
175
     1
 42
1.0
 92
        0
 66
     7
 43
1.0
 76
     1
 77
     6
 78
     2
 67
     7
 79
     5
170
     0
171
     0
290
     0
174
     0
 93
       13
 44
0.0
173
     0
291
     1
 45
0.0
  0
VISUALSTYLE
  5
14D
102
{ACAD_REACTORS
330
149
102
}
330
149
100
AcDbVisualStyle
  2
GouraudWithEdges
 70
     3
 71
     2
 72
     2
 73
     1
 90
        2
 40
-0.6
 41
30.0
 62
     5
 63
     7
421
 16777215
 74
     1
 91
        4
 64
     7
 65
   257
 75
     1
175
     1
 42
1.0
 92
        0
 66
   257
 43
1.0
 76
     1
 77
     6
 78
     2
 67
     7
 79
     5
170
     0
171
     0
290
     0
174
     0
 93
       13
 44
0.0
173
     0
291
     1
 45
0.0
  0
VISUALSTYLE
  5
157
102
{ACAD_REACTORS
330
149
102
}
330
149
100
AcDbVisualStyle
  2
Linepattern
 70
    14
 71
     2
 72
     2
 73
     0
 90
        0
 40
-0.6
 41
-30.0
 62
     5
 63
     7
421
 16777215
 74
     1
 91
        4
 64
     7
 65
   257
 75
     7
175
     7
 42
1.0
 92
        8
 66
     7
 43
1.0
 76
     1
 77
     6
 78
     2
 67
     7
 79
     5
170
     0
171
     0
290
     0
174
     0
 93
        1
 44
0.0
173
     0
291
     1
 45
0.0
  0
VISUALSTYLE
  5
153
102
{ACAD_REACTORS
330
149
102
}
330
149
100
AcDbVisualStyle
  2
Realistic
 70
     8
 71
     2
 72
     2
 73
     0
 90
        0
 40
-0.6
 41
-30.0
 62
     5
 63
     7
421
 16777215
 74
     1
 91
        0
 64
     7
 65
   257
 75
     1
175
     1
 42
1.0
 92
        8
 66
     8
424
  7895160
 43
1.0
 76
     1
 77
     6
 78
     2
 67
     7
 79
     5
170
     0
171
     0
290
     0
174
     0
 93
       13
 44
0.0
173
     0
291
     0
 45
0.0
  0
VISUALSTYLE
  5
156
102
{ACAD_REACTORS
330
149
102
}
330
149
100
AcDbVisualStyle
  2
Thicken
 70
    13
 71
     2
 72
     2
 73
     0
 90
        0
 40
-0.6
 41
-30.0
 62
     5
 63
     7
421
 16777215
 74
     1
 91
        4
 64
     7
 65
   257
 75
     1
175
     1
 42
1.0
 92
       12
 66
     7
 43
1.0
 76
     1
 77
     6
 78
     2
 67
     7
 79
     5
170
     0
171
     0
290
     0
174
     0
 93
        1
 44
0.0
173
     0
291
     1
 45
0.0
  0
DICTIONARYVAR
  5
28B
102
{ACAD_REACTORS
330
287
102
}
330
287
100
DictionaryVariables
280
     0
  1
1:1
  0
DICTIONARYVAR
  5
289
102
{ACAD_REACTORS
330
287
102
}
330
287
100
DictionaryVariables
280
     0
  1
STANDARD
  0
DICTIONARYVAR
  5
288
102
{ACAD_REACTORS
330
287
102
}
330
287
100
DictionaryVariables
280
     0
  1
STANDARD
  0
DICTIONARYVAR
  5
28D
102
{ACAD_REACTORS
330
287
102
}
330
287
100
DictionaryVariables
280
     0
  1
1
  0
DICTIONARYVAR
  5
28E
102
{ACAD_REACTORS
330
287
102
}
330
287
100
DictionaryVariables
280
     0
  1
15
  0
DICTIONARYVAR
  5
28C
102
{ACAD_REACTORS
330
287
102
}
330
287
100
DictionaryVariables
280
     0
  1
0
  0
DICTIONARYVAR
  5
28A
102
{ACAD_REACTORS
330
287
102
}
330
287
100
DictionaryVariables
280
     0
  1
0
  0
DICTIONARY
  5
13A
330
139
100
AcDbDictionary
280
     1
281
     1
  3
BUMPTILE
360
13C
  3
DIFFUSETILE
360
13B
  3
OPACITYTILE
360
13F
  3
REFLECTIONTILE
360
13E
  3
REFRACTIONTILE
360
140
  3
SPECULARTILE
360
13D
  0
DICTIONARY
  5
132
330
131
100
AcDbDictionary
280
     1
281
     1
  3
BUMPTILE
360
134
  3
DIFFUSETILE
360
133
  3
OPACITYTILE
360
137
  3
REFLECTIONTILE
360
136
  3
REFRACTIONTILE
360
138
  3
SPECULARTILE
360
135
  0
DICTIONARY
  5
142
330
141
100
AcDbDictionary
280
     1
281
     1
  3
BUMPTILE
360
144
  3
DIFFUSETILE
360
143
  3
OPACITYTILE
360
147
  3
REFLECTIONTILE
360
146
  3
REFRACTIONTILE
360
148
  3
SPECULARTILE
360
145
  0
DICTIONARY
  5
284
330
15C
100
AcDbDictionary
280
     1
281
     1
  3
ACAD_ROUNDTRIP_2008_TABLESTYLE_CELLSTYLEMAP
360
3DC
  0
XRECORD
  5
13C
102
{ACAD_REACTORS
330
13A
102
}
330
13A
100
AcDbXrecord
280
     1
270
     1
271
     1
  0
XRECORD
  5
13B
102
{ACAD_REACTORS
330
13A
102
}
330
13A
100
AcDbXrecord
280
     1
270
     1
271
     1
  0
XRECORD
  5
13F
102
{ACAD_REACTORS
330
13A
102
}
330
13A
100
AcDbXrecord
280
     1
270
     1
271
     1
  0
XRECORD
  5
13E
102
{ACAD_REACTORS
330
13A
102
}
330
13A
100
AcDbXrecord
280
     1
270
     1
271
     1
  0
XRECORD
  5
140
102
{ACAD_REACTORS
330
13A
102
}
330
13A
100
AcDbXrecord
280
     1
270
     1
271
     1
  0
XRECORD
  5
13D
102
{ACAD_REACTORS
330
13A
102
}
330
13A
100
AcDbXrecord
280
     1
270
     1
271
     1
  0
XRECORD
  5
134
102
{ACAD_REACTORS
330
132
102
}
330
132
100
AcDbXrecord
280
     1
270
     1
271
     1
  0
XRECORD
  5
133
102
{ACAD_REACTORS
330
132
102
}
330
132
100
AcDbXrecord
280
     1
270
     1
271
     1
  0
XRECORD
  5
137
102
{ACAD_REACTORS
330
132
102
}
330
132
100
AcDbXrecord
280
     1
270
     1
271
     1
  0
XRECORD
  5
136
102
{ACAD_REACTORS
330
132
102
}
330
132
100
AcDbXrecord
280
     1
270
     1
271
     1
  0
XRECORD
  5
138
102
{ACAD_REACTORS
330
132
102
}
330
132
100
AcDbXrecord
280
     1
270
     1
271
     1
  0
XRECORD
  5
135
102
{ACAD_REACTORS
330
132
102
}
330
132
100
AcDbXrecord
280
     1
270
     1
271
     1
  0
XRECORD
  5
144
102
{ACAD_REACTORS
330
142
102
}
330
142
100
AcDbXrecord
280
     1
270
     1
271
     1
  0
XRECORD
  5
143
102
{ACAD_REACTORS
330
142
102
}
330
142
100
AcDbXrecord
280
     1
270
     1
271
     1
  0
XRECORD
  5
147
102
{ACAD_REACTORS
330
142
102
}
330
142
100
AcDbXrecord
280
     1
270
     1
271
     1
  0
XRECORD
  5
146
102
{ACAD_REACTORS
330
142
102
}
330
142
100
AcDbXrecord
280
     1
270
     1
271
     1
  0
XRECORD
  5
148
102
{ACAD_REACTORS
330
142
102
}
330
142
100
AcDbXrecord
280
     1
270
     1
271
     1
  0
XRECORD
  5
145
102
{ACAD_REACTORS
330
142
102
}
330
142
100
AcDbXrecord
280
     1
270
     1
271
     1
  0
CELLSTYLEMAP
  5
3DC
102
{ACAD_REACTORS
330
284
102
}
330
284
100
AcDbCellStyleMap
 90
        3
300
CELLSTYLE
  1
TABLEFORMAT_BEGIN
 90
        5
170
     1
 91
        0
 92
    32768
 62
   257
 93
        1
300
CONTENTFORMAT
  1
CONTENTFORMAT_BEGIN
 90
        0
 91
        0
 92
      512
 93
        0
300

 40
0.0
140
1.0
 94
        5
 62
     0
340
17
144
6.0
309
CONTENTFORMAT_END
171
     1
301
MARGIN
  1
CELLMARGIN_BEGIN
 40
1.5
 40
1.5
 40
1.5
 40
1.5
 40
4.5
 40
4.5
309
CELLMARGIN_END
 94
        6
 95
        1
302
GRIDFORMAT
  1
GRIDFORMAT_BEGIN
 90
        0
 91
        1
 62
     0
 92
       -2
340
0
 93
        0
 40
1.125
309
GRIDFORMAT_END
 95
        2
302
GRIDFORMAT
  1
GRIDFORMAT_BEGIN
 90
        0
 91
        1
 62
     0
 92
       -2
340
0
 93
        0
 40
1.125
309
GRIDFORMAT_END
 95
        4
302
GRIDFORMAT
  1
GRIDFORMAT_BEGIN
 90
        0
 91
        1
 62
     0
 92
       -2
340
0
 93
        0
 40
1.125
309
GRIDFORMAT_END
 95
        8
302
GRIDFORMAT
  1
GRIDFORMAT_BEGIN
 90
        0
 91
        1
 62
     0
 92
       -2
340
0
 93
        0
 40
1.125
309
GRIDFORMAT_END
 95
       16
302
GRIDFORMAT
  1
GRIDFORMAT_BEGIN
 90
        0
 91
        1
 62
     0
 92
       -2
340
0
 93
        0
 40
1.125
309
GRIDFORMAT_END
 95
       32
302
GRIDFORMAT
  1
GRIDFORMAT_BEGIN
 90
        0
 91
        1
 62
     0
 92
       -2
340
0
 93
        0
 40
1.125
309
GRIDFORMAT_END
309
TABLEFORMAT_END
  1
CELLSTYLE_BEGIN
 90
        1
 91
        1
300
_TITLE
309
CELLSTYLE_END
300
CELLSTYLE
  1
TABLEFORMAT_BEGIN
 90
        5
170
     1
 91
        0
 92
        0
 62
   257
 93
        1
300
CONTENTFORMAT
  1
CONTENTFORMAT_BEGIN
 90
        0
 91
        0
 92
      512
 93
        0
300

 40
0.0
140
1.0
 94
        5
 62
     0
340
17
144
4.5
309
CONTENTFORMAT_END
171
     1
301
MARGIN
  1
CELLMARGIN_BEGIN
 40
1.5
 40
1.5
 40
1.5
 40
1.5
 40
4.5
 40
4.5
309
CELLMARGIN_END
 94
        6
 95
        1
302
GRIDFORMAT
  1
GRIDFORMAT_BEGIN
 90
        0
 91
        1
 62
     0
 92
       -2
340
0
 93
        0
 40
1.125
309
GRIDFORMAT_END
 95
        2
302
GRIDFORMAT
  1
GRIDFORMAT_BEGIN
 90
        0
 91
        1
 62
     0
 92
       -2
340
0
 93
        0
 40
1.125
309
GRIDFORMAT_END
 95
        4
302
GRIDFORMAT
  1
GRIDFORMAT_BEGIN
 90
        0
 91
        1
 62
     0
 92
       -2
340
0
 93
        0
 40
1.125
309
GRIDFORMAT_END
 95
        8
302
GRIDFORMAT
  1
GRIDFORMAT_BEGIN
 90
        0
 91
        1
 62
     0
 92
       -2
340
0
 93
        0
 40
1.125
309
GRIDFORMAT_END
 95
       16
302
GRIDFORMAT
  1
GRIDFORMAT_BEGIN
 90
        0
 91
        1
 62
     0
 92
       -2
340
0
 93
        0
 40
1.125
309
GRIDFORMAT_END
 95
       32
302
GRIDFORMAT
  1
GRIDFORMAT_BEGIN
 90
        0
 91
        1
 62
     0
 92
       -2
340
0
 93
        0
 40
1.125
309
GRIDFORMAT_END
309
TABLEFORMAT_END
  1
CELLSTYLE_BEGIN
 90
        2
 91
        1
300
_HEADER
309
CELLSTYLE_END
300
CELLSTYLE
  1
TABLEFORMAT_BEGIN
 90
        5
170
     1
 91
        0
 92
        0
 62
   257
 93
        1
300
CONTENTFORMAT
  1
CONTENTFORMAT_BEGIN
 90
        0
 91
        0
 92
      512
 93
        0
300

 40
0.0
140
1.0
 94
        2
 62
     0
340
17
144
4.5
309
CONTENTFORMAT_END
171
     1
301
MARGIN
  1
CELLMARGIN_BEGIN
 40
1.5
 40
1.5
 40
1.5
 40
1.5
 40
4.5
 40
4.5
309
CELLMARGIN_END
 94
        6
 95
        1
302
GRIDFORMAT
  1
GRIDFORMAT_BEGIN
 90
        0
 91
        1
 62
     0
 92
       -2
340
0
 93
        0
 40
1.125
309
GRIDFORMAT_END
 95
        2
302
GRIDFORMAT
  1
GRIDFORMAT_BEGIN
 90
        0
 91
        1
 62
     0
 92
       -2
340
0
 93
        0
 40
1.125
309
GRIDFORMAT_END
 95
        4
302
GRIDFORMAT
  1
GRIDFORMAT_BEGIN
 90
        0
 91
        1
 62
     0
 92
       -2
340
0
 93
        0
 40
1.125
309
GRIDFORMAT_END
 95
        8
302
GRIDFORMAT
  1
GRIDFORMAT_BEGIN
 90
        0
 91
        1
 62
     0
 92
       -2
340
0
 93
        0
 40
1.125
309
GRIDFORMAT_END
 95
       16
302
GRIDFORMAT
  1
GRIDFORMAT_BEGIN
 90
        0
 91
        1
 62
     0
 92
       -2
340
0
 93
        0
 40
1.125
309
GRIDFORMAT_END
 95
       32
302
GRIDFORMAT
  1
GRIDFORMAT_BEGIN
 90
        0
 91
        1
 62
     0
 92
       -2
340
0
 93
        0
 40
1.125
309
GRIDFORMAT_END
309
TABLEFORMAT_END
  1
CELLSTYLE_BEGIN
 90
        3
 91
        2
300
_DATA
309
CELLSTYLE_END
  0
ENDSEC
  0
EOF
