  0
SECTION
  2
HEADER
  9
$ACADVER
  1
AC1021
  9
$ACADMAINTVER
 70
    50
  9
$DWGCODEPAGE
  3
ANSI_1252
  9
$LASTSAVEDBY
  1
François
  9
$INSBASE
 10
145.0306825
 20
93.32195200000001
 30
0.0
  9
$EXTMIN
 10
129.4787435711721
 20
92.42798099999999
 30
0.0
  9
$EXTMAX
 10
163.79445
 20
123.0314826057694
 30
0.0
  9
$LIMMIN
 10
129.192803
 20
92.11393000000001
  9
$LIMMAX
 10
164.054758
 20
121.738306
  9
$ORTHOMODE
 70
     0
  9
$REGENMODE
 70
     1
  9
$FILLMODE
 70
     1
  9
$QTEXTMODE
 70
     0
  9
$MIRRTEXT
 70
     1
  9
$LTSCALE
 40
1.0
  9
$ATTMODE
 70
     1
  9
$TEXTSIZE
 40
0.0
  9
$TRACEWID
 40
0.05
  9
$TEXTSTYLE
  7
Standard
  9
$CLAYER
  8
Cotation-JacobDelafon
  9
$CELTYPE
  6
Continuous
  9
$CECOLOR
 62
   256
  9
$CELTSCALE
 40
1.0
  9
$DISPSILH
 70
     0
  9
$DIMSCALE
 40
1.0
  9
$DIMASZ
 40
1.8
  9
$DIMEXO
 40
0.625
  9
$DIMDLI
 40
3.799999999999999
  9
$DIMRND
 40
0.0
  9
$DIMDLE
 40
0.0
  9
$DIMEXE
 40
1.8
  9
$DIMTP
 40
0.0
  9
$DIMTM
 40
0.0
  9
$DIMTXT
 40
3.0
  9
$DIMCEN
 40
0.9
  9
$DIMTSZ
 40
0.0
  9
$DIMTOL
 70
     0
  9
$DIMLIM
 70
     0
  9
$DIMTIH
 70
     0
  9
$DIMTOH
 70
     0
  9
$DIMSE1
 70
     0
  9
$DIMSE2
 70
     0
  9
$DIMTAD
 70
     1
  9
$DIMZIN
 70
    12
  9
$DIMBLK
  1
Oblique
  9
$DIMASO
 70
     1
  9
$DIMSHO
 70
     1
  9
$DIMPOST
  1

  9
$DIMAPOST
  1

  9
$DIMALT
 70
     0
  9
$DIMALTD
 70
     2
  9
$DIMALTF
 40
25.4
  9
$DIMLFAC
 40
1.0
  9
$DIMTOFL
 70
     0
  9
$DIMTVP
 40
0.0
  9
$DIMTIX
 70
     0
  9
$DIMSOXD
 70
     0
  9
$DIMSAH
 70
     0
  9
$DIMBLK1
  1

  9
$DIMBLK2
  1

  9
$DIMSTYLE
  2
Cotation-Jacob-Delafon
  9
$DIMCLRD
 70
     0
  9
$DIMCLRE
 70
     0
  9
$DIMCLRT
 70
     0
  9
$DIMTFAC
 40
1.0
  9
$DIMGAP
 40
0.9
  9
$DIMJUST
 70
     0
  9
$DIMSD1
 70
     0
  9
$DIMSD2
 70
     0
  9
$DIMTOLJ
 70
     1
  9
$DIMTZIN
 70
     0
  9
$DIMALTZ
 70
     0
  9
$DIMALTTZ
 70
     0
  9
$DIMUPT
 70
     0
  9
$DIMDEC
 70
     2
  9
$DIMTDEC
 70
     2
  9
$DIMALTU
 70
     2
  9
$DIMALTTD
 70
     2
  9
$DIMTXSTY
  7
Jacob-Delafon
  9
$DIMAUNIT
 70
     0
  9
$DIMADEC
 70
     0
  9
$DIMALTRND
 40
0.0
  9
$DIMAZIN
 70
     3
  9
$DIMDSEP
 70
    46
  9
$DIMATFIT
 70
     3
  9
$DIMFRAC
 70
     0
  9
$DIMLDRBLK
  1
Oblique
  9
$DIMLUNIT
 70
     2
  9
$DIMLWD
 70
    -2
  9
$DIMLWE
 70
    -2
  9
$DIMTMOVE
 70
     2
  9
$DIMFXL
 40
1.0
  9
$DIMFXLON
 70
     0
  9
$DIMJOGANG
 40
0.7853981633974483
  9
$DIMTFILL
 70
     0
  9
$DIMTFILLCLR
 70
     0
  9
$DIMARCSYM
 70
     0
  9
$DIMLTYPE
  6

  9
$DIMLTEX1
  6

  9
$DIMLTEX2
  6

  9
$LUNITS
 70
     2
  9
$LUPREC
 70
     4
  9
$SKETCHINC
 40
0.1
  9
$FILLETRAD
 40
0.0
  9
$AUNITS
 70
     0
  9
$AUPREC
 70
     0
  9
$MENU
  1
acad
  9
$ELEVATION
 40
0.0
  9
$PELEVATION
 40
0.0
  9
$THICKNESS
 40
0.0
  9
$LIMCHECK
 70
     0
  9
$CHAMFERA
 40
0.0
  9
$CHAMFERB
 40
0.0
  9
$CHAMFERC
 40
0.0
  9
$CHAMFERD
 40
0.0
  9
$SKPOLY
 70
     0
  9
$TDCREATE
 40
2454948.852886285
  9
$TDUCREATE
 40
2454948.769552951
  9
$TDUPDATE
 40
2455006.678106725
  9
$TDUUPDATE
 40
2455006.594773391
  9
$TDINDWG
 40
0.0203891667
  9
$TDUSRTIMER
 40
0.0203891667
  9
$USRTIMER
 70
     1
  9
$ANGBASE
 50
0.0
  9
$ANGDIR
 70
     0
  9
$PDMODE
 70
     0
  9
$PDSIZE
 40
0.0
  9
$PLINEWID
 40
0.0
  9
$SPLFRAME
 70
     0
  9
$SPLINETYPE
 70
     6
  9
$SPLINESEGS
 70
     8
  9
$HANDSEED
  5
845
  9
$SURFTAB1
 70
     6
  9
$SURFTAB2
 70
     6
  9
$SURFTYPE
 70
     6
  9
$SURFU
 70
     6
  9
$SURFV
 70
     6
  9
$UCSBASE
  2

  9
$UCSNAME
  2

  9
$UCSORG
 10
0.0
 20
0.0
 30
0.0
  9
$UCSXDIR
 10
1.0
 20
0.0
 30
0.0
  9
$UCSYDIR
 10
0.0
 20
1.0
 30
0.0
  9
$UCSORTHOREF
  2

  9
$UCSORTHOVIEW
 70
     0
  9
$UCSORGTOP
 10
0.0
 20
0.0
 30
0.0
  9
$UCSORGBOTTOM
 10
0.0
 20
0.0
 30
0.0
  9
$UCSORGLEFT
 10
0.0
 20
0.0
 30
0.0
  9
$UCSORGRIGHT
 10
0.0
 20
0.0
 30
0.0
  9
$UCSORGFRONT
 10
0.0
 20
0.0
 30
0.0
  9
$UCSORGBACK
 10
0.0
 20
0.0
 30
0.0
  9
$PUCSBASE
  2

  9
$PUCSNAME
  2

  9
$PUCSORG
 10
0.0
 20
0.0
 30
0.0
  9
$PUCSXDIR
 10
1.0
 20
0.0
 30
0.0
  9
$PUCSYDIR
 10
0.0
 20
1.0
 30
0.0
  9
$PUCSORTHOREF
  2

  9
$PUCSORTHOVIEW
 70
     0
  9
$PUCSORGTOP
 10
0.0
 20
0.0
 30
0.0
  9
$PUCSORGBOTTOM
 10
0.0
 20
0.0
 30
0.0
  9
$PUCSORGLEFT
 10
0.0
 20
0.0
 30
0.0
  9
$PUCSORGRIGHT
 10
0.0
 20
0.0
 30
0.0
  9
$PUCSORGFRONT
 10
0.0
 20
0.0
 30
0.0
  9
$PUCSORGBACK
 10
0.0
 20
0.0
 30
0.0
  9
$USERI1
 70
     0
  9
$USERI2
 70
     0
  9
$USERI3
 70
     0
  9
$USERI4
 70
     0
  9
$USERI5
 70
     0
  9
$USERR1
 40
0.0
  9
$USERR2
 40
0.0
  9
$USERR3
 40
0.0
  9
$USERR4
 40
0.0
  9
$USERR5
 40
0.0
  9
$WORLDVIEW
 70
     1
  9
$SHADEDGE
 70
     3
  9
$SHADEDIF
 70
    70
  9
$TILEMODE
 70
     1
  9
$MAXACTVP
 70
    16
  9
$PINSBASE
 10
0.0
 20
0.0
 30
0.0
  9
$PLIMCHECK
 70
     0
  9
$PEXTMIN
 10
1.000000000000000E+20
 20
1.000000000000000E+20
 30
1.000000000000000E+20
  9
$PEXTMAX
 10
-1.000000000000000E+20
 20
-1.000000000000000E+20
 30
-1.000000000000000E+20
  9
$PLIMMIN
 10
0.0
 20
0.0
  9
$PLIMMAX
 10
12.0
 20
9.0
  9
$UNITMODE
 70
     0
  9
$VISRETAIN
 70
     0
  9
$PLINEGEN
 70
     1
  9
$PSLTSCALE
 70
     0
  9
$TREEDEPTH
 70
  3020
  9
$CMLSTYLE
  2
Standard
  9
$CMLJUST
 70
     0
  9
$CMLSCALE
 40
1.0
  9
$PROXYGRAPHICS
 70
     0
  9
$MEASUREMENT
 70
     1
  9
$CELWEIGHT
370
     0
  9
$ENDCAPS
280
     0
  9
$JOINSTYLE
280
     0
  9
$LWDISPLAY
290
     0
  9
$INSUNITS
 70
     0
  9
$HYPERLINKBASE
  1

  9
$STYLESHEET
  1

  9
$XEDIT
290
     1
  9
$CEPSNTYPE
380
     0
  9
$PSTYLEMODE
290
     1
  9
$FINGERPRINTGUID
  2

  9
$VERSIONGUID
  2
{12642A21-5016-4FF5-9FC9-2AB059322C5C}
  9
$EXTNAMES
290
     1
  9
$PSVPSCALE
 40
0.0
  9
$OLESTARTUP
290
     0
  9
$SORTENTS
280
   127
  9
$INDEXCTL
280
     0
  9
$HIDETEXT
280
     0
  9
$XCLIPFRAME
290
     0
  9
$HALOGAP
280
     0
  9
$OBSCOLOR
 70
   257
  9
$OBSLTYPE
280
     0
  9
$INTERSECTIONDISPLAY
280
     0
  9
$INTERSECTIONCOLOR
 70
   257
  9
$DIMASSOC
280
     1
  9
$PROJECTNAME
  1

  9
$CAMERADISPLAY
290
     0
  9
$LENSLENGTH
 40
50.0
  9
$CAMERAHEIGHT
 40
0.0
  9
$STEPSPERSEC
 40
2.0
  9
$STEPSIZE
 40
6.0
  9
$3DDWFPREC
 40
2.0
  9
$PSOLWIDTH
 40
0.25
  9
$PSOLHEIGHT
 40
4.0
  9
$LOFTANG1
 40
1.570796326794896
  9
$LOFTANG2
 40
1.570796326794896
  9
$LOFTMAG1
 40
0.0
  9
$LOFTMAG2
 40
0.0
  9
$LOFTPARAM
 70
     7
  9
$LOFTNORMALS
280
     1
  9
$LATITUDE
 40
37.795
  9
$LONGITUDE
 40
-122.394
  9
$NORTHDIRECTION
 40
0.0
  9
$TIMEZONE
 70
 -8000
  9
$LIGHTGLYPHDISPLAY
280
     1
  9
$TILEMODELIGHTSYNCH
280
     1
  9
$CMATERIAL
347
2A1
  9
$SOLIDHIST
280
     1
  9
$SHOWHIST
280
     1
  9
$DWFFRAME
280
     2
  9
$DGNFRAME
280
     0
  9
$REALWORLDSCALE
290
     1
  9
$INTERFERECOLOR
 62
     1
  9
$INTERFEREOBJVS
345
2C3
  9
$INTERFEREVPVS
346
2C0
  9
$CSHADOW
280
     0
  9
$SHADOWPLANELOCATION
 40
0.0
  0
ENDSEC
  0
SECTION
  2
CLASSES
  0
CLASS
  1
IMAGE
  2
AcDbRasterImage
  3
ISM
 90
     2175
 91
        0
280
     0
281
     1
  0
CLASS
  1
DICTIONARYVAR
  2
AcDbDictionaryVar
  3
ObjectDBX Classes
 90
        0
 91
        7
280
     0
281
     0
  0
CLASS
  1
RASTERVARIABLES
  2
AcDbRasterVariables
  3
ISM
 90
        0
 91
        0
280
     0
281
     0
  0
CLASS
  1
IMAGEDEF
  2
AcDbRasterImageDef
  3
ISM
 90
        0
 91
        0
280
     0
281
     0
  0
CLASS
  1
IMAGEDEF_REACTOR
  2
AcDbRasterImageDefReactor
  3
ISM
 90
        1
 91
        0
280
     0
281
     0
  0
CLASS
  1
IDBUFFER
  2
AcDbIdBuffer
  3
ObjectDBX Classes
 90
        0
 91
        0
280
     0
281
     0
  0
CLASS
  1
SPATIAL_FILTER
  2
AcDbSpatialFilter
  3
ObjectDBX Classes
 90
        0
 91
        0
280
     0
281
     0
  0
CLASS
  1
SORTENTSTABLE
  2
AcDbSortentsTable
  3
ObjectDBX Classes
 90
        0
 91
        1
280
     0
281
     0
  0
CLASS
  1
LAYER_INDEX
  2
AcDbLayerIndex
  3
ObjectDBX Classes
 90
        0
 91
        0
280
     0
281
     0
  0
CLASS
  1
SPATIAL_INDEX
  2
AcDbSpatialIndex
  3
ObjectDBX Classes
 90
        0
 91
        0
280
     0
281
     0
  0
CLASS
  1
OBJECT_PTR
  2
CAseDLPNTableRecord
  3
"ASE-LPNTableRecord"
 90
        1
 91
        0
280
     0
281
     0
  0
CLASS
  1
PLOTSETTINGS
  2
AcDbPlotSettings
  3
ObjectDBX Classes
 90
        0
 91
        0
280
     0
281
     0
  0
CLASS
  1
ACDBDICTIONARYWDFLT
  2
AcDbDictionaryWithDefault
  3
ObjectDBX Classes
 90
        0
 91
        1
280
     0
281
     0
  0
CLASS
  1
WIPEOUT
  2
AcDbWipeout
  3
"WipeOut|Product Desc: Object Enabler for WipeOut entity                        |Company: Autodesk, Inc.                        |WEB Address: www.autodesk.com"
 90
     2175
 91
        0
280
     0
281
     1
  0
CLASS
  1
WIPEOUTVARIABLES
  2
AcDbWipeoutVariables
  3
"WipeOut|Product Desc:     WipeOut Dbx Application|Company:          Autodesk, Inc.|WEB Address:      www.autodesk.com"
 90
        0
 91
        1
280
     0
281
     0
  0
CLASS
  1
RTEXT
  2
RText
  3
RText|AutoCAD Express Tool|expresstools@autodesk.com
 90
        0
 91
        0
280
     0
281
     1
  0
CLASS
  1
ARCALIGNEDTEXT
  2
AcDbArcAlignedText
  3
ATEXT|AutoCAD Express Tool|expresstools@autodesk.com
 90
        0
 91
        0
280
     0
281
     1
  0
CLASS
  1
MATERIAL
  2
AcDbMaterial
  3
ObjectDBX Classes
 90
     1153
 91
        3
280
     0
281
     0
  0
CLASS
  1
VISUALSTYLE
  2
AcDbVisualStyle
  3
ObjectDBX Classes
 90
     4095
 91
       16
280
     0
281
     0
  0
CLASS
  1
TABLESTYLE
  2
AcDbTableStyle
  3
ObjectDBX Classes
 90
     4095
 91
        1
280
     0
281
     0
  0
CLASS
  1
SCALE
  2
AcDbScale
  3
ObjectDBX Classes
 90
     1153
 91
       17
280
     0
281
     0
  0
CLASS
  1
MLEADERSTYLE
  2
AcDbMLeaderStyle
  3
ACDB_MLEADERSTYLE_CLASS
 90
     4095
 91
        1
280
     0
281
     0
  0
CLASS
  1
AEC_REFEDIT_STATUS_TRACKER
  2
AecDbRefEditStatusTracker
  3
AecArchBase50|Product Desc: Autodesk Architectural Desktop 2007 |Company: Autodesk,Inc. |WEB Address: www.autodesk.com
 90
      129
 91
        0
280
     0
281
     0
  0
CLASS
  1
NPOCOLLECTION
  2
AcDbImpNonPersistentObjectsCollection
  3
ObjectDBX Classes
 90
     1153
 91
        0
280
     0
281
     0
  0
CLASS
  1
CELLSTYLEMAP
  2
AcDbCellStyleMap
  3
ObjectDBX Classes
 90
     1152
 91
        2
280
     0
281
     0
  0
ENDSEC
  0
SECTION
  2
TABLES
  0
TABLE
  2
VPORT
  5
7
330
0
100
AcDbSymbolTable
 70
     1
  0
VPORT
  5
15
330
7
100
AcDbSymbolTableRecord
100
AcDbViewportTableRecord
  2
*ACTIVE
 70
     0
 10
0.0
 20
0.0
 11
1.0
 21
1.0
 12
139.1280527196331
 22
110.6486028232761
 13
0.0
 23
0.0
 14
1.0
 24
1.0
 15
0.0
 25
0.0
 16
0.0
 26
0.0
 36
1.0
 17
0.0
 27
0.0
 37
0.0
 40
53.48125218351997
 41
1.226824457593688
 42
50.0
 43
0.0
 44
0.0
 50
0.0
 51
0.0
 71
     0
 72
   100
 73
     1
 74
     1
 75
     0
 76
     0
 77
     0
 78
     0
281
     0
 65
     0
110
0.0
120
0.0
130
0.0
111
1.0
121
0.0
131
0.0
112
0.0
122
1.0
132
0.0
 79
     0
146
0.0
348
2BF
 60
     3
 61
     5
292
     1
282
     1
141
0.0
142
0.0
 63
   250
421
  3355443
  0
ENDTAB
  0
TABLE
  2
LTYPE
  5
4
330
0
100
AcDbSymbolTable
 70
     1
  0
LTYPE
  5
11
330
4
100
AcDbSymbolTableRecord
100
AcDbLinetypeTableRecord
  2
ByBlock
 70
     0
  3

 72
    65
 73
     0
 40
0.0
  0
LTYPE
  5
12
330
4
100
AcDbSymbolTableRecord
100
AcDbLinetypeTableRecord
  2
ByLayer
 70
     0
  3

 72
    65
 73
     0
 40
0.0
  0
LTYPE
  5
13
330
4
100
AcDbSymbolTableRecord
100
AcDbLinetypeTableRecord
  2
Continuous
 70
     0
  3
Solid line
 72
    65
 73
     0
 40
0.0
  0
ENDTAB
  0
TABLE
  2
LAYER
  5
2
330
0
100
AcDbSymbolTable
 70
     3
  0
LAYER
  5
14
102
{ACAD_XDICTIONARY
360
55E
102
}
330
2
100
AcDbSymbolTableRecord
100
AcDbLayerTableRecord
  2
0
 70
     0
 62
     7
  6
Continuous
370
    -3
390
1D
347
2B1
  0
LAYER
  5
7EF
330
2
100
AcDbSymbolTableRecord
100
AcDbLayerTableRecord
  2
Defpoints
 70
     0
 62
     7
  6
Continuous
290
     0
370
    -3
390
1D
347
2B1
  0
LAYER
  5
7FB
102
{ACAD_XDICTIONARY
360
7FC
102
}
330
2
100
AcDbSymbolTableRecord
100
AcDbLayerTableRecord
  2
Cotation-JacobDelafon
 70
     0
 62
     8
  6
Continuous
370
    -3
390
1D
347
2B1
  0
ENDTAB
  0
TABLE
  2
STYLE
  5
3
330
0
100
AcDbSymbolTable
 70
     4
  0
STYLE
  5
17
330
3
100
AcDbSymbolTableRecord
100
AcDbTextStyleTableRecord
  2
Standard
 70
     0
 40
0.0
 41
1.0
 50
0.0
 71
     0
 42
0.0
  3
txt
  4

  0
STYLE
  5
24
330
3
100
AcDbSymbolTableRecord
100
AcDbTextStyleTableRecord
  2
STD
 70
     0
 40
0.0
 41
1.0
 50
0.0
 71
     0
 42
0.0
  3
txt
  4

  0
STYLE
  5
7F0
330
3
100
AcDbSymbolTableRecord
100
AcDbTextStyleTableRecord
  2
Annotative
 70
     0
 40
0.0
 41
1.0
 50
0.0
 71
     0
 42
0.2
  3
txt
  4

1001
AcadAnnotative
1000
AnnotativeData
1002
{
1070
     1
1070
     1
1002
}
  0
STYLE
  5
7F1
330
3
100
AcDbSymbolTableRecord
100
AcDbTextStyleTableRecord
  2
Jacob-Delafon
 70
     0
 40
0.0
 41
1.0
 50
0.0
 71
     0
 42
2.5
  3
ARIAL.TTF
  4

1001
ACAD
1000
Arial
1071
       34
  0
ENDTAB
  0
TABLE
  2
VIEW
  5
5
330
0
100
AcDbSymbolTable
 70
     0
  0
ENDTAB
  0
TABLE
  2
UCS
  5
6
330
0
100
AcDbSymbolTable
 70
     0
  0
ENDTAB
  0
TABLE
  2
APPID
  5
8
330
0
100
AcDbSymbolTable
 70
     3
  0
APPID
  5
16
330
8
100
AcDbSymbolTableRecord
100
AcDbRegAppTableRecord
  2
ACAD
 70
     0
  0
APPID
  5
2E1
330
8
100
AcDbSymbolTableRecord
100
AcDbRegAppTableRecord
  2
ACAD_MLEADERVER
 70
     0
  0
APPID
  5
7F4
330
8
100
AcDbSymbolTableRecord
100
AcDbRegAppTableRecord
  2
AcadAnnotative
 70
     0
  0
ENDTAB
  0
TABLE
  2
DIMSTYLE
  5
9
330
0
100
AcDbSymbolTable
 70
     3
100
AcDbDimStyleTable
 71
     1
340
7F3
  0
DIMSTYLE
105
18
330
9
100
AcDbSymbolTableRecord
100
AcDbDimStyleTableRecord
  2
Standard
 70
     0
340
17
  0
DIMSTYLE
105
7F2
330
9
100
AcDbSymbolTableRecord
100
AcDbDimStyleTableRecord
  2
Annotative
 70
     0
340
17
1001
AcadAnnotative
1000
AnnotativeData
1002
{
1070
     1
1070
     1
1002
}
  0
DIMSTYLE
105
7F3
102
{ACAD_REACTORS
330
802
330
80F
102
}
330
9
100
AcDbSymbolTableRecord
100
AcDbDimStyleTableRecord
  2
Cotation-Jacob-Delafon
 70
     0
 41
1.8
 42
0.625
 43
3.799999999999999
 44
1.8
 73
     0
 74
     0
 77
     1
 78
    12
 79
     3
140
3.0
141
0.9
147
0.9
271
     2
272
     2
279
     2
340
7F1
341
7EB
342
7EB
  0
ENDTAB
  0
TABLE
  2
BLOCK_RECORD
  5
1
330
0
100
AcDbSymbolTable
 70
     3
  0
BLOCK_RECORD
  5
A
102
{ACAD_XDICTIONARY
360
7E9
102
}
330
1
100
AcDbSymbolTableRecord
100
AcDbBlockTableRecord
  2
*MODEL_SPACE
340
20
 70
     0
280
     1
281
     0
  0
BLOCK_RECORD
  5
B
330
1
100
AcDbSymbolTableRecord
100
AcDbBlockTableRecord
  2
*PAPER_SPACE
340
21
 70
     0
280
     1
281
     0
  0
BLOCK_RECORD
  5
7EB
330
1
100
AcDbSymbolTableRecord
100
AcDbBlockTableRecord
  2
_Oblique
340
0
102
{BLKREFS
331
81F
331
820
331
828
331
829
102
}
 70
     0
280
     1
281
     0
  0
BLOCK_RECORD
  5
803
330
1
100
AcDbSymbolTableRecord
100
AcDbBlockTableRecord
  2
*D1
340
0
 70
     0
280
     1
281
     0
  0
BLOCK_RECORD
  5
810
330
1
100
AcDbSymbolTableRecord
100
AcDbBlockTableRecord
  2
*D2
340
0
 70
     0
280
     1
281
     0
  0
ENDTAB
  0
ENDSEC
  0
SECTION
  2
BLOCKS
  0
BLOCK
  5
D
330
A
100
AcDbEntity
  8
0
100
AcDbBlockBegin
  2
*MODEL_SPACE
 70
     0
 10
0.0
 20
0.0
 30
0.0
  3
*MODEL_SPACE
  1

  0
ENDBLK
  5
E
330
A
100
AcDbEntity
  8
0
100
AcDbBlockEnd
  0
BLOCK
  5
F
330
B
100
AcDbEntity
 67
     1
  8
0
100
AcDbBlockBegin
  2
*PAPER_SPACE
 70
     0
 10
0.0
 20
0.0
 30
0.0
  3
*PAPER_SPACE
  1

  0
ENDBLK
  5
10
330
B
100
AcDbEntity
 67
     1
  8
0
100
AcDbBlockEnd
  0
BLOCK
  5
7EC
330
7EB
100
AcDbEntity
  8
0
100
AcDbBlockBegin
  2
_Oblique
 70
     0
 10
0.0
 20
0.0
 30
0.0
  3
_Oblique
  1

  0
LINE
  5
7ED
330
7EB
100
AcDbEntity
  8
0
  6
ByBlock
 62
     0
370
    -2
380
     1
100
AcDbLine
 10
-0.5
 20
-0.5
 30
0.0
 11
0.5
 21
0.5
 31
0.0
  0
ENDBLK
  5
7EE
330
7EB
100
AcDbEntity
  8
0
100
AcDbBlockEnd
  0
BLOCK
  5
804
330
803
100
AcDbEntity
  8
0
370
     0
100
AcDbBlockBegin
  2
*D1
 70
     1
 10
0.0
 20
0.0
 30
0.0
  3
*D1
  1

  0
LINE
  5
825
330
803
100
AcDbEntity
  8
Cotation-JacobDelafon
  6
Continuous
 62
     0
370
    -2
100
AcDbLine
 10
144.923109
 20
94.032563
 30
0.0
 11
144.923109
 21
120.0801865621132
 31
0.0
  0
LINE
  5
826
330
803
100
AcDbEntity
  8
Cotation-JacobDelafon
  6
Continuous
 62
     0
370
    -2
100
AcDbLine
 10
162.89445
 20
100.267152
 30
0.0
 11
162.89445
 21
120.0801865621132
 31
0.0
  0
LINE
  5
827
330
803
100
AcDbEntity
  8
Cotation-JacobDelafon
  6
Continuous
 62
     0
370
    -2
100
AcDbLine
 10
144.923109
 20
118.2801865621132
 30
0.0
 11
162.89445
 21
118.2801865621132
 31
0.0
  0
INSERT
  5
828
330
803
100
AcDbEntity
  8
Cotation-JacobDelafon
  6
Continuous
 62
     0
370
    -2
100
AcDbBlockReference
  2
_Oblique
 10
144.923109
 20
118.2801865621132
 30
0.0
 41
1.8
 42
1.8
 43
1.8
 50
180.0
  0
INSERT
  5
829
330
803
100
AcDbEntity
  8
Cotation-JacobDelafon
  6
Continuous
 62
     0
370
    -2
100
AcDbBlockReference
  2
_Oblique
 10
162.89445
 20
118.2801865621132
 30
0.0
 41
1.8
 42
1.8
 43
1.8
  0
MTEXT
  5
82A
330
803
100
AcDbEntity
  8
Cotation-JacobDelafon
  6
Continuous
 62
     0
370
     0
100
AcDbMText
 10
153.9087795
 20
120.7119055252782
 30
0.0
 40
3.0
 41
0.0
 46
0.0
 71
     5
 72
     1
  1
\A1;18
  7
Jacob-Delafon
 73
     1
 44
1.0
  0
POINT
  5
82B
330
803
100
AcDbEntity
  8
Defpoints
  6
Continuous
 62
     0
370
     0
100
AcDbPoint
 10
144.923109
 20
93.407563
 30
0.0
  0
POINT
  5
82C
330
803
100
AcDbEntity
  8
Defpoints
  6
Continuous
 62
     0
370
     0
100
AcDbPoint
 10
162.89445
 20
99.64215199999999
 30
0.0
  0
POINT
  5
82D
330
803
100
AcDbEntity
  8
Defpoints
  6
Continuous
 62
     0
370
     0
100
AcDbPoint
 10
162.89445
 20
118.2801865621132
 30
0.0
  0
ENDBLK
  5
805
330
803
100
AcDbEntity
  8
0
370
     0
100
AcDbBlockEnd
  0
BLOCK
  5
811
330
810
100
AcDbEntity
  8
0
370
     0
100
AcDbBlockBegin
  2
*D2
 70
     1
 10
0.0
 20
0.0
 30
0.0
  3
*D2
  1

  0
LINE
  5
81C
330
810
100
AcDbEntity
  8
Cotation-JacobDelafon
  6
Continuous
 62
     0
370
    -2
100
AcDbLine
 10
153.030393
 20
110.503333
 30
0.0
 11
132.3788799968202
 21
110.503333
 31
0.0
  0
LINE
  5
81D
330
810
100
AcDbEntity
  8
Cotation-JacobDelafon
  6
Continuous
 62
     0
370
    -2
100
AcDbLine
 10
144.378208
 20
93.32798100000001
 30
0.0
 11
132.3788799968202
 21
93.32798100000001
 31
0.0
  0
LINE
  5
81E
330
810
100
AcDbEntity
  8
Cotation-JacobDelafon
  6
Continuous
 62
     0
370
    -2
100
AcDbLine
 10
134.1788799968202
 20
110.503333
 30
0.0
 11
134.1788799968202
 21
93.32798100000001
 31
0.0
  0
INSERT
  5
81F
330
810
100
AcDbEntity
  8
Cotation-JacobDelafon
  6
Continuous
 62
     0
370
    -2
100
AcDbBlockReference
  2
_Oblique
 10
134.1788799968202
 20
110.503333
 30
0.0
 41
1.8
 42
1.8
 43
1.8
 50
90.0
  0
INSERT
  5
820
330
810
100
AcDbEntity
  8
Cotation-JacobDelafon
  6
Continuous
 62
     0
370
    -2
100
AcDbBlockReference
  2
_Oblique
 10
134.1788799968202
 20
93.32798100000001
 30
0.0
 41
1.8
 42
1.8
 43
1.8
 50
270.0
  0
MTEXT
  5
821
330
810
100
AcDbEntity
  8
Cotation-JacobDelafon
  6
Continuous
 62
     0
370
     0
100
AcDbMText
 10
131.7727408426592
 20
101.915657
 30
0.0
 40
3.0
 41
0.0
 46
0.0
 71
     5
 72
     1
  1
\A1;17.2
  7
Jacob-Delafon
 11
0.0000000000000001
 21
1.0
 31
0.0
 73
     1
 44
1.0
  0
POINT
  5
822
330
810
100
AcDbEntity
  8
Defpoints
  6
Continuous
 62
     0
370
     0
100
AcDbPoint
 10
153.655393
 20
110.503333
 30
0.0
  0
POINT
  5
823
330
810
100
AcDbEntity
  8
Defpoints
  6
Continuous
 62
     0
370
     0
100
AcDbPoint
 10
145.003208
 20
93.32798100000001
 30
0.0
  0
POINT
  5
824
330
810
100
AcDbEntity
  8
Defpoints
  6
Continuous
 62
     0
370
     0
100
AcDbPoint
 10
134.1788799968202
 20
93.32798100000001
 30
0.0
  0
ENDBLK
  5
812
330
810
100
AcDbEntity
  8
0
370
     0
100
AcDbBlockEnd
  0
ENDSEC
  0
SECTION
  2
ENTITIES
  0
LINE
  5
574
330
A
100
AcDbEntity
  8
0
 62
     7
100
AcDbLine
 10
145.623153
 20
96.016189
 30
0.0
 11
145.457616
 21
96.014122
 31
0.0
  0
LINE
  5
575
330
A
100
AcDbEntity
  8
0
 62
     7
100
AcDbLine
 10
145.623153
 20
96.016189
 30
0.0
 11
145.457616
 21
96.014122
 31
0.0
  0
LINE
  5
576
330
A
100
AcDbEntity
  8
0
 62
     7
100
AcDbLine
 10
145.700495
 20
96.016189
 30
0.0
 11
145.623153
 21
96.016189
 31
0.0
  0
LINE
  5
577
330
A
100
AcDbEntity
  8
0
 62
     7
100
AcDbLine
 10
145.700495
 20
96.016189
 30
0.0
 11
145.623153
 21
96.016189
 31
0.0
  0
LINE
  5
578
330
A
100
AcDbEntity
  8
0
 62
     7
100
AcDbLine
 10
151.144263
 20
96.01446700000002
 30
0.0
 11
151.169412
 21
96.01446700000002
 31
0.0
  0
LINE
  5
579
330
A
100
AcDbEntity
  8
0
 62
     7
100
AcDbLine
 10
151.144263
 20
96.01446700000002
 30
0.0
 11
151.169412
 21
96.01446700000002
 31
0.0
  0
LINE
  5
57A
330
A
100
AcDbEntity
  8
0
 62
     7
100
AcDbLine
 10
161.100589
 20
99.45715100000001
 30
0.0
 11
161.05029
 21
99.44991600000001
 31
0.0
  0
LINE
  5
57B
330
A
100
AcDbEntity
  8
0
 62
     7
100
AcDbLine
 10
161.100589
 20
99.45715100000001
 30
0.0
 11
161.05029
 21
99.44991600000001
 31
0.0
  0
LINE
  5
57C
330
A
100
AcDbEntity
  8
0
 62
     7
100
AcDbLine
 10
160.726796
 20
99.38549300000001
 30
0.0
 11
160.457045
 21
99.331405
 31
0.0
  0
LINE
  5
57D
330
A
100
AcDbEntity
  8
0
 62
     7
100
AcDbLine
 10
160.726796
 20
99.38549300000001
 30
0.0
 11
160.457045
 21
99.331405
 31
0.0
  0
LINE
  5
57E
330
A
100
AcDbEntity
  8
0
 62
     7
100
AcDbLine
 10
160.457045
 20
99.331405
 30
0.0
 11
160.453255
 21
99.33037099999999
 31
0.0
  0
LINE
  5
57F
330
A
100
AcDbEntity
  8
0
 62
     7
100
AcDbLine
 10
160.457045
 20
99.331405
 30
0.0
 11
160.453255
 21
99.33037099999999
 31
0.0
  0
LINE
  5
580
330
A
100
AcDbEntity
  8
0
 62
     7
100
AcDbLine
 10
160.452222
 20
99.33002700000001
 30
0.0
 11
160.246894
 21
99.288685
 31
0.0
  0
LINE
  5
581
330
A
100
AcDbEntity
  8
0
 62
     7
100
AcDbLine
 10
160.452222
 20
99.33002700000001
 30
0.0
 11
160.246894
 21
99.288685
 31
0.0
  0
LINE
  5
582
330
A
100
AcDbEntity
  8
0
 62
     7
100
AcDbLine
 10
160.246894
 20
99.288685
 30
0.0
 11
160.242415
 21
99.287652
 31
0.0
  0
LINE
  5
583
330
A
100
AcDbEntity
  8
0
 62
     7
100
AcDbLine
 10
160.246894
 20
99.288685
 30
0.0
 11
160.242415
 21
99.287652
 31
0.0
  0
LINE
  5
584
330
A
100
AcDbEntity
  8
0
 62
     7
100
AcDbLine
 10
160.241726
 20
99.287307
 30
0.0
 11
160.113224
 21
99.26146899999999
 31
0.0
  0
LINE
  5
585
330
A
100
AcDbEntity
  8
0
 62
     7
100
AcDbLine
 10
160.241726
 20
99.287307
 30
0.0
 11
160.113224
 21
99.26146899999999
 31
0.0
  0
LINE
  5
586
330
A
100
AcDbEntity
  8
0
 62
     7
100
AcDbLine
 10
160.109779
 20
99.26043599999999
 30
0.0
 11
160.066026
 21
99.25147800000001
 31
0.0
  0
LINE
  5
587
330
A
100
AcDbEntity
  8
0
 62
     7
100
AcDbLine
 10
160.109779
 20
99.26043599999999
 30
0.0
 11
160.066026
 21
99.25147800000001
 31
0.0
  0
LINE
  5
588
330
A
100
AcDbEntity
  8
0
 62
     7
100
AcDbLine
 10
150.627498
 20
103.516162
 30
0.0
 11
146.341111
 21
103.516162
 31
0.0
  0
LINE
  5
589
330
A
100
AcDbEntity
  8
0
 62
     7
100
AcDbLine
 10
146.356786
 20
103.516162
 30
0.0
 11
145.9581879999999
 21
103.516162
 31
0.0
  0
LINE
  5
58A
330
A
100
AcDbEntity
  8
0
 62
     7
100
AcDbLine
 10
145.9581879999999
 20
103.516162
 30
0.0
 11
145.70773
 21
103.516507
 31
0.0
  0
LINE
  5
58B
330
A
100
AcDbEntity
  8
0
 62
     7
100
AcDbLine
 10
145.9581879999999
 20
103.516162
 30
0.0
 11
145.70773
 21
103.516507
 31
0.0
  0
LINE
  5
58C
330
A
100
AcDbEntity
  8
0
 62
     7
100
AcDbLine
 10
145.70773
 20
103.516507
 30
0.0
 11
145.664838
 21
103.516162
 31
0.0
  0
LINE
  5
58D
330
A
100
AcDbEntity
  8
0
 62
     7
100
AcDbLine
 10
145.70773
 20
103.516507
 30
0.0
 11
145.664838
 21
103.516162
 31
0.0
  0
LINE
  5
58E
330
A
100
AcDbEntity
  8
0
 62
     7
100
AcDbLine
 10
145.664838
 20
103.516162
 30
0.0
 11
145.658809
 21
103.516507
 31
0.0
  0
LINE
  5
58F
330
A
100
AcDbEntity
  8
0
 62
     7
100
AcDbLine
 10
145.664838
 20
103.516162
 30
0.0
 11
145.658809
 21
103.516507
 31
0.0
  0
LINE
  5
590
330
A
100
AcDbEntity
  8
0
 62
     7
100
AcDbLine
 10
145.658809
 20
103.516507
 30
0.0
 11
145.623153
 21
103.51754
 31
0.0
  0
LINE
  5
591
330
A
100
AcDbEntity
  8
0
 62
     7
100
AcDbLine
 10
145.658809
 20
103.516507
 30
0.0
 11
145.623153
 21
103.51754
 31
0.0
  0
LINE
  5
592
330
A
100
AcDbEntity
  8
0
 62
     7
100
AcDbLine
 10
150.633011
 20
103.517196
 30
0.0
 11
150.637834
 21
103.51754
 31
0.0
  0
LINE
  5
593
330
A
100
AcDbEntity
  8
0
 62
     7
100
AcDbLine
 10
150.633011
 20
103.517196
 30
0.0
 11
150.637834
 21
103.51754
 31
0.0
  0
LINE
  5
594
330
A
100
AcDbEntity
  8
0
 62
     7
100
AcDbLine
 10
146.960711
 20
96.016189
 30
0.0
 11
146.976558
 21
96.016189
 31
0.0
  0
LINE
  5
595
330
A
100
AcDbEntity
  8
0
 62
     7
100
AcDbLine
 10
147.28989
 20
96.016189
 30
0.0
 11
147.63595
 21
96.016189
 31
0.0
  0
LINE
  5
596
330
A
100
AcDbEntity
  8
0
 62
     7
100
AcDbLine
 10
146.976558
 20
96.016189
 30
0.0
 11
147.028579
 21
96.016189
 31
0.0
  0
LINE
  5
597
330
A
100
AcDbEntity
  8
0
 62
     7
100
AcDbLine
 10
147.63595
 20
96.016189
 30
0.0
 11
148.231779
 21
96.016189
 31
0.0
  0
LINE
  5
598
330
A
100
AcDbEntity
  8
0
 62
     7
100
AcDbLine
 10
151.074672
 20
95.51596100000001
 30
0.0
 11
151.275176
 21
95.522852
 31
0.0
  0
LINE
  5
599
330
A
100
AcDbEntity
  8
0
 62
     7
100
AcDbLine
 10
150.711903
 20
95.51596100000001
 30
0.0
 11
150.984755
 21
95.51596100000001
 31
0.0
  0
LINE
  5
59A
330
A
100
AcDbEntity
  8
0
 62
     7
100
AcDbLine
 10
150.277132
 20
95.51596100000001
 30
0.0
 11
150.711903
 21
95.51596100000001
 31
0.0
  0
LINE
  5
59B
330
A
100
AcDbEntity
  8
0
 62
     7
100
AcDbLine
 10
149.710758
 20
95.51596100000001
 30
0.0
 11
150.277132
 21
95.51596100000001
 31
0.0
  0
LINE
  5
59C
330
A
100
AcDbEntity
  8
0
 62
     7
100
AcDbLine
 10
149.051367
 20
95.51596100000001
 30
0.0
 11
149.710758
 21
95.51596100000001
 31
0.0
  0
LINE
  5
59D
330
A
100
AcDbEntity
  8
0
 62
     7
100
AcDbLine
 10
148.343745
 20
95.51596100000001
 30
0.0
 11
149.051367
 21
95.51596100000001
 31
0.0
  0
LINE
  5
59E
330
A
100
AcDbEntity
  8
0
 62
     7
100
AcDbLine
 10
147.63595
 20
95.51596100000001
 30
0.0
 11
148.343745
 21
95.51596100000001
 31
0.0
  0
LINE
  5
59F
330
A
100
AcDbEntity
  8
0
 62
     7
100
AcDbLine
 10
146.976558
 20
95.51596100000001
 30
0.0
 11
147.63595
 21
95.51596100000001
 31
0.0
  0
LINE
  5
5A0
330
A
100
AcDbEntity
  8
0
 62
     7
100
AcDbLine
 10
146.410185
 20
95.51596100000001
 30
0.0
 11
146.976558
 21
95.51596100000001
 31
0.0
  0
LINE
  5
5A1
330
A
100
AcDbEntity
  8
0
 62
     7
100
AcDbLine
 10
145.975586
 20
95.51596100000001
 30
0.0
 11
146.410185
 21
95.51596100000001
 31
0.0
  0
LINE
  5
5A2
330
A
100
AcDbEntity
  8
0
 62
     7
100
AcDbLine
 10
145.700495
 20
95.51596100000001
 30
0.0
 11
145.975586
 21
95.51596100000001
 31
0.0
  0
LINE
  5
5A3
330
A
100
AcDbEntity
  8
0
 62
     7
100
AcDbLine
 10
145.383891
 20
95.522852
 30
0.0
 11
145.584568
 21
95.51596100000001
 31
0.0
  0
LINE
  5
5A4
330
A
100
AcDbEntity
  8
0
 62
     7
100
AcDbLine
 10
145.584568
 20
95.51596100000001
 30
0.0
 11
145.700495
 21
95.51596100000001
 31
0.0
  0
LINE
  5
5A5
330
A
100
AcDbEntity
  8
0
 62
     7
100
AcDbLine
 10
145.700495
 20
95.51596100000001
 30
0.0
 11
145.584568
 21
95.51596100000001
 31
0.0
  0
LINE
  5
5A6
330
A
100
AcDbEntity
  8
0
 62
     7
100
AcDbLine
 10
150.711903
 20
95.51596100000001
 30
0.0
 11
150.277132
 21
95.51596100000001
 31
0.0
  0
LINE
  5
5A7
330
A
100
AcDbEntity
  8
0
 62
     7
100
AcDbLine
 10
151.275176
 20
95.522852
 30
0.0
 11
151.379563
 21
95.57108300000001
 31
0.0
  0
LINE
  5
5A8
330
A
100
AcDbEntity
  8
0
 62
     7
100
AcDbLine
 10
145.279504
 20
95.57108300000001
 30
0.0
 11
145.383891
 21
95.522852
 31
0.0
  0
LINE
  5
5A9
330
A
100
AcDbEntity
  8
0
 62
     7
100
AcDbLine
 10
151.379563
 20
95.57108300000001
 30
0.0
 11
151.450187
 21
95.642741
 31
0.0
  0
LINE
  5
5AA
330
A
100
AcDbEntity
  8
0
 62
     7
100
AcDbLine
 10
145.209052
 20
95.642741
 30
0.0
 11
145.279504
 21
95.57108300000001
 31
0.0
  0
LINE
  5
5AB
330
A
100
AcDbEntity
  8
0
 62
     7
100
AcDbLine
 10
151.450187
 20
95.642741
 30
0.0
 11
151.475681
 21
95.730246
 31
0.0
  0
LINE
  5
5AC
330
A
100
AcDbEntity
  8
0
 62
     7
100
AcDbLine
 10
145.183214
 20
95.730246
 30
0.0
 11
145.209052
 21
95.642741
 31
0.0
  0
LINE
  5
5AD
330
A
100
AcDbEntity
  8
0
 62
     7
100
AcDbLine
 10
151.475681
 20
95.730246
 30
0.0
 11
151.475681
 21
95.80534899999999
 31
0.0
  0
LINE
  5
5AE
330
A
100
AcDbEntity
  8
0
 62
     7
100
AcDbLine
 10
145.183214
 20
95.80534899999999
 30
0.0
 11
145.183214
 21
95.730246
 31
0.0
  0
LINE
  5
5AF
330
A
100
AcDbEntity
  8
0
 62
     7
100
AcDbLine
 10
151.475681
 20
95.80534899999999
 30
0.0
 11
151.450187
 21
95.89319899999999
 31
0.0
  0
LINE
  5
5B0
330
A
100
AcDbEntity
  8
0
 62
     7
100
AcDbLine
 10
145.209052
 20
95.89319899999999
 30
0.0
 11
145.183214
 21
95.80534899999999
 31
0.0
  0
LINE
  5
5B1
330
A
100
AcDbEntity
  8
0
 62
     7
100
AcDbLine
 10
151.450187
 20
95.89319899999999
 30
0.0
 11
151.379563
 21
95.964513
 31
0.0
  0
LINE
  5
5B2
330
A
100
AcDbEntity
  8
0
 62
     7
100
AcDbLine
 10
145.279504
 20
95.964513
 30
0.0
 11
145.209052
 21
95.89319899999999
 31
0.0
  0
LINE
  5
5B3
330
A
100
AcDbEntity
  8
0
 62
     7
100
AcDbLine
 10
151.379563
 20
95.964513
 30
0.0
 11
151.275176
 21
96.01274400000001
 31
0.0
  0
LINE
  5
5B4
330
A
100
AcDbEntity
  8
0
 62
     7
100
AcDbLine
 10
145.383891
 20
96.01274400000001
 30
0.0
 11
145.279504
 21
95.964513
 31
0.0
  0
LINE
  5
5B5
330
A
100
AcDbEntity
  8
0
 62
     7
100
AcDbLine
 10
151.275176
 20
96.01274400000001
 30
0.0
 11
151.169412
 21
96.01446700000002
 31
0.0
  0
LINE
  5
5B6
330
A
100
AcDbEntity
  8
0
 62
     7
100
AcDbLine
 10
145.456755
 20
96.014122
 30
0.0
 11
145.383891
 21
96.01274400000001
 31
0.0
  0
LINE
  5
5B7
330
A
100
AcDbEntity
  8
0
 62
     7
100
AcDbLine
 10
162.89445
 20
99.64215199999999
 30
0.0
 11
162.911331
 21
99.55774699999999
 31
0.0
  0
LINE
  5
5B8
330
A
100
AcDbEntity
  8
0
 62
     7
100
AcDbLine
 10
159.959918
 20
98.969325
 30
0.0
 11
159.943037
 21
99.05373
 31
0.0
  0
LINE
  5
5B9
330
A
100
AcDbEntity
  8
0
 62
     7
100
AcDbLine
 10
160.204864
 20
98.84289
 30
0.0
 11
160.160422
 21
98.83393300000001
 31
0.0
  0
LINE
  5
5BA
330
A
100
AcDbEntity
  8
0
 62
     7
100
AcDbLine
 10
162.77835
 20
99.35586500000001
 30
0.0
 11
162.733908
 21
99.346908
 31
0.0
  0
LINE
  5
5BB
330
A
100
AcDbEntity
  8
0
 62
     7
100
AcDbLine
 10
162.733908
 20
99.346908
 30
0.0
 11
162.603684
 21
99.321069
 31
0.0
  0
LINE
  5
5BC
330
A
100
AcDbEntity
  8
0
 62
     7
100
AcDbLine
 10
162.603684
 20
99.321069
 30
0.0
 11
162.395945
 21
99.279728
 31
0.0
  0
LINE
  5
5BD
330
A
100
AcDbEntity
  8
0
 62
     7
100
AcDbLine
 10
162.395945
 20
99.279728
 30
0.0
 11
162.12516
 21
99.22564000000001
 31
0.0
  0
LINE
  5
5BE
330
A
100
AcDbEntity
  8
0
 62
     7
100
AcDbLine
 10
162.12516
 20
99.22564000000001
 30
0.0
 11
161.8089
 21
99.162595
 31
0.0
  0
LINE
  5
5BF
330
A
100
AcDbEntity
  8
0
 62
     7
100
AcDbLine
 10
161.8089
 20
99.162595
 30
0.0
 11
161.469558
 21
99.09507099999999
 31
0.0
  0
LINE
  5
5C0
330
A
100
AcDbEntity
  8
0
 62
     7
100
AcDbLine
 10
161.469558
 20
99.09507099999999
 30
0.0
 11
161.129872
 21
99.027203
 31
0.0
  0
LINE
  5
5C1
330
A
100
AcDbEntity
  8
0
 62
     7
100
AcDbLine
 10
161.129872
 20
99.027203
 30
0.0
 11
160.813612
 21
98.964157
 31
0.0
  0
LINE
  5
5C2
330
A
100
AcDbEntity
  8
0
 62
     7
100
AcDbLine
 10
160.813612
 20
98.964157
 30
0.0
 11
160.542828
 21
98.910069
 31
0.0
  0
LINE
  5
5C3
330
A
100
AcDbEntity
  8
0
 62
     7
100
AcDbLine
 10
160.542828
 20
98.910069
 30
0.0
 11
160.3350879999999
 21
98.868728
 31
0.0
  0
LINE
  5
5C4
330
A
100
AcDbEntity
  8
0
 62
     7
100
AcDbLine
 10
160.3350879999999
 20
98.868728
 30
0.0
 11
160.204864
 21
98.84289
 31
0.0
  0
LINE
  5
5C5
330
A
100
AcDbEntity
  8
0
 62
     7
100
AcDbLine
 10
160.729207
 20
99.385837
 30
0.0
 11
161.045123
 21
99.44888200000001
 31
0.0
  0
LINE
  5
5C6
330
A
100
AcDbEntity
  8
0
 62
     7
100
AcDbLine
 10
161.045123
 20
99.44888200000001
 30
0.0
 11
161.05029
 21
99.44991600000001
 31
0.0
  0
LINE
  5
5C7
330
A
100
AcDbEntity
  8
0
 62
     7
100
AcDbLine
 10
162.840706
 20
99.38204800000001
 30
0.0
 11
162.77835
 21
99.35586500000001
 31
0.0
  0
LINE
  5
5C8
330
A
100
AcDbEntity
  8
0
 62
     7
100
AcDbLine
 10
162.886526
 20
99.42890099999999
 30
0.0
 11
162.840706
 21
99.38204800000001
 31
0.0
  0
LINE
  5
5C9
330
A
100
AcDbEntity
  8
0
 62
     7
100
AcDbLine
 10
162.911331
 20
99.48953500000001
 30
0.0
 11
162.886526
 21
99.42890099999999
 31
0.0
  0
LINE
  5
5CA
330
A
100
AcDbEntity
  8
0
 62
     7
100
AcDbLine
 10
162.911331
 20
99.55774699999999
 30
0.0
 11
162.911331
 21
99.48953500000001
 31
0.0
  0
LINE
  5
5CB
330
A
100
AcDbEntity
  8
0
 62
     7
100
AcDbLine
 10
160.160422
 20
98.83393300000001
 30
0.0
 11
160.092898
 21
98.834277
 31
0.0
  0
LINE
  5
5CC
330
A
100
AcDbEntity
  8
0
 62
     7
100
AcDbLine
 10
160.092898
 20
98.834277
 30
0.0
 11
160.032609
 21
98.85977099999999
 31
0.0
  0
LINE
  5
5CD
330
A
100
AcDbEntity
  8
0
 62
     7
100
AcDbLine
 10
160.032609
 20
98.85977099999999
 30
0.0
 11
159.9861
 21
98.90628000000001
 31
0.0
  0
LINE
  5
5CE
330
A
100
AcDbEntity
  8
0
 62
     7
100
AcDbLine
 10
159.9861
 20
98.90628000000001
 30
0.0
 11
159.959918
 21
98.969325
 31
0.0
  0
LINE
  5
5CF
330
A
100
AcDbEntity
  8
0
 62
     7
100
AcDbLine
 10
162.761125
 20
99.77719999999999
 30
0.0
 11
162.693601
 21
99.777544
 31
0.0
  0
LINE
  5
5D0
330
A
100
AcDbEntity
  8
0
 62
     7
100
AcDbLine
 10
162.821414
 20
99.751706
 30
0.0
 11
162.761125
 21
99.77719999999999
 31
0.0
  0
LINE
  5
5D1
330
A
100
AcDbEntity
  8
0
 62
     7
100
AcDbLine
 10
162.868267
 20
99.705197
 30
0.0
 11
162.821414
 21
99.751706
 31
0.0
  0
LINE
  5
5D2
330
A
100
AcDbEntity
  8
0
 62
     7
100
AcDbLine
 10
162.89445
 20
99.64215199999999
 30
0.0
 11
162.868267
 21
99.705197
 31
0.0
  0
LINE
  5
5D3
330
A
100
AcDbEntity
  8
0
 62
     7
100
AcDbLine
 10
160.066026
 20
99.25147800000001
 30
0.0
 11
160.013661
 21
99.22943000000001
 31
0.0
  0
LINE
  5
5D4
330
A
100
AcDbEntity
  8
0
 62
     7
100
AcDbLine
 10
160.013661
 20
99.22943000000001
 30
0.0
 11
159.967841
 21
99.182921
 31
0.0
  0
LINE
  5
5D5
330
A
100
AcDbEntity
  8
0
 62
     7
100
AcDbLine
 10
159.967841
 20
99.182921
 30
0.0
 11
159.942692
 21
99.12194300000001
 31
0.0
  0
LINE
  5
5D6
330
A
100
AcDbEntity
  8
0
 62
     7
100
AcDbLine
 10
159.942692
 20
99.12194300000001
 30
0.0
 11
159.943037
 21
99.05373
 31
0.0
  0
LINE
  5
5D7
330
A
100
AcDbEntity
  8
0
 62
     7
100
AcDbLine
 10
146.895254
 20
109.016429
 30
0.0
 11
146.851674
 21
109.016429
 31
0.0
  0
LINE
  5
5D8
330
A
100
AcDbEntity
  8
0
 62
     7
100
AcDbLine
 10
149.365904
 20
109.016429
 30
0.0
 11
149.409313
 21
109.016429
 31
0.0
  0
LINE
  5
5D9
330
A
100
AcDbEntity
  8
0
 62
     7
100
AcDbLine
 10
149.409313
 20
109.016429
 30
0.0
 11
149.365904
 21
109.016429
 31
0.0
  0
LINE
  5
5DA
330
A
100
AcDbEntity
  8
0
 62
     7
100
AcDbLine
 10
149.365904
 20
109.016429
 30
0.0
 11
149.238091
 21
109.016429
 31
0.0
  0
LINE
  5
5DB
330
A
100
AcDbEntity
  8
0
 62
     7
100
AcDbLine
 10
149.238091
 20
109.016429
 30
0.0
 11
149.034831
 21
109.016429
 31
0.0
  0
LINE
  5
5DC
330
A
100
AcDbEntity
  8
0
 62
     7
100
AcDbLine
 10
149.034831
 20
109.016429
 30
0.0
 11
148.769903
 21
109.016429
 31
0.0
  0
LINE
  5
5DD
330
A
100
AcDbEntity
  8
0
 62
     7
100
AcDbLine
 10
148.769903
 20
109.016429
 30
0.0
 11
148.4613949999999
 21
109.016429
 31
0.0
  0
LINE
  5
5DE
330
A
100
AcDbEntity
  8
0
 62
     7
100
AcDbLine
 10
148.4613949999999
 20
109.016429
 30
0.0
 11
148.130493
 21
109.016429
 31
0.0
  0
LINE
  5
5DF
330
A
100
AcDbEntity
  8
0
 62
     7
100
AcDbLine
 10
148.130493
 20
109.016429
 30
0.0
 11
147.799419
 21
109.016429
 31
0.0
  0
LINE
  5
5E0
330
A
100
AcDbEntity
  8
0
 62
     7
100
AcDbLine
 10
147.799419
 20
109.016429
 30
0.0
 11
147.491083
 21
109.016429
 31
0.0
  0
LINE
  5
5E1
330
A
100
AcDbEntity
  8
0
 62
     7
100
AcDbLine
 10
147.491083
 20
109.016429
 30
0.0
 11
147.226156
 21
109.016429
 31
0.0
  0
LINE
  5
5E2
330
A
100
AcDbEntity
  8
0
 62
     7
100
AcDbLine
 10
147.226156
 20
109.016429
 30
0.0
 11
147.022895
 21
109.016429
 31
0.0
  0
LINE
  5
5E3
330
A
100
AcDbEntity
  8
0
 62
     7
100
AcDbLine
 10
147.022895
 20
109.016429
 30
0.0
 11
146.895254
 21
109.016429
 31
0.0
  0
LINE
  5
5E4
330
A
100
AcDbEntity
  8
0
 62
     7
100
AcDbLine
 10
147.653692
 20
109.516485
 30
0.0
 11
147.669884
 21
109.516485
 31
0.0
  0
LINE
  5
5E5
330
A
100
AcDbEntity
  8
0
 62
     7
100
AcDbLine
 10
147.669884
 20
109.516485
 30
0.0
 11
147.717426
 21
109.516485
 31
0.0
  0
LINE
  5
5E6
330
A
100
AcDbEntity
  8
0
 62
     7
100
AcDbLine
 10
147.717426
 20
109.516485
 30
0.0
 11
147.793218
 21
109.516485
 31
0.0
  0
LINE
  5
5E7
330
A
100
AcDbEntity
  8
0
 62
     7
100
AcDbLine
 10
147.793218
 20
109.516485
 30
0.0
 11
147.892093
 21
109.516485
 31
0.0
  0
LINE
  5
5E8
330
A
100
AcDbEntity
  8
0
 62
     7
100
AcDbLine
 10
147.892093
 20
109.516485
 30
0.0
 11
148.006986
 21
109.516485
 31
0.0
  0
LINE
  5
5E9
330
A
100
AcDbEntity
  8
0
 62
     7
100
AcDbLine
 10
148.006986
 20
109.516485
 30
0.0
 11
148.130493
 21
109.516485
 31
0.0
  0
LINE
  5
5EA
330
A
100
AcDbEntity
  8
0
 62
     7
100
AcDbLine
 10
148.130493
 20
109.516485
 30
0.0
 11
148.253828
 21
109.516485
 31
0.0
  0
LINE
  5
5EB
330
A
100
AcDbEntity
  8
0
 62
     7
100
AcDbLine
 10
148.253828
 20
109.516485
 30
0.0
 11
148.368894
 21
109.516485
 31
0.0
  0
LINE
  5
5EC
330
A
100
AcDbEntity
  8
0
 62
     7
100
AcDbLine
 10
148.368894
 20
109.516485
 30
0.0
 11
148.467596
 21
109.516485
 31
0.0
  0
LINE
  5
5ED
330
A
100
AcDbEntity
  8
0
 62
     7
100
AcDbLine
 10
148.467596
 20
109.516485
 30
0.0
 11
148.543388
 21
109.516485
 31
0.0
  0
LINE
  5
5EE
330
A
100
AcDbEntity
  8
0
 62
     7
100
AcDbLine
 10
148.543388
 20
109.516485
 30
0.0
 11
148.591102
 21
109.516485
 31
0.0
  0
LINE
  5
5EF
330
A
100
AcDbEntity
  8
0
 62
     7
100
AcDbLine
 10
148.591102
 20
109.516485
 30
0.0
 11
148.607294
 21
109.516485
 31
0.0
  0
LINE
  5
5F0
330
A
100
AcDbEntity
  8
0
 62
     7
100
AcDbLine
 10
147.788912
 20
109.096356
 30
0.0
 11
148.130493
 21
109.096356
 31
0.0
  0
LINE
  5
5F1
330
A
100
AcDbEntity
  8
0
 62
     7
100
AcDbLine
 10
147.470757
 20
109.096356
 30
0.0
 11
147.788912
 21
109.096356
 31
0.0
  0
LINE
  5
5F2
330
A
100
AcDbEntity
  8
0
 62
     7
100
AcDbLine
 10
147.197389
 20
109.096356
 30
0.0
 11
147.470757
 21
109.096356
 31
0.0
  0
LINE
  5
5F3
330
A
100
AcDbEntity
  8
0
 62
     7
100
AcDbLine
 10
146.987755
 20
109.096356
 30
0.0
 11
147.197389
 21
109.096356
 31
0.0
  0
LINE
  5
5F4
330
A
100
AcDbEntity
  8
0
 62
     7
100
AcDbLine
 10
146.85598
 20
109.096356
 30
0.0
 11
146.987755
 21
109.096356
 31
0.0
  0
LINE
  5
5F5
330
A
100
AcDbEntity
  8
0
 62
     7
100
AcDbLine
 10
146.893359
 20
109.205737
 30
0.0
 11
146.811022
 21
109.096356
 31
0.0
  0
LINE
  5
5F6
330
A
100
AcDbEntity
  8
0
 62
     7
100
AcDbLine
 10
146.811022
 20
109.096356
 30
0.0
 11
146.85598
 21
109.096356
 31
0.0
  0
LINE
  5
5F7
330
A
100
AcDbEntity
  8
0
 62
     7
100
AcDbLine
 10
149.367627
 20
109.205737
 30
0.0
 11
149.449965
 21
109.096356
 31
0.0
  0
LINE
  5
5F8
330
A
100
AcDbEntity
  8
0
 62
     7
100
AcDbLine
 10
149.405178
 20
109.096356
 30
0.0
 11
149.449965
 21
109.096356
 31
0.0
  0
LINE
  5
5F9
330
A
100
AcDbEntity
  8
0
 62
     7
100
AcDbLine
 10
149.273231
 20
109.096356
 30
0.0
 11
149.405178
 21
109.096356
 31
0.0
  0
LINE
  5
5FA
330
A
100
AcDbEntity
  8
0
 62
     7
100
AcDbLine
 10
149.063425
 20
109.096356
 30
0.0
 11
149.273231
 21
109.096356
 31
0.0
  0
LINE
  5
5FB
330
A
100
AcDbEntity
  8
0
 62
     7
100
AcDbLine
 10
148.790229
 20
109.096356
 30
0.0
 11
149.063425
 21
109.096356
 31
0.0
  0
LINE
  5
5FC
330
A
100
AcDbEntity
  8
0
 62
     7
100
AcDbLine
 10
148.472074
 20
109.096356
 30
0.0
 11
148.790229
 21
109.096356
 31
0.0
  0
LINE
  5
5FD
330
A
100
AcDbEntity
  8
0
 62
     7
100
AcDbLine
 10
148.130493
 20
109.096356
 30
0.0
 11
148.472074
 21
109.096356
 31
0.0
  0
LINE
  5
5FE
330
A
100
AcDbEntity
  8
0
 62
     7
100
AcDbLine
 10
147.653692
 20
109.516485
 30
0.0
 11
147.418909
 21
109.494781
 31
0.0
  0
LINE
  5
5FF
330
A
100
AcDbEntity
  8
0
 62
     7
100
AcDbLine
 10
147.418909
 20
109.494781
 30
0.0
 11
147.206346
 21
109.432425
 31
0.0
  0
LINE
  5
600
330
A
100
AcDbEntity
  8
0
 62
     7
100
AcDbLine
 10
147.206346
 20
109.432425
 30
0.0
 11
147.027201
 21
109.334584
 31
0.0
  0
LINE
  5
601
330
A
100
AcDbEntity
  8
0
 62
     7
100
AcDbLine
 10
147.027201
 20
109.334584
 30
0.0
 11
146.893359
 21
109.205737
 31
0.0
  0
LINE
  5
602
330
A
100
AcDbEntity
  8
0
 62
     7
100
AcDbLine
 10
148.607294
 20
109.516485
 30
0.0
 11
148.842078
 21
109.494781
 31
0.0
  0
LINE
  5
603
330
A
100
AcDbEntity
  8
0
 62
     7
100
AcDbLine
 10
148.842078
 20
109.494781
 30
0.0
 11
149.054812
 21
109.432425
 31
0.0
  0
LINE
  5
604
330
A
100
AcDbEntity
  8
0
 62
     7
100
AcDbLine
 10
149.054812
 20
109.432425
 30
0.0
 11
149.233613
 21
109.334584
 31
0.0
  0
LINE
  5
605
330
A
100
AcDbEntity
  8
0
 62
     7
100
AcDbLine
 10
149.233613
 20
109.334584
 30
0.0
 11
149.367627
 21
109.205737
 31
0.0
  0
LINE
  5
606
330
A
100
AcDbEntity
  8
0
 62
     7
100
AcDbLine
 10
147.787706
 20
109.04399
 30
0.0
 11
148.130493
 21
109.04399
 31
0.0
  0
LINE
  5
607
330
A
100
AcDbEntity
  8
0
 62
     7
100
AcDbLine
 10
147.4685179999999
 20
109.04399
 30
0.0
 11
147.787706
 21
109.04399
 31
0.0
  0
LINE
  5
608
330
A
100
AcDbEntity
  8
0
 62
     7
100
AcDbLine
 10
147.194288
 20
109.04399
 30
0.0
 11
147.4685179999999
 21
109.04399
 31
0.0
  0
LINE
  5
609
330
A
100
AcDbEntity
  8
0
 62
     7
100
AcDbLine
 10
146.983793
 20
109.04399
 30
0.0
 11
147.194288
 21
109.04399
 31
0.0
  0
LINE
  5
60A
330
A
100
AcDbEntity
  8
0
 62
     7
100
AcDbLine
 10
146.851501
 20
109.04399
 30
0.0
 11
146.983793
 21
109.04399
 31
0.0
  0
LINE
  5
60B
330
A
100
AcDbEntity
  8
0
 62
     7
100
AcDbLine
 10
146.811022
 20
109.096356
 30
0.0
 11
146.806371
 21
109.04399
 31
0.0
  0
LINE
  5
60C
330
A
100
AcDbEntity
  8
0
 62
     7
100
AcDbLine
 10
146.806371
 20
109.04399
 30
0.0
 11
146.851501
 21
109.04399
 31
0.0
  0
LINE
  5
60D
330
A
100
AcDbEntity
  8
0
 62
     7
100
AcDbLine
 10
146.806371
 20
109.04399
 30
0.0
 11
146.851674
 21
109.016429
 31
0.0
  0
LINE
  5
60E
330
A
100
AcDbEntity
  8
0
 62
     7
100
AcDbLine
 10
149.449965
 20
109.096356
 30
0.0
 11
149.454443
 21
109.04399
 31
0.0
  0
LINE
  5
60F
330
A
100
AcDbEntity
  8
0
 62
     7
100
AcDbLine
 10
149.454443
 20
109.04399
 30
0.0
 11
149.409313
 21
109.016429
 31
0.0
  0
LINE
  5
610
330
A
100
AcDbEntity
  8
0
 62
     7
100
AcDbLine
 10
149.409313
 20
109.04399
 30
0.0
 11
149.454443
 21
109.04399
 31
0.0
  0
LINE
  5
611
330
A
100
AcDbEntity
  8
0
 62
     7
100
AcDbLine
 10
149.277021
 20
109.04399
 30
0.0
 11
149.409313
 21
109.04399
 31
0.0
  0
LINE
  5
612
330
A
100
AcDbEntity
  8
0
 62
     7
100
AcDbLine
 10
149.06687
 20
109.04399
 30
0.0
 11
149.277021
 21
109.04399
 31
0.0
  0
LINE
  5
613
330
A
100
AcDbEntity
  8
0
 62
     7
100
AcDbLine
 10
148.792468
 20
109.04399
 30
0.0
 11
149.06687
 21
109.04399
 31
0.0
  0
LINE
  5
614
330
A
100
AcDbEntity
  8
0
 62
     7
100
AcDbLine
 10
148.473108
 20
109.04399
 30
0.0
 11
148.792468
 21
109.04399
 31
0.0
  0
LINE
  5
615
330
A
100
AcDbEntity
  8
0
 62
     7
100
AcDbLine
 10
148.130493
 20
109.04399
 30
0.0
 11
148.473108
 21
109.04399
 31
0.0
  0
LINE
  5
616
330
A
100
AcDbEntity
  8
0
 62
     7
100
AcDbLine
 10
149.58329
 20
108.266432
 30
0.0
 11
149.533681
 21
108.266432
 31
0.0
  0
LINE
  5
617
330
A
100
AcDbEntity
  8
0
 62
     7
100
AcDbLine
 10
146.677869
 20
109.016429
 30
0.0
 11
146.727478
 21
109.016429
 31
0.0
  0
LINE
  5
618
330
A
100
AcDbEntity
  8
0
 62
     7
100
AcDbLine
 10
146.727478
 20
109.016429
 30
0.0
 11
146.851674
 21
109.016429
 31
0.0
  0
LINE
  5
619
330
A
100
AcDbEntity
  8
0
 62
     7
100
AcDbLine
 10
149.3696939999999
 20
109.016429
 30
0.0
 11
149.637722
 21
109.016429
 31
0.0
  0
LINE
  5
61A
330
A
100
AcDbEntity
  8
0
 62
     7
100
AcDbLine
 10
149.637722
 20
109.016429
 30
0.0
 11
149.590525
 21
109.016429
 31
0.0
  0
LINE
  5
61B
330
A
100
AcDbEntity
  8
0
 62
     7
100
AcDbLine
 10
146.424826
 20
108.766488
 30
0.0
 11
146.424826
 21
108.516546
 31
0.0
  0
LINE
  5
61C
330
A
100
AcDbEntity
  8
0
 62
     7
100
AcDbLine
 10
146.677869
 20
109.016429
 30
0.0
 11
146.5793389999999
 21
108.996792
 31
0.0
  0
LINE
  5
61D
330
A
100
AcDbEntity
  8
0
 62
     7
100
AcDbLine
 10
146.5793389999999
 20
108.996792
 30
0.0
 11
146.498896
 21
108.943221
 31
0.0
  0
LINE
  5
61E
330
A
100
AcDbEntity
  8
0
 62
     7
100
AcDbLine
 10
146.498896
 20
108.943221
 30
0.0
 11
146.444808
 21
108.863812
 31
0.0
  0
LINE
  5
61F
330
A
100
AcDbEntity
  8
0
 62
     7
100
AcDbLine
 10
146.444808
 20
108.863812
 30
0.0
 11
146.424826
 21
108.766488
 31
0.0
  0
LINE
  5
620
330
A
100
AcDbEntity
  8
0
 62
     7
100
AcDbLine
 10
146.424826
 20
108.516546
 30
0.0
 11
146.444808
 21
108.419222
 31
0.0
  0
LINE
  5
621
330
A
100
AcDbEntity
  8
0
 62
     7
100
AcDbLine
 10
146.444808
 20
108.419222
 30
0.0
 11
146.498896
 21
108.33964
 31
0.0
  0
LINE
  5
622
330
A
100
AcDbEntity
  8
0
 62
     7
100
AcDbLine
 10
146.498896
 20
108.33964
 30
0.0
 11
146.5793389999999
 21
108.286069
 31
0.0
  0
LINE
  5
623
330
A
100
AcDbEntity
  8
0
 62
     7
100
AcDbLine
 10
146.5793389999999
 20
108.286069
 30
0.0
 11
146.677869
 21
108.266432
 31
0.0
  0
LINE
  5
624
330
A
100
AcDbEntity
  8
0
 62
     7
100
AcDbLine
 10
155.857153
 20
109.103762
 30
0.0
 11
156.099344
 21
109.056909
 31
0.0
  0
LINE
  5
625
330
A
100
AcDbEntity
  8
0
 62
     7
100
AcDbLine
 10
156.344634
 20
109.098595
 30
0.0
 11
156.239214
 21
109.072068
 31
0.0
  0
LINE
  5
626
330
A
100
AcDbEntity
  8
0
 62
     7
100
AcDbLine
 10
155.515055
 20
110.016368
 30
0.0
 11
155.519878
 21
110.013957
 31
0.0
  0
LINE
  5
627
330
A
100
AcDbEntity
  8
0
 62
     7
100
AcDbLine
 10
155.515055
 20
110.016368
 30
0.0
 11
155.302493
 21
110.11731
 31
0.0
  0
LINE
  5
628
330
A
100
AcDbEntity
  8
0
 62
     7
100
AcDbLine
 10
155.302493
 20
110.11731
 30
0.0
 11
155.075117
 21
110.216356
 31
0.0
  0
LINE
  5
629
330
A
100
AcDbEntity
  8
0
 62
     7
100
AcDbLine
 10
155.075117
 20
110.216356
 30
0.0
 11
154.832237
 21
110.314197
 31
0.0
  0
LINE
  5
62A
330
A
100
AcDbEntity
  8
0
 62
     7
100
AcDbLine
 10
154.832237
 20
110.314197
 30
0.0
 11
154.434329
 21
110.455618
 31
0.0
  0
LINE
  5
62B
330
A
100
AcDbEntity
  8
0
 62
     7
100
AcDbLine
 10
154.434329
 20
110.455618
 30
0.0
 11
154.041588
 21
110.516079
 31
0.0
  0
LINE
  5
62C
330
A
100
AcDbEntity
  8
0
 62
     7
100
AcDbLine
 10
154.041588
 20
110.516079
 30
0.0
 11
153.655393
 21
110.503333
 31
0.0
  0
LINE
  5
62D
330
A
100
AcDbEntity
  8
0
 62
     7
100
AcDbLine
 10
153.655393
 20
110.503333
 30
0.0
 11
153.272987
 21
110.449761
 31
0.0
  0
LINE
  5
62E
330
A
100
AcDbEntity
  8
0
 62
     7
100
AcDbLine
 10
153.272987
 20
110.449761
 30
0.0
 11
152.973264
 21
110.381548
 31
0.0
  0
LINE
  5
62F
330
A
100
AcDbEntity
  8
0
 62
     7
100
AcDbLine
 10
152.973264
 20
110.381548
 30
0.0
 11
152.681464
 21
110.291287
 31
0.0
  0
LINE
  5
630
330
A
100
AcDbEntity
  8
0
 62
     7
100
AcDbLine
 10
152.681464
 20
110.291287
 30
0.0
 11
152.397244
 21
110.192413
 31
0.0
  0
LINE
  5
631
330
A
100
AcDbEntity
  8
0
 62
     7
100
AcDbLine
 10
152.397244
 20
110.192413
 30
0.0
 11
152.115091
 21
110.088888
 31
0.0
  0
LINE
  5
632
330
A
100
AcDbEntity
  8
0
 62
     7
100
AcDbLine
 10
152.115091
 20
110.088888
 30
0.0
 11
151.82398
 21
109.96917
 31
0.0
  0
LINE
  5
633
330
A
100
AcDbEntity
  8
0
 62
     7
100
AcDbLine
 10
151.82398
 20
109.96917
 30
0.0
 11
151.538382
 21
109.838601
 31
0.0
  0
LINE
  5
634
330
A
100
AcDbEntity
  8
0
 62
     7
100
AcDbLine
 10
151.538382
 20
109.838601
 30
0.0
 11
151.256917
 21
109.709755
 31
0.0
  0
LINE
  5
635
330
A
100
AcDbEntity
  8
0
 62
     7
100
AcDbLine
 10
151.256917
 20
109.709755
 30
0.0
 11
150.974764
 21
109.587626
 31
0.0
  0
LINE
  5
636
330
A
100
AcDbEntity
  8
0
 62
     7
100
AcDbLine
 10
150.974764
 20
109.587626
 30
0.0
 11
150.701223
 21
109.44586
 31
0.0
  0
LINE
  5
637
330
A
100
AcDbEntity
  8
0
 62
     7
100
AcDbLine
 10
150.701223
 20
109.44586
 30
0.0
 11
150.430094
 21
109.306162
 31
0.0
  0
LINE
  5
638
330
A
100
AcDbEntity
  8
0
 62
     7
100
AcDbLine
 10
150.430094
 20
109.306162
 30
0.0
 11
150.161721
 21
109.174904
 31
0.0
  0
LINE
  5
639
330
A
100
AcDbEntity
  8
0
 62
     7
100
AcDbLine
 10
150.161721
 20
109.174904
 30
0.0
 11
149.894382
 21
109.066039
 31
0.0
  0
LINE
  5
63A
330
A
100
AcDbEntity
  8
0
 62
     7
100
AcDbLine
 10
149.891626
 20
109.065522
 30
0.0
 11
149.590525
 21
109.016429
 31
0.0
  0
LINE
  5
63B
330
A
100
AcDbEntity
  8
0
 62
     7
100
AcDbLine
 10
149.58329
 20
108.266432
 30
0.0
 11
149.781383
 21
108.298299
 31
0.0
  0
LINE
  5
63C
330
A
100
AcDbEntity
  8
0
 62
     7
100
AcDbLine
 10
151.51151
 20
109.010573
 30
0.0
 11
151.796764
 21
109.117198
 31
0.0
  0
LINE
  5
63D
330
A
100
AcDbEntity
  8
0
 62
     7
100
AcDbLine
 10
151.226945
 20
108.904291
 30
0.0
 11
151.51151
 21
109.010573
 31
0.0
  0
LINE
  5
63E
330
A
100
AcDbEntity
  8
0
 62
     7
100
AcDbLine
 10
150.950993
 20
108.772344
 30
0.0
 11
151.226945
 21
108.904291
 31
0.0
  0
LINE
  5
63F
330
A
100
AcDbEntity
  8
0
 62
     7
100
AcDbLine
 10
150.672285
 20
108.635746
 30
0.0
 11
150.950993
 21
108.772344
 31
0.0
  0
LINE
  5
640
330
A
100
AcDbEntity
  8
0
 62
     7
100
AcDbLine
 10
150.382552
 20
108.497081
 30
0.0
 11
150.672285
 21
108.635746
 31
0.0
  0
LINE
  5
641
330
A
100
AcDbEntity
  8
0
 62
     7
100
AcDbLine
 10
150.083862
 20
108.374608
 30
0.0
 11
150.382552
 21
108.497081
 31
0.0
  0
LINE
  5
642
330
A
100
AcDbEntity
  8
0
 62
     7
100
AcDbLine
 10
149.781383
 20
108.298299
 30
0.0
 11
150.083862
 21
108.374608
 31
0.0
  0
LINE
  5
643
330
A
100
AcDbEntity
  8
0
 62
     7
100
AcDbLine
 10
156.239214
 20
109.072068
 30
0.0
 11
156.116914
 21
109.061732
 31
0.0
  0
LINE
  5
644
330
A
100
AcDbEntity
  8
0
 62
     7
100
AcDbLine
 10
156.099344
 20
109.056909
 30
0.0
 11
156.18616
 21
109.069484
 31
0.0
  0
LINE
  5
645
330
A
100
AcDbEntity
  8
0
 62
     7
100
AcDbLine
 10
156.239214
 20
109.072068
 30
0.0
 11
156.344634
 21
109.098595
 31
0.0
  0
LINE
  5
646
330
A
100
AcDbEntity
  8
0
 62
     7
100
AcDbLine
 10
156.344634
 20
109.098595
 30
0.0
 11
156.422149
 21
109.142003
 31
0.0
  0
LINE
  5
647
330
A
100
AcDbEntity
  8
0
 62
     7
100
AcDbLine
 10
156.422149
 20
109.142003
 30
0.0
 11
156.430762
 21
109.148721
 31
0.0
  0
LINE
  5
648
330
A
100
AcDbEntity
  8
0
 62
     7
100
AcDbLine
 10
156.457978
 20
109.198503
 30
0.0
 11
156.430762
 21
109.148721
 31
0.0
  0
LINE
  5
649
330
A
100
AcDbEntity
  8
0
 62
     7
100
AcDbLine
 10
156.421804
 20
109.432252
 30
0.0
 11
156.370128
 21
109.494609
 31
0.0
  0
LINE
  5
64A
330
A
100
AcDbEntity
  8
0
 62
     7
100
AcDbLine
 10
156.457633
 20
109.354738
 30
0.0
 11
156.421804
 21
109.432252
 31
0.0
  0
LINE
  5
64B
330
A
100
AcDbEntity
  8
0
 62
     7
100
AcDbLine
 10
156.466591
 20
109.259481
 30
0.0
 11
156.466591
 21
109.262926
 31
0.0
  0
LINE
  5
64C
330
A
100
AcDbEntity
  8
0
 62
     7
100
AcDbLine
 10
156.466591
 20
109.262926
 30
0.0
 11
156.457633
 21
109.354738
 31
0.0
  0
LINE
  5
64D
330
A
100
AcDbEntity
  8
0
 62
     7
100
AcDbLine
 10
156.457978
 20
109.198503
 30
0.0
 11
156.466591
 21
109.259481
 31
0.0
  0
LINE
  5
64E
330
A
100
AcDbEntity
  8
0
 62
     7
100
AcDbLine
 10
156.346012
 20
109.509939
 30
0.0
 11
156.370128
 21
109.494609
 31
0.0
  0
LINE
  5
64F
330
A
100
AcDbEntity
  8
0
 62
     7
100
AcDbLine
 10
156.279867
 20
109.551797
 30
0.0
 11
156.346012
 21
109.509939
 31
0.0
  0
LINE
  5
650
330
A
100
AcDbEntity
  8
0
 62
     7
100
AcDbLine
 10
156.009771
 20
109.720262
 30
0.0
 11
156.279867
 21
109.551797
 31
0.0
  0
LINE
  5
651
330
A
100
AcDbEntity
  8
0
 62
     7
100
AcDbLine
 10
155.779294
 20
109.882354
 30
0.0
 11
155.732096
 21
109.915599
 31
0.0
  0
LINE
  5
652
330
A
100
AcDbEntity
  8
0
 62
     7
100
AcDbLine
 10
155.732096
 20
109.915599
 30
0.0
 11
156.009771
 21
109.720262
 31
0.0
  0
LINE
  5
653
330
A
100
AcDbEntity
  8
0
 62
     7
100
AcDbLine
 10
155.519878
 20
110.013957
 30
0.0
 11
155.732096
 21
109.915599
 31
0.0
  0
LINE
  5
654
330
A
100
AcDbEntity
  8
0
 62
     7
100
AcDbLine
 10
149.637722
 20
109.016429
 30
0.0
 11
149.89955
 21
109.067072
 31
0.0
  0
LINE
  5
655
330
A
100
AcDbEntity
  8
0
 62
     7
100
AcDbLine
 10
155.857153
 20
109.103762
 30
0.0
 11
155.601872
 21
109.190234
 31
0.0
  0
LINE
  5
656
330
A
100
AcDbEntity
  8
0
 62
     7
100
AcDbLine
 10
155.601872
 20
109.190234
 30
0.0
 11
155.387931
 21
109.269127
 31
0.0
  0
LINE
  5
657
330
A
100
AcDbEntity
  8
0
 62
     7
100
AcDbLine
 10
155.387931
 20
109.269127
 30
0.0
 11
155.190183
 21
109.353704
 31
0.0
  0
LINE
  5
658
330
A
100
AcDbEntity
  8
0
 62
     7
100
AcDbLine
 10
155.190183
 20
109.353704
 30
0.0
 11
155.011727
 21
109.415027
 31
0.0
  0
LINE
  5
659
330
A
100
AcDbEntity
  8
0
 62
     7
100
AcDbLine
 10
155.011727
 20
109.415027
 30
0.0
 11
154.841195
 21
109.46343
 31
0.0
  0
LINE
  5
65A
330
A
100
AcDbEntity
  8
0
 62
     7
100
AcDbLine
 10
154.841195
 20
109.46343
 30
0.0
 11
154.504953
 21
109.536639
 31
0.0
  0
LINE
  5
65B
330
A
100
AcDbEntity
  8
0
 62
     7
100
AcDbLine
 10
154.504953
 20
109.536639
 30
0.0
 11
154.15941
 21
109.586765
 31
0.0
  0
LINE
  5
65C
330
A
100
AcDbEntity
  8
0
 62
     7
100
AcDbLine
 10
154.15941
 20
109.586765
 30
0.0
 11
153.807322
 21
109.60089
 31
0.0
  0
LINE
  5
65D
330
A
100
AcDbEntity
  8
0
 62
     7
100
AcDbLine
 10
153.807322
 20
109.60089
 30
0.0
 11
153.455233
 21
109.579875
 31
0.0
  0
LINE
  5
65E
330
A
100
AcDbEntity
  8
0
 62
     7
100
AcDbLine
 10
153.455233
 20
109.579875
 30
0.0
 11
153.192716
 21
109.539223
 31
0.0
  0
LINE
  5
65F
330
A
100
AcDbEntity
  8
0
 62
     7
100
AcDbLine
 10
153.192716
 20
109.539223
 30
0.0
 11
152.928133
 21
109.474972
 31
0.0
  0
LINE
  5
660
330
A
100
AcDbEntity
  8
0
 62
     7
100
AcDbLine
 10
152.928133
 20
109.474972
 30
0.0
 11
152.651147
 21
109.395218
 31
0.0
  0
LINE
  5
661
330
A
100
AcDbEntity
  8
0
 62
     7
100
AcDbLine
 10
152.651147
 20
109.395218
 30
0.0
 11
152.366927
 21
109.309779
 31
0.0
  0
LINE
  5
662
330
A
100
AcDbEntity
  8
0
 62
     7
100
AcDbLine
 10
152.366927
 20
109.309779
 30
0.0
 11
152.079606
 21
109.217795
 31
0.0
  0
LINE
  5
663
330
A
100
AcDbEntity
  8
0
 62
     7
100
AcDbLine
 10
152.079606
 20
109.217795
 30
0.0
 11
151.796764
 21
109.117026
 31
0.0
  0
LINE
  5
664
330
A
100
AcDbEntity
  8
0
 62
     7
100
AcDbLine
 10
151.796764
 20
109.117026
 30
0.0
 11
151.51151
 21
109.011262
 31
0.0
  0
LINE
  5
665
330
A
100
AcDbEntity
  8
0
 62
     7
100
AcDbLine
 10
145.456755
 20
96.014122
 30
0.0
 11
145.456755
 21
96.41409799999999
 31
0.0
  0
LINE
  5
666
330
A
100
AcDbEntity
  8
0
 62
     7
100
AcDbLine
 10
151.310661
 20
97.26090200000001
 30
0.0
 11
151.169412
 21
96.01446700000002
 31
0.0
  0
LINE
  5
667
330
A
100
AcDbEntity
  8
0
 62
     7
100
AcDbLine
 10
151.5749
 20
98.48804499999999
 30
0.0
 11
151.310661
 21
97.26090200000001
 31
0.0
  0
LINE
  5
668
330
A
100
AcDbEntity
  8
0
 62
     7
100
AcDbLine
 10
151.831215
 20
99.284207
 30
0.0
 11
151.5749
 21
98.48804499999999
 31
0.0
  0
LINE
  5
669
330
A
100
AcDbEntity
  8
0
 62
     7
100
AcDbLine
 10
152.165044
 20
100.05143
 30
0.0
 11
151.831215
 21
99.284207
 31
0.0
  0
LINE
  5
66A
330
A
100
AcDbEntity
  8
0
 62
     7
100
AcDbLine
 10
152.552618
 20
100.530298
 30
0.0
 11
152.165044
 21
100.05143
 31
0.0
  0
LINE
  5
66B
330
A
100
AcDbEntity
  8
0
 62
     7
100
AcDbLine
 10
153.059391
 20
101.049474
 30
0.0
 11
152.552618
 21
100.530298
 31
0.0
  0
LINE
  5
66C
330
A
100
AcDbEntity
  8
0
 62
     7
100
AcDbLine
 10
153.620253
 20
101.486656
 30
0.0
 11
153.059391
 21
101.049474
 31
0.0
  0
LINE
  5
66D
330
A
100
AcDbEntity
  8
0
 62
     7
100
AcDbLine
 10
154.224867
 20
101.834956
 30
0.0
 11
153.620253
 21
101.486656
 31
0.0
  0
LINE
  5
66E
330
A
100
AcDbEntity
  8
0
 62
     7
100
AcDbLine
 10
154.863588
 20
102.087826
 30
0.0
 11
154.224867
 21
101.834956
 31
0.0
  0
LINE
  5
66F
330
A
100
AcDbEntity
  8
0
 62
     7
100
AcDbLine
 10
155.525046
 20
102.241477
 30
0.0
 11
154.863588
 21
102.087826
 31
0.0
  0
LINE
  5
670
330
A
100
AcDbEntity
  8
0
 62
     7
100
AcDbLine
 10
156.145163
 20
102.283851
 30
0.0
 11
155.525046
 21
102.241477
 31
0.0
  0
LINE
  5
671
330
A
100
AcDbEntity
  8
0
 62
     7
100
AcDbLine
 10
156.7049909999999
 20
102.262836
 30
0.0
 11
156.145163
 21
102.283851
 31
0.0
  0
LINE
  5
672
330
A
100
AcDbEntity
  8
0
 62
     7
100
AcDbLine
 10
157.205908
 20
102.173608
 30
0.0
 11
156.7049909999999
 21
102.262836
 31
0.0
  0
LINE
  5
673
330
A
100
AcDbEntity
  8
0
 62
     7
100
AcDbLine
 10
157.6896
 20
102.026503
 30
0.0
 11
157.205908
 21
102.173608
 31
0.0
  0
LINE
  5
674
330
A
100
AcDbEntity
  8
0
 62
     7
100
AcDbLine
 10
158.147453
 20
101.824276
 30
0.0
 11
157.6896
 21
102.026503
 31
0.0
  0
LINE
  5
675
330
A
100
AcDbEntity
  8
0
 62
     7
100
AcDbLine
 10
158.572233
 20
101.570028
 30
0.0
 11
158.147453
 21
101.824276
 31
0.0
  0
LINE
  5
676
330
A
100
AcDbEntity
  8
0
 62
     7
100
AcDbLine
 10
158.956017
 20
101.268237
 30
0.0
 11
158.572233
 21
101.570028
 31
0.0
  0
LINE
  5
677
330
A
100
AcDbEntity
  8
0
 62
     7
100
AcDbLine
 10
159.292947
 20
100.924072
 30
0.0
 11
158.956017
 21
101.268237
 31
0.0
  0
LINE
  5
678
330
A
100
AcDbEntity
  8
0
 62
     7
100
AcDbLine
 10
159.576478
 20
100.543734
 30
0.0
 11
159.292947
 21
100.924072
 31
0.0
  0
LINE
  5
679
330
A
100
AcDbEntity
  8
0
 62
     7
100
AcDbLine
 10
159.802477
 20
100.133078
 30
0.0
 11
159.576478
 21
100.543734
 31
0.0
  0
LINE
  5
67A
330
A
100
AcDbEntity
  8
0
 62
     7
100
AcDbLine
 10
159.9664629999999
 20
99.699685
 30
0.0
 11
159.802477
 21
100.133078
 31
0.0
  0
LINE
  5
67B
330
A
100
AcDbEntity
  8
0
 62
     7
100
AcDbLine
 10
160.064993
 20
99.251134
 30
0.0
 11
159.9664629999999
 21
99.699685
 31
0.0
  0
LINE
  5
67C
330
A
100
AcDbEntity
  8
0
 62
     7
100
AcDbLine
 10
145.487588
 20
96.016189
 30
0.0
 11
145.457616
 21
96.014122
 31
0.0
  0
LINE
  5
67D
330
A
100
AcDbEntity
  8
0
 62
     7
100
AcDbLine
 10
145.557351
 20
96.016189
 30
0.0
 11
145.487588
 21
96.016189
 31
0.0
  0
LINE
  5
67E
330
A
100
AcDbEntity
  8
0
 62
     7
100
AcDbLine
 10
151.169412
 20
96.016189
 30
0.0
 11
148.415747
 21
96.016189
 31
0.0
  0
LINE
  5
67F
330
A
100
AcDbEntity
  8
0
 62
     7
100
AcDbLine
 10
148.231779
 20
96.016189
 30
0.0
 11
147.853852
 21
96.016189
 31
0.0
  0
LINE
  5
680
330
A
100
AcDbEntity
  8
0
 62
     7
100
AcDbLine
 10
148.415747
 20
96.016189
 30
0.0
 11
148.231779
 21
96.016189
 31
0.0
  0
LINE
  5
681
330
A
100
AcDbEntity
  8
0
 62
     7
100
AcDbLine
 10
147.853852
 20
96.016189
 30
0.0
 11
147.499179
 21
96.016189
 31
0.0
  0
LINE
  5
682
330
A
100
AcDbEntity
  8
0
 62
     7
100
AcDbLine
 10
147.291612
 20
96.016189
 30
0.0
 11
147.15622
 21
96.016189
 31
0.0
  0
LINE
  5
683
330
A
100
AcDbEntity
  8
0
 62
     7
100
AcDbLine
 10
147.499179
 20
96.016189
 30
0.0
 11
147.291612
 21
96.016189
 31
0.0
  0
LINE
  5
684
330
A
100
AcDbEntity
  8
0
 62
     7
100
AcDbLine
 10
146.961228
 20
96.016189
 30
0.0
 11
146.832209
 21
96.016189
 31
0.0
  0
LINE
  5
685
330
A
100
AcDbEntity
  8
0
 62
     7
100
AcDbLine
 10
147.027546
 20
96.016189
 30
0.0
 11
146.961228
 21
96.016189
 31
0.0
  0
LINE
  5
686
330
A
100
AcDbEntity
  8
0
 62
     7
100
AcDbLine
 10
147.15622
 20
96.016189
 30
0.0
 11
147.027546
 21
96.016189
 31
0.0
  0
LINE
  5
687
330
A
100
AcDbEntity
  8
0
 62
     7
100
AcDbLine
 10
146.832209
 20
96.016189
 30
0.0
 11
146.535758
 21
96.016189
 31
0.0
  0
LINE
  5
688
330
A
100
AcDbEntity
  8
0
 62
     7
100
AcDbLine
 10
146.535758
 20
96.016189
 30
0.0
 11
146.265663
 21
96.016189
 31
0.0
  0
LINE
  5
689
330
A
100
AcDbEntity
  8
0
 62
     7
100
AcDbLine
 10
146.265663
 20
96.016189
 30
0.0
 11
146.030191
 21
96.016189
 31
0.0
  0
LINE
  5
68A
330
A
100
AcDbEntity
  8
0
 62
     7
100
AcDbLine
 10
146.030191
 20
96.016189
 30
0.0
 11
145.83072
 21
96.016189
 31
0.0
  0
LINE
  5
68B
330
A
100
AcDbEntity
  8
0
 62
     7
100
AcDbLine
 10
145.83072
 20
96.016189
 30
0.0
 11
145.67259
 21
96.016189
 31
0.0
  0
LINE
  5
68C
330
A
100
AcDbEntity
  8
0
 62
     7
100
AcDbLine
 10
145.67259
 20
96.016189
 30
0.0
 11
145.557351
 21
96.016189
 31
0.0
  0
LINE
  5
68D
330
A
100
AcDbEntity
  8
0
 62
     7
100
AcDbLine
 10
161.100589
 20
99.45715100000001
 30
0.0
 11
161.314529
 21
99.49987
 31
0.0
  0
LINE
  5
68E
330
A
100
AcDbEntity
  8
0
 62
     7
100
AcDbLine
 10
150.932389
 20
103.167518
 30
0.0
 11
150.947892
 21
103.172686
 31
0.0
  0
LINE
  5
68F
330
A
100
AcDbEntity
  8
0
 62
     7
100
AcDbLine
 10
150.884502
 20
103.172686
 30
0.0
 11
150.900005
 21
103.167518
 31
0.0
  0
LINE
  5
690
330
A
100
AcDbEntity
  8
0
 62
     7
100
AcDbLine
 10
150.900005
 20
103.167518
 30
0.0
 11
150.916197
 21
103.165451
 31
0.0
  0
LINE
  5
691
330
A
100
AcDbEntity
  8
0
 62
     7
100
AcDbLine
 10
150.916197
 20
103.165451
 30
0.0
 11
150.932389
 21
103.167518
 31
0.0
  0
LINE
  5
692
330
A
100
AcDbEntity
  8
0
 62
     7
100
AcDbLine
 10
145.37924
 20
96.432012
 30
0.0
 11
145.36546
 21
96.47059699999999
 31
0.0
  0
LINE
  5
693
330
A
100
AcDbEntity
  8
0
 62
     7
100
AcDbLine
 10
145.36546
 20
96.47059699999999
 30
0.0
 11
145.36546
 21
96.51434999999999
 31
0.0
  0
LINE
  5
694
330
A
100
AcDbEntity
  8
0
 62
     7
100
AcDbLine
 10
145.36546
 20
96.51434999999999
 30
0.0
 11
145.36546
 21
101.45634
 31
0.0
  0
LINE
  5
695
330
A
100
AcDbEntity
  8
0
 62
     7
100
AcDbLine
 10
162.54305
 20
100.593688
 30
0.0
 11
162.712893
 21
99.778234
 31
0.0
  0
LINE
  5
696
330
A
100
AcDbEntity
  8
0
 62
     7
100
AcDbLine
 10
162.266409
 20
101.377447
 30
0.0
 11
162.54305
 21
100.593688
 31
0.0
  0
LINE
  5
697
330
A
100
AcDbEntity
  8
0
 62
     7
100
AcDbLine
 10
161.885726
 20
102.119865
 30
0.0
 11
162.266409
 21
101.377447
 31
0.0
  0
LINE
  5
698
330
A
100
AcDbEntity
  8
0
 62
     7
100
AcDbLine
 10
161.407547
 20
102.808195
 30
0.0
 11
161.885726
 21
102.119865
 31
0.0
  0
LINE
  5
699
330
A
100
AcDbEntity
  8
0
 62
     7
100
AcDbLine
 10
160.840139
 20
103.430724
 30
0.0
 11
161.407547
 21
102.808195
 31
0.0
  0
LINE
  5
69A
330
A
100
AcDbEntity
  8
0
 62
     7
100
AcDbLine
 10
160.19315
 20
103.976427
 30
0.0
 11
160.840139
 21
103.430724
 31
0.0
  0
LINE
  5
69B
330
A
100
AcDbEntity
  8
0
 62
     7
100
AcDbLine
 10
159.477604
 20
104.436347
 30
0.0
 11
160.19315
 21
103.976427
 31
0.0
  0
LINE
  5
69C
330
A
100
AcDbEntity
  8
0
 62
     7
100
AcDbLine
 10
158.705558
 20
104.802389
 30
0.0
 11
159.477604
 21
104.436347
 31
0.0
  0
LINE
  5
69D
330
A
100
AcDbEntity
  8
0
 62
     7
100
AcDbLine
 10
157.890793
 20
105.068522
 30
0.0
 11
158.705558
 21
104.802389
 31
0.0
  0
LINE
  5
69E
330
A
100
AcDbEntity
  8
0
 62
     7
100
AcDbLine
 10
157.0464
 20
105.230097
 30
0.0
 11
157.890793
 21
105.068522
 31
0.0
  0
LINE
  5
69F
330
A
100
AcDbEntity
  8
0
 62
     7
100
AcDbLine
 10
156.187882
 20
105.284185
 30
0.0
 11
157.0464
 21
105.230097
 31
0.0
  0
LINE
  5
6A0
330
A
100
AcDbEntity
  8
0
 62
     7
100
AcDbLine
 10
155.401712
 20
105.232853
 30
0.0
 11
156.187882
 21
105.284185
 31
0.0
  0
LINE
  5
6A1
330
A
100
AcDbEntity
  8
0
 62
     7
100
AcDbLine
 10
154.629321
 20
105.079719
 30
0.0
 11
155.401712
 21
105.232853
 31
0.0
  0
LINE
  5
6A2
330
A
100
AcDbEntity
  8
0
 62
     7
100
AcDbLine
 10
153.883458
 20
104.827193
 30
0.0
 11
154.629321
 21
105.079719
 31
0.0
  0
LINE
  5
6A3
330
A
100
AcDbEntity
  8
0
 62
     7
100
AcDbLine
 10
153.177214
 20
104.479928
 30
0.0
 11
153.883458
 21
104.827193
 31
0.0
  0
LINE
  5
6A4
330
A
100
AcDbEntity
  8
0
 62
     7
100
AcDbLine
 10
152.522301
 20
104.073579
 30
0.0
 11
153.177214
 21
104.479928
 31
0.0
  0
LINE
  5
6A5
330
A
100
AcDbEntity
  8
0
 62
     7
100
AcDbLine
 10
151.930089
 20
103.695996
 30
0.0
 11
152.522301
 21
104.073579
 31
0.0
  0
LINE
  5
6A6
330
A
100
AcDbEntity
  8
0
 62
     7
100
AcDbLine
 10
145.36546
 20
101.45634
 30
0.0
 11
145.36546
 21
103.367334
 31
0.0
  0
LINE
  5
6A7
330
A
100
AcDbEntity
  8
0
 62
     7
100
AcDbLine
 10
150.8838129999999
 20
103.367334
 30
0.0
 11
150.8838129999999
 21
103.267426
 31
0.0
  0
LINE
  5
6A8
330
A
100
AcDbEntity
  8
0
 62
     7
100
AcDbLine
 10
150.8721
 20
103.425901
 30
0.0
 11
150.8838129999999
 21
103.367334
 31
0.0
  0
LINE
  5
6A9
330
A
100
AcDbEntity
  8
0
 62
     7
100
AcDbLine
 10
150.839716
 20
103.473443
 30
0.0
 11
150.8721
 21
103.425901
 31
0.0
  0
LINE
  5
6AA
330
A
100
AcDbEntity
  8
0
 62
     7
100
AcDbLine
 10
150.792174
 20
103.505482
 30
0.0
 11
150.839716
 21
103.473443
 31
0.0
  0
LINE
  5
6AB
330
A
100
AcDbEntity
  8
0
 62
     7
100
AcDbLine
 10
150.733607
 20
103.51754
 30
0.0
 11
150.792174
 21
103.505482
 31
0.0
  0
LINE
  5
6AC
330
A
100
AcDbEntity
  8
0
 62
     7
100
AcDbLine
 10
150.637834
 20
103.51754
 30
0.0
 11
150.733607
 21
103.51754
 31
0.0
  0
LINE
  5
6AD
330
A
100
AcDbEntity
  8
0
 62
     7
100
AcDbLine
 10
145.36546
 20
103.367334
 30
0.0
 11
145.377173
 21
103.425901
 31
0.0
  0
LINE
  5
6AE
330
A
100
AcDbEntity
  8
0
 62
     7
100
AcDbLine
 10
145.377173
 20
103.425901
 30
0.0
 11
145.409384
 21
103.473443
 31
0.0
  0
LINE
  5
6AF
330
A
100
AcDbEntity
  8
0
 62
     7
100
AcDbLine
 10
145.409384
 20
103.473443
 30
0.0
 11
145.457099
 21
103.505482
 31
0.0
  0
LINE
  5
6B0
330
A
100
AcDbEntity
  8
0
 62
     7
100
AcDbLine
 10
145.457099
 20
103.505482
 30
0.0
 11
145.515666
 21
103.51754
 31
0.0
  0
LINE
  5
6B1
330
A
100
AcDbEntity
  8
0
 62
     7
100
AcDbLine
 10
145.515666
 20
103.51754
 30
0.0
 11
145.623153
 21
103.51754
 31
0.0
  0
LINE
  5
6B2
330
A
100
AcDbEntity
  8
0
 62
     7
100
AcDbLine
 10
150.8838129999999
 20
103.267426
 30
0.0
 11
150.884502
 21
103.172686
 31
0.0
  0
LINE
  5
6B3
330
A
100
AcDbEntity
  8
0
 62
     7
100
AcDbLine
 10
150.947892
 20
103.172686
 30
0.0
 11
151.930089
 21
103.695996
 31
0.0
  0
LINE
  5
6B4
330
A
100
AcDbEntity
  8
0
 62
     7
100
AcDbLine
 10
150.860387
 20
103.158217
 30
0.0
 11
150.789762
 21
103.116187
 31
0.0
  0
LINE
  5
6B5
330
A
100
AcDbEntity
  8
0
 62
     7
100
AcDbLine
 10
150.884502
 20
103.172686
 30
0.0
 11
150.860387
 21
103.158217
 31
0.0
  0
LINE
  5
6B6
330
A
100
AcDbEntity
  8
0
 62
     7
100
AcDbLine
 10
150.688477
 20
102.977694
 30
0.0
 11
150.789762
 21
103.116187
 31
0.0
  0
LINE
  5
6B7
330
A
100
AcDbEntity
  8
0
 62
     7
100
AcDbLine
 10
149.278399
 20
101.700597
 30
0.0
 11
149.731774
 21
102.105396
 31
0.0
  0
LINE
  5
6B8
330
A
100
AcDbEntity
  8
0
 62
     7
100
AcDbLine
 10
149.731774
 20
102.105396
 30
0.0
 11
150.688477
 21
102.977694
 31
0.0
  0
LINE
  5
6B9
330
A
100
AcDbEntity
  8
0
 62
     7
100
AcDbLine
 10
151.479815
 20
101.379169
 30
0.0
 11
150.807332
 21
100.481377
 31
0.0
  0
LINE
  5
6BA
330
A
100
AcDbEntity
  8
0
 62
     7
100
AcDbLine
 10
150.807332
 20
100.481377
 30
0.0
 11
150.135539
 21
99.4823
 31
0.0
  0
LINE
  5
6BB
330
A
100
AcDbEntity
  8
0
 62
     7
100
AcDbLine
 10
150.135539
 20
99.4823
 30
0.0
 11
149.089952
 21
98.14250200000001
 31
0.0
  0
LINE
  5
6BC
330
A
100
AcDbEntity
  8
0
 62
     7
100
AcDbLine
 10
145.405423
 20
96.433735
 30
0.0
 11
145.37924
 21
96.432012
 31
0.0
  0
LINE
  5
6BD
330
A
100
AcDbEntity
  8
0
 62
     7
100
AcDbLine
 10
145.484832
 20
96.433735
 30
0.0
 11
145.405423
 21
96.433735
 31
0.0
  0
LINE
  5
6BE
330
A
100
AcDbEntity
  8
0
 62
     7
100
AcDbLine
 10
145.600932
 20
96.44751499999999
 30
0.0
 11
145.484832
 21
96.433735
 31
0.0
  0
LINE
  5
6BF
330
A
100
AcDbEntity
  8
0
 62
     7
100
AcDbLine
 10
145.767847
 20
96.474042
 30
0.0
 11
145.600932
 21
96.44751499999999
 31
0.0
  0
LINE
  5
6C0
330
A
100
AcDbEntity
  8
0
 62
     7
100
AcDbLine
 10
145.976964
 20
96.516417
 30
0.0
 11
145.767847
 21
96.474042
 31
0.0
  0
LINE
  5
6C1
330
A
100
AcDbEntity
  8
0
 62
     7
100
AcDbLine
 10
146.222083
 20
96.57395000000001
 30
0.0
 11
145.976964
 21
96.516417
 31
0.0
  0
LINE
  5
6C2
330
A
100
AcDbEntity
  8
0
 62
     7
100
AcDbLine
 10
146.501135
 20
96.648709
 30
0.0
 11
146.222083
 21
96.57395000000001
 31
0.0
  0
LINE
  5
6C3
330
A
100
AcDbEntity
  8
0
 62
     7
100
AcDbLine
 10
146.805337
 20
96.73586999999999
 30
0.0
 11
146.501135
 21
96.648709
 31
0.0
  0
LINE
  5
6C4
330
A
100
AcDbEntity
  8
0
 62
     7
100
AcDbLine
 10
147.134688
 20
96.82681999999999
 30
0.0
 11
146.805337
 21
96.73586999999999
 31
0.0
  0
LINE
  5
6C5
330
A
100
AcDbEntity
  8
0
 62
     7
100
AcDbLine
 10
147.476614
 20
96.93775200000001
 30
0.0
 11
147.134688
 21
96.82681999999999
 31
0.0
  0
LINE
  5
6C6
330
A
100
AcDbEntity
  8
0
 62
     7
100
AcDbLine
 10
147.835421
 20
97.087614
 30
0.0
 11
147.476614
 21
96.93775200000001
 31
0.0
  0
LINE
  5
6C7
330
A
100
AcDbEntity
  8
0
 62
     7
100
AcDbLine
 10
148.182342
 20
97.280195
 30
0.0
 11
147.835421
 21
97.087614
 31
0.0
  0
LINE
  5
6C8
330
A
100
AcDbEntity
  8
0
 62
     7
100
AcDbLine
 10
148.657593
 20
97.689128
 30
0.0
 11
148.182342
 21
97.280195
 31
0.0
  0
LINE
  5
6C9
330
A
100
AcDbEntity
  8
0
 62
     7
100
AcDbLine
 10
149.089952
 20
98.14250200000001
 30
0.0
 11
148.657593
 21
97.689128
 31
0.0
  0
LINE
  5
6CA
330
A
100
AcDbEntity
  8
0
 62
     7
100
AcDbLine
 10
151.984521
 20
101.945888
 30
0.0
 11
151.479815
 21
101.379169
 31
0.0
  0
LINE
  5
6CB
330
A
100
AcDbEntity
  8
0
 62
     7
100
AcDbLine
 10
152.571566
 20
102.463685
 30
0.0
 11
151.984521
 21
101.945888
 31
0.0
  0
LINE
  5
6CC
330
A
100
AcDbEntity
  8
0
 62
     7
100
AcDbLine
 10
153.220966
 20
102.899835
 30
0.0
 11
152.571566
 21
102.463685
 31
0.0
  0
LINE
  5
6CD
330
A
100
AcDbEntity
  8
0
 62
     7
100
AcDbLine
 10
153.921354
 20
103.247445
 30
0.0
 11
153.220966
 21
102.899835
 31
0.0
  0
LINE
  5
6CE
330
A
100
AcDbEntity
  8
0
 62
     7
100
AcDbLine
 10
154.660672
 20
103.499626
 30
0.0
 11
153.921354
 21
103.247445
 31
0.0
  0
LINE
  5
6CF
330
A
100
AcDbEntity
  8
0
 62
     7
100
AcDbLine
 10
155.426172
 20
103.652932
 30
0.0
 11
154.660672
 21
103.499626
 31
0.0
  0
LINE
  5
6D0
330
A
100
AcDbEntity
  8
0
 62
     7
100
AcDbLine
 10
156.18237
 20
103.699786
 30
0.0
 11
155.426172
 21
103.652932
 31
0.0
  0
LINE
  5
6D1
330
A
100
AcDbEntity
  8
0
 62
     7
100
AcDbLine
 10
156.883792
 20
103.662923
 30
0.0
 11
156.18237
 21
103.699786
 31
0.0
  0
LINE
  5
6D2
330
A
100
AcDbEntity
  8
0
 62
     7
100
AcDbLine
 10
157.54904
 20
103.539589
 30
0.0
 11
156.883792
 21
103.662923
 31
0.0
  0
LINE
  5
6D3
330
A
100
AcDbEntity
  8
0
 62
     7
100
AcDbLine
 10
158.189827
 20
103.335984
 30
0.0
 11
157.54904
 21
103.539589
 31
0.0
  0
LINE
  5
6D4
330
A
100
AcDbEntity
  8
0
 62
     7
100
AcDbLine
 10
158.795131
 20
103.055553
 30
0.0
 11
158.189827
 21
103.335984
 31
0.0
  0
LINE
  5
6D5
330
A
100
AcDbEntity
  8
0
 62
     7
100
AcDbLine
 10
159.355648
 20
102.702775
 30
0.0
 11
158.795131
 21
103.055553
 31
0.0
  0
LINE
  5
6D6
330
A
100
AcDbEntity
  8
0
 62
     7
100
AcDbLine
 10
159.861388
 20
102.283162
 30
0.0
 11
159.355648
 21
102.702775
 31
0.0
  0
LINE
  5
6D7
330
A
100
AcDbEntity
  8
0
 62
     7
100
AcDbLine
 10
160.304427
 20
101.804294
 30
0.0
 11
159.861388
 21
102.283162
 31
0.0
  0
LINE
  5
6D8
330
A
100
AcDbEntity
  8
0
 62
     7
100
AcDbLine
 10
160.677186
 20
101.273749
 30
0.0
 11
160.304427
 21
101.804294
 31
0.0
  0
LINE
  5
6D9
330
A
100
AcDbEntity
  8
0
 62
     7
100
AcDbLine
 10
160.974154
 20
100.700141
 30
0.0
 11
160.677186
 21
101.273749
 31
0.0
  0
LINE
  5
6DA
330
A
100
AcDbEntity
  8
0
 62
     7
100
AcDbLine
 10
161.190161
 20
100.09346
 30
0.0
 11
160.974154
 21
100.700141
 31
0.0
  0
LINE
  5
6DB
330
A
100
AcDbEntity
  8
0
 62
     7
100
AcDbLine
 10
161.305916
 20
99.49814700000001
 30
0.0
 11
161.321764
 21
99.50124800000001
 31
0.0
  0
LINE
  5
6DC
330
A
100
AcDbEntity
  8
0
 62
     7
100
AcDbLine
 10
161.321764
 20
99.50124800000001
 30
0.0
 11
161.190161
 21
100.09346
 31
0.0
  0
LINE
  5
6DD
330
A
100
AcDbEntity
  8
0
 62
     7
100
AcDbLine
 10
161.321764
 20
99.50124800000001
 30
0.0
 11
161.35966
 21
99.50882700000001
 31
0.0
  0
LINE
  5
6DE
330
A
100
AcDbEntity
  8
0
 62
     7
100
AcDbLine
 10
161.35966
 20
99.50882700000001
 30
0.0
 11
161.402724
 21
99.51744000000001
 31
0.0
  0
LINE
  5
6DF
330
A
100
AcDbEntity
  8
0
 62
     7
100
AcDbLine
 10
162.667763
 20
99.76962100000001
 30
0.0
 11
162.712893
 21
99.778234
 31
0.0
  0
LINE
  5
6E0
330
A
100
AcDbEntity
  8
0
 62
     7
100
AcDbLine
 10
162.536504
 20
99.74343799999999
 30
0.0
 11
162.667763
 21
99.76962100000001
 31
0.0
  0
LINE
  5
6E1
330
A
100
AcDbEntity
  8
0
 62
     7
100
AcDbLine
 10
162.327387
 20
99.70175199999999
 30
0.0
 11
162.536504
 21
99.74343799999999
 31
0.0
  0
LINE
  5
6E2
330
A
100
AcDbEntity
  8
0
 62
     7
100
AcDbLine
 10
162.054536
 20
99.64731999999999
 30
0.0
 11
162.327387
 21
99.70175199999999
 31
0.0
  0
LINE
  5
6E3
330
A
100
AcDbEntity
  8
0
 62
     7
100
AcDbLine
 10
161.735864
 20
99.58393
 30
0.0
 11
162.054536
 21
99.64731999999999
 31
0.0
  0
LINE
  5
6E4
330
A
100
AcDbEntity
  8
0
 62
     7
100
AcDbLine
 10
161.402724
 20
99.51744000000001
 30
0.0
 11
161.735864
 21
99.58393
 31
0.0
  0
LINE
  5
6E5
330
A
100
AcDbEntity
  8
0
 62
     7
100
AcDbLine
 10
145.549944
 20
105.258519
 30
0.0
 11
145.458994
 21
105.258519
 31
0.0
  0
LINE
  5
6E6
330
A
100
AcDbEntity
  8
0
 62
     7
100
AcDbLine
 10
150.802165
 20
105.258519
 30
0.0
 11
150.71087
 21
105.258519
 31
0.0
  0
LINE
  5
6E7
330
A
100
AcDbEntity
  8
0
 62
     7
100
AcDbLine
 10
150.71087
 20
105.258519
 30
0.0
 11
150.444219
 21
105.258519
 31
0.0
  0
LINE
  5
6E8
330
A
100
AcDbEntity
  8
0
 62
     7
100
AcDbLine
 10
150.444219
 20
105.258519
 30
0.0
 11
150.019439
 21
105.258519
 31
0.0
  0
LINE
  5
6E9
330
A
100
AcDbEntity
  8
0
 62
     7
100
AcDbLine
 10
150.019439
 20
105.258519
 30
0.0
 11
149.466157
 21
105.258519
 31
0.0
  0
LINE
  5
6EA
330
A
100
AcDbEntity
  8
0
 62
     7
100
AcDbLine
 10
149.466157
 20
105.258519
 30
0.0
 11
148.821924
 21
105.258519
 31
0.0
  0
LINE
  5
6EB
330
A
100
AcDbEntity
  8
0
 62
     7
100
AcDbLine
 10
148.821924
 20
105.258519
 30
0.0
 11
148.130493
 21
105.258519
 31
0.0
  0
LINE
  5
6EC
330
A
100
AcDbEntity
  8
0
 62
     7
100
AcDbLine
 10
148.130493
 20
105.258519
 30
0.0
 11
147.439062
 21
105.258519
 31
0.0
  0
LINE
  5
6ED
330
A
100
AcDbEntity
  8
0
 62
     7
100
AcDbLine
 10
147.439062
 20
105.258519
 30
0.0
 11
146.794657
 21
105.258519
 31
0.0
  0
LINE
  5
6EE
330
A
100
AcDbEntity
  8
0
 62
     7
100
AcDbLine
 10
146.794657
 20
105.258519
 30
0.0
 11
146.241375
 21
105.258519
 31
0.0
  0
LINE
  5
6EF
330
A
100
AcDbEntity
  8
0
 62
     7
100
AcDbLine
 10
146.241375
 20
105.258519
 30
0.0
 11
145.816767
 21
105.258519
 31
0.0
  0
LINE
  5
6F0
330
A
100
AcDbEntity
  8
0
 62
     7
100
AcDbLine
 10
145.816767
 20
105.258519
 30
0.0
 11
145.549944
 21
105.258519
 31
0.0
  0
LINE
  5
6F1
330
A
100
AcDbEntity
  8
0
 62
     7
100
AcDbLine
 10
146.3747
 20
108.258508
 30
0.0
 11
146.434473
 21
108.258508
 31
0.0
  0
LINE
  5
6F2
330
A
100
AcDbEntity
  8
0
 62
     7
100
AcDbLine
 10
146.434473
 20
108.258508
 30
0.0
 11
146.609828
 21
108.258508
 31
0.0
  0
LINE
  5
6F3
330
A
100
AcDbEntity
  8
0
 62
     7
100
AcDbLine
 10
146.609828
 20
108.258508
 30
0.0
 11
146.888881
 21
108.258508
 31
0.0
  0
LINE
  5
6F4
330
A
100
AcDbEntity
  8
0
 62
     7
100
AcDbLine
 10
146.888881
 20
108.258508
 30
0.0
 11
147.252511
 21
108.258508
 31
0.0
  0
LINE
  5
6F5
330
A
100
AcDbEntity
  8
0
 62
     7
100
AcDbLine
 10
147.252511
 20
108.258508
 30
0.0
 11
147.676085
 21
108.258508
 31
0.0
  0
LINE
  5
6F6
330
A
100
AcDbEntity
  8
0
 62
     7
100
AcDbLine
 10
147.676085
 20
108.258508
 30
0.0
 11
148.130493
 21
108.258508
 31
0.0
  0
LINE
  5
6F7
330
A
100
AcDbEntity
  8
0
 62
     7
100
AcDbLine
 10
148.130493
 20
108.258508
 30
0.0
 11
148.584901
 21
108.258508
 31
0.0
  0
LINE
  5
6F8
330
A
100
AcDbEntity
  8
0
 62
     7
100
AcDbLine
 10
148.584901
 20
108.258508
 30
0.0
 11
149.008303
 21
108.258508
 31
0.0
  0
LINE
  5
6F9
330
A
100
AcDbEntity
  8
0
 62
     7
100
AcDbLine
 10
149.008303
 20
108.258508
 30
0.0
 11
149.372106
 21
108.258508
 31
0.0
  0
LINE
  5
6FA
330
A
100
AcDbEntity
  8
0
 62
     7
100
AcDbLine
 10
149.372106
 20
108.258508
 30
0.0
 11
149.651158
 21
108.258508
 31
0.0
  0
LINE
  5
6FB
330
A
100
AcDbEntity
  8
0
 62
     7
100
AcDbLine
 10
149.651158
 20
108.258508
 30
0.0
 11
149.826514
 21
108.258508
 31
0.0
  0
LINE
  5
6FC
330
A
100
AcDbEntity
  8
0
 62
     7
100
AcDbLine
 10
149.826514
 20
108.258508
 30
0.0
 11
149.886458
 21
108.258508
 31
0.0
  0
LINE
  5
6FD
330
A
100
AcDbEntity
  8
0
 62
     7
100
AcDbLine
 10
145.194066
 20
105.396323
 30
0.0
 11
145.302587
 21
105.31209
 31
0.0
  0
LINE
  5
6FE
330
A
100
AcDbEntity
  8
0
 62
     7
100
AcDbLine
 10
151.066748
 20
105.396323
 30
0.0
 11
150.958572
 21
105.31209
 31
0.0
  0
LINE
  5
6FF
330
A
100
AcDbEntity
  8
0
 62
     7
100
AcDbLine
 10
145.067803
 20
105.575985
 30
0.0
 11
145.194066
 21
105.396323
 31
0.0
  0
LINE
  5
700
330
A
100
AcDbEntity
  8
0
 62
     7
100
AcDbLine
 10
151.193183
 20
105.575985
 30
0.0
 11
151.066748
 21
105.396323
 31
0.0
  0
LINE
  5
701
330
A
100
AcDbEntity
  8
0
 62
     7
100
AcDbLine
 10
144.999246
 20
105.784585
 30
0.0
 11
145.067803
 21
105.575985
 31
0.0
  0
LINE
  5
702
330
A
100
AcDbEntity
  8
0
 62
     7
100
AcDbLine
 10
151.26174
 20
105.784585
 30
0.0
 11
151.193183
 21
105.575985
 31
0.0
  0
LINE
  5
703
330
A
100
AcDbEntity
  8
0
 62
     7
100
AcDbLine
 10
144.995112
 20
106.008516
 30
0.0
 11
144.999246
 21
105.784585
 31
0.0
  0
LINE
  5
704
330
A
100
AcDbEntity
  8
0
 62
     7
100
AcDbLine
 10
151.265875
 20
106.008516
 30
0.0
 11
151.26174
 21
105.784585
 31
0.0
  0
LINE
  5
705
330
A
100
AcDbEntity
  8
0
 62
     7
100
AcDbLine
 10
145.101221
 20
106.296526
 30
0.0
 11
144.995112
 21
106.008516
 31
0.0
  0
LINE
  5
706
330
A
100
AcDbEntity
  8
0
 62
     7
100
AcDbLine
 10
151.159766
 20
106.296526
 30
0.0
 11
151.265875
 21
106.008516
 31
0.0
  0
LINE
  5
707
330
A
100
AcDbEntity
  8
0
 62
     7
100
AcDbLine
 10
145.301381
 20
106.524936
 30
0.0
 11
145.101221
 21
106.296526
 31
0.0
  0
LINE
  5
708
330
A
100
AcDbEntity
  8
0
 62
     7
100
AcDbLine
 10
150.959606
 20
106.524936
 30
0.0
 11
151.159766
 21
106.296526
 31
0.0
  0
LINE
  5
709
330
A
100
AcDbEntity
  8
0
 62
     7
100
AcDbLine
 10
145.549255
 20
106.732159
 30
0.0
 11
145.301381
 21
106.524936
 31
0.0
  0
LINE
  5
70A
330
A
100
AcDbEntity
  8
0
 62
     7
100
AcDbLine
 10
150.711903
 20
106.732159
 30
0.0
 11
150.959606
 21
106.524936
 31
0.0
  0
LINE
  5
70B
330
A
100
AcDbEntity
  8
0
 62
     7
100
AcDbLine
 10
145.797819
 20
106.908548
 30
0.0
 11
145.549255
 21
106.732159
 31
0.0
  0
LINE
  5
70C
330
A
100
AcDbEntity
  8
0
 62
     7
100
AcDbLine
 10
150.463167
 20
106.908548
 30
0.0
 11
150.711903
 21
106.732159
 31
0.0
  0
LINE
  5
70D
330
A
100
AcDbEntity
  8
0
 62
     7
100
AcDbLine
 10
146.015549
 20
107.025509
 30
0.0
 11
145.797819
 21
106.908548
 31
0.0
  0
LINE
  5
70E
330
A
100
AcDbEntity
  8
0
 62
     7
100
AcDbLine
 10
150.245437
 20
107.025509
 30
0.0
 11
150.463167
 21
106.908548
 31
0.0
  0
LINE
  5
70F
330
A
100
AcDbEntity
  8
0
 62
     7
100
AcDbLine
 10
146.310794
 20
107.161073
 30
0.0
 11
146.015549
 21
107.025509
 31
0.0
  0
LINE
  5
710
330
A
100
AcDbEntity
  8
0
 62
     7
100
AcDbLine
 10
149.950193
 20
107.161073
 30
0.0
 11
150.245437
 21
107.025509
 31
0.0
  0
LINE
  5
711
330
A
100
AcDbEntity
  8
0
 62
     7
100
AcDbLine
 10
148.130493
 20
107.288369
 30
0.0
 11
147.721216
 21
107.288369
 31
0.0
  0
LINE
  5
712
330
A
100
AcDbEntity
  8
0
 62
     7
100
AcDbLine
 10
147.721216
 20
107.288369
 30
0.0
 11
147.340016
 21
107.288369
 31
0.0
  0
LINE
  5
713
330
A
100
AcDbEntity
  8
0
 62
     7
100
AcDbLine
 10
147.340016
 20
107.288369
 30
0.0
 11
147.01256
 21
107.288369
 31
0.0
  0
LINE
  5
714
330
A
100
AcDbEntity
  8
0
 62
     7
100
AcDbLine
 10
147.01256
 20
107.288369
 30
0.0
 11
146.76124
 21
107.288369
 31
0.0
  0
LINE
  5
715
330
A
100
AcDbEntity
  8
0
 62
     7
100
AcDbLine
 10
146.76124
 20
107.288369
 30
0.0
 11
146.603282
 21
107.288369
 31
0.0
  0
LINE
  5
716
330
A
100
AcDbEntity
  8
0
 62
     7
100
AcDbLine
 10
146.603282
 20
107.288369
 30
0.0
 11
146.549539
 21
107.288369
 31
0.0
  0
LINE
  5
717
330
A
100
AcDbEntity
  8
0
 62
     7
100
AcDbLine
 10
146.549539
 20
107.288369
 30
0.0
 11
146.310794
 21
107.161073
 31
0.0
  0
LINE
  5
718
330
A
100
AcDbEntity
  8
0
 62
     7
100
AcDbLine
 10
149.711447
 20
107.288369
 30
0.0
 11
149.950193
 21
107.161073
 31
0.0
  0
LINE
  5
719
330
A
100
AcDbEntity
  8
0
 62
     7
100
AcDbLine
 10
149.711447
 20
107.288369
 30
0.0
 11
149.657704
 21
107.288369
 31
0.0
  0
LINE
  5
71A
330
A
100
AcDbEntity
  8
0
 62
     7
100
AcDbLine
 10
149.657704
 20
107.288369
 30
0.0
 11
149.499574
 21
107.288369
 31
0.0
  0
LINE
  5
71B
330
A
100
AcDbEntity
  8
0
 62
     7
100
AcDbLine
 10
149.499574
 20
107.288369
 30
0.0
 11
149.248427
 21
107.288369
 31
0.0
  0
LINE
  5
71C
330
A
100
AcDbEntity
  8
0
 62
     7
100
AcDbLine
 10
149.248427
 20
107.288369
 30
0.0
 11
148.921143
 21
107.288369
 31
0.0
  0
LINE
  5
71D
330
A
100
AcDbEntity
  8
0
 62
     7
100
AcDbLine
 10
148.921143
 20
107.288369
 30
0.0
 11
148.539598
 21
107.288369
 31
0.0
  0
LINE
  5
71E
330
A
100
AcDbEntity
  8
0
 62
     7
100
AcDbLine
 10
148.539598
 20
107.288369
 30
0.0
 11
148.130493
 21
107.288369
 31
0.0
  0
LINE
  5
71F
330
A
100
AcDbEntity
  8
0
 62
     7
100
AcDbLine
 10
148.130493
 20
107.408603
 30
0.0
 11
147.741025
 21
107.408603
 31
0.0
  0
LINE
  5
720
330
A
100
AcDbEntity
  8
0
 62
     7
100
AcDbLine
 10
147.741025
 20
107.408603
 30
0.0
 11
147.377912
 21
107.408603
 31
0.0
  0
LINE
  5
721
330
A
100
AcDbEntity
  8
0
 62
     7
100
AcDbLine
 10
147.377912
 20
107.408603
 30
0.0
 11
147.066303
 21
107.408603
 31
0.0
  0
LINE
  5
722
330
A
100
AcDbEntity
  8
0
 62
     7
100
AcDbLine
 10
147.066303
 20
107.408603
 30
0.0
 11
146.827214
 21
107.408603
 31
0.0
  0
LINE
  5
723
330
A
100
AcDbEntity
  8
0
 62
     7
100
AcDbLine
 10
146.827214
 20
107.408603
 30
0.0
 11
146.676835
 21
107.408603
 31
0.0
  0
LINE
  5
724
330
A
100
AcDbEntity
  8
0
 62
     7
100
AcDbLine
 10
146.676835
 20
107.408603
 30
0.0
 11
146.625503
 21
107.408603
 31
0.0
  0
LINE
  5
725
330
A
100
AcDbEntity
  8
0
 62
     7
100
AcDbLine
 10
146.625503
 20
107.408603
 30
0.0
 11
146.549539
 21
107.288369
 31
0.0
  0
LINE
  5
726
330
A
100
AcDbEntity
  8
0
 62
     7
100
AcDbLine
 10
149.635311
 20
107.408603
 30
0.0
 11
149.711447
 21
107.288369
 31
0.0
  0
LINE
  5
727
330
A
100
AcDbEntity
  8
0
 62
     7
100
AcDbLine
 10
149.635311
 20
107.408603
 30
0.0
 11
149.584323
 21
107.408603
 31
0.0
  0
LINE
  5
728
330
A
100
AcDbEntity
  8
0
 62
     7
100
AcDbLine
 10
149.584323
 20
107.408603
 30
0.0
 11
149.433773
 21
107.408603
 31
0.0
  0
LINE
  5
729
330
A
100
AcDbEntity
  8
0
 62
     7
100
AcDbLine
 10
149.433773
 20
107.408603
 30
0.0
 11
149.194683
 21
107.408603
 31
0.0
  0
LINE
  5
72A
330
A
100
AcDbEntity
  8
0
 62
     7
100
AcDbLine
 10
149.194683
 20
107.408603
 30
0.0
 11
148.882902
 21
107.408603
 31
0.0
  0
LINE
  5
72B
330
A
100
AcDbEntity
  8
0
 62
     7
100
AcDbLine
 10
148.882902
 20
107.408603
 30
0.0
 11
148.519961
 21
107.408603
 31
0.0
  0
LINE
  5
72C
330
A
100
AcDbEntity
  8
0
 62
     7
100
AcDbLine
 10
148.519961
 20
107.408603
 30
0.0
 11
148.130493
 21
107.408603
 31
0.0
  0
LINE
  5
72D
330
A
100
AcDbEntity
  8
0
 62
     7
100
AcDbLine
 10
148.130493
 20
107.536416
 30
0.0
 11
147.743437
 21
107.536416
 31
0.0
  0
LINE
  5
72E
330
A
100
AcDbEntity
  8
0
 62
     7
100
AcDbLine
 10
147.743437
 20
107.536416
 30
0.0
 11
147.382735
 21
107.536416
 31
0.0
  0
LINE
  5
72F
330
A
100
AcDbEntity
  8
0
 62
     7
100
AcDbLine
 10
147.382735
 20
107.536416
 30
0.0
 11
147.073021
 21
107.536416
 31
0.0
  0
LINE
  5
730
330
A
100
AcDbEntity
  8
0
 62
     7
100
AcDbLine
 10
147.073021
 20
107.536416
 30
0.0
 11
146.835482
 21
107.536416
 31
0.0
  0
LINE
  5
731
330
A
100
AcDbEntity
  8
0
 62
     7
100
AcDbLine
 10
146.835482
 20
107.536416
 30
0.0
 11
146.686137
 21
107.536416
 31
0.0
  0
LINE
  5
732
330
A
100
AcDbEntity
  8
0
 62
     7
100
AcDbLine
 10
146.635149
 20
107.536416
 30
0.0
 11
146.625503
 21
107.408603
 31
0.0
  0
LINE
  5
733
330
A
100
AcDbEntity
  8
0
 62
     7
100
AcDbLine
 10
149.626009
 20
107.536416
 30
0.0
 11
149.635311
 21
107.408603
 31
0.0
  0
LINE
  5
734
330
A
100
AcDbEntity
  8
0
 62
     7
100
AcDbLine
 10
149.575022
 20
107.536416
 30
0.0
 11
149.425505
 21
107.536416
 31
0.0
  0
LINE
  5
735
330
A
100
AcDbEntity
  8
0
 62
     7
100
AcDbLine
 10
149.425505
 20
107.536416
 30
0.0
 11
149.187793
 21
107.536416
 31
0.0
  0
LINE
  5
736
330
A
100
AcDbEntity
  8
0
 62
     7
100
AcDbLine
 10
149.187793
 20
107.536416
 30
0.0
 11
148.878079
 21
107.536416
 31
0.0
  0
LINE
  5
737
330
A
100
AcDbEntity
  8
0
 62
     7
100
AcDbLine
 10
148.878079
 20
107.536416
 30
0.0
 11
148.51755
 21
107.536416
 31
0.0
  0
LINE
  5
738
330
A
100
AcDbEntity
  8
0
 62
     7
100
AcDbLine
 10
148.51755
 20
107.536416
 30
0.0
 11
148.130493
 21
107.536416
 31
0.0
  0
LINE
  5
739
330
A
100
AcDbEntity
  8
0
 62
     7
100
AcDbLine
 10
146.590019
 20
107.654583
 30
0.0
 11
146.635149
 21
107.536416
 31
0.0
  0
LINE
  5
73A
330
A
100
AcDbEntity
  8
0
 62
     7
100
AcDbLine
 10
149.670795
 20
107.654583
 30
0.0
 11
149.626009
 21
107.536416
 31
0.0
  0
LINE
  5
73B
330
A
100
AcDbEntity
  8
0
 62
     7
100
AcDbLine
 10
146.517844
 20
107.766721
 30
0.0
 11
146.590019
 21
107.654583
 31
0.0
  0
LINE
  5
73C
330
A
100
AcDbEntity
  8
0
 62
     7
100
AcDbLine
 10
149.743142
 20
107.766721
 30
0.0
 11
149.670795
 21
107.654583
 31
0.0
  0
LINE
  5
73D
330
A
100
AcDbEntity
  8
0
 62
     7
100
AcDbLine
 10
146.446186
 20
107.876447
 30
0.0
 11
146.517844
 21
107.766721
 31
0.0
  0
LINE
  5
73E
330
A
100
AcDbEntity
  8
0
 62
     7
100
AcDbLine
 10
149.8148
 20
107.876447
 30
0.0
 11
149.743142
 21
107.766721
 31
0.0
  0
LINE
  5
73F
330
A
100
AcDbEntity
  8
0
 62
     7
100
AcDbLine
 10
148.130493
 20
107.899702
 30
0.0
 11
147.689865
 21
107.899702
 31
0.0
  0
LINE
  5
740
330
A
100
AcDbEntity
  8
0
 62
     7
100
AcDbLine
 10
147.689865
 20
107.899702
 30
0.0
 11
147.27921
 21
107.899702
 31
0.0
  0
LINE
  5
741
330
A
100
AcDbEntity
  8
0
 62
     7
100
AcDbLine
 10
147.27921
 20
107.899702
 30
0.0
 11
146.926432
 21
107.899702
 31
0.0
  0
LINE
  5
742
330
A
100
AcDbEntity
  8
0
 62
     7
100
AcDbLine
 10
146.926432
 20
107.899702
 30
0.0
 11
146.65582
 21
107.899702
 31
0.0
  0
LINE
  5
743
330
A
100
AcDbEntity
  8
0
 62
     7
100
AcDbLine
 10
146.65582
 20
107.899702
 30
0.0
 11
146.485805
 21
107.899702
 31
0.0
  0
LINE
  5
744
330
A
100
AcDbEntity
  8
0
 62
     7
100
AcDbLine
 10
146.485805
 20
107.899702
 30
0.0
 11
146.427755
 21
107.899702
 31
0.0
  0
LINE
  5
745
330
A
100
AcDbEntity
  8
0
 62
     7
100
AcDbLine
 10
146.427755
 20
107.899702
 30
0.0
 11
146.446186
 21
107.876447
 31
0.0
  0
LINE
  5
746
330
A
100
AcDbEntity
  8
0
 62
     7
100
AcDbLine
 10
149.833059
 20
107.899702
 30
0.0
 11
149.8148
 21
107.876447
 31
0.0
  0
LINE
  5
747
330
A
100
AcDbEntity
  8
0
 62
     7
100
AcDbLine
 10
149.833059
 20
107.899702
 30
0.0
 11
149.775182
 21
107.899702
 31
0.0
  0
LINE
  5
748
330
A
100
AcDbEntity
  8
0
 62
     7
100
AcDbLine
 10
149.775182
 20
107.899702
 30
0.0
 11
149.604994
 21
107.899702
 31
0.0
  0
LINE
  5
749
330
A
100
AcDbEntity
  8
0
 62
     7
100
AcDbLine
 10
149.604994
 20
107.899702
 30
0.0
 11
149.334554
 21
107.899702
 31
0.0
  0
LINE
  5
74A
330
A
100
AcDbEntity
  8
0
 62
     7
100
AcDbLine
 10
149.334554
 20
107.899702
 30
0.0
 11
148.981776
 21
107.899702
 31
0.0
  0
LINE
  5
74B
330
A
100
AcDbEntity
  8
0
 62
     7
100
AcDbLine
 10
148.981776
 20
107.899702
 30
0.0
 11
148.571121
 21
107.899702
 31
0.0
  0
LINE
  5
74C
330
A
100
AcDbEntity
  8
0
 62
     7
100
AcDbLine
 10
148.571121
 20
107.899702
 30
0.0
 11
148.130493
 21
107.899702
 31
0.0
  0
LINE
  5
74D
330
A
100
AcDbEntity
  8
0
 62
     7
100
AcDbLine
 10
146.631188
 20
107.908487
 30
0.0
 11
146.458244
 21
107.908487
 31
0.0
  0
LINE
  5
74E
330
A
100
AcDbEntity
  8
0
 62
     7
100
AcDbLine
 10
146.458244
 20
107.908487
 30
0.0
 11
146.399333
 21
107.908487
 31
0.0
  0
LINE
  5
74F
330
A
100
AcDbEntity
  8
0
 62
     7
100
AcDbLine
 10
146.399333
 20
107.908487
 30
0.0
 11
146.427755
 21
107.899702
 31
0.0
  0
LINE
  5
750
330
A
100
AcDbEntity
  8
0
 62
     7
100
AcDbLine
 10
149.861654
 20
107.908487
 30
0.0
 11
149.833059
 21
107.899702
 31
0.0
  0
LINE
  5
751
330
A
100
AcDbEntity
  8
0
 62
     7
100
AcDbLine
 10
149.861654
 20
107.908487
 30
0.0
 11
149.802743
 21
107.908487
 31
0.0
  0
LINE
  5
752
330
A
100
AcDbEntity
  8
0
 62
     7
100
AcDbLine
 10
149.802743
 20
107.908487
 30
0.0
 11
149.629799
 21
107.908487
 31
0.0
  0
LINE
  5
753
330
A
100
AcDbEntity
  8
0
 62
     7
100
AcDbLine
 10
147.676085
 20
107.908487
 30
0.0
 11
147.252511
 21
107.908487
 31
0.0
  0
LINE
  5
754
330
A
100
AcDbEntity
  8
0
 62
     7
100
AcDbLine
 10
147.252511
 20
107.908487
 30
0.0
 11
146.888881
 21
107.908487
 31
0.0
  0
LINE
  5
755
330
A
100
AcDbEntity
  8
0
 62
     7
100
AcDbLine
 10
146.888881
 20
107.908487
 30
0.0
 11
146.609828
 21
107.908487
 31
0.0
  0
LINE
  5
756
330
A
100
AcDbEntity
  8
0
 62
     7
100
AcDbLine
 10
146.609828
 20
107.908487
 30
0.0
 11
146.434473
 21
107.908487
 31
0.0
  0
LINE
  5
757
330
A
100
AcDbEntity
  8
0
 62
     7
100
AcDbLine
 10
146.434473
 20
107.908487
 30
0.0
 11
146.3747
 21
107.908487
 31
0.0
  0
LINE
  5
758
330
A
100
AcDbEntity
  8
0
 62
     7
100
AcDbLine
 10
149.886458
 20
107.908487
 30
0.0
 11
149.826514
 21
107.908487
 31
0.0
  0
LINE
  5
759
330
A
100
AcDbEntity
  8
0
 62
     7
100
AcDbLine
 10
149.826514
 20
107.908487
 30
0.0
 11
149.651158
 21
107.908487
 31
0.0
  0
LINE
  5
75A
330
A
100
AcDbEntity
  8
0
 62
     7
100
AcDbLine
 10
149.651158
 20
107.908487
 30
0.0
 11
149.372106
 21
107.908487
 31
0.0
  0
LINE
  5
75B
330
A
100
AcDbEntity
  8
0
 62
     7
100
AcDbLine
 10
149.372106
 20
107.908487
 30
0.0
 11
149.008303
 21
107.908487
 31
0.0
  0
LINE
  5
75C
330
A
100
AcDbEntity
  8
0
 62
     7
100
AcDbLine
 10
149.008303
 20
107.908487
 30
0.0
 11
148.584901
 21
107.908487
 31
0.0
  0
LINE
  5
75D
330
A
100
AcDbEntity
  8
0
 62
     7
100
AcDbLine
 10
148.584901
 20
107.908487
 30
0.0
 11
148.130493
 21
107.908487
 31
0.0
  0
LINE
  5
75E
330
A
100
AcDbEntity
  8
0
 62
     7
100
AcDbLine
 10
148.130493
 20
107.908487
 30
0.0
 11
147.676085
 21
107.908487
 31
0.0
  0
LINE
  5
75F
330
A
100
AcDbEntity
  8
0
 62
     7
100
AcDbLine
 10
146.307521
 20
107.921922
 30
0.0
 11
146.3747
 21
107.908487
 31
0.0
  0
LINE
  5
760
330
A
100
AcDbEntity
  8
0
 62
     7
100
AcDbLine
 10
149.953638
 20
107.921922
 30
0.0
 11
149.886458
 21
107.908487
 31
0.0
  0
LINE
  5
761
330
A
100
AcDbEntity
  8
0
 62
     7
100
AcDbLine
 10
146.250505
 20
107.959819
 30
0.0
 11
146.307521
 21
107.921922
 31
0.0
  0
LINE
  5
762
330
A
100
AcDbEntity
  8
0
 62
     7
100
AcDbLine
 10
150.010482
 20
107.959819
 30
0.0
 11
149.953638
 21
107.921922
 31
0.0
  0
LINE
  5
763
330
A
100
AcDbEntity
  8
0
 62
     7
100
AcDbLine
 10
146.212436
 20
108.01649
 30
0.0
 11
146.250505
 21
107.959819
 31
0.0
  0
LINE
  5
764
330
A
100
AcDbEntity
  8
0
 62
     7
100
AcDbLine
 10
150.048378
 20
108.01649
 30
0.0
 11
150.010482
 21
107.959819
 31
0.0
  0
LINE
  5
765
330
A
100
AcDbEntity
  8
0
 62
     7
100
AcDbLine
 10
146.199173
 20
108.083497
 30
0.0
 11
146.212436
 21
108.01649
 31
0.0
  0
LINE
  5
766
330
A
100
AcDbEntity
  8
0
 62
     7
100
AcDbLine
 10
150.061814
 20
108.083497
 30
0.0
 11
150.048378
 21
108.01649
 31
0.0
  0
LINE
  5
767
330
A
100
AcDbEntity
  8
0
 62
     7
100
AcDbLine
 10
146.212436
 20
108.150505
 30
0.0
 11
146.199173
 21
108.083497
 31
0.0
  0
LINE
  5
768
330
A
100
AcDbEntity
  8
0
 62
     7
100
AcDbLine
 10
150.048378
 20
108.150505
 30
0.0
 11
150.061814
 21
108.083497
 31
0.0
  0
LINE
  5
769
330
A
100
AcDbEntity
  8
0
 62
     7
100
AcDbLine
 10
146.250505
 20
108.207349
 30
0.0
 11
146.212436
 21
108.150505
 31
0.0
  0
LINE
  5
76A
330
A
100
AcDbEntity
  8
0
 62
     7
100
AcDbLine
 10
150.010482
 20
108.207349
 30
0.0
 11
150.048378
 21
108.150505
 31
0.0
  0
LINE
  5
76B
330
A
100
AcDbEntity
  8
0
 62
     7
100
AcDbLine
 10
146.307521
 20
108.245245
 30
0.0
 11
146.250505
 21
108.207349
 31
0.0
  0
LINE
  5
76C
330
A
100
AcDbEntity
  8
0
 62
     7
100
AcDbLine
 10
149.953638
 20
108.245245
 30
0.0
 11
150.010482
 21
108.207349
 31
0.0
  0
LINE
  5
76D
330
A
100
AcDbEntity
  8
0
 62
     7
100
AcDbLine
 10
146.3747
 20
108.258508
 30
0.0
 11
146.307521
 21
108.245245
 31
0.0
  0
LINE
  5
76E
330
A
100
AcDbEntity
  8
0
 62
     7
100
AcDbLine
 10
149.886458
 20
108.258508
 30
0.0
 11
149.953638
 21
108.245245
 31
0.0
  0
LINE
  5
76F
330
A
100
AcDbEntity
  8
0
 62
     7
100
AcDbLine
 10
145.302587
 20
105.31209
 30
0.0
 11
145.376139
 21
105.2723
 31
0.0
  0
LINE
  5
770
330
A
100
AcDbEntity
  8
0
 62
     7
100
AcDbLine
 10
145.376139
 20
105.2723
 30
0.0
 11
145.458994
 21
105.258519
 31
0.0
  0
LINE
  5
771
330
A
100
AcDbEntity
  8
0
 62
     7
100
AcDbLine
 10
150.958572
 20
105.31209
 30
0.0
 11
150.884847
 21
105.2723
 31
0.0
  0
LINE
  5
772
330
A
100
AcDbEntity
  8
0
 62
     7
100
AcDbLine
 10
150.884847
 20
105.2723
 30
0.0
 11
150.802165
 21
105.258519
 31
0.0
  0
LINE
  5
773
330
A
100
AcDbEntity
  8
0
 62
     7
100
AcDbLine
 10
145.622119
 20
105.258519
 30
0.0
 11
145.622119
 21
103.51754
 31
0.0
  0
LINE
  5
774
330
A
100
AcDbEntity
  8
0
 62
     7
100
AcDbLine
 10
150.638867
 20
105.258519
 30
0.0
 11
150.638867
 21
103.51754
 31
0.0
  0
LINE
  5
775
330
A
100
AcDbEntity
  8
0
 62
     7
100
AcDbLine
 10
151.600738
 20
93.315923
 30
0.0
 11
151.493251
 21
93.315923
 31
0.0
  0
LINE
  5
776
330
A
100
AcDbEntity
  8
0
 62
     7
100
AcDbLine
 10
151.493251
 20
93.315923
 30
0.0
 11
151.167689
 21
93.315923
 31
0.0
  0
LINE
  5
777
330
A
100
AcDbEntity
  8
0
 62
     7
100
AcDbLine
 10
151.167689
 20
93.315923
 30
0.0
 11
150.649547
 21
93.315923
 31
0.0
  0
LINE
  5
778
330
A
100
AcDbEntity
  8
0
 62
     7
100
AcDbLine
 10
150.649547
 20
93.315923
 30
0.0
 11
149.973964
 21
93.315923
 31
0.0
  0
LINE
  5
779
330
A
100
AcDbEntity
  8
0
 62
     7
100
AcDbLine
 10
149.973964
 20
93.315923
 30
0.0
 11
149.187793
 21
93.315923
 31
0.0
  0
LINE
  5
77A
330
A
100
AcDbEntity
  8
0
 62
     7
100
AcDbLine
 10
149.187793
 20
93.315923
 30
0.0
 11
148.343745
 21
93.315923
 31
0.0
  0
LINE
  5
77B
330
A
100
AcDbEntity
  8
0
 62
     7
100
AcDbLine
 10
148.343745
 20
93.315923
 30
0.0
 11
147.499696
 21
93.315923
 31
0.0
  0
LINE
  5
77C
330
A
100
AcDbEntity
  8
0
 62
     7
100
AcDbLine
 10
147.499696
 20
93.315923
 30
0.0
 11
146.713353
 21
93.315923
 31
0.0
  0
LINE
  5
77D
330
A
100
AcDbEntity
  8
0
 62
     7
100
AcDbLine
 10
146.713353
 20
93.315923
 30
0.0
 11
146.037942
 21
93.315923
 31
0.0
  0
LINE
  5
77E
330
A
100
AcDbEntity
  8
0
 62
     7
100
AcDbLine
 10
146.037942
 20
93.315923
 30
0.0
 11
145.5198
 21
93.315923
 31
0.0
  0
LINE
  5
77F
330
A
100
AcDbEntity
  8
0
 62
     7
100
AcDbLine
 10
145.5198
 20
93.315923
 30
0.0
 11
145.194066
 21
93.315923
 31
0.0
  0
LINE
  5
780
330
A
100
AcDbEntity
  8
0
 62
     7
100
AcDbLine
 10
145.194066
 20
93.315923
 30
0.0
 11
145.058157
 21
93.315923
 31
0.0
  0
LINE
  5
781
330
A
100
AcDbEntity
  8
0
 62
     7
100
AcDbLine
 10
151.600738
 20
93.315923
 30
0.0
 11
151.655859
 21
93.32798100000001
 31
0.0
  0
LINE
  5
782
330
A
100
AcDbEntity
  8
0
 62
     7
100
AcDbLine
 10
145.003208
 20
93.32798100000001
 30
0.0
 11
145.058157
 21
93.315923
 31
0.0
  0
LINE
  5
783
330
A
100
AcDbEntity
  8
0
 62
     7
100
AcDbLine
 10
151.655859
 20
93.32798100000001
 30
0.0
 11
151.703746
 21
93.36002099999999
 31
0.0
  0
LINE
  5
784
330
A
100
AcDbEntity
  8
0
 62
     7
100
AcDbLine
 10
144.955493
 20
93.36002099999999
 30
0.0
 11
145.003208
 21
93.32798100000001
 31
0.0
  0
LINE
  5
785
330
A
100
AcDbEntity
  8
0
 62
     7
100
AcDbLine
 10
151.703746
 20
93.36002099999999
 30
0.0
 11
151.735786
 21
93.407563
 31
0.0
  0
LINE
  5
786
330
A
100
AcDbEntity
  8
0
 62
     7
100
AcDbLine
 10
144.923109
 20
93.407563
 30
0.0
 11
144.955493
 21
93.36002099999999
 31
0.0
  0
LINE
  5
787
330
A
100
AcDbEntity
  8
0
 62
     7
100
AcDbLine
 10
151.735786
 20
93.407563
 30
0.0
 11
151.747843
 21
93.46613000000001
 31
0.0
  0
LINE
  5
788
330
A
100
AcDbEntity
  8
0
 62
     7
100
AcDbLine
 10
144.911396
 20
93.46613000000001
 30
0.0
 11
144.923109
 21
93.407563
 31
0.0
  0
LINE
  5
789
330
A
100
AcDbEntity
  8
0
 62
     7
100
AcDbLine
 10
151.747843
 20
93.46613000000001
 30
0.0
 11
151.747843
 21
93.516083
 31
0.0
  0
LINE
  5
78A
330
A
100
AcDbEntity
  8
0
 62
     7
100
AcDbLine
 10
144.911396
 20
93.516083
 30
0.0
 11
144.911396
 21
93.46613000000001
 31
0.0
  0
LINE
  5
78B
330
A
100
AcDbEntity
  8
0
 62
     7
100
AcDbLine
 10
151.747843
 20
93.516083
 30
0.0
 11
151.735786
 21
93.574306
 31
0.0
  0
LINE
  5
78C
330
A
100
AcDbEntity
  8
0
 62
     7
100
AcDbLine
 10
144.923109
 20
93.57465000000001
 30
0.0
 11
144.911396
 21
93.516083
 31
0.0
  0
LINE
  5
78D
330
A
100
AcDbEntity
  8
0
 62
     7
100
AcDbLine
 10
151.735786
 20
93.574306
 30
0.0
 11
151.703746
 21
93.622192
 31
0.0
  0
LINE
  5
78E
330
A
100
AcDbEntity
  8
0
 62
     7
100
AcDbLine
 10
144.955493
 20
93.622192
 30
0.0
 11
144.923109
 21
93.57465000000001
 31
0.0
  0
LINE
  5
78F
330
A
100
AcDbEntity
  8
0
 62
     7
100
AcDbLine
 10
151.703746
 20
93.622192
 30
0.0
 11
151.655859
 21
93.654232
 31
0.0
  0
LINE
  5
790
330
A
100
AcDbEntity
  8
0
 62
     7
100
AcDbLine
 10
145.003208
 20
93.654232
 30
0.0
 11
144.955493
 21
93.622192
 31
0.0
  0
LINE
  5
791
330
A
100
AcDbEntity
  8
0
 62
     7
100
AcDbLine
 10
151.655859
 20
93.654232
 30
0.0
 11
151.622442
 21
93.66594499999999
 31
0.0
  0
LINE
  5
792
330
A
100
AcDbEntity
  8
0
 62
     7
100
AcDbLine
 10
151.622442
 20
93.66594499999999
 30
0.0
 11
151.514266
 21
93.66594499999999
 31
0.0
  0
LINE
  5
793
330
A
100
AcDbEntity
  8
0
 62
     7
100
AcDbLine
 10
151.514266
 20
93.66594499999999
 30
0.0
 11
151.186293
 21
93.66594499999999
 31
0.0
  0
LINE
  5
794
330
A
100
AcDbEntity
  8
0
 62
     7
100
AcDbLine
 10
151.186293
 20
93.66594499999999
 30
0.0
 11
150.664705
 21
93.66594499999999
 31
0.0
  0
LINE
  5
795
330
A
100
AcDbEntity
  8
0
 62
     7
100
AcDbLine
 10
150.664705
 20
93.66594499999999
 30
0.0
 11
149.984988
 21
93.66594499999999
 31
0.0
  0
LINE
  5
796
330
A
100
AcDbEntity
  8
0
 62
     7
100
AcDbLine
 10
149.984988
 20
93.66594499999999
 30
0.0
 11
149.193305
 21
93.66594499999999
 31
0.0
  0
LINE
  5
797
330
A
100
AcDbEntity
  8
0
 62
     7
100
AcDbLine
 10
149.193305
 20
93.66594499999999
 30
0.0
 11
148.343745
 21
93.66594499999999
 31
0.0
  0
LINE
  5
798
330
A
100
AcDbEntity
  8
0
 62
     7
100
AcDbLine
 10
148.343745
 20
93.66594499999999
 30
0.0
 11
147.494184
 21
93.66594499999999
 31
0.0
  0
LINE
  5
799
330
A
100
AcDbEntity
  8
0
 62
     7
100
AcDbLine
 10
147.494184
 20
93.66594499999999
 30
0.0
 11
146.702501
 21
93.66594499999999
 31
0.0
  0
LINE
  5
79A
330
A
100
AcDbEntity
  8
0
 62
     7
100
AcDbLine
 10
146.702501
 20
93.66594499999999
 30
0.0
 11
146.022784
 21
93.66594499999999
 31
0.0
  0
LINE
  5
79B
330
A
100
AcDbEntity
  8
0
 62
     7
100
AcDbLine
 10
146.022784
 20
93.66594499999999
 30
0.0
 11
145.501196
 21
93.66594499999999
 31
0.0
  0
LINE
  5
79C
330
A
100
AcDbEntity
  8
0
 62
     7
100
AcDbLine
 10
145.501196
 20
93.66594499999999
 30
0.0
 11
145.173395
 21
93.66594499999999
 31
0.0
  0
LINE
  5
79D
330
A
100
AcDbEntity
  8
0
 62
     7
100
AcDbLine
 10
145.173395
 20
93.66594499999999
 30
0.0
 11
145.036797
 21
93.66594499999999
 31
0.0
  0
LINE
  5
79E
330
A
100
AcDbEntity
  8
0
 62
     7
100
AcDbLine
 10
145.036797
 20
93.66594499999999
 30
0.0
 11
145.003208
 21
93.654232
 31
0.0
  0
LINE
  5
79F
330
A
100
AcDbEntity
  8
0
 62
     7
100
AcDbLine
 10
151.622442
 20
93.66594499999999
 30
0.0
 11
151.622442
 21
93.716243
 31
0.0
  0
LINE
  5
7A0
330
A
100
AcDbEntity
  8
0
 62
     7
100
AcDbLine
 10
145.036797
 20
93.716243
 30
0.0
 11
145.036797
 21
93.66594499999999
 31
0.0
  0
LINE
  5
7A1
330
A
100
AcDbEntity
  8
0
 62
     7
100
AcDbLine
 10
151.622442
 20
93.716243
 30
0.0
 11
151.614518
 21
93.755173
 31
0.0
  0
LINE
  5
7A2
330
A
100
AcDbEntity
  8
0
 62
     7
100
AcDbLine
 10
145.044721
 20
93.755173
 30
0.0
 11
145.036797
 21
93.716243
 31
0.0
  0
LINE
  5
7A3
330
A
100
AcDbEntity
  8
0
 62
     7
100
AcDbLine
 10
151.614518
 20
93.755173
 30
0.0
 11
151.5928139999999
 21
93.786868
 31
0.0
  0
LINE
  5
7A4
330
A
100
AcDbEntity
  8
0
 62
     7
100
AcDbLine
 10
145.066081
 20
93.786868
 30
0.0
 11
145.044721
 21
93.755173
 31
0.0
  0
LINE
  5
7A5
330
A
100
AcDbEntity
  8
0
 62
     7
100
AcDbLine
 10
151.5928139999999
 20
93.786868
 30
0.0
 11
151.561119
 21
93.808228
 31
0.0
  0
LINE
  5
7A6
330
A
100
AcDbEntity
  8
0
 62
     7
100
AcDbLine
 10
145.09812
 20
93.808228
 30
0.0
 11
145.066081
 21
93.786868
 31
0.0
  0
LINE
  5
7A7
330
A
100
AcDbEntity
  8
0
 62
     7
100
AcDbLine
 10
151.561119
 20
93.808228
 30
0.0
 11
151.521845
 21
93.81615100000001
 31
0.0
  0
LINE
  5
7A8
330
A
100
AcDbEntity
  8
0
 62
     7
100
AcDbLine
 10
151.521845
 20
93.81615100000001
 30
0.0
 11
151.417114
 21
93.81615100000001
 31
0.0
  0
LINE
  5
7A9
330
A
100
AcDbEntity
  8
0
 62
     7
100
AcDbLine
 10
151.417114
 20
93.81615100000001
 30
0.0
 11
151.099476
 21
93.81615100000001
 31
0.0
  0
LINE
  5
7AA
330
A
100
AcDbEntity
  8
0
 62
     7
100
AcDbLine
 10
151.099476
 20
93.81615100000001
 30
0.0
 11
150.593736
 21
93.81615100000001
 31
0.0
  0
LINE
  5
7AB
330
A
100
AcDbEntity
  8
0
 62
     7
100
AcDbLine
 10
150.593736
 20
93.81615100000001
 30
0.0
 11
149.93469
 21
93.81615100000001
 31
0.0
  0
LINE
  5
7AC
330
A
100
AcDbEntity
  8
0
 62
     7
100
AcDbLine
 10
149.93469
 20
93.81615100000001
 30
0.0
 11
149.167122
 21
93.81615100000001
 31
0.0
  0
LINE
  5
7AD
330
A
100
AcDbEntity
  8
0
 62
     7
100
AcDbLine
 10
149.167122
 20
93.81615100000001
 30
0.0
 11
148.343745
 21
93.81615100000001
 31
0.0
  0
LINE
  5
7AE
330
A
100
AcDbEntity
  8
0
 62
     7
100
AcDbLine
 10
148.343745
 20
93.81615100000001
 30
0.0
 11
147.520194
 21
93.81615100000001
 31
0.0
  0
LINE
  5
7AF
330
A
100
AcDbEntity
  8
0
 62
     7
100
AcDbLine
 10
147.520194
 20
93.81615100000001
 30
0.0
 11
146.752799
 21
93.81615100000001
 31
0.0
  0
LINE
  5
7B0
330
A
100
AcDbEntity
  8
0
 62
     7
100
AcDbLine
 10
146.752799
 20
93.81615100000001
 30
0.0
 11
146.093753
 21
93.81615100000001
 31
0.0
  0
LINE
  5
7B1
330
A
100
AcDbEntity
  8
0
 62
     7
100
AcDbLine
 10
146.093753
 20
93.81615100000001
 30
0.0
 11
145.588013
 21
93.81615100000001
 31
0.0
  0
LINE
  5
7B2
330
A
100
AcDbEntity
  8
0
 62
     7
100
AcDbLine
 10
145.588013
 20
93.81615100000001
 30
0.0
 11
145.269858
 21
93.81615100000001
 31
0.0
  0
LINE
  5
7B3
330
A
100
AcDbEntity
  8
0
 62
     7
100
AcDbLine
 10
145.269858
 20
93.81615100000001
 30
0.0
 11
145.13705
 21
93.81615100000001
 31
0.0
  0
LINE
  5
7B4
330
A
100
AcDbEntity
  8
0
 62
     7
100
AcDbLine
 10
145.13705
 20
93.81615100000001
 30
0.0
 11
145.09812
 21
93.808228
 31
0.0
  0
LINE
  5
7B5
330
A
100
AcDbEntity
  8
0
 62
     7
100
AcDbLine
 10
148.343745
 20
93.81615100000001
 30
0.0
 11
147.52674
 21
93.81615100000001
 31
0.0
  0
LINE
  5
7B6
330
A
100
AcDbEntity
  8
0
 62
     7
100
AcDbLine
 10
146.111495
 20
93.81615100000001
 30
0.0
 11
145.6098889999999
 21
93.81615100000001
 31
0.0
  0
LINE
  5
7B7
330
A
100
AcDbEntity
  8
0
 62
     7
100
AcDbLine
 10
145.6098889999999
 20
93.81615100000001
 30
0.0
 11
145.293974
 21
93.81615100000001
 31
0.0
  0
LINE
  5
7B8
330
A
100
AcDbEntity
  8
0
 62
     7
100
AcDbLine
 10
151.49704
 20
93.81615100000001
 30
0.0
 11
151.496351
 21
93.99805200000001
 31
0.0
  0
LINE
  5
7B9
330
A
100
AcDbEntity
  8
0
 62
     7
100
AcDbLine
 10
145.162888
 20
93.99805200000001
 30
0.0
 11
145.162199
 21
93.81615100000001
 31
0.0
  0
LINE
  5
7BA
330
A
100
AcDbEntity
  8
0
 62
     7
100
AcDbLine
 10
151.496351
 20
93.99805200000001
 30
0.0
 11
151.473269
 21
94.16789599999999
 31
0.0
  0
LINE
  5
7BB
330
A
100
AcDbEntity
  8
0
 62
     7
100
AcDbLine
 10
145.18597
 20
94.16789599999999
 30
0.0
 11
145.162888
 21
93.99805200000001
 31
0.0
  0
LINE
  5
7BC
330
A
100
AcDbEntity
  8
0
 62
     7
100
AcDbLine
 10
151.473269
 20
94.16789599999999
 30
0.0
 11
151.435373
 21
94.335672
 31
0.0
  0
LINE
  5
7BD
330
A
100
AcDbEntity
  8
0
 62
     7
100
AcDbLine
 10
145.223866
 20
94.335672
 30
0.0
 11
145.18597
 21
94.16789599999999
 31
0.0
  0
LINE
  5
7BE
330
A
100
AcDbEntity
  8
0
 62
     7
100
AcDbLine
 10
151.435373
 20
94.335672
 30
0.0
 11
151.369227
 21
94.50344799999999
 31
0.0
  0
LINE
  5
7BF
330
A
100
AcDbEntity
  8
0
 62
     7
100
AcDbLine
 10
145.28984
 20
94.50344799999999
 30
0.0
 11
145.223866
 21
94.335672
 31
0.0
  0
LINE
  5
7C0
330
A
100
AcDbEntity
  8
0
 62
     7
100
AcDbLine
 10
151.369227
 20
94.50344799999999
 30
0.0
 11
151.281033
 21
94.662956
 31
0.0
  0
LINE
  5
7C1
330
A
100
AcDbEntity
  8
0
 62
     7
100
AcDbLine
 10
151.281033
 20
94.662956
 30
0.0
 11
151.192839
 21
94.82211900000001
 31
0.0
  0
LINE
  5
7C2
330
A
100
AcDbEntity
  8
0
 62
     7
100
AcDbLine
 10
145.377862
 20
94.662956
 30
0.0
 11
145.28984
 21
94.50344799999999
 31
0.0
  0
LINE
  5
7C3
330
A
100
AcDbEntity
  8
0
 62
     7
100
AcDbLine
 10
145.466229
 20
94.82211900000001
 30
0.0
 11
145.377862
 21
94.662956
 31
0.0
  0
LINE
  5
7C4
330
A
100
AcDbEntity
  8
0
 62
     7
100
AcDbLine
 10
151.192839
 20
94.82211900000001
 30
0.0
 11
151.126348
 21
94.98989499999998
 31
0.0
  0
LINE
  5
7C5
330
A
100
AcDbEntity
  8
0
 62
     7
100
AcDbLine
 10
145.532719
 20
94.98989499999998
 30
0.0
 11
145.466229
 21
94.82211900000001
 31
0.0
  0
LINE
  5
7C6
330
A
100
AcDbEntity
  8
0
 62
     7
100
AcDbLine
 10
151.126348
 20
94.98989499999998
 30
0.0
 11
151.096376
 21
95.11943100000001
 31
0.0
  0
LINE
  5
7C7
330
A
100
AcDbEntity
  8
0
 62
     7
100
AcDbLine
 10
145.562691
 20
95.11943100000001
 30
0.0
 11
145.532719
 21
94.98989499999998
 31
0.0
  0
LINE
  5
7C8
330
A
100
AcDbEntity
  8
0
 62
     7
100
AcDbLine
 10
151.096376
 20
95.11943100000001
 30
0.0
 11
151.077772
 21
95.25103399999998
 31
0.0
  0
LINE
  5
7C9
330
A
100
AcDbEntity
  8
0
 62
     7
100
AcDbLine
 10
145.581467
 20
95.25103399999998
 30
0.0
 11
145.562691
 21
95.11943100000001
 31
0.0
  0
LINE
  5
7CA
330
A
100
AcDbEntity
  8
0
 62
     7
100
AcDbLine
 10
151.077772
 20
95.25103399999998
 30
0.0
 11
151.070538
 21
95.383325
 31
0.0
  0
LINE
  5
7CB
330
A
100
AcDbEntity
  8
0
 62
     7
100
AcDbLine
 10
145.588702
 20
95.383325
 30
0.0
 11
145.581467
 21
95.25103399999998
 31
0.0
  0
LINE
  5
7CC
330
A
100
AcDbEntity
  8
0
 62
     7
100
AcDbLine
 10
151.070538
 20
95.383325
 30
0.0
 11
151.074672
 21
95.51596100000001
 31
0.0
  0
LINE
  5
7CD
330
A
100
AcDbEntity
  8
0
 62
     7
100
AcDbLine
 10
151.074672
 20
95.51596100000001
 30
0.0
 11
150.984755
 21
95.51596100000001
 31
0.0
  0
LINE
  5
7CE
330
A
100
AcDbEntity
  8
0
 62
     7
100
AcDbLine
 10
150.711903
 20
95.51596100000001
 30
0.0
 11
150.277132
 21
95.51596100000001
 31
0.0
  0
LINE
  5
7CF
330
A
100
AcDbEntity
  8
0
 62
     7
100
AcDbLine
 10
150.277132
 20
95.51596100000001
 30
0.0
 11
149.710758
 21
95.51596100000001
 31
0.0
  0
LINE
  5
7D0
330
A
100
AcDbEntity
  8
0
 62
     7
100
AcDbLine
 10
149.710758
 20
95.51596100000001
 30
0.0
 11
149.051367
 21
95.51596100000001
 31
0.0
  0
LINE
  5
7D1
330
A
100
AcDbEntity
  8
0
 62
     7
100
AcDbLine
 10
149.051367
 20
95.51596100000001
 30
0.0
 11
148.343745
 21
95.51596100000001
 31
0.0
  0
LINE
  5
7D2
330
A
100
AcDbEntity
  8
0
 62
     7
100
AcDbLine
 10
148.343745
 20
95.51596100000001
 30
0.0
 11
147.63595
 21
95.51596100000001
 31
0.0
  0
LINE
  5
7D3
330
A
100
AcDbEntity
  8
0
 62
     7
100
AcDbLine
 10
147.63595
 20
95.51596100000001
 30
0.0
 11
146.976558
 21
95.51596100000001
 31
0.0
  0
LINE
  5
7D4
330
A
100
AcDbEntity
  8
0
 62
     7
100
AcDbLine
 10
146.976558
 20
95.51596100000001
 30
0.0
 11
146.410185
 21
95.51596100000001
 31
0.0
  0
LINE
  5
7D5
330
A
100
AcDbEntity
  8
0
 62
     7
100
AcDbLine
 10
146.410185
 20
95.51596100000001
 30
0.0
 11
145.975586
 21
95.51596100000001
 31
0.0
  0
LINE
  5
7D6
330
A
100
AcDbEntity
  8
0
 62
     7
100
AcDbLine
 10
145.700495
 20
95.51596100000001
 30
0.0
 11
145.584568
 21
95.51596100000001
 31
0.0
  0
LINE
  5
7D7
330
A
100
AcDbEntity
  8
0
 62
     7
100
AcDbLine
 10
145.584568
 20
95.51596100000001
 30
0.0
 11
145.588702
 21
95.383325
 31
0.0
  0
LINE
  5
7D8
330
A
100
AcDbEntity
  8
0
 62
     7
100
AcDbLine
 10
145.584568
 20
95.51596100000001
 30
0.0
 11
145.700495
 21
95.51596100000001
 31
0.0
  0
LINE
  5
7D9
330
A
100
AcDbEntity
  8
0
 62
     7
100
AcDbLine
 10
150.277132
 20
95.51596100000001
 30
0.0
 11
150.711903
 21
95.51596100000001
 31
0.0
  0
LINE
  5
7DA
330
A
100
AcDbEntity
  8
0
 62
     7
100
AcDbLine
 10
150.984755
 20
95.51596100000001
 30
0.0
 11
151.074672
 21
95.51596100000001
 31
0.0
  0
DIMENSION
  5
802
330
A
100
AcDbEntity
  8
Cotation-JacobDelafon
  6
Continuous
370
     0
100
AcDbDimension
  2
*D1
 10
162.89445
 20
118.2801865621132
 30
0.0
 11
153.9087795
 21
120.7119055252782
 31
0.0
 70
    32
  1
18
 71
     5
 42
17.97134099999999
 73
     0
 74
     0
 75
     0
  3
Cotation-Jacob-Delafon
100
AcDbAlignedDimension
 13
144.923109
 23
93.407563
 33
0.0
 14
162.89445
 24
99.64215199999999
 34
0.0
100
AcDbRotatedDimension
  0
DIMENSION
  5
80F
330
A
100
AcDbEntity
  8
Cotation-JacobDelafon
  6
Continuous
370
     0
100
AcDbDimension
  2
*D2
 10
134.1788799968202
 20
93.32798100000001
 30
0.0
 11
131.7727408426592
 21
101.915657
 31
0.0
 70
    32
  1
17.2
 71
     5
 42
17.175352
 73
     0
 74
     0
 75
     0
  3
Cotation-Jacob-Delafon
100
AcDbAlignedDimension
 13
153.655393
 23
110.503333
 33
0.0
 14
145.003208
 24
93.32798100000001
 34
0.0
 50
90.0
100
AcDbRotatedDimension
  0
ENDSEC
  0
SECTION
  2
OBJECTS
  0
DICTIONARY
  5
19
330
0
100
AcDbDictionary
281
     1
  3
ACAD_COLOR
350
2CA
  3
ACAD_GROUP
350
1A
  3
ACAD_LAYOUT
350
1E
  3
ACAD_MATERIAL
350
2A0
  3
ACAD_MLEADERSTYLE
350
2DF
  3
ACAD_MLINESTYLE
350
1B
  3
ACAD_PLOTSETTINGS
350
22
  3
ACAD_PLOTSTYLENAME
350
1F
  3
ACAD_SCALELIST
350
2CD
  3
ACAD_TABLESTYLE
350
2CB
  3
ACAD_VISUALSTYLE
350
2B9
  3
ACAD_WIPEOUT_VARS
350
23
  3
ACDB_RECOMPOSE_DATA
350
566
  3
AcDbVariableDictionary
350
567
  3
AEC_PROPERTY_SET_DEFS
350
7F8
  0
DICTIONARY
  5
55E
330
14
100
AcDbDictionary
280
     1
281
     1
  3
ADSK_XREC_LAYER_RECONCILED
360
55F
  0
DICTIONARY
  5
7FC
330
7FB
100
AcDbDictionary
280
     1
281
     1
  0
DICTIONARY
  5
7E9
330
A
100
AcDbDictionary
280
     1
281
     1
  3
ACAD_SORTENTS
360
7EA
  0
DICTIONARY
  5
2CA
102
{ACAD_REACTORS
330
19
102
}
330
19
100
AcDbDictionary
281
     1
  0
DICTIONARY
  5
1A
102
{ACAD_REACTORS
330
19
102
}
330
19
100
AcDbDictionary
281
     1
  0
DICTIONARY
  5
1E
102
{ACAD_REACTORS
330
19
102
}
330
19
100
AcDbDictionary
281
     1
  3
Layout1
350
21
  3
Model
350
20
  0
DICTIONARY
  5
2A0
102
{ACAD_REACTORS
330
19
102
}
330
19
100
AcDbDictionary
281
     1
  3
ByBlock
350
2A9
  3
ByLayer
350
2A1
  3
Global
350
2B1
  0
DICTIONARY
  5
2DF
102
{ACAD_REACTORS
330
19
102
}
330
19
100
AcDbDictionary
281
     1
  3
Standard
350
2E0
  0
DICTIONARY
  5
1B
102
{ACAD_REACTORS
330
19
102
}
330
19
100
AcDbDictionary
281
     1
  3
Standard
350
1C
  0
DICTIONARY
  5
22
102
{ACAD_REACTORS
330
19
102
}
330
19
100
AcDbDictionary
281
     1
  0
ACDBDICTIONARYWDFLT
  5
1F
102
{ACAD_REACTORS
330
19
102
}
330
19
100
AcDbDictionary
281
     1
  3
Normal
350
1D
100
AcDbDictionaryWithDefault
340
1D
  0
DICTIONARY
  5
2CD
102
{ACAD_REACTORS
330
19
102
}
330
19
100
AcDbDictionary
281
     1
  3
A0
350
2CE
  3
A1
350
2CF
  3
A2
350
2D0
  3
A3
350
2D1
  3
A4
350
2D2
  3
A5
350
2D3
  3
A6
350
2D4
  3
A7
350
2D5
  3
A8
350
2D6
  3
A9
350
2D7
  3
B0
350
2D8
  3
B1
350
2D9
  3
B2
350
2DA
  3
B3
350
2DB
  3
B4
350
2DC
  3
B5
350
2DD
  3
B6
350
2DE
  0
DICTIONARY
  5
2CB
102
{ACAD_REACTORS
330
19
102
}
330
19
100
AcDbDictionary
281
     1
  3
Standard
350
2CC
  0
DICTIONARY
  5
2B9
102
{ACAD_REACTORS
330
19
102
}
330
19
100
AcDbDictionary
281
     1
  3
2dWireframe
350
2BF
  3
3D Hidden
350
2C1
  3
3dWireframe
350
2C0
  3
Basic
350
2BE
  3
Brighten
350
2C5
  3
ColorChange
350
2C9
  3
Conceptual
350
2C2
  3
Dim
350
2C4
  3
Facepattern
350
2C8
  3
Flat
350
2BA
  3
FlatWithEdges
350
2BB
  3
Gouraud
350
2BC
  3
GouraudWithEdges
350
2BD
  3
Linepattern
350
2C7
  3
Realistic
350
2C3
  3
Thicken
350
2C6
  0
WIPEOUTVARIABLES
  5
23
330
19
100
AcDbWipeoutVariables
 70
     1
  0
XRECORD
  5
566
102
{ACAD_REACTORS
330
19
102
}
330
19
100
AcDbXrecord
280
     1
 90
        1
330
2CC
  0
DICTIONARY
  5
567
102
{ACAD_REACTORS
330
19
102
}
330
19
100
AcDbDictionary
281
     1
  3
CANNOSCALE
350
56B
  3
CMLEADERSTYLE
350
569
  3
CTABLESTYLE
350
568
  3
LAYEREVAL
350
56D
  3
LAYERNOTIFY
350
56E
  3
LIGHTINGUNITS
350
56C
  3
MSLTSCALE
350
56A
  0
DICTIONARY
  5
7F8
102
{ACAD_REACTORS
330
19
102
}
330
19
100
AcDbDictionary
281
     1
  0
XRECORD
  5
55F
102
{ACAD_REACTORS
330
55E
102
}
330
55E
100
AcDbXrecord
280
     1
290
     1
  0
SORTENTSTABLE
  5
7EA
102
{ACAD_REACTORS
330
7E9
102
}
330
7E9
100
AcDbSortentsTable
330
A
331
731
  5
731
331
768
  5
768
331
645
  5
645
331
67C
  5
67C
331
5CF
  5
5CF
331
606
  5
606
331
6BB
  5
6BB
331
6F2
  5
6F2
331
590
  5
590
331
7A7
  5
7A7
331
7AF
  5
7AF
331
739
  5
739
331
770
  5
770
331
64D
  5
64D
331
684
  5
684
331
5D7
  5
5D7
331
60E
  5
60E
331
6C3
  5
6C3
331
6FA
  5
6FA
331
598
  5
598
331
7B7
  5
7B7
331
702
  5
702
331
68C
  5
68C
331
778
  5
778
331
616
  5
616
331
5A0
  5
5A0
331
70A
  5
70A
331
741
  5
741
331
61E
  5
61E
331
655
  5
655
331
5A8
  5
5A8
331
5DF
  5
5DF
331
694
  5
694
331
6CB
  5
6CB
331
780
  5
780
331
788
  5
788
331
7BF
  5
7BF
331
69C
  5
69C
331
6D3
  5
6D3
331
712
  5
712
331
5E7
  5
5E7
331
626
  5
626
331
65D
  5
65D
331
749
  5
749
331
5B0
  5
5B0
331
751
  5
751
331
790
  5
790
331
7C7
  5
7C7
331
6A4
  5
6A4
331
6DB
  5
6DB
331
5B8
  5
5B8
331
5EF
  5
5EF
331
579
  5
579
331
62E
  5
62E
331
665
  5
665
331
71A
  5
71A
331
7CF
  5
7CF
331
722
  5
722
331
759
  5
759
331
636
  5
636
331
66D
  5
66D
331
5F7
  5
5F7
331
6AC
  5
6AC
331
6E3
  5
6E3
331
798
  5
798
331
7D7
  5
7D7
331
5C0
  5
5C0
331
581
  5
581
331
7A0
  5
7A0
331
72A
  5
72A
331
761
  5
761
331
63E
  5
63E
331
675
  5
675
331
589
  5
589
331
5C8
  5
5C8
331
5FF
  5
5FF
331
6B4
  5
6B4
331
6EB
  5
6EB
331
7A8
  5
7A8
331
6F3
  5
6F3
331
732
  5
732
331
769
  5
769
331
646
  5
646
331
67D
  5
67D
331
591
  5
591
331
5D0
  5
5D0
331
607
  5
607
331
6BC
  5
6BC
331
771
  5
771
331
7B0
  5
7B0
331
6C4
  5
6C4
331
6FB
  5
6FB
331
60F
  5
60F
331
599
  5
599
331
64E
  5
64E
331
685
  5
685
331
73A
  5
73A
331
779
  5
779
331
68D
  5
68D
331
617
  5
617
331
703
  5
703
331
5D8
  5
5D8
331
5A1
  5
5A1
331
742
  5
742
331
781
  5
781
331
656
  5
656
331
695
  5
695
331
6CC
  5
6CC
331
5E0
  5
5E0
331
61F
  5
61F
331
70B
  5
70B
331
7B8
  5
7B8
331
5A9
  5
5A9
331
7C0
  5
7C0
331
713
  5
713
331
74A
  5
74A
331
65E
  5
65E
331
69D
  5
69D
331
6D4
  5
6D4
331
789
  5
789
331
5B1
  5
5B1
331
5E8
  5
5E8
331
627
  5
627
331
791
  5
791
331
7C8
  5
7C8
331
71B
  5
71B
331
752
  5
752
331
62F
  5
62F
331
666
  5
666
331
57A
  5
57A
331
5B9
  5
5B9
331
5F0
  5
5F0
331
6A5
  5
6A5
331
6DC
  5
6DC
331
799
  5
799
331
7D0
  5
7D0
331
6AD
  5
6AD
331
6E4
  5
6E4
331
723
  5
723
331
637
  5
637
331
66E
  5
66E
331
75A
  5
75A
331
5F8
  5
5F8
331
582
  5
582
331
5C1
  5
5C1
331
762
  5
762
331
7A1
  5
7A1
331
7D8
  5
7D8
331
6B5
  5
6B5
331
6EC
  5
6EC
331
72B
  5
72B
331
5C9
  5
5C9
331
600
  5
600
331
58A
  5
58A
331
63F
  5
63F
331
676
  5
676
331
733
  5
733
331
76A
  5
76A
331
647
  5
647
331
67E
  5
67E
331
5D1
  5
5D1
331
608
  5
608
331
6BD
  5
6BD
331
6F4
  5
6F4
331
592
  5
592
331
7A9
  5
7A9
331
7B1
  5
7B1
331
73B
  5
73B
331
772
  5
772
331
64F
  5
64F
331
686
  5
686
331
59A
  5
59A
331
610
  5
610
331
6C5
  5
6C5
331
6FC
  5
6FC
331
704
  5
704
331
68E
  5
68E
331
77A
  5
77A
331
5A2
  5
5A2
331
5D9
  5
5D9
331
618
  5
618
331
782
  5
782
331
7B9
  5
7B9
331
70C
  5
70C
331
743
  5
743
331
620
  5
620
331
657
  5
657
331
5AA
  5
5AA
331
5E1
  5
5E1
331
696
  5
696
331
6CD
  5
6CD
331
78A
  5
78A
331
7C1
  5
7C1
331
69E
  5
69E
331
6D5
  5
6D5
331
714
  5
714
331
5E9
  5
5E9
331
628
  5
628
331
65F
  5
65F
331
74B
  5
74B
331
5B2
  5
5B2
331
71C
  5
71C
331
753
  5
753
331
667
  5
667
331
6A6
  5
6A6
331
6DD
  5
6DD
331
792
  5
792
331
7C9
  5
7C9
331
5BA
  5
5BA
331
5F1
  5
5F1
331
57B
  5
57B
331
630
  5
630
331
7D1
  5
7D1
331
724
  5
724
331
75B
  5
75B
331
66F
  5
66F
331
6AE
  5
6AE
331
6E5
  5
6E5
331
79A
  5
79A
331
638
  5
638
331
5C2
  5
5C2
331
5F9
  5
5F9
331
583
  5
583
331
7A2
  5
7A2
331
7D9
  5
7D9
331
72C
  5
72C
331
763
  5
763
331
640
  5
640
331
677
  5
677
331
58B
  5
58B
331
5CA
  5
5CA
331
601
  5
601
331
6B6
  5
6B6
331
6ED
  5
6ED
331
7AA
  5
7AA
331
6BE
  5
6BE
331
6F5
  5
6F5
331
734
  5
734
331
609
  5
609
331
648
  5
648
331
67F
  5
67F
331
76B
  5
76B
331
593
  5
593
331
5D2
  5
5D2
331
773
  5
773
331
7B2
  5
7B2
331
6C6
  5
6C6
331
6FD
  5
6FD
331
611
  5
611
331
59B
  5
59B
331
687
  5
687
331
73C
  5
73C
331
77B
  5
77B
331
68F
  5
68F
331
705
  5
705
331
5DA
  5
5DA
331
619
  5
619
331
5A3
  5
5A3
331
650
  5
650
331
744
  5
744
331
783
  5
783
331
658
  5
658
331
697
  5
697
331
6CE
  5
6CE
331
5AB
  5
5AB
331
5E2
  5
5E2
331
621
  5
621
331
70D
  5
70D
331
7BA
  5
7BA
331
7C2
  5
7C2
331
715
  5
715
331
74C
  5
74C
331
629
  5
629
331
660
  5
660
331
5B3
  5
5B3
331
5EA
  5
5EA
331
69F
  5
69F
331
6D6
  5
6D6
331
78B
  5
78B
331
574
  5
574
331
793
  5
793
331
7CA
  5
7CA
331
71D
  5
71D
331
754
  5
754
331
631
  5
631
331
668
  5
668
331
57C
  5
57C
331
5BB
  5
5BB
331
5F2
  5
5F2
331
6A7
  5
6A7
331
6DE
  5
6DE
331
79B
  5
79B
331
7D2
  5
7D2
331
6AF
  5
6AF
331
6E6
  5
6E6
331
725
  5
725
331
75C
  5
75C
331
5FA
  5
5FA
331
639
  5
639
331
670
  5
670
331
584
  5
584
331
5C3
  5
5C3
331
72D
  5
72D
331
764
  5
764
331
678
  5
678
331
6B7
  5
6B7
331
6EE
  5
6EE
331
7A3
  5
7A3
331
7DA
  5
7DA
331
5CB
  5
5CB
331
602
  5
602
331
58C
  5
58C
331
641
  5
641
331
735
  5
735
331
76C
  5
76C
331
649
  5
649
331
680
  5
680
331
5D3
  5
5D3
331
60A
  5
60A
331
6BF
  5
6BF
331
6F6
  5
6F6
331
594
  5
594
331
7AB
  5
7AB
331
7B3
  5
7B3
331
73D
  5
73D
331
774
  5
774
331
688
  5
688
331
59C
  5
59C
331
612
  5
612
331
6C7
  5
6C7
331
6FE
  5
6FE
331
706
  5
706
331
77C
  5
77C
331
61A
  5
61A
331
651
  5
651
331
5A4
  5
5A4
331
5DB
  5
5DB
331
690
  5
690
331
784
  5
784
331
7BB
  5
7BB
331
6CF
  5
6CF
331
70E
  5
70E
331
745
  5
745
331
622
  5
622
331
659
  5
659
331
5AC
  5
5AC
331
5E3
  5
5E3
331
698
  5
698
331
78C
  5
78C
331
7C3
  5
7C3
331
6A0
  5
6A0
331
6D7
  5
6D7
331
716
  5
716
331
5B4
  5
5B4
331
5EB
  5
5EB
331
575
  5
575
331
62A
  5
62A
331
661
  5
661
331
74D
  5
74D
331
71E
  5
71E
331
755
  5
755
331
669
  5
669
331
6A8
  5
6A8
331
6DF
  5
6DF
331
794
  5
794
331
7CB
  5
7CB
331
5BC
  5
5BC
331
5F3
  5
5F3
331
57D
  5
57D
331
632
  5
632
331
79C
  5
79C
331
7D3
  5
7D3
331
726
  5
726
331
75D
  5
75D
331
6E7
  5
6E7
331
63A
  5
63A
331
671
  5
671
331
5C4
  5
5C4
331
5FB
  5
5FB
331
6B0
  5
6B0
331
585
  5
585
331
7A4
  5
7A4
331
72E
  5
72E
331
765
  5
765
331
642
  5
642
331
679
  5
679
331
58D
  5
58D
331
5CC
  5
5CC
331
603
  5
603
331
6B8
  5
6B8
331
6EF
  5
6EF
331
7AC
  5
7AC
331
6C0
  5
6C0
331
6F7
  5
6F7
331
736
  5
736
331
60B
  5
60B
331
64A
  5
64A
331
681
  5
681
331
76D
  5
76D
331
595
  5
595
331
5D4
  5
5D4
331
73E
  5
73E
331
775
  5
775
331
689
  5
689
331
613
  5
613
331
6FF
  5
6FF
331
59D
  5
59D
331
7B4
  5
7B4
331
77D
  5
77D
331
707
  5
707
331
691
  5
691
331
6C8
  5
6C8
331
5DC
  5
5DC
331
61B
  5
61B
331
5A5
  5
5A5
331
652
  5
652
331
746
  5
746
331
785
  5
785
331
65A
  5
65A
331
699
  5
699
331
6D0
  5
6D0
331
5AD
  5
5AD
331
5E4
  5
5E4
331
623
  5
623
331
70F
  5
70F
331
7BC
  5
7BC
331
7C4
  5
7C4
331
717
  5
717
331
74E
  5
74E
331
62B
  5
62B
331
662
  5
662
331
5B5
  5
5B5
331
5EC
  5
5EC
331
6A1
  5
6A1
331
6D8
  5
6D8
331
78D
  5
78D
331
576
  5
576
331
795
  5
795
331
7CC
  5
7CC
331
6E0
  5
6E0
331
71F
  5
71F
331
756
  5
756
331
633
  5
633
331
66A
  5
66A
331
57E
  5
57E
331
5BD
  5
5BD
331
5F4
  5
5F4
331
6A9
  5
6A9
331
79D
  5
79D
331
7D4
  5
7D4
331
727
  5
727
331
75E
  5
75E
331
6B1
  5
6B1
331
6E8
  5
6E8
331
5C5
  5
5C5
331
5FC
  5
5FC
331
586
  5
586
331
63B
  5
63B
331
672
  5
672
331
72F
  5
72F
331
766
  5
766
331
67A
  5
67A
331
6B9
  5
6B9
331
6F0
  5
6F0
331
7A5
  5
7A5
331
5CD
  5
5CD
331
604
  5
604
331
58E
  5
58E
331
643
  5
643
331
7AD
  5
7AD
331
737
  5
737
331
76E
  5
76E
331
64B
  5
64B
331
682
  5
682
331
5D5
  5
5D5
331
60C
  5
60C
331
6C1
  5
6C1
331
6F8
  5
6F8
331
596
  5
596
331
7B5
  5
7B5
331
73F
  5
73F
331
776
  5
776
331
68A
  5
68A
331
59E
  5
59E
331
614
  5
614
331
700
  5
700
331
77E
  5
77E
331
708
  5
708
331
61C
  5
61C
331
653
  5
653
331
5A6
  5
5A6
331
5DD
  5
5DD
331
692
  5
692
331
6C9
  5
6C9
331
786
  5
786
331
7BD
  5
7BD
331
69A
  5
69A
331
6D1
  5
6D1
331
710
  5
710
331
624
  5
624
331
65B
  5
65B
331
747
  5
747
331
5AE
  5
5AE
331
5E5
  5
5E5
331
74F
  5
74F
331
78E
  5
78E
331
7C5
  5
7C5
331
6A2
  5
6A2
331
6D9
  5
6D9
331
5B6
  5
5B6
331
5ED
  5
5ED
331
577
  5
577
331
62C
  5
62C
331
663
  5
663
331
718
  5
718
331
720
  5
720
331
757
  5
757
331
634
  5
634
331
66B
  5
66B
331
5BE
  5
5BE
331
5F5
  5
5F5
331
6AA
  5
6AA
331
6E1
  5
6E1
331
57F
  5
57F
331
796
  5
796
331
7CD
  5
7CD
331
79E
  5
79E
331
7D5
  5
7D5
331
75F
  5
75F
331
728
  5
728
331
63C
  5
63C
331
673
  5
673
331
5C6
  5
5C6
331
5FD
  5
5FD
331
6B2
  5
6B2
331
6E9
  5
6E9
331
587
  5
587
331
7A6
  5
7A6
331
6F1
  5
6F1
331
730
  5
730
331
767
  5
767
331
644
  5
644
331
67B
  5
67B
331
58F
  5
58F
331
5CE
  5
5CE
331
605
  5
605
331
6BA
  5
6BA
331
7AE
  5
7AE
331
6C2
  5
6C2
331
6F9
  5
6F9
331
5D6
  5
5D6
331
60D
  5
60D
331
597
  5
597
331
64C
  5
64C
331
683
  5
683
331
738
  5
738
331
76F
  5
76F
331
777
  5
777
331
68B
  5
68B
331
615
  5
615
331
701
  5
701
331
59F
  5
59F
331
7B6
  5
7B6
331
77F
  5
77F
331
740
  5
740
331
693
  5
693
331
6CA
  5
6CA
331
709
  5
709
331
5DE
  5
5DE
331
61D
  5
61D
331
5A7
  5
5A7
331
654
  5
654
331
7BE
  5
7BE
331
748
  5
748
331
787
  5
787
331
65C
  5
65C
331
69B
  5
69B
331
6D2
  5
6D2
331
5AF
  5
5AF
331
5E6
  5
5E6
331
625
  5
625
331
711
  5
711
331
7C6
  5
7C6
331
719
  5
719
331
750
  5
750
331
62D
  5
62D
331
664
  5
664
331
578
  5
578
331
5B7
  5
5B7
331
5EE
  5
5EE
331
6A3
  5
6A3
331
6DA
  5
6DA
331
78F
  5
78F
331
797
  5
797
331
7CE
  5
7CE
331
6E2
  5
6E2
331
721
  5
721
331
758
  5
758
331
635
  5
635
331
66C
  5
66C
331
5BF
  5
5BF
331
5F6
  5
5F6
331
6AB
  5
6AB
331
79F
  5
79F
331
7D6
  5
7D6
331
580
  5
580
331
760
  5
760
331
6B3
  5
6B3
331
6EA
  5
6EA
331
729
  5
729
331
5C7
  5
5C7
331
5FE
  5
5FE
331
588
  5
588
331
63D
  5
63D
331
674
  5
674
  0
LAYOUT
  5
21
102
{ACAD_REACTORS
330
1E
102
}
330
1E
100
AcDbPlotSettings
  1

  2

  4

  6

 40
0.0
 41
0.0
 42
0.0
 43
0.0
 44
0.0
 45
0.0
 46
0.0
 47
0.0
 48
0.0
 49
0.0
140
0.0
141
0.0
142
1.0
143
1.0
 70
     0
 72
     0
 73
     0
 74
     0
  7

 75
     0
147
1.0
 76
     0
 77
     2
 78
   300
148
0.0
149
0.0
100
AcDbLayout
  1
Layout1
 70
     0
 71
     1
 10
0.0
 20
0.0
 11
12.0
 21
9.0
 12
0.0
 22
0.0
 32
0.0
 14
1.000000000000000E+20
 24
1.000000000000000E+20
 34
1.000000000000000E+20
 15
-1.000000000000000E+20
 25
-1.000000000000000E+20
 35
-1.000000000000000E+20
146
0.0
 13
0.0
 23
0.0
 33
0.0
 16
1.0
 26
0.0
 36
0.0
 17
0.0
 27
1.0
 37
0.0
 76
     0
330
B
  0
LAYOUT
  5
20
102
{ACAD_REACTORS
330
1E
102
}
330
1E
100
AcDbPlotSettings
  1

  2

  4

  6

 40
0.0
 41
0.0
 42
0.0
 43
0.0
 44
0.0
 45
0.0
 46
0.0
 47
0.0
 48
0.0
 49
0.0
140
0.0
141
0.0
142
1.0
143
1.0
 70
  1024
 72
     0
 73
     0
 74
     0
  7

 75
     0
147
1.0
 76
     0
 77
     2
 78
   300
148
0.0
149
0.0
100
AcDbLayout
  1
Model
 70
     0
 71
     0
 10
0.0
 20
0.0
 11
0.0
 21
0.0
 12
0.0
 22
0.0
 32
0.0
 14
0.0
 24
0.0
 34
0.0
 15
0.0
 25
0.0
 35
0.0
146
0.0
 13
0.0
 23
0.0
 33
0.0
 16
0.0
 26
0.0
 36
0.0
 17
0.0
 27
0.0
 37
0.0
 76
     0
330
A
331
15
  0
MATERIAL
  5
2A9
102
{ACAD_XDICTIONARY
360
2AA
102
}
102
{ACAD_REACTORS
330
2A0
102
}
330
2A0
100
AcDbMaterial
  1
ByBlock
 72
     0
 43
0.0208333333333333
 43
0.0
 43
0.0
 43
0.0
 43
0.0
 43
0.0208333333333333
 43
0.0
 43
0.0
 43
0.0
 43
0.0
 43
1.0
 43
0.0
 43
0.0
 43
0.0
 43
0.0
 43
1.0
 77
     0
 47
0.0208333333333333
 47
0.0
 47
0.0
 47
0.0
 47
0.0
 47
0.0208333333333333
 47
0.0
 47
0.0
 47
0.0
 47
0.0
 47
1.0
 47
0.0
 47
0.0
 47
0.0
 47
0.0
 47
1.0
171
     0
 49
0.0208333333333333
 49
0.0
 49
0.0
 49
0.0
 49
0.0
 49
0.0208333333333333
 49
0.0
 49
0.0
 49
0.0
 49
0.0
 49
1.0
 49
0.0
 49
0.0
 49
0.0
 49
0.0
 49
1.0
175
     0
142
0.0208333333333333
142
0.0
142
0.0
142
0.0
142
0.0
142
0.0208333333333333
142
0.0
142
0.0
142
0.0
142
0.0
142
1.0
142
0.0
142
0.0
142
0.0
142
0.0
142
1.0
179
     0
144
0.0208333333333333
144
0.0
144
0.0
144
0.0
144
0.0
144
0.0208333333333333
144
0.0
144
0.0
144
0.0
144
0.0
144
1.0
144
0.0
144
0.0
144
0.0
144
0.0
144
1.0
147
0.0208333333333333
147
0.0
147
0.0
147
0.0
147
0.0
147
0.0208333333333333
147
0.0
147
0.0
147
0.0
147
0.0
147
1.0
147
0.0
147
0.0
147
0.0
147
0.0
147
1.0
  0
MATERIAL
  5
2A1
102
{ACAD_XDICTIONARY
360
2A2
102
}
102
{ACAD_REACTORS
330
2A0
102
}
330
2A0
100
AcDbMaterial
  1
ByLayer
 72
     0
 43
0.0208333333333333
 43
0.0
 43
0.0
 43
0.0
 43
0.0
 43
0.0208333333333333
 43
0.0
 43
0.0
 43
0.0
 43
0.0
 43
1.0
 43
0.0
 43
0.0
 43
0.0
 43
0.0
 43
1.0
 77
     0
 47
0.0208333333333333
 47
0.0
 47
0.0
 47
0.0
 47
0.0
 47
0.0208333333333333
 47
0.0
 47
0.0
 47
0.0
 47
0.0
 47
1.0
 47
0.0
 47
0.0
 47
0.0
 47
0.0
 47
1.0
171
     0
 49
0.0208333333333333
 49
0.0
 49
0.0
 49
0.0
 49
0.0
 49
0.0208333333333333
 49
0.0
 49
0.0
 49
0.0
 49
0.0
 49
1.0
 49
0.0
 49
0.0
 49
0.0
 49
0.0
 49
1.0
175
     0
142
0.0208333333333333
142
0.0
142
0.0
142
0.0
142
0.0
142
0.0208333333333333
142
0.0
142
0.0
142
0.0
142
0.0
142
1.0
142
0.0
142
0.0
142
0.0
142
0.0
142
1.0
179
     0
144
0.0208333333333333
144
0.0
144
0.0
144
0.0
144
0.0
144
0.0208333333333333
144
0.0
144
0.0
144
0.0
144
0.0
144
1.0
144
0.0
144
0.0
144
0.0
144
0.0
144
1.0
147
0.0208333333333333
147
0.0
147
0.0
147
0.0
147
0.0
147
0.0208333333333333
147
0.0
147
0.0
147
0.0
147
0.0
147
1.0
147
0.0
147
0.0
147
0.0
147
0.0
147
1.0
  0
MATERIAL
  5
2B1
102
{ACAD_XDICTIONARY
360
2B2
102
}
102
{ACAD_REACTORS
330
2A0
102
}
330
2A0
100
AcDbMaterial
  1
Global
 72
     0
 43
0.0208333333333333
 43
0.0
 43
0.0
 43
0.0
 43
0.0
 43
0.0208333333333333
 43
0.0
 43
0.0
 43
0.0
 43
0.0
 43
1.0
 43
0.0
 43
0.0
 43
0.0
 43
0.0
 43
1.0
 77
     0
 47
0.0208333333333333
 47
0.0
 47
0.0
 47
0.0
 47
0.0
 47
0.0208333333333333
 47
0.0
 47
0.0
 47
0.0
 47
0.0
 47
1.0
 47
0.0
 47
0.0
 47
0.0
 47
0.0
 47
1.0
171
     0
 49
0.0208333333333333
 49
0.0
 49
0.0
 49
0.0
 49
0.0
 49
0.0208333333333333
 49
0.0
 49
0.0
 49
0.0
 49
0.0
 49
1.0
 49
0.0
 49
0.0
 49
0.0
 49
0.0
 49
1.0
175
     0
142
0.0208333333333333
142
0.0
142
0.0
142
0.0
142
0.0
142
0.0208333333333333
142
0.0
142
0.0
142
0.0
142
0.0
142
1.0
142
0.0
142
0.0
142
0.0
142
0.0
142
1.0
179
     0
144
0.0208333333333333
144
0.0
144
0.0
144
0.0
144
0.0
144
0.0208333333333333
144
0.0
144
0.0
144
0.0
144
0.0
144
1.0
144
0.0
144
0.0
144
0.0
144
0.0
144
1.0
147
0.0208333333333333
147
0.0
147
0.0
147
0.0
147
0.0
147
0.0208333333333333
147
0.0
147
0.0
147
0.0
147
0.0
147
1.0
147
0.0
147
0.0
147
0.0
147
0.0
147
1.0
  0
MLEADERSTYLE
  5
2E0
102
{ACAD_REACTORS
330
2DF
102
}
330
2DF
100
AcDbMLeaderStyle
170
     2
171
     1
172
     0
 90
        2
 40
0.0
 41
0.0
173
     1
 91
-1056964608
340
11
 92
       -2
290
     1
 42
2.0
291
     1
 43
0.36
  3
Standard
 44
4.0
300

342
17
174
     1
178
     6
175
     1
176
     0
 93
-1056964608
 45
4.0
292
     0
297
     0
 46
4.0
 94
-1056964608
 47
1.0
 49
1.0
140
1.0
293
     1
141
0.0
294
     1
177
     0
142
1.0
295
     0
296
     0
143
0.125
1001
ACAD_MLEADERVER
1070
     2
  0
MLINESTYLE
  5
1C
102
{ACAD_REACTORS
330
1B
102
}
330
1B
100
AcDbMlineStyle
  2
STANDARD
 70
     0
  3

 62
     0
 51
90.0
 52
90.0
 71
     2
 49
0.5
 62
   256
  6
BYLAYER
 49
-0.5
 62
   256
  6
BYLAYER
  0
ACDBPLACEHOLDER
  5
1D
102
{ACAD_REACTORS
330
1F
102
}
330
1F
  0
SCALE
  5
2CE
102
{ACAD_REACTORS
330
2CD
102
}
330
2CD
100
AcDbScale
 70
     0
300
1:1
140
1.0
141
1.0
290
     1
  0
SCALE
  5
2CF
102
{ACAD_REACTORS
330
2CD
102
}
330
2CD
100
AcDbScale
 70
     0
300
1:2
140
1.0
141
2.0
290
     0
  0
SCALE
  5
2D0
102
{ACAD_REACTORS
330
2CD
102
}
330
2CD
100
AcDbScale
 70
     0
300
1:4
140
1.0
141
4.0
290
     0
  0
SCALE
  5
2D1
102
{ACAD_REACTORS
330
2CD
102
}
330
2CD
100
AcDbScale
 70
     0
300
1:5
140
1.0
141
5.0
290
     0
  0
SCALE
  5
2D2
102
{ACAD_REACTORS
330
2CD
102
}
330
2CD
100
AcDbScale
 70
     0
300
1:8
140
1.0
141
8.0
290
     0
  0
SCALE
  5
2D3
102
{ACAD_REACTORS
330
2CD
102
}
330
2CD
100
AcDbScale
 70
     0
300
1:10
140
1.0
141
10.0
290
     0
  0
SCALE
  5
2D4
102
{ACAD_REACTORS
330
2CD
102
}
330
2CD
100
AcDbScale
 70
     0
300
1:16
140
1.0
141
16.0
290
     0
  0
SCALE
  5
2D5
102
{ACAD_REACTORS
330
2CD
102
}
330
2CD
100
AcDbScale
 70
     0
300
1:20
140
1.0
141
20.0
290
     0
  0
SCALE
  5
2D6
102
{ACAD_REACTORS
330
2CD
102
}
330
2CD
100
AcDbScale
 70
     0
300
1:30
140
1.0
141
30.0
290
     0
  0
SCALE
  5
2D7
102
{ACAD_REACTORS
330
2CD
102
}
330
2CD
100
AcDbScale
 70
     0
300
1:40
140
1.0
141
40.0
290
     0
  0
SCALE
  5
2D8
102
{ACAD_REACTORS
330
2CD
102
}
330
2CD
100
AcDbScale
 70
     0
300
1:50
140
1.0
141
50.0
290
     0
  0
SCALE
  5
2D9
102
{ACAD_REACTORS
330
2CD
102
}
330
2CD
100
AcDbScale
 70
     0
300
1:100
140
1.0
141
100.0
290
     0
  0
SCALE
  5
2DA
102
{ACAD_REACTORS
330
2CD
102
}
330
2CD
100
AcDbScale
 70
     0
300
2:1
140
2.0
141
1.0
290
     0
  0
SCALE
  5
2DB
102
{ACAD_REACTORS
330
2CD
102
}
330
2CD
100
AcDbScale
 70
     0
300
4:1
140
4.0
141
1.0
290
     0
  0
SCALE
  5
2DC
102
{ACAD_REACTORS
330
2CD
102
}
330
2CD
100
AcDbScale
 70
     0
300
8:1
140
8.0
141
1.0
290
     0
  0
SCALE
  5
2DD
102
{ACAD_REACTORS
330
2CD
102
}
330
2CD
100
AcDbScale
 70
     0
300
10:1
140
10.0
141
1.0
290
     0
  0
SCALE
  5
2DE
102
{ACAD_REACTORS
330
2CD
102
}
330
2CD
100
AcDbScale
 70
     0
300
100:1
140
100.0
141
1.0
290
     0
  0
TABLESTYLE
  5
2CC
102
{ACAD_XDICTIONARY
360
564
102
}
102
{ACAD_REACTORS
330
2CB
102
}
330
2CB
100
AcDbTableStyle
  3
Standard
 70
     0
 71
     0
 40
1.5
 41
1.5
280
     0
281
     0
  7
Standard
140
4.5
170
     2
 62
     0
 63
     7
283
     0
 90
      512
 91
        0
  1

274
    -2
284
     1
 64
     0
275
    -2
285
     1
 65
     0
276
    -2
286
     1
 66
     0
277
    -2
287
     1
 67
     0
278
    -2
288
     1
 68
     0
279
    -2
289
     1
 69
     0
  7
Standard
140
6.0
170
     5
 62
     0
 63
     7
283
     0
 90
      512
 91
        0
  1

274
    -2
284
     1
 64
     0
275
    -2
285
     1
 65
     0
276
    -2
286
     1
 66
     0
277
    -2
287
     1
 67
     0
278
    -2
288
     1
 68
     0
279
    -2
289
     1
 69
     0
  7
Standard
140
4.5
170
     5
 62
     0
 63
     7
283
     0
 90
      512
 91
        0
  1

274
    -2
284
     1
 64
     0
275
    -2
285
     1
 65
     0
276
    -2
286
     1
 66
     0
277
    -2
287
     1
 67
     0
278
    -2
288
     1
 68
     0
279
    -2
289
     1
 69
     0
  0
VISUALSTYLE
  5
2BF
102
{ACAD_REACTORS
330
2B9
102
}
330
2B9
100
AcDbVisualStyle
  2
2dWireframe
 70
     4
 71
     0
 72
     2
 73
     0
 90
        0
 40
-0.6
 41
-30.0
 62
     5
 63
     7
421
 16777215
 74
     1
 91
        4
 64
     7
 65
   257
 75
     1
175
     1
 42
1.0
 92
        0
 66
   257
 43
1.0
 76
     1
 77
     6
 78
     2
 67
     7
 79
     5
170
     0
171
     0
290
     0
174
     0
 93
        1
 44
0.0
173
     0
291
     0
 45
0.0
  0
VISUALSTYLE
  5
2C1
102
{ACAD_REACTORS
330
2B9
102
}
330
2B9
100
AcDbVisualStyle
  2
3D Hidden
 70
     6
 71
     1
 72
     2
 73
     2
 90
        0
 40
-0.6
 41
-30.0
 62
     5
 63
     7
421
 16777215
 74
     2
 91
        2
 64
     7
 65
   257
 75
     2
175
     1
 42
40.0
 92
        0
 66
   257
 43
1.0
 76
     1
 77
     6
 78
     2
 67
     7
 79
     3
170
     0
171
     0
290
     0
174
     0
 93
        1
 44
0.0
173
     0
291
     0
 45
0.0
  0
VISUALSTYLE
  5
2C0
102
{ACAD_REACTORS
330
2B9
102
}
330
2B9
100
AcDbVisualStyle
  2
3dWireframe
 70
     5
 71
     0
 72
     2
 73
     0
 90
        0
 40
-0.6
 41
-30.0
 62
     5
 63
     7
421
 16777215
 74
     1
 91
        4
 64
     7
 65
   257
 75
     1
175
     1
 42
1.0
 92
        0
 66
   257
 43
1.0
 76
     1
 77
     6
 78
     2
 67
     7
 79
     5
170
     0
171
     0
290
     0
174
     0
 93
        1
 44
0.0
173
     0
291
     0
 45
0.0
  0
VISUALSTYLE
  5
2BE
102
{ACAD_REACTORS
330
2B9
102
}
330
2B9
100
AcDbVisualStyle
  2
Basic
 70
     7
 71
     1
 72
     0
 73
     1
 90
        0
 40
-0.6
 41
-30.0
 62
     5
 63
     7
421
 16777215
 74
     0
 91
        4
 64
     7
 65
   257
 75
     1
175
     1
 42
1.0
 92
        8
 66
     7
 43
1.0
 76
     1
 77
     6
 78
     2
 67
     7
 79
     5
170
     0
171
     0
290
     0
174
     0
 93
        1
 44
0.0
173
     0
291
     1
 45
0.0
  0
VISUALSTYLE
  5
2C5
102
{ACAD_REACTORS
330
2B9
102
}
330
2B9
100
AcDbVisualStyle
  2
Brighten
 70
    12
 71
     2
 72
     2
 73
     0
 90
        0
 40
-0.6
 41
-30.0
 62
     5
 63
     7
421
 16777215
 74
     1
 91
        4
 64
     7
 65
   257
 75
     1
175
     1
 42
1.0
 92
        8
 66
     7
 43
1.0
 76
     1
 77
     6
 78
     2
 67
     7
 79
     5
170
     0
171
     0
290
     0
174
     0
 93
        1
 44
50.0
173
     0
291
     1
 45
0.0
  0
VISUALSTYLE
  5
2C9
102
{ACAD_REACTORS
330
2B9
102
}
330
2B9
100
AcDbVisualStyle
  2
ColorChange
 70
    16
 71
     2
 72
     2
 73
     3
 90
        0
 40
-0.6
 41
-30.0
 62
     5
 63
     8
421
  8421504
 74
     1
 91
        4
 64
     7
 65
   257
 75
     1
175
     1
 42
1.0
 92
        8
 66
     8
424
  8421504
 43
1.0
 76
     1
 77
     6
 78
     2
 67
     7
 79
     5
170
     0
171
     0
290
     0
174
     0
 93
        1
 44
0.0
173
     0
291
     1
 45
0.0
  0
VISUALSTYLE
  5
2C2
102
{ACAD_REACTORS
330
2B9
102
}
330
2B9
100
AcDbVisualStyle
  2
Conceptual
 70
     9
 71
     3
 72
     2
 73
     0
 90
        0
 40
-0.6
 41
-30.0
 62
     5
 63
     7
421
 16777215
 74
     2
 91
        2
 64
     7
 65
   257
 75
     1
175
     1
 42
40.0
 92
        8
 66
     7
 43
1.0
 76
     1
 77
     6
 78
     2
 67
     7
 79
     3
170
     0
171
     0
290
     0
174
     0
 93
        1
 44
0.0
173
     0
291
     0
 45
0.0
  0
VISUALSTYLE
  5
2C4
102
{ACAD_REACTORS
330
2B9
102
}
330
2B9
100
AcDbVisualStyle
  2
Dim
 70
    11
 71
     2
 72
     2
 73
     0
 90
        0
 40
-0.6
 41
-30.0
 62
     5
 63
     7
421
 16777215
 74
     1
 91
        4
 64
     7
 65
   257
 75
     1
175
     1
 42
1.0
 92
        8
 66
     7
 43
1.0
 76
     1
 77
     6
 78
     2
 67
     7
 79
     5
170
     0
171
     0
290
     0
174
     0
 93
        1
 44
-50.0
173
     0
291
     1
 45
0.0
  0
VISUALSTYLE
  5
2C8
102
{ACAD_REACTORS
330
2B9
102
}
330
2B9
100
AcDbVisualStyle
  2
Facepattern
 70
    15
 71
     2
 72
     2
 73
     0
 90
        0
 40
-0.6
 41
-30.0
 62
     5
 63
     7
421
 16777215
 74
     1
 91
        4
 64
     7
 65
   257
 75
     1
175
     1
 42
1.0
 92
        8
 66
     7
 43
1.0
 76
     1
 77
     6
 78
     2
 67
     7
 79
     5
170
     0
171
     0
290
     0
174
     0
 93
        1
 44
0.0
173
     0
291
     1
 45
0.0
  0
VISUALSTYLE
  5
2BA
102
{ACAD_REACTORS
330
2B9
102
}
330
2B9
100
AcDbVisualStyle
  2
Flat
 70
     0
 71
     2
 72
     1
 73
     1
 90
        2
 40
-0.6
 41
30.0
 62
     5
 63
     7
421
 16777215
 74
     0
 91
        4
 64
     7
 65
   257
 75
     1
175
     1
 42
1.0
 92
        8
 66
     7
 43
1.0
 76
     1
 77
     6
 78
     2
 67
     7
 79
     5
170
     0
171
     0
290
     0
174
     0
 93
       13
 44
0.0
173
     0
291
     1
 45
0.0
  0
VISUALSTYLE
  5
2BB
102
{ACAD_REACTORS
330
2B9
102
}
330
2B9
100
AcDbVisualStyle
  2
FlatWithEdges
 70
     1
 71
     2
 72
     1
 73
     1
 90
        2
 40
-0.6
 41
30.0
 62
     5
 63
     7
421
 16777215
 74
     1
 91
        4
 64
     7
 65
   257
 75
     1
175
     1
 42
1.0
 92
        0
 66
   257
 43
1.0
 76
     1
 77
     6
 78
     2
 67
     7
 79
     5
170
     0
171
     0
290
     0
174
     0
 93
       13
 44
0.0
173
     0
291
     1
 45
0.0
  0
VISUALSTYLE
  5
2BC
102
{ACAD_REACTORS
330
2B9
102
}
330
2B9
100
AcDbVisualStyle
  2
Gouraud
 70
     2
 71
     2
 72
     2
 73
     1
 90
        2
 40
-0.6
 41
30.0
 62
     5
 63
     7
421
 16777215
 74
     0
 91
        4
 64
     7
 65
   257
 75
     1
175
     1
 42
1.0
 92
        0
 66
     7
 43
1.0
 76
     1
 77
     6
 78
     2
 67
     7
 79
     5
170
     0
171
     0
290
     0
174
     0
 93
       13
 44
0.0
173
     0
291
     1
 45
0.0
  0
VISUALSTYLE
  5
2BD
102
{ACAD_REACTORS
330
2B9
102
}
330
2B9
100
AcDbVisualStyle
  2
GouraudWithEdges
 70
     3
 71
     2
 72
     2
 73
     1
 90
        2
 40
-0.6
 41
30.0
 62
     5
 63
     7
421
 16777215
 74
     1
 91
        4
 64
     7
 65
   257
 75
     1
175
     1
 42
1.0
 92
        0
 66
   257
 43
1.0
 76
     1
 77
     6
 78
     2
 67
     7
 79
     5
170
     0
171
     0
290
     0
174
     0
 93
       13
 44
0.0
173
     0
291
     1
 45
0.0
  0
VISUALSTYLE
  5
2C7
102
{ACAD_REACTORS
330
2B9
102
}
330
2B9
100
AcDbVisualStyle
  2
Linepattern
 70
    14
 71
     2
 72
     2
 73
     0
 90
        0
 40
-0.6
 41
-30.0
 62
     5
 63
     7
421
 16777215
 74
     1
 91
        4
 64
     7
 65
   257
 75
     7
175
     7
 42
1.0
 92
        8
 66
     7
 43
1.0
 76
     1
 77
     6
 78
     2
 67
     7
 79
     5
170
     0
171
     0
290
     0
174
     0
 93
        1
 44
0.0
173
     0
291
     1
 45
0.0
  0
VISUALSTYLE
  5
2C3
102
{ACAD_REACTORS
330
2B9
102
}
330
2B9
100
AcDbVisualStyle
  2
Realistic
 70
     8
 71
     2
 72
     2
 73
     0
 90
        0
 40
-0.6
 41
-30.0
 62
     5
 63
     7
421
 16777215
 74
     1
 91
        0
 64
     7
 65
   257
 75
     1
175
     1
 42
1.0
 92
        8
 66
     8
424
  7895160
 43
1.0
 76
     1
 77
     6
 78
     2
 67
     7
 79
     5
170
     0
171
     0
290
     0
174
     0
 93
       13
 44
0.0
173
     0
291
     0
 45
0.0
  0
VISUALSTYLE
  5
2C6
102
{ACAD_REACTORS
330
2B9
102
}
330
2B9
100
AcDbVisualStyle
  2
Thicken
 70
    13
 71
     2
 72
     2
 73
     0
 90
        0
 40
-0.6
 41
-30.0
 62
     5
 63
     7
421
 16777215
 74
     1
 91
        4
 64
     7
 65
   257
 75
     1
175
     1
 42
1.0
 92
       12
 66
     7
 43
1.0
 76
     1
 77
     6
 78
     2
 67
     7
 79
     5
170
     0
171
     0
290
     0
174
     0
 93
        1
 44
0.0
173
     0
291
     1
 45
0.0
  0
DICTIONARYVAR
  5
56B
102
{ACAD_REACTORS
330
567
102
}
330
567
100
DictionaryVariables
280
     0
  1
1:1
  0
DICTIONARYVAR
  5
569
102
{ACAD_REACTORS
330
567
102
}
330
567
100
DictionaryVariables
280
     0
  1
STANDARD
  0
DICTIONARYVAR
  5
568
102
{ACAD_REACTORS
330
567
102
}
330
567
100
DictionaryVariables
280
     0
  1
STANDARD
  0
DICTIONARYVAR
  5
56D
102
{ACAD_REACTORS
330
567
102
}
330
567
100
DictionaryVariables
280
     0
  1
1
  0
DICTIONARYVAR
  5
56E
102
{ACAD_REACTORS
330
567
102
}
330
567
100
DictionaryVariables
280
     0
  1
15
  0
DICTIONARYVAR
  5
56C
102
{ACAD_REACTORS
330
567
102
}
330
567
100
DictionaryVariables
280
     0
  1
0
  0
DICTIONARYVAR
  5
56A
102
{ACAD_REACTORS
330
567
102
}
330
567
100
DictionaryVariables
280
     0
  1
0
  0
DICTIONARY
  5
2AA
330
2A9
100
AcDbDictionary
280
     1
281
     1
  3
BUMPTILE
360
2AC
  3
DIFFUSETILE
360
2AB
  3
OPACITYTILE
360
2AF
  3
REFLECTIONTILE
360
2AE
  3
REFRACTIONTILE
360
2B0
  3
SPECULARTILE
360
2AD
  0
DICTIONARY
  5
2A2
330
2A1
100
AcDbDictionary
280
     1
281
     1
  3
BUMPTILE
360
2A4
  3
DIFFUSETILE
360
2A3
  3
OPACITYTILE
360
2A7
  3
REFLECTIONTILE
360
2A6
  3
REFRACTIONTILE
360
2A8
  3
SPECULARTILE
360
2A5
  0
DICTIONARY
  5
2B2
330
2B1
100
AcDbDictionary
280
     1
281
     1
  3
BUMPTILE
360
2B4
  3
DIFFUSETILE
360
2B3
  3
OPACITYTILE
360
2B7
  3
REFLECTIONTILE
360
2B6
  3
REFRACTIONTILE
360
2B8
  3
SPECULARTILE
360
2B5
  0
DICTIONARY
  5
564
330
2CC
100
AcDbDictionary
280
     1
281
     1
  3
ACAD_ROUNDTRIP_2008_TABLESTYLE_CELLSTYLEMAP
360
844
  0
XRECORD
  5
2AC
102
{ACAD_REACTORS
330
2AA
102
}
330
2AA
100
AcDbXrecord
280
     1
270
     1
271
     1
  0
XRECORD
  5
2AB
102
{ACAD_REACTORS
330
2AA
102
}
330
2AA
100
AcDbXrecord
280
     1
270
     1
271
     1
  0
XRECORD
  5
2AF
102
{ACAD_REACTORS
330
2AA
102
}
330
2AA
100
AcDbXrecord
280
     1
270
     1
271
     1
  0
XRECORD
  5
2AE
102
{ACAD_REACTORS
330
2AA
102
}
330
2AA
100
AcDbXrecord
280
     1
270
     1
271
     1
  0
XRECORD
  5
2B0
102
{ACAD_REACTORS
330
2AA
102
}
330
2AA
100
AcDbXrecord
280
     1
270
     1
271
     1
  0
XRECORD
  5
2AD
102
{ACAD_REACTORS
330
2AA
102
}
330
2AA
100
AcDbXrecord
280
     1
270
     1
271
     1
  0
XRECORD
  5
2A4
102
{ACAD_REACTORS
330
2A2
102
}
330
2A2
100
AcDbXrecord
280
     1
270
     1
271
     1
  0
XRECORD
  5
2A3
102
{ACAD_REACTORS
330
2A2
102
}
330
2A2
100
AcDbXrecord
280
     1
270
     1
271
     1
  0
XRECORD
  5
2A7
102
{ACAD_REACTORS
330
2A2
102
}
330
2A2
100
AcDbXrecord
280
     1
270
     1
271
     1
  0
XRECORD
  5
2A6
102
{ACAD_REACTORS
330
2A2
102
}
330
2A2
100
AcDbXrecord
280
     1
270
     1
271
     1
  0
XRECORD
  5
2A8
102
{ACAD_REACTORS
330
2A2
102
}
330
2A2
100
AcDbXrecord
280
     1
270
     1
271
     1
  0
XRECORD
  5
2A5
102
{ACAD_REACTORS
330
2A2
102
}
330
2A2
100
AcDbXrecord
280
     1
270
     1
271
     1
  0
XRECORD
  5
2B4
102
{ACAD_REACTORS
330
2B2
102
}
330
2B2
100
AcDbXrecord
280
     1
270
     1
271
     1
  0
XRECORD
  5
2B3
102
{ACAD_REACTORS
330
2B2
102
}
330
2B2
100
AcDbXrecord
280
     1
270
     1
271
     1
  0
XRECORD
  5
2B7
102
{ACAD_REACTORS
330
2B2
102
}
330
2B2
100
AcDbXrecord
280
     1
270
     1
271
     1
  0
XRECORD
  5
2B6
102
{ACAD_REACTORS
330
2B2
102
}
330
2B2
100
AcDbXrecord
280
     1
270
     1
271
     1
  0
XRECORD
  5
2B8
102
{ACAD_REACTORS
330
2B2
102
}
330
2B2
100
AcDbXrecord
280
     1
270
     1
271
     1
  0
XRECORD
  5
2B5
102
{ACAD_REACTORS
330
2B2
102
}
330
2B2
100
AcDbXrecord
280
     1
270
     1
271
     1
  0
CELLSTYLEMAP
  5
844
102
{ACAD_REACTORS
330
564
102
}
330
564
100
AcDbCellStyleMap
 90
        3
300
CELLSTYLE
  1
TABLEFORMAT_BEGIN
 90
        5
170
     1
 91
        0
 92
    32768
 62
   257
 93
        1
300
CONTENTFORMAT
  1
CONTENTFORMAT_BEGIN
 90
        0
 91
        0
 92
      512
 93
        0
300

 40
0.0
140
1.0
 94
        5
 62
     0
340
17
144
6.0
309
CONTENTFORMAT_END
171
     1
301
MARGIN
  1
CELLMARGIN_BEGIN
 40
1.5
 40
1.5
 40
1.5
 40
1.5
 40
4.5
 40
4.5
309
CELLMARGIN_END
 94
        6
 95
        1
302
GRIDFORMAT
  1
GRIDFORMAT_BEGIN
 90
        0
 91
        1
 62
     0
 92
       -2
340
0
 93
        0
 40
1.125
309
GRIDFORMAT_END
 95
        2
302
GRIDFORMAT
  1
GRIDFORMAT_BEGIN
 90
        0
 91
        1
 62
     0
 92
       -2
340
0
 93
        0
 40
1.125
309
GRIDFORMAT_END
 95
        4
302
GRIDFORMAT
  1
GRIDFORMAT_BEGIN
 90
        0
 91
        1
 62
     0
 92
       -2
340
0
 93
        0
 40
1.125
309
GRIDFORMAT_END
 95
        8
302
GRIDFORMAT
  1
GRIDFORMAT_BEGIN
 90
        0
 91
        1
 62
     0
 92
       -2
340
0
 93
        0
 40
1.125
309
GRIDFORMAT_END
 95
       16
302
GRIDFORMAT
  1
GRIDFORMAT_BEGIN
 90
        0
 91
        1
 62
     0
 92
       -2
340
0
 93
        0
 40
1.125
309
GRIDFORMAT_END
 95
       32
302
GRIDFORMAT
  1
GRIDFORMAT_BEGIN
 90
        0
 91
        1
 62
     0
 92
       -2
340
0
 93
        0
 40
1.125
309
GRIDFORMAT_END
309
TABLEFORMAT_END
  1
CELLSTYLE_BEGIN
 90
        1
 91
        1
300
_TITLE
309
CELLSTYLE_END
300
CELLSTYLE
  1
TABLEFORMAT_BEGIN
 90
        5
170
     1
 91
        0
 92
        0
 62
   257
 93
        1
300
CONTENTFORMAT
  1
CONTENTFORMAT_BEGIN
 90
        0
 91
        0
 92
      512
 93
        0
300

 40
0.0
140
1.0
 94
        5
 62
     0
340
17
144
4.5
309
CONTENTFORMAT_END
171
     1
301
MARGIN
  1
CELLMARGIN_BEGIN
 40
1.5
 40
1.5
 40
1.5
 40
1.5
 40
4.5
 40
4.5
309
CELLMARGIN_END
 94
        6
 95
        1
302
GRIDFORMAT
  1
GRIDFORMAT_BEGIN
 90
        0
 91
        1
 62
     0
 92
       -2
340
0
 93
        0
 40
1.125
309
GRIDFORMAT_END
 95
        2
302
GRIDFORMAT
  1
GRIDFORMAT_BEGIN
 90
        0
 91
        1
 62
     0
 92
       -2
340
0
 93
        0
 40
1.125
309
GRIDFORMAT_END
 95
        4
302
GRIDFORMAT
  1
GRIDFORMAT_BEGIN
 90
        0
 91
        1
 62
     0
 92
       -2
340
0
 93
        0
 40
1.125
309
GRIDFORMAT_END
 95
        8
302
GRIDFORMAT
  1
GRIDFORMAT_BEGIN
 90
        0
 91
        1
 62
     0
 92
       -2
340
0
 93
        0
 40
1.125
309
GRIDFORMAT_END
 95
       16
302
GRIDFORMAT
  1
GRIDFORMAT_BEGIN
 90
        0
 91
        1
 62
     0
 92
       -2
340
0
 93
        0
 40
1.125
309
GRIDFORMAT_END
 95
       32
302
GRIDFORMAT
  1
GRIDFORMAT_BEGIN
 90
        0
 91
        1
 62
     0
 92
       -2
340
0
 93
        0
 40
1.125
309
GRIDFORMAT_END
309
TABLEFORMAT_END
  1
CELLSTYLE_BEGIN
 90
        2
 91
        1
300
_HEADER
309
CELLSTYLE_END
300
CELLSTYLE
  1
TABLEFORMAT_BEGIN
 90
        5
170
     1
 91
        0
 92
        0
 62
   257
 93
        1
300
CONTENTFORMAT
  1
CONTENTFORMAT_BEGIN
 90
        0
 91
        0
 92
      512
 93
        0
300

 40
0.0
140
1.0
 94
        2
 62
     0
340
17
144
4.5
309
CONTENTFORMAT_END
171
     1
301
MARGIN
  1
CELLMARGIN_BEGIN
 40
1.5
 40
1.5
 40
1.5
 40
1.5
 40
4.5
 40
4.5
309
CELLMARGIN_END
 94
        6
 95
        1
302
GRIDFORMAT
  1
GRIDFORMAT_BEGIN
 90
        0
 91
        1
 62
     0
 92
       -2
340
0
 93
        0
 40
1.125
309
GRIDFORMAT_END
 95
        2
302
GRIDFORMAT
  1
GRIDFORMAT_BEGIN
 90
        0
 91
        1
 62
     0
 92
       -2
340
0
 93
        0
 40
1.125
309
GRIDFORMAT_END
 95
        4
302
GRIDFORMAT
  1
GRIDFORMAT_BEGIN
 90
        0
 91
        1
 62
     0
 92
       -2
340
0
 93
        0
 40
1.125
309
GRIDFORMAT_END
 95
        8
302
GRIDFORMAT
  1
GRIDFORMAT_BEGIN
 90
        0
 91
        1
 62
     0
 92
       -2
340
0
 93
        0
 40
1.125
309
GRIDFORMAT_END
 95
       16
302
GRIDFORMAT
  1
GRIDFORMAT_BEGIN
 90
        0
 91
        1
 62
     0
 92
       -2
340
0
 93
        0
 40
1.125
309
GRIDFORMAT_END
 95
       32
302
GRIDFORMAT
  1
GRIDFORMAT_BEGIN
 90
        0
 91
        1
 62
     0
 92
       -2
340
0
 93
        0
 40
1.125
309
GRIDFORMAT_END
309
TABLEFORMAT_END
  1
CELLSTYLE_BEGIN
 90
        3
 91
        2
300
_DATA
309
CELLSTYLE_END
  0
ENDSEC
  0
EOF
