  0
SECTION
  2
HEADER
  9
$ACADVER
  1
AC1021
  9
$ACADMAINTVER
 70
    50
  9
$DWGCODEPAGE
  3
ANSI_1252
  9
$LASTSAVEDBY
  1
François
  9
$INSBASE
 10
139.569259
 20
99.58496400000001
 30
0.0
  9
$EXTMIN
 10
125.0870363270969
 20
96.20191099999999
 30
0.0
  9
$EXTMAX
 10
158.399775
 20
129.135447056161
 30
0.0
  9
$LIMMIN
 10
139.455743
 20
96.95601100000001
  9
$LIMMAX
 10
157.543872
 20
113.04409
  9
$ORTHOMODE
 70
     0
  9
$REGENMODE
 70
     1
  9
$FILLMODE
 70
     1
  9
$QTEXTMODE
 70
     0
  9
$MIRRTEXT
 70
     1
  9
$LTSCALE
 40
1.0
  9
$ATTMODE
 70
     1
  9
$TEXTSIZE
 40
0.0
  9
$TRACEWID
 40
0.05
  9
$TEXTSTYLE
  7
Standard
  9
$CLAYER
  8
Cotation-JacobDelafon
  9
$CELTYPE
  6
Continuous
  9
$CECOLOR
 62
   256
  9
$CELTSCALE
 40
1.0
  9
$DISPSILH
 70
     0
  9
$DIMSCALE
 40
1.0
  9
$DIMASZ
 40
1.8
  9
$DIMEXO
 40
0.625
  9
$DIMDLI
 40
3.799999999999999
  9
$DIMRND
 40
0.0
  9
$DIMDLE
 40
0.0
  9
$DIMEXE
 40
1.8
  9
$DIMTP
 40
0.0
  9
$DIMTM
 40
0.0
  9
$DIMTXT
 40
3.0
  9
$DIMCEN
 40
0.9
  9
$DIMTSZ
 40
0.0
  9
$DIMTOL
 70
     0
  9
$DIMLIM
 70
     0
  9
$DIMTIH
 70
     0
  9
$DIMTOH
 70
     0
  9
$DIMSE1
 70
     0
  9
$DIMSE2
 70
     0
  9
$DIMTAD
 70
     1
  9
$DIMZIN
 70
    12
  9
$DIMBLK
  1
Oblique
  9
$DIMASO
 70
     1
  9
$DIMSHO
 70
     1
  9
$DIMPOST
  1

  9
$DIMAPOST
  1

  9
$DIMALT
 70
     0
  9
$DIMALTD
 70
     2
  9
$DIMALTF
 40
25.4
  9
$DIMLFAC
 40
1.0
  9
$DIMTOFL
 70
     0
  9
$DIMTVP
 40
0.0
  9
$DIMTIX
 70
     0
  9
$DIMSOXD
 70
     0
  9
$DIMSAH
 70
     0
  9
$DIMBLK1
  1

  9
$DIMBLK2
  1

  9
$DIMSTYLE
  2
Cotation-Jacob-Delafon
  9
$DIMCLRD
 70
     0
  9
$DIMCLRE
 70
     0
  9
$DIMCLRT
 70
     0
  9
$DIMTFAC
 40
1.0
  9
$DIMGAP
 40
0.9
  9
$DIMJUST
 70
     0
  9
$DIMSD1
 70
     0
  9
$DIMSD2
 70
     0
  9
$DIMTOLJ
 70
     1
  9
$DIMTZIN
 70
     0
  9
$DIMALTZ
 70
     0
  9
$DIMALTTZ
 70
     0
  9
$DIMUPT
 70
     0
  9
$DIMDEC
 70
     2
  9
$DIMTDEC
 70
     2
  9
$DIMALTU
 70
     2
  9
$DIMALTTD
 70
     2
  9
$DIMTXSTY
  7
Jacob-Delafon
  9
$DIMAUNIT
 70
     0
  9
$DIMADEC
 70
     0
  9
$DIMALTRND
 40
0.0
  9
$DIMAZIN
 70
     3
  9
$DIMDSEP
 70
    46
  9
$DIMATFIT
 70
     3
  9
$DIMFRAC
 70
     0
  9
$DIMLDRBLK
  1
Oblique
  9
$DIMLUNIT
 70
     2
  9
$DIMLWD
 70
    -2
  9
$DIMLWE
 70
    -2
  9
$DIMTMOVE
 70
     2
  9
$DIMFXL
 40
1.0
  9
$DIMFXLON
 70
     0
  9
$DIMJOGANG
 40
0.7853981633974483
  9
$DIMTFILL
 70
     0
  9
$DIMTFILLCLR
 70
     0
  9
$DIMARCSYM
 70
     0
  9
$DIMLTYPE
  6

  9
$DIMLTEX1
  6

  9
$DIMLTEX2
  6

  9
$LUNITS
 70
     2
  9
$LUPREC
 70
     4
  9
$SKETCHINC
 40
0.1
  9
$FILLETRAD
 40
0.0
  9
$AUNITS
 70
     0
  9
$AUPREC
 70
     0
  9
$MENU
  1
acad
  9
$ELEVATION
 40
0.0
  9
$PELEVATION
 40
0.0
  9
$THICKNESS
 40
0.0
  9
$LIMCHECK
 70
     0
  9
$CHAMFERA
 40
0.0
  9
$CHAMFERB
 40
0.0
  9
$CHAMFERC
 40
0.0
  9
$CHAMFERD
 40
0.0
  9
$SKPOLY
 70
     0
  9
$TDCREATE
 40
2454965.391826528
  9
$TDUCREATE
 40
2454965.308493195
  9
$TDUPDATE
 40
2455006.674914271
  9
$TDUUPDATE
 40
2455006.591580938
  9
$TDINDWG
 40
0.0086395023
  9
$TDUSRTIMER
 40
0.0086393171
  9
$USRTIMER
 70
     1
  9
$ANGBASE
 50
0.0
  9
$ANGDIR
 70
     0
  9
$PDMODE
 70
     0
  9
$PDSIZE
 40
0.0
  9
$PLINEWID
 40
0.0
  9
$SPLFRAME
 70
     0
  9
$SPLINETYPE
 70
     6
  9
$SPLINESEGS
 70
     8
  9
$HANDSEED
  5
388
  9
$SURFTAB1
 70
     6
  9
$SURFTAB2
 70
     6
  9
$SURFTYPE
 70
     6
  9
$SURFU
 70
     6
  9
$SURFV
 70
     6
  9
$UCSBASE
  2

  9
$UCSNAME
  2

  9
$UCSORG
 10
0.0
 20
0.0
 30
0.0
  9
$UCSXDIR
 10
1.0
 20
0.0
 30
0.0
  9
$UCSYDIR
 10
0.0
 20
1.0
 30
0.0
  9
$UCSORTHOREF
  2

  9
$UCSORTHOVIEW
 70
     0
  9
$UCSORGTOP
 10
0.0
 20
0.0
 30
0.0
  9
$UCSORGBOTTOM
 10
0.0
 20
0.0
 30
0.0
  9
$UCSORGLEFT
 10
0.0
 20
0.0
 30
0.0
  9
$UCSORGRIGHT
 10
0.0
 20
0.0
 30
0.0
  9
$UCSORGFRONT
 10
0.0
 20
0.0
 30
0.0
  9
$UCSORGBACK
 10
0.0
 20
0.0
 30
0.0
  9
$PUCSBASE
  2

  9
$PUCSNAME
  2

  9
$PUCSORG
 10
0.0
 20
0.0
 30
0.0
  9
$PUCSXDIR
 10
1.0
 20
0.0
 30
0.0
  9
$PUCSYDIR
 10
0.0
 20
1.0
 30
0.0
  9
$PUCSORTHOREF
  2

  9
$PUCSORTHOVIEW
 70
     0
  9
$PUCSORGTOP
 10
0.0
 20
0.0
 30
0.0
  9
$PUCSORGBOTTOM
 10
0.0
 20
0.0
 30
0.0
  9
$PUCSORGLEFT
 10
0.0
 20
0.0
 30
0.0
  9
$PUCSORGRIGHT
 10
0.0
 20
0.0
 30
0.0
  9
$PUCSORGFRONT
 10
0.0
 20
0.0
 30
0.0
  9
$PUCSORGBACK
 10
0.0
 20
0.0
 30
0.0
  9
$USERI1
 70
     0
  9
$USERI2
 70
     0
  9
$USERI3
 70
     0
  9
$USERI4
 70
     0
  9
$USERI5
 70
     0
  9
$USERR1
 40
0.0
  9
$USERR2
 40
0.0
  9
$USERR3
 40
0.0
  9
$USERR4
 40
0.0
  9
$USERR5
 40
0.0
  9
$WORLDVIEW
 70
     1
  9
$SHADEDGE
 70
     3
  9
$SHADEDIF
 70
    70
  9
$TILEMODE
 70
     1
  9
$MAXACTVP
 70
    16
  9
$PINSBASE
 10
0.0
 20
0.0
 30
0.0
  9
$PLIMCHECK
 70
     0
  9
$PEXTMIN
 10
1.000000000000000E+20
 20
1.000000000000000E+20
 30
1.000000000000000E+20
  9
$PEXTMAX
 10
-1.000000000000000E+20
 20
-1.000000000000000E+20
 30
-1.000000000000000E+20
  9
$PLIMMIN
 10
0.0
 20
0.0
  9
$PLIMMAX
 10
12.0
 20
9.0
  9
$UNITMODE
 70
     0
  9
$VISRETAIN
 70
     0
  9
$PLINEGEN
 70
     1
  9
$PSLTSCALE
 70
     0
  9
$TREEDEPTH
 70
  3020
  9
$CMLSTYLE
  2
Standard
  9
$CMLJUST
 70
     0
  9
$CMLSCALE
 40
1.0
  9
$PROXYGRAPHICS
 70
     0
  9
$MEASUREMENT
 70
     1
  9
$CELWEIGHT
370
     0
  9
$ENDCAPS
280
     0
  9
$JOINSTYLE
280
     0
  9
$LWDISPLAY
290
     0
  9
$INSUNITS
 70
     0
  9
$HYPERLINKBASE
  1

  9
$STYLESHEET
  1

  9
$XEDIT
290
     1
  9
$CEPSNTYPE
380
     0
  9
$PSTYLEMODE
290
     1
  9
$FINGERPRINTGUID
  2

  9
$VERSIONGUID
  2
{92CCE354-DEB9-4436-A027-AD9B929B5B03}
  9
$EXTNAMES
290
     1
  9
$PSVPSCALE
 40
0.0
  9
$OLESTARTUP
290
     0
  9
$SORTENTS
280
   127
  9
$INDEXCTL
280
     0
  9
$HIDETEXT
280
     0
  9
$XCLIPFRAME
290
     0
  9
$HALOGAP
280
     0
  9
$OBSCOLOR
 70
   257
  9
$OBSLTYPE
280
     0
  9
$INTERSECTIONDISPLAY
280
     0
  9
$INTERSECTIONCOLOR
 70
   257
  9
$DIMASSOC
280
     1
  9
$PROJECTNAME
  1

  9
$CAMERADISPLAY
290
     0
  9
$LENSLENGTH
 40
50.0
  9
$CAMERAHEIGHT
 40
0.0
  9
$STEPSPERSEC
 40
2.0
  9
$STEPSIZE
 40
6.0
  9
$3DDWFPREC
 40
2.0
  9
$PSOLWIDTH
 40
0.25
  9
$PSOLHEIGHT
 40
4.0
  9
$LOFTANG1
 40
1.570796326794896
  9
$LOFTANG2
 40
1.570796326794896
  9
$LOFTMAG1
 40
0.0
  9
$LOFTMAG2
 40
0.0
  9
$LOFTPARAM
 70
     7
  9
$LOFTNORMALS
280
     1
  9
$LATITUDE
 40
37.795
  9
$LONGITUDE
 40
-122.394
  9
$NORTHDIRECTION
 40
0.0
  9
$TIMEZONE
 70
 -8000
  9
$LIGHTGLYPHDISPLAY
280
     1
  9
$TILEMODELIGHTSYNCH
280
     1
  9
$CMATERIAL
347
2E9
  9
$SOLIDHIST
280
     1
  9
$SHOWHIST
280
     1
  9
$DWFFRAME
280
     2
  9
$DGNFRAME
280
     0
  9
$REALWORLDSCALE
290
     1
  9
$INTERFERECOLOR
 62
     1
  9
$INTERFEREOBJVS
345
30B
  9
$INTERFEREVPVS
346
308
  9
$CSHADOW
280
     0
  9
$SHADOWPLANELOCATION
 40
0.0
  0
ENDSEC
  0
SECTION
  2
CLASSES
  0
CLASS
  1
IMAGE
  2
AcDbRasterImage
  3
ISM
 90
     2175
 91
        0
280
     0
281
     1
  0
CLASS
  1
DICTIONARYVAR
  2
AcDbDictionaryVar
  3
ObjectDBX Classes
 90
        0
 91
        7
280
     0
281
     0
  0
CLASS
  1
RASTERVARIABLES
  2
AcDbRasterVariables
  3
ISM
 90
        0
 91
        0
280
     0
281
     0
  0
CLASS
  1
IMAGEDEF
  2
AcDbRasterImageDef
  3
ISM
 90
        0
 91
        0
280
     0
281
     0
  0
CLASS
  1
IMAGEDEF_REACTOR
  2
AcDbRasterImageDefReactor
  3
ISM
 90
        1
 91
        0
280
     0
281
     0
  0
CLASS
  1
IDBUFFER
  2
AcDbIdBuffer
  3
ObjectDBX Classes
 90
        0
 91
        0
280
     0
281
     0
  0
CLASS
  1
SPATIAL_FILTER
  2
AcDbSpatialFilter
  3
ObjectDBX Classes
 90
        0
 91
        0
280
     0
281
     0
  0
CLASS
  1
SORTENTSTABLE
  2
AcDbSortentsTable
  3
ObjectDBX Classes
 90
        0
 91
        0
280
     0
281
     0
  0
CLASS
  1
LAYER_INDEX
  2
AcDbLayerIndex
  3
ObjectDBX Classes
 90
        0
 91
        0
280
     0
281
     0
  0
CLASS
  1
SPATIAL_INDEX
  2
AcDbSpatialIndex
  3
ObjectDBX Classes
 90
        0
 91
        0
280
     0
281
     0
  0
CLASS
  1
OBJECT_PTR
  2
CAseDLPNTableRecord
  3
"ASE-LPNTableRecord"
 90
        1
 91
        0
280
     0
281
     0
  0
CLASS
  1
PLOTSETTINGS
  2
AcDbPlotSettings
  3
ObjectDBX Classes
 90
        0
 91
        0
280
     0
281
     0
  0
CLASS
  1
ACDBDICTIONARYWDFLT
  2
AcDbDictionaryWithDefault
  3
ObjectDBX Classes
 90
        0
 91
        1
280
     0
281
     0
  0
CLASS
  1
WIPEOUT
  2
AcDbWipeout
  3
"WipeOut|Product Desc: Object Enabler for WipeOut entity                        |Company: Autodesk, Inc.                        |WEB Address: www.autodesk.com"
 90
     2175
 91
        0
280
     0
281
     1
  0
CLASS
  1
WIPEOUTVARIABLES
  2
AcDbWipeoutVariables
  3
"WipeOut|Product Desc:     WipeOut Dbx Application|Company:          Autodesk, Inc.|WEB Address:      www.autodesk.com"
 90
        0
 91
        1
280
     0
281
     0
  0
CLASS
  1
RTEXT
  2
RText
  3
RText|AutoCAD Express Tool|expresstools@autodesk.com
 90
        0
 91
        0
280
     0
281
     1
  0
CLASS
  1
ARCALIGNEDTEXT
  2
AcDbArcAlignedText
  3
ATEXT|AutoCAD Express Tool|expresstools@autodesk.com
 90
        0
 91
        0
280
     0
281
     1
  0
CLASS
  1
MATERIAL
  2
AcDbMaterial
  3
ObjectDBX Classes
 90
     1153
 91
        3
280
     0
281
     0
  0
CLASS
  1
VISUALSTYLE
  2
AcDbVisualStyle
  3
ObjectDBX Classes
 90
     4095
 91
       16
280
     0
281
     0
  0
CLASS
  1
TABLESTYLE
  2
AcDbTableStyle
  3
ObjectDBX Classes
 90
     4095
 91
        1
280
     0
281
     0
  0
CLASS
  1
SCALE
  2
AcDbScale
  3
ObjectDBX Classes
 90
     1153
 91
       17
280
     0
281
     0
  0
CLASS
  1
MLEADERSTYLE
  2
AcDbMLeaderStyle
  3
ACDB_MLEADERSTYLE_CLASS
 90
     4095
 91
        1
280
     0
281
     0
  0
CLASS
  1
AEC_REFEDIT_STATUS_TRACKER
  2
AecDbRefEditStatusTracker
  3
AecArchBase50|Product Desc: Autodesk Architectural Desktop 2007 |Company: Autodesk,Inc. |WEB Address: www.autodesk.com
 90
      129
 91
        0
280
     0
281
     0
  0
CLASS
  1
NPOCOLLECTION
  2
AcDbImpNonPersistentObjectsCollection
  3
ObjectDBX Classes
 90
     1153
 91
        0
280
     0
281
     0
  0
CLASS
  1
CELLSTYLEMAP
  2
AcDbCellStyleMap
  3
ObjectDBX Classes
 90
     1152
 91
        2
280
     0
281
     0
  0
ENDSEC
  0
SECTION
  2
TABLES
  0
TABLE
  2
VPORT
  5
7
330
0
100
AcDbSymbolTable
 70
     1
  0
VPORT
  5
15
330
7
100
AcDbSymbolTableRecord
100
AcDbViewportTableRecord
  2
*ACTIVE
 70
     0
 10
0.0
 20
0.0
 11
1.0
 21
1.0
 12
138.6145530046831
 22
113.2743836225951
 13
0.0
 23
0.0
 14
1.0
 24
1.0
 15
0.0
 25
0.0
 16
0.0
 26
0.0
 36
1.0
 17
0.0
 27
0.0
 37
0.0
 40
41.65918385618958
 41
1.226824457593688
 42
50.0
 43
0.0
 44
0.0
 50
0.0
 51
0.0
 71
     0
 72
   100
 73
     1
 74
     1
 75
     0
 76
     0
 77
     0
 78
     0
281
     0
 65
     0
110
0.0
120
0.0
130
0.0
111
1.0
121
0.0
131
0.0
112
0.0
122
1.0
132
0.0
 79
     0
146
0.0
348
307
 60
     3
 61
     5
292
     1
282
     1
141
0.0
142
0.0
 63
   250
421
  3355443
  0
ENDTAB
  0
TABLE
  2
LTYPE
  5
4
330
0
100
AcDbSymbolTable
 70
     1
  0
LTYPE
  5
11
330
4
100
AcDbSymbolTableRecord
100
AcDbLinetypeTableRecord
  2
ByBlock
 70
     0
  3

 72
    65
 73
     0
 40
0.0
  0
LTYPE
  5
12
330
4
100
AcDbSymbolTableRecord
100
AcDbLinetypeTableRecord
  2
ByLayer
 70
     0
  3

 72
    65
 73
     0
 40
0.0
  0
LTYPE
  5
13
330
4
100
AcDbSymbolTableRecord
100
AcDbLinetypeTableRecord
  2
Continuous
 70
     0
  3
Solid line
 72
    65
 73
     0
 40
0.0
  0
ENDTAB
  0
TABLE
  2
LAYER
  5
2
330
0
100
AcDbSymbolTable
 70
     3
  0
LAYER
  5
14
102
{ACAD_XDICTIONARY
360
372
102
}
330
2
100
AcDbSymbolTableRecord
100
AcDbLayerTableRecord
  2
0
 70
     0
 62
     7
  6
Continuous
370
    -3
390
1D
347
2F9
  0
LAYER
  5
331
330
2
100
AcDbSymbolTableRecord
100
AcDbLayerTableRecord
  2
Defpoints
 70
     0
 62
     7
  6
Continuous
290
     0
370
    -3
390
1D
347
2F9
  0
LAYER
  5
33F
102
{ACAD_XDICTIONARY
360
340
102
}
330
2
100
AcDbSymbolTableRecord
100
AcDbLayerTableRecord
  2
Cotation-JacobDelafon
 70
     0
 62
     8
  6
Continuous
370
    -3
390
1D
347
2F9
  0
ENDTAB
  0
TABLE
  2
STYLE
  5
3
330
0
100
AcDbSymbolTable
 70
     7
  0
STYLE
  5
17
330
3
100
AcDbSymbolTableRecord
100
AcDbTextStyleTableRecord
  2
Standard
 70
     0
 40
0.0
 41
1.0
 50
0.0
 71
     0
 42
0.0
  3
txt
  4

  0
STYLE
  5
24
330
3
100
AcDbSymbolTableRecord
100
AcDbTextStyleTableRecord
  2
STD
 70
     0
 40
0.0
 41
1.0
 50
0.0
 71
     0
 42
0.0
  3
txt
  4

  0
STYLE
  5
25
330
3
100
AcDbSymbolTableRecord
100
AcDbTextStyleTableRecord
  2
TATESTD
 70
     4
 40
0.0
 41
1.0
 50
0.0
 71
     0
 42
0.0
  3
txt
  4

  0
STYLE
  5
26
330
3
100
AcDbSymbolTableRecord
100
AcDbTextStyleTableRecord
  2
KANJISTD
 70
     0
 40
0.0
 41
1.0
 50
0.0
 71
     0
 42
0.0
  3
txt
  4
extfont
  0
STYLE
  5
27
330
3
100
AcDbSymbolTableRecord
100
AcDbTextStyleTableRecord
  2
KANJITATE
 70
     4
 40
0.0
 41
1.0
 50
0.0
 71
     0
 42
0.0
  3
txt
  4
extfont
  0
STYLE
  5
332
330
3
100
AcDbSymbolTableRecord
100
AcDbTextStyleTableRecord
  2
Annotative
 70
     0
 40
0.0
 41
1.0
 50
0.0
 71
     0
 42
0.2
  3
txt
  4

1001
AcadAnnotative
1000
AnnotativeData
1002
{
1070
     1
1070
     1
1002
}
  0
STYLE
  5
333
330
3
100
AcDbSymbolTableRecord
100
AcDbTextStyleTableRecord
  2
Jacob-Delafon
 70
     0
 40
0.0
 41
1.0
 50
0.0
 71
     0
 42
2.5
  3
ARIAL.TTF
  4

1001
ACAD
1000
Arial
1071
       34
  0
ENDTAB
  0
TABLE
  2
VIEW
  5
5
330
0
100
AcDbSymbolTable
 70
     0
  0
ENDTAB
  0
TABLE
  2
UCS
  5
6
330
0
100
AcDbSymbolTable
 70
     0
  0
ENDTAB
  0
TABLE
  2
APPID
  5
8
330
0
100
AcDbSymbolTable
 70
     3
  0
APPID
  5
16
330
8
100
AcDbSymbolTableRecord
100
AcDbRegAppTableRecord
  2
ACAD
 70
     0
  0
APPID
  5
329
330
8
100
AcDbSymbolTableRecord
100
AcDbRegAppTableRecord
  2
ACAD_MLEADERVER
 70
     0
  0
APPID
  5
336
330
8
100
AcDbSymbolTableRecord
100
AcDbRegAppTableRecord
  2
AcadAnnotative
 70
     0
  0
ENDTAB
  0
TABLE
  2
DIMSTYLE
  5
9
330
0
100
AcDbSymbolTable
 70
     3
100
AcDbDimStyleTable
 71
     1
340
335
  0
DIMSTYLE
105
18
330
9
100
AcDbSymbolTableRecord
100
AcDbDimStyleTableRecord
  2
Standard
 70
     0
340
17
  0
DIMSTYLE
105
334
330
9
100
AcDbSymbolTableRecord
100
AcDbDimStyleTableRecord
  2
Annotative
 70
     0
340
17
1001
AcadAnnotative
1000
AnnotativeData
1002
{
1070
     1
1070
     1
1002
}
  0
DIMSTYLE
105
335
102
{ACAD_REACTORS
330
346
330
353
102
}
330
9
100
AcDbSymbolTableRecord
100
AcDbDimStyleTableRecord
  2
Cotation-Jacob-Delafon
 70
     0
 41
1.8
 42
0.625
 43
3.799999999999999
 44
1.8
 73
     0
 74
     0
 77
     1
 78
    12
 79
     3
140
3.0
141
0.9
147
0.9
271
     2
272
     2
279
     2
340
333
341
32D
342
32D
  0
ENDTAB
  0
TABLE
  2
BLOCK_RECORD
  5
1
330
0
100
AcDbSymbolTable
 70
     3
  0
BLOCK_RECORD
  5
A
330
1
100
AcDbSymbolTableRecord
100
AcDbBlockTableRecord
  2
*MODEL_SPACE
340
20
 70
     0
280
     1
281
     0
  0
BLOCK_RECORD
  5
B
330
1
100
AcDbSymbolTableRecord
100
AcDbBlockTableRecord
  2
*PAPER_SPACE
340
21
 70
     0
280
     1
281
     0
  0
BLOCK_RECORD
  5
32D
330
1
100
AcDbSymbolTableRecord
100
AcDbBlockTableRecord
  2
_Oblique
340
0
102
{BLKREFS
331
34D
331
34E
331
36C
331
36D
102
}
 70
     0
280
     1
281
     0
  0
BLOCK_RECORD
  5
347
330
1
100
AcDbSymbolTableRecord
100
AcDbBlockTableRecord
  2
*D1
340
0
 70
     0
280
     1
281
     0
  0
BLOCK_RECORD
  5
354
330
1
100
AcDbSymbolTableRecord
100
AcDbBlockTableRecord
  2
*D2
340
0
 70
     0
280
     1
281
     0
  0
ENDTAB
  0
ENDSEC
  0
SECTION
  2
BLOCKS
  0
BLOCK
  5
D
330
A
100
AcDbEntity
  8
0
100
AcDbBlockBegin
  2
*MODEL_SPACE
 70
     0
 10
0.0
 20
0.0
 30
0.0
  3
*MODEL_SPACE
  1

  0
ENDBLK
  5
E
330
A
100
AcDbEntity
  8
0
100
AcDbBlockEnd
  0
BLOCK
  5
F
330
B
100
AcDbEntity
 67
     1
  8
0
100
AcDbBlockBegin
  2
*PAPER_SPACE
 70
     0
 10
0.0
 20
0.0
 30
0.0
  3
*PAPER_SPACE
  1

  0
ENDBLK
  5
10
330
B
100
AcDbEntity
 67
     1
  8
0
100
AcDbBlockEnd
  0
BLOCK
  5
32E
330
32D
100
AcDbEntity
  8
0
100
AcDbBlockBegin
  2
_Oblique
 70
     0
 10
0.0
 20
0.0
 30
0.0
  3
_Oblique
  1

  0
LINE
  5
32F
330
32D
100
AcDbEntity
  8
0
  6
ByBlock
 62
     0
370
    -2
380
     1
100
AcDbLine
 10
-0.5
 20
-0.5
 30
0.0
 11
0.5
 21
0.5
 31
0.0
  0
ENDBLK
  5
330
330
32D
100
AcDbEntity
  8
0
100
AcDbBlockEnd
  0
BLOCK
  5
348
330
347
100
AcDbEntity
  8
0
370
     0
100
AcDbBlockBegin
  2
*D1
 70
     1
 10
0.0
 20
0.0
 30
0.0
  3
*D1
  1

  0
LINE
  5
34A
330
347
100
AcDbEntity
  8
Cotation-JacobDelafon
  6
Continuous
 62
     0
370
    -2
100
AcDbLine
 10
139.4998399999999
 20
106.883114
 30
0.0
 11
139.4998399999999
 21
126.1841510125048
 31
0.0
  0
LINE
  5
34B
330
347
100
AcDbEntity
  8
Cotation-JacobDelafon
  6
Continuous
 62
     0
370
    -2
100
AcDbLine
 10
157.499775
 20
98.969385
 30
0.0
 11
157.499775
 21
126.1841510125048
 31
0.0
  0
LINE
  5
34C
330
347
100
AcDbEntity
  8
Cotation-JacobDelafon
  6
Continuous
 62
     0
370
    -2
100
AcDbLine
 10
139.4998399999999
 20
124.3841510125048
 30
0.0
 11
157.499775
 21
124.3841510125048
 31
0.0
  0
INSERT
  5
34D
330
347
100
AcDbEntity
  8
Cotation-JacobDelafon
  6
Continuous
 62
     0
370
    -2
100
AcDbBlockReference
  2
_Oblique
 10
139.4998399999999
 20
124.3841510125048
 30
0.0
 41
1.8
 42
1.8
 43
1.8
 50
180.0
  0
INSERT
  5
34E
330
347
100
AcDbEntity
  8
Cotation-JacobDelafon
  6
Continuous
 62
     0
370
    -2
100
AcDbBlockReference
  2
_Oblique
 10
157.499775
 20
124.3841510125048
 30
0.0
 41
1.8
 42
1.8
 43
1.8
  0
MTEXT
  5
34F
330
347
100
AcDbEntity
  8
Cotation-JacobDelafon
  6
Continuous
 62
     0
370
     0
100
AcDbMText
 10
148.4998075
 20
126.8158699756698
 30
0.0
 40
3.0
 41
0.0
 46
0.0
 71
     5
 72
     1
  1
\A1;18
  7
Jacob-Delafon
 73
     1
 44
1.0
  0
POINT
  5
350
330
347
100
AcDbEntity
  8
Defpoints
  6
Continuous
 62
     0
370
     0
100
AcDbPoint
 10
139.4998399999999
 20
106.258114
 30
0.0
  0
POINT
  5
351
330
347
100
AcDbEntity
  8
Defpoints
  6
Continuous
 62
     0
370
     0
100
AcDbPoint
 10
157.499775
 20
98.344385
 30
0.0
  0
POINT
  5
352
330
347
100
AcDbEntity
  8
Defpoints
  6
Continuous
 62
     0
370
     0
100
AcDbPoint
 10
157.499775
 20
124.3841510125048
 30
0.0
  0
ENDBLK
  5
349
330
347
100
AcDbEntity
  8
0
370
     0
100
AcDbBlockEnd
  0
BLOCK
  5
355
330
354
100
AcDbEntity
  8
0
370
     0
100
AcDbBlockBegin
  2
*D2
 70
     1
 10
0.0
 20
0.0
 30
0.0
  3
*D2
  1

  0
LINE
  5
369
330
354
100
AcDbEntity
  8
Cotation-JacobDelafon
  6
Continuous
 62
     0
370
    -2
100
AcDbLine
 10
151.834256
 20
112.974327
 30
0.0
 11
128.0383323707532
 21
112.974327
 31
0.0
  0
LINE
  5
36A
330
354
100
AcDbEntity
  8
Cotation-JacobDelafon
  6
Continuous
 62
     0
370
    -2
100
AcDbLine
 10
154.652344
 20
97.10191100000001
 30
0.0
 11
128.0383323707532
 21
97.10191100000001
 31
0.0
  0
LINE
  5
36B
330
354
100
AcDbEntity
  8
Cotation-JacobDelafon
  6
Continuous
 62
     0
370
    -2
100
AcDbLine
 10
129.8383323707532
 20
112.974327
 30
0.0
 11
129.8383323707532
 21
97.10191100000001
 31
0.0
  0
INSERT
  5
36C
330
354
100
AcDbEntity
  8
Cotation-JacobDelafon
  6
Continuous
 62
     0
370
    -2
100
AcDbBlockReference
  2
_Oblique
 10
129.8383323707532
 20
112.974327
 30
0.0
 41
1.8
 42
1.8
 43
1.8
 50
90.0
  0
INSERT
  5
36D
330
354
100
AcDbEntity
  8
Cotation-JacobDelafon
  6
Continuous
 62
     0
370
    -2
100
AcDbBlockReference
  2
_Oblique
 10
129.8383323707532
 20
97.10191100000001
 30
0.0
 41
1.8
 42
1.8
 43
1.8
 50
270.0
  0
MTEXT
  5
36E
330
354
100
AcDbEntity
  8
Cotation-JacobDelafon
  6
Continuous
 62
     0
370
     0
100
AcDbMText
 10
127.4066134075881
 20
105.038119
 30
0.0
 40
3.0
 41
0.0
 46
0.0
 71
     5
 72
     1
  1
\A1;16
  7
Jacob-Delafon
 11
0.0000000000000001
 21
1.0
 31
0.0
 73
     1
 44
1.0
  0
POINT
  5
36F
330
354
100
AcDbEntity
  8
Defpoints
  6
Continuous
 62
     0
370
     0
100
AcDbPoint
 10
152.459256
 20
112.974327
 30
0.0
  0
POINT
  5
370
330
354
100
AcDbEntity
  8
Defpoints
  6
Continuous
 62
     0
370
     0
100
AcDbPoint
 10
155.277344
 20
97.10191100000001
 30
0.0
  0
POINT
  5
371
330
354
100
AcDbEntity
  8
Defpoints
  6
Continuous
 62
     0
370
     0
100
AcDbPoint
 10
129.8383323707532
 20
97.10191100000001
 30
0.0
  0
ENDBLK
  5
356
330
354
100
AcDbEntity
  8
0
370
     0
100
AcDbBlockEnd
  0
ENDSEC
  0
SECTION
  2
ENTITIES
  0
LINE
  5
2E5
330
A
100
AcDbEntity
  8
0
 62
     7
100
AcDbLine
 10
153.991979
 20
97.70532000000001
 30
0.0
 11
153.991634
 21
97.623671
 31
0.0
  0
LINE
  5
2E4
330
A
100
AcDbEntity
  8
0
 62
     7
100
AcDbLine
 10
154.021951
 20
97.77835600000001
 30
0.0
 11
153.991979
 21
97.70532000000001
 31
0.0
  0
LINE
  5
2E3
330
A
100
AcDbEntity
  8
0
 62
     7
100
AcDbLine
 10
154.0760389999999
 20
97.834511
 30
0.0
 11
154.021951
 21
97.77835600000001
 31
0.0
  0
LINE
  5
2E2
330
A
100
AcDbEntity
  8
0
 62
     7
100
AcDbLine
 10
154.149764
 20
97.866206
 30
0.0
 11
154.0760389999999
 21
97.834511
 31
0.0
  0
LINE
  5
2E1
330
A
100
AcDbEntity
  8
0
 62
     7
100
AcDbLine
 10
157.480482
 20
98.344385
 30
0.0
 11
157.449476
 21
98.419488
 31
0.0
  0
LINE
  5
2E0
330
A
100
AcDbEntity
  8
0
 62
     7
100
AcDbLine
 10
157.449476
 20
98.419488
 30
0.0
 11
157.395044
 21
98.47495399999999
 31
0.0
  0
LINE
  5
2DF
330
A
100
AcDbEntity
  8
0
 62
     7
100
AcDbLine
 10
157.395044
 20
98.47495399999999
 30
0.0
 11
157.32373
 21
98.505271
 31
0.0
  0
LINE
  5
2DE
330
A
100
AcDbEntity
  8
0
 62
     7
100
AcDbLine
 10
157.32373
 20
98.505271
 30
0.0
 11
157.244149
 21
98.505271
 31
0.0
  0
LINE
  5
2DD
330
A
100
AcDbEntity
  8
0
 62
     7
100
AcDbLine
 10
154.041933
 20
97.447282
 30
0.0
 11
154.011271
 21
97.52272900000001
 31
0.0
  0
LINE
  5
2DC
330
A
100
AcDbEntity
  8
0
 62
     7
100
AcDbLine
 10
154.09671
 20
97.39181600000001
 30
0.0
 11
154.041933
 21
97.447282
 31
0.0
  0
LINE
  5
2DB
330
A
100
AcDbEntity
  8
0
 62
     7
100
AcDbLine
 10
154.167678
 20
97.361499
 30
0.0
 11
154.09671
 21
97.39181600000001
 31
0.0
  0
LINE
  5
2DA
330
A
100
AcDbEntity
  8
0
 62
     7
100
AcDbLine
 10
154.247605
 20
97.361499
 30
0.0
 11
154.167678
 21
97.361499
 31
0.0
  0
LINE
  5
2D9
330
A
100
AcDbEntity
  8
0
 62
     7
100
AcDbLine
 10
157.499775
 20
98.24344299999999
 30
0.0
 11
157.499775
 21
98.16145
 31
0.0
  0
LINE
  5
2D8
330
A
100
AcDbEntity
  8
0
 62
     7
100
AcDbLine
 10
157.499775
 20
98.16145
 30
0.0
 11
157.469803
 21
98.088759
 31
0.0
  0
LINE
  5
2D7
330
A
100
AcDbEntity
  8
0
 62
     7
100
AcDbLine
 10
157.469803
 20
98.088759
 30
0.0
 11
157.41537
 21
98.03225900000001
 31
0.0
  0
LINE
  5
2D6
330
A
100
AcDbEntity
  8
0
 62
     7
100
AcDbLine
 10
157.41537
 20
98.03225900000001
 30
0.0
 11
157.341645
 21
98.000564
 31
0.0
  0
LINE
  5
2D5
330
A
100
AcDbEntity
  8
0
 62
     7
100
AcDbLine
 10
157.191439
 20
98.494591
 30
0.0
 11
157.220378
 21
98.50044799999999
 31
0.0
  0
LINE
  5
2D4
330
A
100
AcDbEntity
  8
0
 62
     7
100
AcDbLine
 10
154.601761
 20
97.959568
 30
0.0
 11
154.922154
 21
98.025713
 31
0.0
  0
LINE
  5
2D3
330
A
100
AcDbEntity
  8
0
 62
     7
100
AcDbLine
 10
154.35647
 20
97.90892499999999
 30
0.0
 11
154.601761
 21
97.959568
 31
0.0
  0
LINE
  5
2D2
330
A
100
AcDbEntity
  8
0
 62
     7
100
AcDbLine
 10
154.202474
 20
97.87723000000001
 30
0.0
 11
154.35647
 21
97.90892499999999
 31
0.0
  0
LINE
  5
2D1
330
A
100
AcDbEntity
  8
0
 62
     7
100
AcDbLine
 10
154.149764
 20
97.866206
 30
0.0
 11
154.202474
 21
97.87723000000001
 31
0.0
  0
LINE
  5
2D0
330
A
100
AcDbEntity
  8
0
 62
     7
100
AcDbLine
 10
154.453966
 20
97.404218
 30
0.0
 11
154.29997
 21
97.37252300000001
 31
0.0
  0
LINE
  5
2CF
330
A
100
AcDbEntity
  8
0
 62
     7
100
AcDbLine
 10
154.699257
 20
97.454861
 30
0.0
 11
154.453966
 21
97.404218
 31
0.0
  0
LINE
  5
2CE
330
A
100
AcDbEntity
  8
0
 62
     7
100
AcDbLine
 10
155.019651
 20
97.52100699999999
 30
0.0
 11
154.699257
 21
97.454861
 31
0.0
  0
LINE
  5
2CD
330
A
100
AcDbEntity
  8
0
 62
     7
100
AcDbLine
 10
155.393443
 20
97.59817700000001
 30
0.0
 11
155.019651
 21
97.52100699999999
 31
0.0
  0
LINE
  5
2CC
330
A
100
AcDbEntity
  8
0
 62
     7
100
AcDbLine
 10
155.794797
 20
97.681204
 30
0.0
 11
155.393443
 21
97.59817700000001
 31
0.0
  0
LINE
  5
2CB
330
A
100
AcDbEntity
  8
0
 62
     7
100
AcDbLine
 10
156.196151
 20
97.76423100000002
 30
0.0
 11
155.794797
 21
97.681204
 31
0.0
  0
LINE
  5
2CA
330
A
100
AcDbEntity
  8
0
 62
     7
100
AcDbLine
 10
156.569599
 20
97.84140100000001
 30
0.0
 11
156.196151
 21
97.76423100000002
 31
0.0
  0
LINE
  5
2C9
330
A
100
AcDbEntity
  8
0
 62
     7
100
AcDbLine
 10
156.889993
 20
97.907547
 30
0.0
 11
156.569599
 21
97.84140100000001
 31
0.0
  0
LINE
  5
2C8
330
A
100
AcDbEntity
  8
0
 62
     7
100
AcDbLine
 10
157.135284
 20
97.95819000000001
 30
0.0
 11
156.889993
 21
97.907547
 31
0.0
  0
LINE
  5
2C7
330
A
100
AcDbEntity
  8
0
 62
     7
100
AcDbLine
 10
157.28928
 20
97.989884
 30
0.0
 11
157.135284
 21
97.95819000000001
 31
0.0
  0
LINE
  5
2C6
330
A
100
AcDbEntity
  8
0
 62
     7
100
AcDbLine
 10
157.341645
 20
98.000564
 30
0.0
 11
157.28928
 21
97.989884
 31
0.0
  0
LINE
  5
2C5
330
A
100
AcDbEntity
  8
0
 62
     7
100
AcDbLine
 10
154.29997
 20
97.37252300000001
 30
0.0
 11
154.247605
 21
97.361499
 31
0.0
  0
LINE
  5
2C4
330
A
100
AcDbEntity
  8
0
 62
     7
100
AcDbLine
 10
154.011271
 20
97.52272900000001
 30
0.0
 11
153.991634
 21
97.623671
 31
0.0
  0
LINE
  5
2C3
330
A
100
AcDbEntity
  8
0
 62
     7
100
AcDbLine
 10
157.480482
 20
98.344385
 30
0.0
 11
157.499775
 21
98.24344299999999
 31
0.0
  0
LINE
  5
2C2
330
A
100
AcDbEntity
  8
0
 62
     7
100
AcDbLine
 10
139.4998399999999
 20
99.64249699999999
 30
0.0
 11
139.569259
 21
99.58496400000001
 31
0.0
  0
LINE
  5
2C1
330
A
100
AcDbEntity
  8
0
 62
     7
100
AcDbLine
 10
139.569259
 20
106.790553
 30
0.0
 11
139.4998399999999
 21
106.73302
 31
0.0
  0
LINE
  5
2C0
330
A
100
AcDbEntity
  8
0
 62
     7
100
AcDbLine
 10
141.19965
 20
101.728502
 30
0.0
 11
141.46854
 21
101.728502
 31
0.0
  0
LINE
  5
2BF
330
A
100
AcDbEntity
  8
0
 62
     7
100
AcDbLine
 10
141.46854
 20
104.647187
 30
0.0
 11
141.19965
 21
104.647187
 31
0.0
  0
LINE
  5
2BE
330
A
100
AcDbEntity
  8
0
 62
     7
100
AcDbLine
 10
141.19965
 20
101.728502
 30
0.0
 11
141.19965
 21
101.778111
 31
0.0
  0
LINE
  5
2BD
330
A
100
AcDbEntity
  8
0
 62
     7
100
AcDbLine
 10
140.982265
 20
101.55108
 30
0.0
 11
141.19965
 21
101.728502
 31
0.0
  0
LINE
  5
2BC
330
A
100
AcDbEntity
  8
0
 62
     7
100
AcDbLine
 10
141.19965
 20
101.778111
 30
0.0
 11
141.19965
 21
101.923839
 31
0.0
  0
LINE
  5
2BB
330
A
100
AcDbEntity
  8
0
 62
     7
100
AcDbLine
 10
141.19965
 20
101.923839
 30
0.0
 11
141.19965
 21
102.155694
 31
0.0
  0
LINE
  5
2BA
330
A
100
AcDbEntity
  8
0
 62
     7
100
AcDbLine
 10
141.19965
 20
102.155694
 30
0.0
 11
141.19965
 21
102.458173
 31
0.0
  0
LINE
  5
2B9
330
A
100
AcDbEntity
  8
0
 62
     7
100
AcDbLine
 10
141.19965
 20
102.458173
 30
0.0
 11
141.19965
 21
102.809918
 31
0.0
  0
LINE
  5
2B8
330
A
100
AcDbEntity
  8
0
 62
     7
100
AcDbLine
 10
141.19965
 20
102.809918
 30
0.0
 11
141.19965
 21
103.187845
 31
0.0
  0
LINE
  5
2B7
330
A
100
AcDbEntity
  8
0
 62
     7
100
AcDbLine
 10
141.19965
 20
103.187845
 30
0.0
 11
141.19965
 21
103.565427
 31
0.0
  0
LINE
  5
2B6
330
A
100
AcDbEntity
  8
0
 62
     7
100
AcDbLine
 10
141.19965
 20
103.565427
 30
0.0
 11
141.19965
 21
103.917516
 31
0.0
  0
LINE
  5
2B5
330
A
100
AcDbEntity
  8
0
 62
     7
100
AcDbLine
 10
141.19965
 20
103.917516
 30
0.0
 11
141.19965
 21
104.219651
 31
0.0
  0
LINE
  5
2B4
330
A
100
AcDbEntity
  8
0
 62
     7
100
AcDbLine
 10
141.19965
 20
104.219651
 30
0.0
 11
141.19965
 21
104.451678
 31
0.0
  0
LINE
  5
2B3
330
A
100
AcDbEntity
  8
0
 62
     7
100
AcDbLine
 10
141.19965
 20
104.451678
 30
0.0
 11
141.19965
 21
104.597405
 31
0.0
  0
LINE
  5
2B2
330
A
100
AcDbEntity
  8
0
 62
     7
100
AcDbLine
 10
141.19965
 20
104.647187
 30
0.0
 11
140.982265
 21
104.824265
 31
0.0
  0
LINE
  5
2B1
330
A
100
AcDbEntity
  8
0
 62
     7
100
AcDbLine
 10
141.19965
 20
104.597405
 30
0.0
 11
141.19965
 21
104.647187
 31
0.0
  0
LINE
  5
2B0
330
A
100
AcDbEntity
  8
0
 62
     7
100
AcDbLine
 10
140.982265
 20
101.55108
 30
0.0
 11
140.982265
 21
101.60689
 31
0.0
  0
LINE
  5
2AF
330
A
100
AcDbEntity
  8
0
 62
     7
100
AcDbLine
 10
140.831542
 20
101.071522
 30
0.0
 11
140.982265
 21
101.55108
 31
0.0
  0
LINE
  5
2AE
330
A
100
AcDbEntity
  8
0
 62
     7
100
AcDbLine
 10
140.982265
 20
101.60689
 30
0.0
 11
140.982265
 21
101.770532
 31
0.0
  0
LINE
  5
2AD
330
A
100
AcDbEntity
  8
0
 62
     7
100
AcDbLine
 10
140.982265
 20
101.770532
 30
0.0
 11
140.982265
 21
102.030637
 31
0.0
  0
LINE
  5
2AC
330
A
100
AcDbEntity
  8
0
 62
     7
100
AcDbLine
 10
140.982265
 20
102.030637
 30
0.0
 11
140.982265
 21
102.36929
 31
0.0
  0
LINE
  5
2AB
330
A
100
AcDbEntity
  8
0
 62
     7
100
AcDbLine
 10
140.982265
 20
102.36929
 30
0.0
 11
140.982265
 21
102.764098
 31
0.0
  0
LINE
  5
2AA
330
A
100
AcDbEntity
  8
0
 62
     7
100
AcDbLine
 10
140.982265
 20
102.764098
 30
0.0
 11
140.982265
 21
103.187845
 31
0.0
  0
LINE
  5
2A9
330
A
100
AcDbEntity
  8
0
 62
     7
100
AcDbLine
 10
140.982265
 20
103.187845
 30
0.0
 11
140.982265
 21
103.611247
 31
0.0
  0
LINE
  5
2A8
330
A
100
AcDbEntity
  8
0
 62
     7
100
AcDbLine
 10
140.982265
 20
103.611247
 30
0.0
 11
140.982265
 21
104.006055
 31
0.0
  0
LINE
  5
2A7
330
A
100
AcDbEntity
  8
0
 62
     7
100
AcDbLine
 10
140.982265
 20
104.006055
 30
0.0
 11
140.982265
 21
104.345052
 31
0.0
  0
LINE
  5
2A6
330
A
100
AcDbEntity
  8
0
 62
     7
100
AcDbLine
 10
140.982265
 20
104.345052
 30
0.0
 11
140.982265
 21
104.604985
 31
0.0
  0
LINE
  5
2A5
330
A
100
AcDbEntity
  8
0
 62
     7
100
AcDbLine
 10
140.982265
 20
104.604985
 30
0.0
 11
140.982265
 21
104.768627
 31
0.0
  0
LINE
  5
2A4
330
A
100
AcDbEntity
  8
0
 62
     7
100
AcDbLine
 10
140.982265
 20
104.824265
 30
0.0
 11
140.831542
 21
105.303994
 31
0.0
  0
LINE
  5
2A3
330
A
100
AcDbEntity
  8
0
 62
     7
100
AcDbLine
 10
140.982265
 20
104.768627
 30
0.0
 11
140.982265
 21
104.824265
 31
0.0
  0
LINE
  5
2A2
330
A
100
AcDbEntity
  8
0
 62
     7
100
AcDbLine
 10
140.71837
 20
100.574395
 30
0.0
 11
140.831542
 21
101.071522
 31
0.0
  0
LINE
  5
2A1
330
A
100
AcDbEntity
  8
0
 62
     7
100
AcDbLine
 10
140.831542
 20
105.303994
 30
0.0
 11
140.71837
 21
105.801122
 31
0.0
  0
LINE
  5
2A0
330
A
100
AcDbEntity
  8
0
 62
     7
100
AcDbLine
 10
140.549905
 20
100.215761
 30
0.0
 11
140.71837
 21
100.574395
 31
0.0
  0
LINE
  5
29F
330
A
100
AcDbEntity
  8
0
 62
     7
100
AcDbLine
 10
140.71837
 20
105.801122
 30
0.0
 11
140.549905
 21
106.159756
 31
0.0
  0
LINE
  5
29E
330
A
100
AcDbEntity
  8
0
 62
     7
100
AcDbLine
 10
140.313227
 20
99.91087
 30
0.0
 11
140.549905
 21
100.215761
 31
0.0
  0
LINE
  5
29D
330
A
100
AcDbEntity
  8
0
 62
     7
100
AcDbLine
 10
140.549905
 20
106.159756
 30
0.0
 11
140.313227
 21
106.464475
 31
0.0
  0
LINE
  5
29C
330
A
100
AcDbEntity
  8
0
 62
     7
100
AcDbLine
 10
139.930994
 20
99.67109100000001
 30
0.0
 11
140.313227
 21
99.91087
 31
0.0
  0
LINE
  5
29B
330
A
100
AcDbEntity
  8
0
 62
     7
100
AcDbLine
 10
140.313227
 20
106.464475
 30
0.0
 11
139.930994
 21
106.704426
 31
0.0
  0
LINE
  5
29A
330
A
100
AcDbEntity
  8
0
 62
     7
100
AcDbLine
 10
139.569259
 20
99.58496400000001
 30
0.0
 11
139.930994
 21
99.67109100000001
 31
0.0
  0
LINE
  5
299
330
A
100
AcDbEntity
  8
0
 62
     7
100
AcDbLine
 10
139.569259
 20
99.707609
 30
0.0
 11
139.569259
 21
99.58496400000001
 31
0.0
  0
LINE
  5
298
330
A
100
AcDbEntity
  8
0
 62
     7
100
AcDbLine
 10
139.569259
 20
100.067622
 30
0.0
 11
139.569259
 21
99.707609
 31
0.0
  0
LINE
  5
297
330
A
100
AcDbEntity
  8
0
 62
     7
100
AcDbLine
 10
139.569259
 20
100.640196
 30
0.0
 11
139.569259
 21
100.067622
 31
0.0
  0
LINE
  5
296
330
A
100
AcDbEntity
  8
0
 62
     7
100
AcDbLine
 10
139.569259
 20
101.386404
 30
0.0
 11
139.569259
 21
100.640196
 31
0.0
  0
LINE
  5
295
330
A
100
AcDbEntity
  8
0
 62
     7
100
AcDbLine
 10
139.569259
 20
102.255257
 30
0.0
 11
139.569259
 21
101.386404
 31
0.0
  0
LINE
  5
294
330
A
100
AcDbEntity
  8
0
 62
     7
100
AcDbLine
 10
139.569259
 20
103.187845
 30
0.0
 11
139.569259
 21
102.255257
 31
0.0
  0
LINE
  5
293
330
A
100
AcDbEntity
  8
0
 62
     7
100
AcDbLine
 10
139.569259
 20
104.120087
 30
0.0
 11
139.569259
 21
103.187845
 31
0.0
  0
LINE
  5
292
330
A
100
AcDbEntity
  8
0
 62
     7
100
AcDbLine
 10
139.569259
 20
104.989113
 30
0.0
 11
139.569259
 21
104.120087
 31
0.0
  0
LINE
  5
291
330
A
100
AcDbEntity
  8
0
 62
     7
100
AcDbLine
 10
139.569259
 20
105.73532
 30
0.0
 11
139.569259
 21
104.989113
 31
0.0
  0
LINE
  5
290
330
A
100
AcDbEntity
  8
0
 62
     7
100
AcDbLine
 10
139.569259
 20
106.307895
 30
0.0
 11
139.569259
 21
105.73532
 31
0.0
  0
LINE
  5
28F
330
A
100
AcDbEntity
  8
0
 62
     7
100
AcDbLine
 10
139.569259
 20
106.667735
 30
0.0
 11
139.569259
 21
106.307895
 31
0.0
  0
LINE
  5
28E
330
A
100
AcDbEntity
  8
0
 62
     7
100
AcDbLine
 10
139.930994
 20
106.704426
 30
0.0
 11
139.569259
 21
106.790553
 31
0.0
  0
LINE
  5
28D
330
A
100
AcDbEntity
  8
0
 62
     7
100
AcDbLine
 10
139.569259
 20
106.790553
 30
0.0
 11
139.569259
 21
106.667735
 31
0.0
  0
LINE
  5
28C
330
A
100
AcDbEntity
  8
0
 62
     7
100
AcDbLine
 10
141.483354
 20
102.155694
 30
0.0
 11
141.483354
 21
102.125722
 31
0.0
  0
LINE
  5
28B
330
A
100
AcDbEntity
  8
0
 62
     7
100
AcDbLine
 10
141.483354
 20
102.234587
 30
0.0
 11
141.483354
 21
102.155694
 31
0.0
  0
LINE
  5
28A
330
A
100
AcDbEntity
  8
0
 62
     7
100
AcDbLine
 10
139.4998399999999
 20
106.612269
 30
0.0
 11
139.4998399999999
 21
106.73302
 31
0.0
  0
LINE
  5
289
330
A
100
AcDbEntity
  8
0
 62
     7
100
AcDbLine
 10
139.4998399999999
 20
106.258114
 30
0.0
 11
139.4998399999999
 21
106.612269
 31
0.0
  0
LINE
  5
288
330
A
100
AcDbEntity
  8
0
 62
     7
100
AcDbLine
 10
139.4998399999999
 20
105.694668
 30
0.0
 11
139.4998399999999
 21
106.258114
 31
0.0
  0
LINE
  5
287
330
A
100
AcDbEntity
  8
0
 62
     7
100
AcDbLine
 10
139.4998399999999
 20
104.960518
 30
0.0
 11
139.4998399999999
 21
105.694668
 31
0.0
  0
LINE
  5
286
330
A
100
AcDbEntity
  8
0
 62
     7
100
AcDbLine
 10
139.4998399999999
 20
104.105273
 30
0.0
 11
139.4998399999999
 21
104.960518
 31
0.0
  0
LINE
  5
285
330
A
100
AcDbEntity
  8
0
 62
     7
100
AcDbLine
 10
139.4998399999999
 20
103.187845
 30
0.0
 11
139.4998399999999
 21
104.105273
 31
0.0
  0
LINE
  5
284
330
A
100
AcDbEntity
  8
0
 62
     7
100
AcDbLine
 10
139.4998399999999
 20
102.270071
 30
0.0
 11
139.4998399999999
 21
103.187845
 31
0.0
  0
LINE
  5
283
330
A
100
AcDbEntity
  8
0
 62
     7
100
AcDbLine
 10
139.4998399999999
 20
101.414998
 30
0.0
 11
139.4998399999999
 21
102.270071
 31
0.0
  0
LINE
  5
282
330
A
100
AcDbEntity
  8
0
 62
     7
100
AcDbLine
 10
139.4998399999999
 20
100.680849
 30
0.0
 11
139.4998399999999
 21
101.414998
 31
0.0
  0
LINE
  5
281
330
A
100
AcDbEntity
  8
0
 62
     7
100
AcDbLine
 10
139.4998399999999
 20
100.117231
 30
0.0
 11
139.4998399999999
 21
100.680849
 31
0.0
  0
LINE
  5
280
330
A
100
AcDbEntity
  8
0
 62
     7
100
AcDbLine
 10
139.4998399999999
 20
99.763075
 30
0.0
 11
139.4998399999999
 21
100.117231
 31
0.0
  0
LINE
  5
27F
330
A
100
AcDbEntity
  8
0
 62
     7
100
AcDbLine
 10
139.4998399999999
 20
99.64249699999999
 30
0.0
 11
139.4998399999999
 21
99.763075
 31
0.0
  0
LINE
  5
27E
330
A
100
AcDbEntity
  8
0
 62
     7
100
AcDbLine
 10
142.514988
 20
101.901101
 30
0.0
 11
142.758211
 21
101.901101
 31
0.0
  0
LINE
  5
27D
330
A
100
AcDbEntity
  8
0
 62
     7
100
AcDbLine
 10
142.514988
 20
104.474415
 30
0.0
 11
142.758211
 21
104.474415
 31
0.0
  0
LINE
  5
27C
330
A
100
AcDbEntity
  8
0
 62
     7
100
AcDbLine
 10
141.520388
 20
104.834772
 30
0.0
 11
141.46854
 21
104.758464
 31
0.0
  0
LINE
  5
27B
330
A
100
AcDbEntity
  8
0
 62
     7
100
AcDbLine
 10
141.520388
 20
101.540744
 30
0.0
 11
141.46854
 21
101.616881
 31
0.0
  0
LINE
  5
27A
330
A
100
AcDbEntity
  8
0
 62
     7
100
AcDbLine
 10
142.514988
 20
101.616881
 30
0.0
 11
142.463139
 21
101.540744
 31
0.0
  0
LINE
  5
279
330
A
100
AcDbEntity
  8
0
 62
     7
100
AcDbLine
 10
142.514988
 20
104.758464
 30
0.0
 11
142.463139
 21
104.834772
 31
0.0
  0
LINE
  5
278
330
A
100
AcDbEntity
  8
0
 62
     7
100
AcDbLine
 10
141.520388
 20
101.637207
 30
0.0
 11
141.520388
 21
101.548668
 31
0.0
  0
LINE
  5
277
330
A
100
AcDbEntity
  8
0
 62
     7
100
AcDbLine
 10
142.463139
 20
101.548668
 30
0.0
 11
142.463139
 21
101.637207
 31
0.0
  0
LINE
  5
276
330
A
100
AcDbEntity
  8
0
 62
     7
100
AcDbLine
 10
141.520388
 20
101.548668
 30
0.0
 11
141.520388
 21
101.540744
 31
0.0
  0
LINE
  5
275
330
A
100
AcDbEntity
  8
0
 62
     7
100
AcDbLine
 10
142.463139
 20
101.548668
 30
0.0
 11
141.520388
 21
101.548668
 31
0.0
  0
LINE
  5
274
330
A
100
AcDbEntity
  8
0
 62
     7
100
AcDbLine
 10
142.463139
 20
101.540744
 30
0.0
 11
142.463139
 21
101.548668
 31
0.0
  0
LINE
  5
273
330
A
100
AcDbEntity
  8
0
 62
     7
100
AcDbLine
 10
141.520388
 20
102.986651
 30
0.0
 11
141.520388
 21
102.823353
 31
0.0
  0
LINE
  5
272
330
A
100
AcDbEntity
  8
0
 62
     7
100
AcDbLine
 10
142.463139
 20
102.823353
 30
0.0
 11
142.463139
 21
102.986651
 31
0.0
  0
LINE
  5
271
330
A
100
AcDbEntity
  8
0
 62
     7
100
AcDbLine
 10
141.520388
 20
102.823353
 30
0.0
 11
141.520388
 21
102.677626
 31
0.0
  0
LINE
  5
270
330
A
100
AcDbEntity
  8
0
 62
     7
100
AcDbLine
 10
142.463139
 20
102.677626
 30
0.0
 11
142.463139
 21
102.823353
 31
0.0
  0
LINE
  5
26F
330
A
100
AcDbEntity
  8
0
 62
     7
100
AcDbLine
 10
141.520388
 20
104.537116
 30
0.0
 11
141.520388
 21
104.462358
 31
0.0
  0
LINE
  5
26E
330
A
100
AcDbEntity
  8
0
 62
     7
100
AcDbLine
 10
142.463139
 20
104.462185
 30
0.0
 11
142.463139
 21
104.537116
 31
0.0
  0
LINE
  5
26D
330
A
100
AcDbEntity
  8
0
 62
     7
100
AcDbLine
 10
141.520388
 20
104.462358
 30
0.0
 11
141.520388
 21
104.324726
 31
0.0
  0
LINE
  5
26C
330
A
100
AcDbEntity
  8
0
 62
     7
100
AcDbLine
 10
142.463139
 20
104.462185
 30
0.0
 11
141.520388
 21
104.462358
 31
0.0
  0
LINE
  5
26B
330
A
100
AcDbEntity
  8
0
 62
     7
100
AcDbLine
 10
142.463139
 20
104.324726
 30
0.0
 11
142.463139
 21
104.462185
 31
0.0
  0
LINE
  5
26A
330
A
100
AcDbEntity
  8
0
 62
     7
100
AcDbLine
 10
141.46854
 20
104.465114
 30
0.0
 11
141.46854
 21
104.758464
 31
0.0
  0
LINE
  5
269
330
A
100
AcDbEntity
  8
0
 62
     7
100
AcDbLine
 10
141.46854
 20
104.404135
 30
0.0
 11
141.46854
 21
104.465114
 31
0.0
  0
LINE
  5
268
330
A
100
AcDbEntity
  8
0
 62
     7
100
AcDbLine
 10
141.46854
 20
104.291998
 30
0.0
 11
141.46854
 21
104.404135
 31
0.0
  0
LINE
  5
267
330
A
100
AcDbEntity
  8
0
 62
     7
100
AcDbLine
 10
141.46854
 20
102.972871
 30
0.0
 11
141.46854
 21
103.475165
 31
0.0
  0
LINE
  5
266
330
A
100
AcDbEntity
  8
0
 62
     7
100
AcDbLine
 10
141.46854
 20
103.685316
 30
0.0
 11
141.46854
 21
104.291998
 31
0.0
  0
LINE
  5
265
330
A
100
AcDbEntity
  8
0
 62
     7
100
AcDbLine
 10
141.46854
 20
102.83989
 30
0.0
 11
141.46854
 21
102.972871
 31
0.0
  0
LINE
  5
264
330
A
100
AcDbEntity
  8
0
 62
     7
100
AcDbLine
 10
141.46854
 20
102.721379
 30
0.0
 11
141.46854
 21
102.83989
 31
0.0
  0
LINE
  5
263
330
A
100
AcDbEntity
  8
0
 62
     7
100
AcDbLine
 10
141.46854
 20
101.695774
 30
0.0
 11
141.46854
 21
102.050618
 31
0.0
  0
LINE
  5
262
330
A
100
AcDbEntity
  8
0
 62
     7
100
AcDbLine
 10
141.46854
 20
102.429924
 30
0.0
 11
141.46854
 21
102.721379
 31
0.0
  0
LINE
  5
261
330
A
100
AcDbEntity
  8
0
 62
     7
100
AcDbLine
 10
141.46854
 20
101.623427
 30
0.0
 11
141.46854
 21
101.695774
 31
0.0
  0
LINE
  5
260
330
A
100
AcDbEntity
  8
0
 62
     7
100
AcDbLine
 10
141.46854
 20
101.616881
 30
0.0
 11
141.46854
 21
101.623427
 31
0.0
  0
LINE
  5
25F
330
A
100
AcDbEntity
  8
0
 62
     7
100
AcDbLine
 10
142.514988
 20
101.623427
 30
0.0
 11
142.514988
 21
101.616881
 31
0.0
  0
LINE
  5
25E
330
A
100
AcDbEntity
  8
0
 62
     7
100
AcDbLine
 10
142.514988
 20
101.695774
 30
0.0
 11
142.514988
 21
101.623427
 31
0.0
  0
LINE
  5
25D
330
A
100
AcDbEntity
  8
0
 62
     7
100
AcDbLine
 10
142.514988
 20
102.721379
 30
0.0
 11
142.514988
 21
101.695774
 31
0.0
  0
LINE
  5
25C
330
A
100
AcDbEntity
  8
0
 62
     7
100
AcDbLine
 10
142.514988
 20
102.83989
 30
0.0
 11
142.514988
 21
102.721379
 31
0.0
  0
LINE
  5
25B
330
A
100
AcDbEntity
  8
0
 62
     7
100
AcDbLine
 10
142.514988
 20
102.972871
 30
0.0
 11
142.514988
 21
102.83989
 31
0.0
  0
LINE
  5
25A
330
A
100
AcDbEntity
  8
0
 62
     7
100
AcDbLine
 10
142.514988
 20
104.291998
 30
0.0
 11
142.514988
 21
102.972871
 31
0.0
  0
LINE
  5
259
330
A
100
AcDbEntity
  8
0
 62
     7
100
AcDbLine
 10
142.514988
 20
104.404135
 30
0.0
 11
142.514988
 21
104.291998
 31
0.0
  0
LINE
  5
258
330
A
100
AcDbEntity
  8
0
 62
     7
100
AcDbLine
 10
142.514988
 20
104.465114
 30
0.0
 11
142.514988
 21
104.404135
 31
0.0
  0
LINE
  5
257
330
A
100
AcDbEntity
  8
0
 62
     7
100
AcDbLine
 10
142.514988
 20
104.758464
 30
0.0
 11
142.514988
 21
104.465114
 31
0.0
  0
LINE
  5
256
330
A
100
AcDbEntity
  8
0
 62
     7
100
AcDbLine
 10
142.463139
 20
101.540744
 30
0.0
 11
141.520388
 21
101.540744
 31
0.0
  0
LINE
  5
255
330
A
100
AcDbEntity
  8
0
 62
     7
100
AcDbLine
 10
142.463139
 20
101.637207
 30
0.0
 11
142.463139
 21
102.677626
 31
0.0
  0
LINE
  5
254
330
A
100
AcDbEntity
  8
0
 62
     7
100
AcDbLine
 10
141.520388
 20
102.677626
 30
0.0
 11
141.520388
 21
101.637207
 31
0.0
  0
LINE
  5
253
330
A
100
AcDbEntity
  8
0
 62
     7
100
AcDbLine
 10
142.463139
 20
102.986651
 30
0.0
 11
142.463139
 21
104.324726
 31
0.0
  0
LINE
  5
252
330
A
100
AcDbEntity
  8
0
 62
     7
100
AcDbLine
 10
141.520388
 20
104.324726
 30
0.0
 11
141.520388
 21
102.986651
 31
0.0
  0
LINE
  5
251
330
A
100
AcDbEntity
  8
0
 62
     7
100
AcDbLine
 10
142.463139
 20
104.537116
 30
0.0
 11
142.463139
 21
104.834772
 31
0.0
  0
LINE
  5
250
330
A
100
AcDbEntity
  8
0
 62
     7
100
AcDbLine
 10
141.520388
 20
104.834772
 30
0.0
 11
141.520388
 21
104.537116
 31
0.0
  0
LINE
  5
24F
330
A
100
AcDbEntity
  8
0
 62
     7
100
AcDbLine
 10
142.463139
 20
104.834772
 30
0.0
 11
141.520388
 21
104.834772
 31
0.0
  0
LINE
  5
24E
330
A
100
AcDbEntity
  8
0
 62
     7
100
AcDbLine
 10
142.758211
 20
101.696118
 30
0.0
 11
142.788356
 21
101.644442
 31
0.0
  0
LINE
  5
24D
330
A
100
AcDbEntity
  8
0
 62
     7
100
AcDbLine
 10
142.788356
 20
104.763459
 30
0.0
 11
142.758211
 21
104.715917
 31
0.0
  0
LINE
  5
24C
330
A
100
AcDbEntity
  8
0
 62
     7
100
AcDbLine
 10
145.382685
 20
105.288491
 30
0.0
 11
145.1108669999999
 21
105.335517
 31
0.0
  0
LINE
  5
24B
330
A
100
AcDbEntity
  8
0
 62
     7
100
AcDbLine
 10
145.874128
 20
105.194957
 30
0.0
 11
145.382685
 21
105.288491
 31
0.0
  0
LINE
  5
24A
330
A
100
AcDbEntity
  8
0
 62
     7
100
AcDbLine
 10
146.349034
 20
105.002893
 30
0.0
 11
145.874128
 21
105.194957
 31
0.0
  0
LINE
  5
249
330
A
100
AcDbEntity
  8
0
 62
     7
100
AcDbLine
 10
146.810505
 20
104.72074
 30
0.0
 11
146.349034
 21
105.002893
 31
0.0
  0
LINE
  5
248
330
A
100
AcDbEntity
  8
0
 62
     7
100
AcDbLine
 10
147.178786
 20
104.331099
 30
0.0
 11
146.810505
 21
104.72074
 31
0.0
  0
LINE
  5
247
330
A
100
AcDbEntity
  8
0
 62
     7
100
AcDbLine
 10
147.38308
 20
103.98125
 30
0.0
 11
147.178786
 21
104.331099
 31
0.0
  0
LINE
  5
246
330
A
100
AcDbEntity
  8
0
 62
     7
100
AcDbLine
 10
147.523467
 20
103.602979
 30
0.0
 11
147.38308
 21
103.98125
 31
0.0
  0
LINE
  5
245
330
A
100
AcDbEntity
  8
0
 62
     7
100
AcDbLine
 10
147.595125
 20
103.205759
 30
0.0
 11
147.523467
 21
103.602979
 31
0.0
  0
LINE
  5
244
330
A
100
AcDbEntity
  8
0
 62
     7
100
AcDbLine
 10
143.624136
 20
105.089537
 30
0.0
 11
143.181613
 21
104.939159
 31
0.0
  0
LINE
  5
243
330
A
100
AcDbEntity
  8
0
 62
     7
100
AcDbLine
 10
143.181613
 20
104.939159
 30
0.0
 11
142.788356
 21
104.763459
 31
0.0
  0
LINE
  5
242
330
A
100
AcDbEntity
  8
0
 62
     7
100
AcDbLine
 10
145.1108669999999
 20
105.335517
 30
0.0
 11
144.828025
 21
105.322598
 31
0.0
  0
LINE
  5
241
330
A
100
AcDbEntity
  8
0
 62
     7
100
AcDbLine
 10
144.828025
 20
105.322598
 30
0.0
 11
144.516933
 21
105.29676
 31
0.0
  0
LINE
  5
240
330
A
100
AcDbEntity
  8
0
 62
     7
100
AcDbLine
 10
144.516933
 20
105.29676
 30
0.0
 11
144.045643
 21
105.202881
 31
0.0
  0
LINE
  5
23F
330
A
100
AcDbEntity
  8
0
 62
     7
100
AcDbLine
 10
144.045643
 20
105.202881
 30
0.0
 11
143.625342
 21
105.089193
 31
0.0
  0
LINE
  5
23E
330
A
100
AcDbEntity
  8
0
 62
     7
100
AcDbLine
 10
145.1108669999999
 20
101.076345
 30
0.0
 11
145.382685
 21
101.123199
 31
0.0
  0
LINE
  5
23D
330
A
100
AcDbEntity
  8
0
 62
     7
100
AcDbLine
 10
145.382685
 20
101.123199
 30
0.0
 11
145.874128
 21
101.216905
 31
0.0
  0
LINE
  5
23C
330
A
100
AcDbEntity
  8
0
 62
     7
100
AcDbLine
 10
145.874128
 20
101.216905
 30
0.0
 11
146.349034
 21
101.408797
 31
0.0
  0
LINE
  5
23B
330
A
100
AcDbEntity
  8
0
 62
     7
100
AcDbLine
 10
146.349034
 20
101.408797
 30
0.0
 11
146.810505
 21
101.690951
 31
0.0
  0
LINE
  5
23A
330
A
100
AcDbEntity
  8
0
 62
     7
100
AcDbLine
 10
146.810505
 20
101.690951
 30
0.0
 11
147.178786
 21
102.080591
 31
0.0
  0
LINE
  5
239
330
A
100
AcDbEntity
  8
0
 62
     7
100
AcDbLine
 10
147.178786
 20
102.080591
 30
0.0
 11
147.38308
 21
102.430613
 31
0.0
  0
LINE
  5
238
330
A
100
AcDbEntity
  8
0
 62
     7
100
AcDbLine
 10
147.38308
 20
102.430613
 30
0.0
 11
147.523467
 21
102.808884
 31
0.0
  0
LINE
  5
237
330
A
100
AcDbEntity
  8
0
 62
     7
100
AcDbLine
 10
147.523467
 20
102.808884
 30
0.0
 11
147.595125
 21
103.205759
 31
0.0
  0
LINE
  5
236
330
A
100
AcDbEntity
  8
0
 62
     7
100
AcDbLine
 10
143.624136
 20
101.322325
 30
0.0
 11
144.082161
 21
101.211738
 31
0.0
  0
LINE
  5
235
330
A
100
AcDbEntity
  8
0
 62
     7
100
AcDbLine
 10
143.181613
 20
101.472876
 30
0.0
 11
143.624136
 21
101.322325
 31
0.0
  0
LINE
  5
234
330
A
100
AcDbEntity
  8
0
 62
     7
100
AcDbLine
 10
142.788356
 20
101.644442
 30
0.0
 11
143.181613
 21
101.472876
 31
0.0
  0
LINE
  5
233
330
A
100
AcDbEntity
  8
0
 62
     7
100
AcDbLine
 10
144.828025
 20
101.089437
 30
0.0
 11
145.1108669999999
 21
101.076345
 31
0.0
  0
LINE
  5
232
330
A
100
AcDbEntity
  8
0
 62
     7
100
AcDbLine
 10
144.516933
 20
101.114931
 30
0.0
 11
144.828025
 21
101.089437
 31
0.0
  0
LINE
  5
231
330
A
100
AcDbEntity
  8
0
 62
     7
100
AcDbLine
 10
144.078027
 20
101.211393
 30
0.0
 11
144.516933
 21
101.114931
 31
0.0
  0
LINE
  5
230
330
A
100
AcDbEntity
  8
0
 62
     7
100
AcDbLine
 10
142.758211
 20
101.727813
 30
0.0
 11
142.758211
 21
101.696118
 31
0.0
  0
LINE
  5
22F
330
A
100
AcDbEntity
  8
0
 62
     7
100
AcDbLine
 10
142.758211
 20
101.826687
 30
0.0
 11
142.758211
 21
101.727813
 31
0.0
  0
LINE
  5
22E
330
A
100
AcDbEntity
  8
0
 62
     7
100
AcDbLine
 10
142.758211
 20
101.984817
 30
0.0
 11
142.758211
 21
101.826687
 31
0.0
  0
LINE
  5
22D
330
A
100
AcDbEntity
  8
0
 62
     7
100
AcDbLine
 10
142.758211
 20
102.194279
 30
0.0
 11
142.758211
 21
101.984817
 31
0.0
  0
LINE
  5
22C
330
A
100
AcDbEntity
  8
0
 62
     7
100
AcDbLine
 10
142.758211
 20
102.408219
 30
0.0
 11
142.758211
 21
102.194279
 31
0.0
  0
LINE
  5
22B
330
A
100
AcDbEntity
  8
0
 62
     7
100
AcDbLine
 10
142.758211
 20
102.589087
 30
0.0
 11
142.758211
 21
102.408219
 31
0.0
  0
LINE
  5
22A
330
A
100
AcDbEntity
  8
0
 62
     7
100
AcDbLine
 10
142.758211
 20
102.817841
 30
0.0
 11
142.758211
 21
102.589087
 31
0.0
  0
LINE
  5
229
330
A
100
AcDbEntity
  8
0
 62
     7
100
AcDbLine
 10
142.758211
 20
103.205759
 30
0.0
 11
142.758211
 21
102.817841
 31
0.0
  0
LINE
  5
228
330
A
100
AcDbEntity
  8
0
 62
     7
100
AcDbLine
 10
142.758211
 20
103.594021
 30
0.0
 11
142.758211
 21
103.205759
 31
0.0
  0
LINE
  5
227
330
A
100
AcDbEntity
  8
0
 62
     7
100
AcDbLine
 10
142.758211
 20
103.822776
 30
0.0
 11
142.758211
 21
103.594021
 31
0.0
  0
LINE
  5
226
330
A
100
AcDbEntity
  8
0
 62
     7
100
AcDbLine
 10
142.758211
 20
104.003643
 30
0.0
 11
142.758211
 21
103.822776
 31
0.0
  0
LINE
  5
225
330
A
100
AcDbEntity
  8
0
 62
     7
100
AcDbLine
 10
142.758211
 20
104.217584
 30
0.0
 11
142.758211
 21
104.003643
 31
0.0
  0
LINE
  5
224
330
A
100
AcDbEntity
  8
0
 62
     7
100
AcDbLine
 10
142.758211
 20
104.427218
 30
0.0
 11
142.758211
 21
104.217584
 31
0.0
  0
LINE
  5
223
330
A
100
AcDbEntity
  8
0
 62
     7
100
AcDbLine
 10
142.758211
 20
104.585175
 30
0.0
 11
142.758211
 21
104.427218
 31
0.0
  0
LINE
  5
222
330
A
100
AcDbEntity
  8
0
 62
     7
100
AcDbLine
 10
142.758211
 20
104.684049
 30
0.0
 11
142.758211
 21
104.585175
 31
0.0
  0
LINE
  5
221
330
A
100
AcDbEntity
  8
0
 62
     7
100
AcDbLine
 10
142.758211
 20
104.715917
 30
0.0
 11
142.758211
 21
104.684049
 31
0.0
  0
LINE
  5
220
330
A
100
AcDbEntity
  8
0
 62
     7
100
AcDbLine
 10
148.526851
 20
107.519191
 30
0.0
 11
148.463462
 21
107.525736
 31
0.0
  0
LINE
  5
21F
330
A
100
AcDbEntity
  8
0
 62
     7
100
AcDbLine
 10
148.544249
 20
107.523325
 30
0.0
 11
148.526851
 21
107.519191
 31
0.0
  0
LINE
  5
21E
330
A
100
AcDbEntity
  8
0
 62
     7
100
AcDbLine
 10
148.463462
 20
107.525736
 30
0.0
 11
148.359248
 21
107.536244
 31
0.0
  0
LINE
  5
21D
330
A
100
AcDbEntity
  8
0
 62
     7
100
AcDbLine
 10
148.359248
 20
107.536244
 30
0.0
 11
148.215759
 21
107.550886
 31
0.0
  0
LINE
  5
21C
330
A
100
AcDbEntity
  8
0
 62
     7
100
AcDbLine
 10
146.709908
 20
107.70402
 30
0.0
 11
146.068087
 21
107.769305
 31
0.0
  0
LINE
  5
21B
330
A
100
AcDbEntity
  8
0
 62
     7
100
AcDbLine
 10
143.777098
 20
108.002365
 30
0.0
 11
143.672712
 21
108.013045
 31
0.0
  0
LINE
  5
21A
330
A
100
AcDbEntity
  8
0
 62
     7
100
AcDbLine
 10
143.920586
 20
107.987724
 30
0.0
 11
143.777098
 21
108.002365
 31
0.0
  0
LINE
  5
219
330
A
100
AcDbEntity
  8
0
 62
     7
100
AcDbLine
 10
144.100765
 20
107.969465
 30
0.0
 11
143.920586
 21
107.987724
 31
0.0
  0
LINE
  5
218
330
A
100
AcDbEntity
  8
0
 62
     7
100
AcDbLine
 10
144.314533
 20
107.947761
 30
0.0
 11
144.100765
 21
107.969465
 31
0.0
  0
LINE
  5
217
330
A
100
AcDbEntity
  8
0
 62
     7
100
AcDbLine
 10
144.828197
 20
107.895395
 30
0.0
 11
144.314533
 21
107.947761
 31
0.0
  0
LINE
  5
216
330
A
100
AcDbEntity
  8
0
 62
     7
100
AcDbLine
 10
145.426265
 20
107.834589
 30
0.0
 11
144.828197
 21
107.895395
 31
0.0
  0
LINE
  5
215
330
A
100
AcDbEntity
  8
0
 62
     7
100
AcDbLine
 10
146.068087
 20
107.769305
 30
0.0
 11
145.426265
 21
107.834589
 31
0.0
  0
LINE
  5
214
330
A
100
AcDbEntity
  8
0
 62
     7
100
AcDbLine
 10
143.672712
 20
108.013045
 30
0.0
 11
143.609494
 21
108.019419
 31
0.0
  0
LINE
  5
213
330
A
100
AcDbEntity
  8
0
 62
     7
100
AcDbLine
 10
143.609494
 20
108.019419
 30
0.0
 11
143.581934
 21
108.028376
 31
0.0
  0
LINE
  5
212
330
A
100
AcDbEntity
  8
0
 62
     7
100
AcDbLine
 10
148.495673
 20
103.626405
 30
0.0
 11
148.594203
 21
103.422111
 31
0.0
  0
LINE
  5
211
330
A
100
AcDbEntity
  8
0
 62
     7
100
AcDbLine
 10
148.594203
 20
103.422111
 30
0.0
 11
148.876701
 21
103.115842
 31
0.0
  0
LINE
  5
210
330
A
100
AcDbEntity
  8
0
 62
     7
100
AcDbLine
 10
148.876701
 20
103.115842
 30
0.0
 11
149.51301
 21
102.74136
 31
0.0
  0
LINE
  5
20F
330
A
100
AcDbEntity
  8
0
 62
     7
100
AcDbLine
 10
155.945003
 20
100.661211
 30
0.0
 11
155.331776
 21
101.15765
 31
0.0
  0
LINE
  5
20E
330
A
100
AcDbEntity
  8
0
 62
     7
100
AcDbLine
 10
146.709908
 20
107.70402
 30
0.0
 11
147.307977
 21
107.643214
 31
0.0
  0
LINE
  5
20D
330
A
100
AcDbEntity
  8
0
 62
     7
100
AcDbLine
 10
147.307977
 20
107.643214
 30
0.0
 11
147.82164
 21
107.591021
 31
0.0
  0
LINE
  5
20C
330
A
100
AcDbEntity
  8
0
 62
     7
100
AcDbLine
 10
147.82164
 20
107.591021
 30
0.0
 11
148.035581
 21
107.569145
 31
0.0
  0
LINE
  5
20B
330
A
100
AcDbEntity
  8
0
 62
     7
100
AcDbLine
 10
148.035581
 20
107.569145
 30
0.0
 11
148.215759
 21
107.550886
 31
0.0
  0
LINE
  5
20A
330
A
100
AcDbEntity
  8
0
 62
     7
100
AcDbLine
 10
150.501063
 20
102.493313
 30
0.0
 11
149.51301
 21
102.74136
 31
0.0
  0
LINE
  5
209
330
A
100
AcDbEntity
  8
0
 62
     7
100
AcDbLine
 10
143.935228
 20
101.24171
 30
0.0
 11
144.131082
 21
100.91856
 31
0.0
  0
LINE
  5
208
330
A
100
AcDbEntity
  8
0
 62
     7
100
AcDbLine
 10
144.131082
 20
100.91856
 30
0.0
 11
144.49764
 21
100.541667
 31
0.0
  0
LINE
  5
207
330
A
100
AcDbEntity
  8
0
 62
     7
100
AcDbLine
 10
144.49764
 20
100.541667
 30
0.0
 11
144.898132
 21
100.3074
 31
0.0
  0
LINE
  5
206
330
A
100
AcDbEntity
  8
0
 62
     7
100
AcDbLine
 10
144.898132
 20
100.3074
 30
0.0
 11
145.3143
 21
100.215416
 31
0.0
  0
LINE
  5
205
330
A
100
AcDbEntity
  8
0
 62
     7
100
AcDbLine
 10
148.3923199999999
 20
104.027414
 30
0.0
 11
148.383363
 21
104.448405
 31
0.0
  0
LINE
  5
204
330
A
100
AcDbEntity
  8
0
 62
     7
100
AcDbLine
 10
148.495673
 20
103.626405
 30
0.0
 11
148.3923199999999
 21
104.027414
 31
0.0
  0
LINE
  5
203
330
A
100
AcDbEntity
  8
0
 62
     7
100
AcDbLine
 10
143.159048
 20
104.979983
 30
0.0
 11
143.161976
 21
104.930374
 31
0.0
  0
LINE
  5
202
330
A
100
AcDbEntity
  8
0
 62
     7
100
AcDbLine
 10
143.581934
 20
108.028376
 30
0.0
 11
143.479097
 21
107.705915
 31
0.0
  0
LINE
  5
201
330
A
100
AcDbEntity
  8
0
 62
     7
100
AcDbLine
 10
143.479097
 20
107.705915
 30
0.0
 11
143.378673
 21
107.361578
 31
0.0
  0
LINE
  5
200
330
A
100
AcDbEntity
  8
0
 62
     7
100
AcDbLine
 10
143.378673
 20
107.361578
 30
0.0
 11
143.303742
 21
107.035499
 31
0.0
  0
LINE
  5
1FF
330
A
100
AcDbEntity
  8
0
 62
     7
100
AcDbLine
 10
143.303742
 20
107.035499
 30
0.0
 11
143.253271
 21
106.769194
 31
0.0
  0
LINE
  5
1FE
330
A
100
AcDbEntity
  8
0
 62
     7
100
AcDbLine
 10
143.253271
 20
106.769194
 30
0.0
 11
143.200906
 21
106.410387
 31
0.0
  0
LINE
  5
1FD
330
A
100
AcDbEntity
  8
0
 62
     7
100
AcDbLine
 10
143.200906
 20
106.410387
 30
0.0
 11
143.1699
 21
106.124616
 31
0.0
  0
LINE
  5
1FC
330
A
100
AcDbEntity
  8
0
 62
     7
100
AcDbLine
 10
143.1699
 20
106.124616
 30
0.0
 11
143.151124
 21
105.524308
 31
0.0
  0
LINE
  5
1FB
330
A
100
AcDbEntity
  8
0
 62
     7
100
AcDbLine
 10
143.151124
 20
105.524308
 30
0.0
 11
143.159048
 21
104.979983
 31
0.0
  0
LINE
  5
1FA
330
A
100
AcDbEntity
  8
0
 62
     7
100
AcDbLine
 10
148.584212
 20
107.186395
 30
0.0
 11
148.544249
 21
107.523325
 31
0.0
  0
LINE
  5
1F9
330
A
100
AcDbEntity
  8
0
 62
     7
100
AcDbLine
 10
148.61763
 20
106.828449
 30
0.0
 11
148.584212
 21
107.186395
 31
0.0
  0
LINE
  5
1F8
330
A
100
AcDbEntity
  8
0
 62
     7
100
AcDbLine
 10
148.629687
 20
106.493586
 30
0.0
 11
148.61763
 21
106.828449
 31
0.0
  0
LINE
  5
1F7
330
A
100
AcDbEntity
  8
0
 62
     7
100
AcDbLine
 10
148.628826
 20
106.222112
 30
0.0
 11
148.629687
 21
106.493586
 31
0.0
  0
LINE
  5
1F6
330
A
100
AcDbEntity
  8
0
 62
     7
100
AcDbLine
 10
148.61229
 20
105.859688
 30
0.0
 11
148.628826
 21
106.222112
 31
0.0
  0
LINE
  5
1F5
330
A
100
AcDbEntity
  8
0
 62
     7
100
AcDbLine
 10
148.5888629999999
 20
105.573229
 30
0.0
 11
148.61229
 21
105.859688
 31
0.0
  0
LINE
  5
1F4
330
A
100
AcDbEntity
  8
0
 62
     7
100
AcDbLine
 10
148.493951
 20
104.9805
 30
0.0
 11
148.5888629999999
 21
105.573229
 31
0.0
  0
LINE
  5
1F3
330
A
100
AcDbEntity
  8
0
 62
     7
100
AcDbLine
 10
148.383363
 20
104.448405
 30
0.0
 11
148.493951
 21
104.9805
 31
0.0
  0
LINE
  5
1F2
330
A
100
AcDbEntity
  8
0
 62
     7
100
AcDbLine
 10
148.544249
 20
107.523325
 30
0.0
 11
143.581934
 21
108.028376
 31
0.0
  0
LINE
  5
1F1
330
A
100
AcDbEntity
  8
0
 62
     7
100
AcDbLine
 10
149.51301
 20
102.74136
 30
0.0
 11
148.876701
 21
103.115842
 31
0.0
  0
LINE
  5
1F0
330
A
100
AcDbEntity
  8
0
 62
     7
100
AcDbLine
 10
152.505075
 20
102.076457
 30
0.0
 11
151.868077
 21
102.209093
 31
0.0
  0
LINE
  5
1EF
330
A
100
AcDbEntity
  8
0
 62
     7
100
AcDbLine
 10
151.135305
 20
102.361366
 30
0.0
 11
150.501063
 21
102.493313
 31
0.0
  0
LINE
  5
1EE
330
A
100
AcDbEntity
  8
0
 62
     7
100
AcDbLine
 10
153.473492
 20
101.911781
 30
0.0
 11
152.505075
 21
102.076457
 31
0.0
  0
LINE
  5
1ED
330
A
100
AcDbEntity
  8
0
 62
     7
100
AcDbLine
 10
154.528035
 20
101.574851
 30
0.0
 11
153.473492
 21
101.911781
 31
0.0
  0
LINE
  5
1EC
330
A
100
AcDbEntity
  8
0
 62
     7
100
AcDbLine
 10
154.530447
 20
101.573473
 30
0.0
 11
155.333499
 21
101.158683
 31
0.0
  0
LINE
  5
1EB
330
A
100
AcDbEntity
  8
0
 62
     7
100
AcDbLine
 10
156.401823
 20
100.193023
 30
0.0
 11
155.943625
 21
100.6619
 31
0.0
  0
LINE
  5
1EA
330
A
100
AcDbEntity
  8
0
 62
     7
100
AcDbLine
 10
156.68811
 20
99.763075
 30
0.0
 11
156.40768
 21
100.187855
 31
0.0
  0
LINE
  5
1E9
330
A
100
AcDbEntity
  8
0
 62
     7
100
AcDbLine
 10
156.926511
 20
99.36999
 30
0.0
 11
156.68811
 21
99.763075
 31
0.0
  0
LINE
  5
1E8
330
A
100
AcDbEntity
  8
0
 62
     7
100
AcDbLine
 10
157.112891
 20
98.94830999999999
 30
0.0
 11
156.926511
 21
99.36999
 31
0.0
  0
LINE
  5
1E7
330
A
100
AcDbEntity
  8
0
 62
     7
100
AcDbLine
 10
157.244149
 20
98.505271
 30
0.0
 11
157.112891
 21
98.94830999999999
 31
0.0
  0
LINE
  5
1E6
330
A
100
AcDbEntity
  8
0
 62
     7
100
AcDbLine
 10
149.51301
 20
102.74136
 30
0.0
 11
150.501063
 21
102.493313
 31
0.0
  0
LINE
  5
1E5
330
A
100
AcDbEntity
  8
0
 62
     7
100
AcDbLine
 10
145.3143
 20
100.215416
 30
0.0
 11
146.32044
 21
100.011466
 31
0.0
  0
LINE
  5
1E4
330
A
100
AcDbEntity
  8
0
 62
     7
100
AcDbLine
 10
146.32044
 20
100.011466
 30
0.0
 11
147.682114
 21
99.80028199999999
 31
0.0
  0
LINE
  5
1E3
330
A
100
AcDbEntity
  8
0
 62
     7
100
AcDbLine
 10
147.682114
 20
99.80028199999999
 30
0.0
 11
149.423437
 21
99.63250600000002
 31
0.0
  0
LINE
  5
1E2
330
A
100
AcDbEntity
  8
0
 62
     7
100
AcDbLine
 10
149.423437
 20
99.63250600000002
 30
0.0
 11
149.999457
 21
99.60563399999999
 31
0.0
  0
LINE
  5
1E1
330
A
100
AcDbEntity
  8
0
 62
     7
100
AcDbLine
 10
151.965229
 20
99.50676000000001
 30
0.0
 11
152.476137
 21
99.474721
 31
0.0
  0
LINE
  5
1E0
330
A
100
AcDbEntity
  8
0
 62
     7
100
AcDbLine
 10
152.476137
 20
99.474721
 30
0.0
 11
153.166534
 21
99.31624599999999
 31
0.0
  0
LINE
  5
1DF
330
A
100
AcDbEntity
  8
0
 62
     7
100
AcDbLine
 10
153.166534
 20
99.31624599999999
 30
0.0
 11
153.646091
 21
99.07819000000001
 31
0.0
  0
LINE
  5
1DE
330
A
100
AcDbEntity
  8
0
 62
     7
100
AcDbLine
 10
153.646091
 20
99.07819000000001
 30
0.0
 11
153.895516
 21
98.820841
 31
0.0
  0
LINE
  5
1DD
330
A
100
AcDbEntity
  8
0
 62
     7
100
AcDbLine
 10
153.895516
 20
98.820841
 30
0.0
 11
154.048823
 21
98.58313000000002
 31
0.0
  0
LINE
  5
1DC
330
A
100
AcDbEntity
  8
0
 62
     7
100
AcDbLine
 10
154.048823
 20
98.58313000000002
 30
0.0
 11
154.115658
 21
98.322336
 31
0.0
  0
LINE
  5
1DB
330
A
100
AcDbEntity
  8
0
 62
     7
100
AcDbLine
 10
154.115658
 20
98.322336
 30
0.0
 11
154.14184
 21
98.097027
 31
0.0
  0
LINE
  5
1DA
330
A
100
AcDbEntity
  8
0
 62
     7
100
AcDbLine
 10
154.14184
 20
98.097027
 30
0.0
 11
154.151142
 21
97.86655000000001
 31
0.0
  0
LINE
  5
1D9
330
A
100
AcDbEntity
  8
0
 62
     7
100
AcDbLine
 10
140.313227
 20
99.91087
 30
0.0
 11
140.549905
 21
100.215761
 31
0.0
  0
LINE
  5
1D8
330
A
100
AcDbEntity
  8
0
 62
     7
100
AcDbLine
 10
142.514988
 20
104.474415
 30
0.0
 11
142.758211
 21
104.474415
 31
0.0
  0
LINE
  5
1D7
330
A
100
AcDbEntity
  8
0
 62
     7
100
AcDbLine
 10
141.520388
 20
104.834772
 30
0.0
 11
141.46854
 21
104.758464
 31
0.0
  0
LINE
  5
1D6
330
A
100
AcDbEntity
  8
0
 62
     7
100
AcDbLine
 10
157.055013
 20
97.507227
 30
0.0
 11
156.975776
 21
97.45279400000001
 31
0.0
  0
LINE
  5
1D5
330
A
100
AcDbEntity
  8
0
 62
     7
100
AcDbLine
 10
157.074306
 20
97.60403400000001
 30
0.0
 11
157.055013
 21
97.507227
 31
0.0
  0
LINE
  5
1D4
330
A
100
AcDbEntity
  8
0
 62
     7
100
AcDbLine
 10
154.68961
 20
97.01940100000001
 30
0.0
 11
154.783662
 21
97.000109
 31
0.0
  0
LINE
  5
1D3
330
A
100
AcDbEntity
  8
0
 62
     7
100
AcDbLine
 10
154.636211
 20
97.10208299999999
 30
0.0
 11
154.68961
 21
97.01940100000001
 31
0.0
  0
LINE
  5
1D2
330
A
100
AcDbEntity
  8
0
 62
     7
100
AcDbLine
 10
157.016428
 20
97.933385
 30
0.0
 11
157.074306
 21
97.60403400000001
 31
0.0
  0
LINE
  5
1D1
330
A
100
AcDbEntity
  8
0
 62
     7
100
AcDbLine
 10
154.572822
 20
97.428678
 30
0.0
 11
154.636211
 21
97.10208299999999
 31
0.0
  0
LINE
  5
1D0
330
A
100
AcDbEntity
  8
0
 62
     7
100
AcDbLine
 10
154.864621
 20
97.01664499999999
 30
0.0
 11
154.783662
 21
97.000109
 31
0.0
  0
LINE
  5
1CF
330
A
100
AcDbEntity
  8
0
 62
     7
100
AcDbLine
 10
155.100266
 20
97.065221
 30
0.0
 11
154.864621
 21
97.01664499999999
 31
0.0
  0
LINE
  5
1CE
330
A
100
AcDbEntity
  8
0
 62
     7
100
AcDbLine
 10
155.454422
 20
97.13860099999999
 30
0.0
 11
155.100266
 21
97.065221
 31
0.0
  0
LINE
  5
1CD
330
A
100
AcDbEntity
  8
0
 62
     7
100
AcDbLine
 10
155.874034
 20
97.225073
 30
0.0
 11
155.454422
 21
97.13860099999999
 31
0.0
  0
LINE
  5
1CC
330
A
100
AcDbEntity
  8
0
 62
     7
100
AcDbLine
 10
156.294336
 20
97.31189
 30
0.0
 11
155.874034
 21
97.225073
 31
0.0
  0
LINE
  5
1CB
330
A
100
AcDbEntity
  8
0
 62
     7
100
AcDbLine
 10
156.651248
 20
97.38561500000001
 30
0.0
 11
156.294336
 21
97.31189
 31
0.0
  0
LINE
  5
1CA
330
A
100
AcDbEntity
  8
0
 62
     7
100
AcDbLine
 10
156.890337
 20
97.43522400000001
 30
0.0
 11
156.651248
 21
97.38561500000001
 31
0.0
  0
LINE
  5
1C9
330
A
100
AcDbEntity
  8
0
 62
     7
100
AcDbLine
 10
156.975776
 20
97.45279400000001
 30
0.0
 11
156.890337
 21
97.43522400000001
 31
0.0
  0
LINE
  5
1C8
330
A
100
AcDbEntity
  8
0
 62
     7
100
AcDbLine
 10
156.654004
 20
97.85862600000001
 30
0.0
 11
156.920999
 21
97.91374799999999
 31
0.0
  0
LINE
  5
1C7
330
A
100
AcDbEntity
  8
0
 62
     7
100
AcDbLine
 10
156.25644
 20
97.776633
 30
0.0
 11
156.654004
 21
97.85862600000001
 31
0.0
  0
LINE
  5
1C6
330
A
100
AcDbEntity
  8
0
 62
     7
100
AcDbLine
 10
155.788251
 20
97.67982600000001
 30
0.0
 11
156.25644
 21
97.776633
 31
0.0
  0
LINE
  5
1C5
330
A
100
AcDbEntity
  8
0
 62
     7
100
AcDbLine
 10
155.321441
 20
97.58336300000001
 30
0.0
 11
155.788251
 21
97.67982600000001
 31
0.0
  0
LINE
  5
1C4
330
A
100
AcDbEntity
  8
0
 62
     7
100
AcDbLine
 10
154.926289
 20
97.50171400000001
 30
0.0
 11
155.321441
 21
97.58336300000001
 31
0.0
  0
LINE
  5
1C3
330
A
100
AcDbEntity
  8
0
 62
     7
100
AcDbLine
 10
154.663428
 20
97.44762600000001
 30
0.0
 11
154.926289
 21
97.50171400000001
 31
0.0
  0
LINE
  5
1C2
330
A
100
AcDbEntity
  8
0
 62
     7
100
AcDbLine
 10
154.572822
 20
97.428678
 30
0.0
 11
154.663428
 21
97.44762600000001
 31
0.0
  0
LINE
  5
1C1
330
A
100
AcDbEntity
  8
0
 62
     7
100
AcDbLine
 10
154.668251
 20
97.44866000000001
 30
0.0
 11
154.572822
 21
97.428678
 31
0.0
  0
LINE
  5
1C0
330
A
100
AcDbEntity
  8
0
 62
     7
100
AcDbLine
 10
155.333154
 20
97.58577500000001
 30
0.0
 11
154.935246
 21
97.503781
 31
0.0
  0
LINE
  5
1BF
330
A
100
AcDbEntity
  8
0
 62
     7
100
AcDbLine
 10
157.016428
 20
97.933385
 30
0.0
 11
156.925822
 21
97.914781
 31
0.0
  0
LINE
  5
1BE
330
A
100
AcDbEntity
  8
0
 62
     7
100
AcDbLine
 10
156.920999
 20
97.91374799999999
 30
0.0
 11
157.016428
 21
97.933385
 31
0.0
  0
LINE
  5
1BD
330
A
100
AcDbEntity
  8
0
 62
     7
100
AcDbLine
 10
148.457433
 20
107.943282
 30
0.0
 11
148.545283
 21
107.524014
 31
0.0
  0
LINE
  5
1BC
330
A
100
AcDbEntity
  8
0
 62
     7
100
AcDbLine
 10
143.745748
 20
108.422495
 30
0.0
 11
143.585551
 21
108.024586
 31
0.0
  0
LINE
  5
1BB
330
A
100
AcDbEntity
  8
0
 62
     7
100
AcDbLine
 10
148.377162
 20
107.951378
 30
0.0
 11
148.457433
 21
107.943282
 31
0.0
  0
LINE
  5
1BA
330
A
100
AcDbEntity
  8
0
 62
     7
100
AcDbLine
 10
148.141862
 20
107.975321
 30
0.0
 11
148.377162
 21
107.951378
 31
0.0
  0
LINE
  5
1B9
330
A
100
AcDbEntity
  8
0
 62
     7
100
AcDbLine
 10
148.826058
 20
107.919855
 30
0.0
 11
148.742859
 21
107.914171
 31
0.0
  0
LINE
  5
1B8
330
A
100
AcDbEntity
  8
0
 62
     7
100
AcDbLine
 10
148.902539
 20
107.953273
 30
0.0
 11
148.826058
 21
107.919855
 31
0.0
  0
LINE
  5
1B7
330
A
100
AcDbEntity
  8
0
 62
     7
100
AcDbLine
 10
143.379879
 20
108.473827
 30
0.0
 11
143.460322
 21
108.451434
 31
0.0
  0
LINE
  5
1B6
330
A
100
AcDbEntity
  8
0
 62
     7
100
AcDbLine
 10
143.310977
 20
108.522058
 30
0.0
 11
143.379879
 21
108.473827
 31
0.0
  0
LINE
  5
1B5
330
A
100
AcDbEntity
  8
0
 62
     7
100
AcDbLine
 10
148.130665
 20
111.079525
 30
0.0
 11
148.195778
 21
111.059026
 31
0.0
  0
LINE
  5
1B4
330
A
100
AcDbEntity
  8
0
 62
     7
100
AcDbLine
 10
144.65887
 20
111.432647
 30
0.0
 11
144.591002
 21
111.425757
 31
0.0
  0
LINE
  5
1B3
330
A
100
AcDbEntity
  8
0
 62
     7
100
AcDbLine
 10
148.195778
 20
111.059026
 30
0.0
 11
148.248315
 21
111.014412
 31
0.0
  0
LINE
  5
1B2
330
A
100
AcDbEntity
  8
0
 62
     7
100
AcDbLine
 10
144.591002
 20
111.425757
 30
0.0
 11
144.531057
 21
111.392512
 31
0.0
  0
LINE
  5
1B1
330
A
100
AcDbEntity
  8
0
 62
     7
100
AcDbLine
 10
148.248315
 20
111.014412
 30
0.0
 11
148.280355
 21
110.952401
 31
0.0
  0
LINE
  5
1B0
330
A
100
AcDbEntity
  8
0
 62
     7
100
AcDbLine
 10
144.531057
 20
111.392512
 30
0.0
 11
144.487821
 21
111.338251
 31
0.0
  0
LINE
  5
1AF
330
A
100
AcDbEntity
  8
0
 62
     7
100
AcDbLine
 10
148.280355
 20
110.952401
 30
0.0
 11
148.287073
 21
110.882465
 31
0.0
  0
LINE
  5
1AE
330
A
100
AcDbEntity
  8
0
 62
     7
100
AcDbLine
 10
144.487821
 20
111.338251
 30
0.0
 11
144.468184
 21
111.2709
 31
0.0
  0
LINE
  5
1AD
330
A
100
AcDbEntity
  8
0
 62
     7
100
AcDbLine
 10
148.287073
 20
110.882465
 30
0.0
 11
148.267263
 21
110.815286
 31
0.0
  0
LINE
  5
1AC
330
A
100
AcDbEntity
  8
0
 62
     7
100
AcDbLine
 10
144.468184
 20
111.2709
 30
0.0
 11
144.47473
 21
111.200964
 31
0.0
  0
LINE
  5
1AB
330
A
100
AcDbEntity
  8
0
 62
     7
100
AcDbLine
 10
148.267263
 20
110.815286
 30
0.0
 11
148.2242
 21
110.760853
 31
0.0
  0
LINE
  5
1AA
330
A
100
AcDbEntity
  8
0
 62
     7
100
AcDbLine
 10
144.47473
 20
111.200964
 30
0.0
 11
144.506942
 21
111.138953
 31
0.0
  0
LINE
  5
1A9
330
A
100
AcDbEntity
  8
0
 62
     7
100
AcDbLine
 10
148.2242
 20
110.760853
 30
0.0
 11
148.164083
 21
110.72778
 31
0.0
  0
LINE
  5
1A8
330
A
100
AcDbEntity
  8
0
 62
     7
100
AcDbLine
 10
144.506942
 20
111.138953
 30
0.0
 11
144.559479
 21
111.094511
 31
0.0
  0
LINE
  5
1A7
330
A
100
AcDbEntity
  8
0
 62
     7
100
AcDbLine
 10
148.164083
 20
110.72778
 30
0.0
 11
148.096387
 21
110.72089
 31
0.0
  0
LINE
  5
1A6
330
A
100
AcDbEntity
  8
0
 62
     7
100
AcDbLine
 10
144.559479
 20
111.094511
 30
0.0
 11
144.6245919999999
 21
111.074013
 31
0.0
  0
LINE
  5
1A5
330
A
100
AcDbEntity
  8
0
 62
     7
100
AcDbLine
 10
146.360575
 20
110.897451
 30
0.0
 11
145.911163
 21
110.943099
 31
0.0
  0
LINE
  5
1A4
330
A
100
AcDbEntity
  8
0
 62
     7
100
AcDbLine
 10
146.809816
 20
110.851804
 30
0.0
 11
146.360575
 21
110.897451
 31
0.0
  0
LINE
  5
1A3
330
A
100
AcDbEntity
  8
0
 62
     7
100
AcDbLine
 10
147.228395
 20
110.809257
 30
0.0
 11
146.809816
 21
110.851804
 31
0.0
  0
LINE
  5
1A2
330
A
100
AcDbEntity
  8
0
 62
     7
100
AcDbLine
 10
147.587891
 20
110.772567
 30
0.0
 11
147.228395
 21
110.809257
 31
0.0
  0
LINE
  5
1A1
330
A
100
AcDbEntity
  8
0
 62
     7
100
AcDbLine
 10
147.863843
 20
110.744489
 30
0.0
 11
147.587891
 21
110.772567
 31
0.0
  0
LINE
  5
1A0
330
A
100
AcDbEntity
  8
0
 62
     7
100
AcDbLine
 10
148.037303
 20
110.726919
 30
0.0
 11
147.863843
 21
110.744489
 31
0.0
  0
LINE
  5
19F
330
A
100
AcDbEntity
  8
0
 62
     7
100
AcDbLine
 10
148.096387
 20
110.72089
 30
0.0
 11
148.037303
 21
110.726919
 31
0.0
  0
LINE
  5
19E
330
A
100
AcDbEntity
  8
0
 62
     7
100
AcDbLine
 10
144.683675
 20
111.067984
 30
0.0
 11
144.6245919999999
 21
111.074013
 31
0.0
  0
LINE
  5
19D
330
A
100
AcDbEntity
  8
0
 62
     7
100
AcDbLine
 10
144.857136
 20
111.050414
 30
0.0
 11
144.683675
 21
111.067984
 31
0.0
  0
LINE
  5
19C
330
A
100
AcDbEntity
  8
0
 62
     7
100
AcDbLine
 10
145.133088
 20
111.022336
 30
0.0
 11
144.857136
 21
111.050414
 31
0.0
  0
LINE
  5
19B
330
A
100
AcDbEntity
  8
0
 62
     7
100
AcDbLine
 10
145.492584
 20
110.985818
 30
0.0
 11
145.133088
 21
111.022336
 31
0.0
  0
LINE
  5
19A
330
A
100
AcDbEntity
  8
0
 62
     7
100
AcDbLine
 10
145.911163
 20
110.943099
 30
0.0
 11
145.492584
 21
110.985818
 31
0.0
  0
LINE
  5
199
330
A
100
AcDbEntity
  8
0
 62
     7
100
AcDbLine
 10
148.072099
 20
110.723474
 30
0.0
 11
148.0429879999999
 21
110.717273
 31
0.0
  0
LINE
  5
198
330
A
100
AcDbEntity
  8
0
 62
     7
100
AcDbLine
 10
144.649052
 20
111.071601
 30
0.0
 11
144.676268
 21
111.059715
 31
0.0
  0
LINE
  5
197
330
A
100
AcDbEntity
  8
0
 62
     7
100
AcDbLine
 10
144.878323
 20
111.048174
 30
0.0
 11
144.707274
 21
111.065572
 31
0.0
  0
LINE
  5
196
330
A
100
AcDbEntity
  8
0
 62
     7
100
AcDbLine
 10
146.795346
 20
110.844052
 30
0.0
 11
146.359714
 21
110.888494
 31
0.0
  0
LINE
  5
195
330
A
100
AcDbEntity
  8
0
 62
     7
100
AcDbLine
 10
147.201351
 20
110.802884
 30
0.0
 11
146.795346
 21
110.844052
 31
0.0
  0
LINE
  5
194
330
A
100
AcDbEntity
  8
0
 62
     7
100
AcDbLine
 10
147.549995
 20
110.767399
 30
0.0
 11
147.201351
 21
110.802884
 31
0.0
  0
LINE
  5
193
330
A
100
AcDbEntity
  8
0
 62
     7
100
AcDbLine
 10
147.817506
 20
110.740183
 30
0.0
 11
147.549995
 21
110.767399
 31
0.0
  0
LINE
  5
192
330
A
100
AcDbEntity
  8
0
 62
     7
100
AcDbLine
 10
147.985627
 20
110.72313
 30
0.0
 11
147.817506
 21
110.740183
 31
0.0
  0
LINE
  5
191
330
A
100
AcDbEntity
  8
0
 62
     7
100
AcDbLine
 10
148.0429879999999
 20
110.717273
 30
0.0
 11
147.985627
 21
110.72313
 31
0.0
  0
LINE
  5
190
330
A
100
AcDbEntity
  8
0
 62
     7
100
AcDbLine
 10
148.0429879999999
 20
110.717273
 30
0.0
 11
148.022489
 21
110.695224
 31
0.0
  0
LINE
  5
18F
330
A
100
AcDbEntity
  8
0
 62
     7
100
AcDbLine
 10
144.676268
 20
111.059715
 30
0.0
 11
144.692116
 21
111.033877
 31
0.0
  0
LINE
  5
18E
330
A
100
AcDbEntity
  8
0
 62
     7
100
AcDbLine
 10
144.733629
 20
111.053859
 30
0.0
 11
144.676268
 21
111.059715
 31
0.0
  0
LINE
  5
18D
330
A
100
AcDbEntity
  8
0
 62
     7
100
AcDbLine
 10
144.90175
 20
111.036806
 30
0.0
 11
144.733629
 21
111.053859
 31
0.0
  0
LINE
  5
18C
330
A
100
AcDbEntity
  8
0
 62
     7
100
AcDbLine
 10
145.169261
 20
111.009589
 30
0.0
 11
144.90175
 21
111.036806
 31
0.0
  0
LINE
  5
18B
330
A
100
AcDbEntity
  8
0
 62
     7
100
AcDbLine
 10
145.517905
 20
110.974105
 30
0.0
 11
145.169261
 21
111.009589
 31
0.0
  0
LINE
  5
18A
330
A
100
AcDbEntity
  8
0
 62
     7
100
AcDbLine
 10
145.92391
 20
110.932764
 30
0.0
 11
145.517905
 21
110.974105
 31
0.0
  0
LINE
  5
189
330
A
100
AcDbEntity
  8
0
 62
     7
100
AcDbLine
 10
146.359714
 20
110.888494
 30
0.0
 11
145.92391
 21
110.932764
 31
0.0
  0
LINE
  5
188
330
A
100
AcDbEntity
  8
0
 62
     7
100
AcDbLine
 10
148.022489
 20
110.695224
 30
0.0
 11
147.941013
 21
110.590149
 31
0.0
  0
LINE
  5
187
330
A
100
AcDbEntity
  8
0
 62
     7
100
AcDbLine
 10
144.692116
 20
111.033877
 30
0.0
 11
144.752405
 21
110.914505
 31
0.0
  0
LINE
  5
186
330
A
100
AcDbEntity
  8
0
 62
     7
100
AcDbLine
 10
147.941013
 20
110.590149
 30
0.0
 11
147.858675
 21
110.48249
 31
0.0
  0
LINE
  5
185
330
A
100
AcDbEntity
  8
0
 62
     7
100
AcDbLine
 10
144.752405
 20
110.914505
 30
0.0
 11
144.812694
 21
110.792376
 31
0.0
  0
LINE
  5
184
330
A
100
AcDbEntity
  8
0
 62
     7
100
AcDbLine
 10
147.858675
 20
110.48249
 30
0.0
 11
147.80252
 21
110.365873
 31
0.0
  0
LINE
  5
183
330
A
100
AcDbEntity
  8
0
 62
     7
100
AcDbLine
 10
144.812694
 20
110.792376
 30
0.0
 11
144.845767
 21
110.66663
 31
0.0
  0
LINE
  5
182
330
A
100
AcDbEntity
  8
0
 62
     7
100
AcDbLine
 10
147.80252
 20
110.365873
 30
0.0
 11
147.799592
 21
110.233926
 31
0.0
  0
LINE
  5
181
330
A
100
AcDbEntity
  8
0
 62
     7
100
AcDbLine
 10
144.845767
 20
110.66663
 30
0.0
 11
144.823718
 21
110.536578
 31
0.0
  0
LINE
  5
180
330
A
100
AcDbEntity
  8
0
 62
     7
100
AcDbLine
 10
147.799592
 20
110.233926
 30
0.0
 11
147.862981
 21
110.103185
 31
0.0
  0
LINE
  5
17F
330
A
100
AcDbEntity
  8
0
 62
     7
100
AcDbLine
 10
144.823718
 20
110.536578
 30
0.0
 11
144.736902
 21
110.421167
 31
0.0
  0
LINE
  5
17E
330
A
100
AcDbEntity
  8
0
 62
     7
100
AcDbLine
 10
147.862981
 20
110.103185
 30
0.0
 11
148.086396
 21
109.948844
 31
0.0
  0
LINE
  5
17D
330
A
100
AcDbEntity
  8
0
 62
     7
100
AcDbLine
 10
144.736902
 20
110.421167
 30
0.0
 11
144.48851
 21
110.314714
 31
0.0
  0
LINE
  5
17C
330
A
100
AcDbEntity
  8
0
 62
     7
100
AcDbLine
 10
148.086396
 20
109.948844
 30
0.0
 11
148.365104
 21
109.780379
 31
0.0
  0
LINE
  5
17B
330
A
100
AcDbEntity
  8
0
 62
     7
100
AcDbLine
 10
144.48851
 20
110.314714
 30
0.0
 11
144.183275
 21
110.205676
 31
0.0
  0
LINE
  5
17A
330
A
100
AcDbEntity
  8
0
 62
     7
100
AcDbLine
 10
148.365104
 20
109.780379
 30
0.0
 11
148.569054
 21
109.638441
 31
0.0
  0
LINE
  5
179
330
A
100
AcDbEntity
  8
0
 62
     7
100
AcDbLine
 10
144.183275
 20
110.205676
 30
0.0
 11
143.9565879999999
 21
110.107663
 31
0.0
  0
LINE
  5
178
330
A
100
AcDbEntity
  8
0
 62
     7
100
AcDbLine
 10
148.569054
 20
109.638441
 30
0.0
 11
148.797636
 21
109.432769
 31
0.0
  0
LINE
  5
177
330
A
100
AcDbEntity
  8
0
 62
     7
100
AcDbLine
 10
143.9565879999999
 20
110.107663
 30
0.0
 11
143.693555
 21
109.951945
 31
0.0
  0
LINE
  5
176
330
A
100
AcDbEntity
  8
0
 62
     7
100
AcDbLine
 10
148.797636
 20
109.432769
 30
0.0
 11
149.022428
 21
109.195574
 31
0.0
  0
LINE
  5
175
330
A
100
AcDbEntity
  8
0
 62
     7
100
AcDbLine
 10
143.693555
 20
109.951945
 30
0.0
 11
143.428282
 21
109.764532
 31
0.0
  0
LINE
  5
174
330
A
100
AcDbEntity
  8
0
 62
     7
100
AcDbLine
 10
149.022428
 20
109.195574
 30
0.0
 11
149.198128
 21
108.941498
 31
0.0
  0
LINE
  5
173
330
A
100
AcDbEntity
  8
0
 62
     7
100
AcDbLine
 10
143.428282
 20
109.764532
 30
0.0
 11
143.207968
 21
109.550764
 31
0.0
  0
LINE
  5
172
330
A
100
AcDbEntity
  8
0
 62
     7
100
AcDbLine
 10
149.198128
 20
108.941498
 30
0.0
 11
149.274609
 21
108.635746
 31
0.0
  0
LINE
  5
171
330
A
100
AcDbEntity
  8
0
 62
     7
100
AcDbLine
 10
143.207968
 20
109.550764
 30
0.0
 11
143.074988
 21
109.266371
 31
0.0
  0
LINE
  5
170
330
A
100
AcDbEntity
  8
0
 62
     7
100
AcDbLine
 10
149.274609
 20
108.635746
 30
0.0
 11
149.248771
 21
108.40682
 31
0.0
  0
LINE
  5
16F
330
A
100
AcDbEntity
  8
0
 62
     7
100
AcDbLine
 10
143.074988
 20
109.266371
 30
0.0
 11
143.057246
 21
109.036583
 31
0.0
  0
LINE
  5
16E
330
A
100
AcDbEntity
  8
0
 62
     7
100
AcDbLine
 10
149.248771
 20
108.40682
 30
0.0
 11
149.160577
 21
108.200114
 31
0.0
  0
LINE
  5
16D
330
A
100
AcDbEntity
  8
0
 62
     7
100
AcDbLine
 10
143.057246
 20
109.036583
 30
0.0
 11
143.104788
 21
108.816097
 31
0.0
  0
LINE
  5
16C
330
A
100
AcDbEntity
  8
0
 62
     7
100
AcDbLine
 10
149.160577
 20
108.200114
 30
0.0
 11
149.018294
 21
108.02872
 31
0.0
  0
LINE
  5
16B
330
A
100
AcDbEntity
  8
0
 62
     7
100
AcDbLine
 10
143.104788
 20
108.816097
 30
0.0
 11
143.21193
 21
108.61921
 31
0.0
  0
LINE
  5
16A
330
A
100
AcDbEntity
  8
0
 62
     7
100
AcDbLine
 10
149.018294
 20
108.02872
 30
0.0
 11
148.902539
 21
107.953273
 31
0.0
  0
LINE
  5
169
330
A
100
AcDbEntity
  8
0
 62
     7
100
AcDbLine
 10
143.21193
 20
108.61921
 30
0.0
 11
143.310977
 21
108.522058
 31
0.0
  0
LINE
  5
168
330
A
100
AcDbEntity
  8
0
 62
     7
100
AcDbLine
 10
148.07141
 20
111.085381
 30
0.0
 11
148.130665
 21
111.079525
 31
0.0
  0
LINE
  5
167
330
A
100
AcDbEntity
  8
0
 62
     7
100
AcDbLine
 10
147.897949
 20
111.103124
 30
0.0
 11
148.07141
 21
111.085381
 31
0.0
  0
LINE
  5
166
330
A
100
AcDbEntity
  8
0
 62
     7
100
AcDbLine
 10
147.622169
 20
111.131201
 30
0.0
 11
147.897949
 21
111.103124
 31
0.0
  0
LINE
  5
165
330
A
100
AcDbEntity
  8
0
 62
     7
100
AcDbLine
 10
147.262674
 20
111.167719
 30
0.0
 11
147.622169
 21
111.131201
 31
0.0
  0
LINE
  5
164
330
A
100
AcDbEntity
  8
0
 62
     7
100
AcDbLine
 10
146.843922
 20
111.210266
 30
0.0
 11
147.262674
 21
111.167719
 31
0.0
  0
LINE
  5
163
330
A
100
AcDbEntity
  8
0
 62
     7
100
AcDbLine
 10
146.394682
 20
111.256086
 30
0.0
 11
146.843922
 21
111.210266
 31
0.0
  0
LINE
  5
162
330
A
100
AcDbEntity
  8
0
 62
     7
100
AcDbLine
 10
145.945441
 20
111.301733
 30
0.0
 11
146.394682
 21
111.256086
 31
0.0
  0
LINE
  5
161
330
A
100
AcDbEntity
  8
0
 62
     7
100
AcDbLine
 10
145.52669
 20
111.34428
 30
0.0
 11
145.945441
 21
111.301733
 31
0.0
  0
LINE
  5
160
330
A
100
AcDbEntity
  8
0
 62
     7
100
AcDbLine
 10
145.167194
 20
111.380798
 30
0.0
 11
145.52669
 21
111.34428
 31
0.0
  0
LINE
  5
15F
330
A
100
AcDbEntity
  8
0
 62
     7
100
AcDbLine
 10
144.891414
 20
111.408876
 30
0.0
 11
145.167194
 21
111.380798
 31
0.0
  0
LINE
  5
15E
330
A
100
AcDbEntity
  8
0
 62
     7
100
AcDbLine
 10
144.717954
 20
111.426618
 30
0.0
 11
144.891414
 21
111.408876
 31
0.0
  0
LINE
  5
15D
330
A
100
AcDbEntity
  8
0
 62
     7
100
AcDbLine
 10
144.65887
 20
111.432647
 30
0.0
 11
144.717954
 21
111.426618
 31
0.0
  0
LINE
  5
15C
330
A
100
AcDbEntity
  8
0
 62
     7
100
AcDbLine
 10
143.550411
 20
108.442304
 30
0.0
 11
143.460322
 21
108.451434
 31
0.0
  0
LINE
  5
15B
330
A
100
AcDbEntity
  8
0
 62
     7
100
AcDbLine
 10
143.814133
 20
108.415432
 30
0.0
 11
143.550411
 21
108.442304
 31
0.0
  0
LINE
  5
15A
330
A
100
AcDbEntity
  8
0
 62
     7
100
AcDbLine
 10
144.233918
 20
108.372713
 30
0.0
 11
143.814133
 21
108.415432
 31
0.0
  0
LINE
  5
159
330
A
100
AcDbEntity
  8
0
 62
     7
100
AcDbLine
 10
144.780999
 20
108.317075
 30
0.0
 11
144.233918
 21
108.372713
 31
0.0
  0
LINE
  5
158
330
A
100
AcDbEntity
  8
0
 62
     7
100
AcDbLine
 10
145.417997
 20
108.252307
 30
0.0
 11
144.780999
 21
108.317075
 31
0.0
  0
LINE
  5
157
330
A
100
AcDbEntity
  8
0
 62
     7
100
AcDbLine
 10
146.101676
 20
108.182888
 30
0.0
 11
145.417997
 21
108.252307
 31
0.0
  0
LINE
  5
156
330
A
100
AcDbEntity
  8
0
 62
     7
100
AcDbLine
 10
146.785183
 20
108.113298
 30
0.0
 11
146.101676
 21
108.182888
 31
0.0
  0
LINE
  5
155
330
A
100
AcDbEntity
  8
0
 62
     7
100
AcDbLine
 10
147.422182
 20
108.04853
 30
0.0
 11
146.785183
 21
108.113298
 31
0.0
  0
LINE
  5
154
330
A
100
AcDbEntity
  8
0
 62
     7
100
AcDbLine
 10
147.969263
 20
107.992891
 30
0.0
 11
147.422182
 21
108.04853
 31
0.0
  0
LINE
  5
153
330
A
100
AcDbEntity
  8
0
 62
     7
100
AcDbLine
 10
148.389048
 20
107.950172
 30
0.0
 11
147.969263
 21
107.992891
 31
0.0
  0
LINE
  5
152
330
A
100
AcDbEntity
  8
0
 62
     7
100
AcDbLine
 10
148.65277
 20
107.923301
 30
0.0
 11
148.389048
 21
107.950172
 31
0.0
  0
LINE
  5
151
330
A
100
AcDbEntity
  8
0
 62
     7
100
AcDbLine
 10
148.742859
 20
107.914171
 30
0.0
 11
148.65277
 21
107.923301
 31
0.0
  0
LINE
  5
150
330
A
100
AcDbEntity
  8
0
 62
     7
100
AcDbLine
 10
150.103155
 20
111.766821
 30
0.0
 11
149.810666
 21
111.687067
 31
0.0
  0
LINE
  5
14F
330
A
100
AcDbEntity
  8
0
 62
     7
100
AcDbLine
 10
150.392887
 20
111.84158
 30
0.0
 11
150.103155
 21
111.766821
 31
0.0
  0
LINE
  5
14E
330
A
100
AcDbEntity
  8
0
 62
     7
100
AcDbLine
 10
150.68572
 20
111.906864
 30
0.0
 11
150.392887
 21
111.84158
 31
0.0
  0
LINE
  5
14D
330
A
100
AcDbEntity
  8
0
 62
     7
100
AcDbLine
 10
150.975109
 20
111.965776
 30
0.0
 11
150.68572
 21
111.906864
 31
0.0
  0
LINE
  5
14C
330
A
100
AcDbEntity
  8
0
 62
     7
100
AcDbLine
 10
151.256917
 20
112.019691
 30
0.0
 11
150.975109
 21
111.965776
 31
0.0
  0
LINE
  5
14B
330
A
100
AcDbEntity
  8
0
 62
     7
100
AcDbLine
 10
151.524601
 20
112.058793
 30
0.0
 11
151.256917
 21
112.019691
 31
0.0
  0
LINE
  5
14A
330
A
100
AcDbEntity
  8
0
 62
     7
100
AcDbLine
 10
151.788151
 20
112.074124
 30
0.0
 11
151.524601
 21
112.058793
 31
0.0
  0
LINE
  5
149
330
A
100
AcDbEntity
  8
0
 62
     7
100
AcDbLine
 10
152.138517
 20
112.060171
 30
0.0
 11
151.788151
 21
112.074124
 31
0.0
  0
LINE
  5
148
330
A
100
AcDbEntity
  8
0
 62
     7
100
AcDbLine
 10
152.485094
 20
112.01039
 30
0.0
 11
152.138517
 21
112.060171
 31
0.0
  0
LINE
  5
147
330
A
100
AcDbEntity
  8
0
 62
     7
100
AcDbLine
 10
152.822024
 20
111.924262
 30
0.0
 11
152.485094
 21
112.01039
 31
0.0
  0
LINE
  5
146
330
A
100
AcDbEntity
  8
0
 62
     7
100
AcDbLine
 10
153.146897
 20
111.815397
 30
0.0
 11
152.822024
 21
111.924262
 31
0.0
  0
LINE
  5
145
330
A
100
AcDbEntity
  8
0
 62
     7
100
AcDbLine
 10
153.310883
 20
111.748735
 30
0.0
 11
153.146897
 21
111.815397
 31
0.0
  0
LINE
  5
144
330
A
100
AcDbEntity
  8
0
 62
     7
100
AcDbLine
 10
153.481415
 20
111.667947
 30
0.0
 11
153.310883
 21
111.748735
 31
0.0
  0
LINE
  5
143
330
A
100
AcDbEntity
  8
0
 62
     7
100
AcDbLine
 10
153.668484
 20
111.561494
 30
0.0
 11
153.481415
 21
111.667947
 31
0.0
  0
LINE
  5
142
330
A
100
AcDbEntity
  8
0
 62
     7
100
AcDbLine
 10
153.872434
 20
111.459174
 30
0.0
 11
153.668484
 21
111.561494
 31
0.0
  0
LINE
  5
141
330
A
100
AcDbEntity
  8
0
 62
     7
100
AcDbLine
 10
154.116347
 20
111.344797
 30
0.0
 11
153.872434
 21
111.459174
 31
0.0
  0
LINE
  5
140
330
A
100
AcDbEntity
  8
0
 62
     7
100
AcDbLine
 10
153.871745
 20
112.311146
 30
0.0
 11
154.071905
 21
112.189018
 31
0.0
  0
LINE
  5
13F
330
A
100
AcDbEntity
  8
0
 62
     7
100
AcDbLine
 10
154.071905
 20
112.189018
 30
0.0
 11
154.327531
 21
111.960952
 31
0.0
  0
LINE
  5
13E
330
A
100
AcDbEntity
  8
0
 62
     7
100
AcDbLine
 10
154.115313
 20
112.15026
 30
0.0
 11
154.071905
 21
112.189018
 31
0.0
  0
LINE
  5
13D
330
A
100
AcDbEntity
  8
0
 62
     7
100
AcDbLine
 10
154.327531
 20
111.960952
 30
0.0
 11
154.577989
 21
111.761309
 31
0.0
  0
LINE
  5
13C
330
A
100
AcDbEntity
  8
0
 62
     7
100
AcDbLine
 10
154.577989
 20
111.761309
 30
0.0
 11
154.639312
 21
111.7117
 31
0.0
  0
LINE
  5
13B
330
A
100
AcDbEntity
  8
0
 62
     7
100
AcDbLine
 10
154.639312
 20
111.7117
 30
0.0
 11
154.661705
 21
111.693613
 31
0.0
  0
LINE
  5
13A
330
A
100
AcDbEntity
  8
0
 62
     7
100
AcDbLine
 10
154.719583
 20
111.381487
 30
0.0
 11
154.734052
 21
111.442982
 31
0.0
  0
LINE
  5
139
330
A
100
AcDbEntity
  8
0
 62
     7
100
AcDbLine
 10
154.734397
 20
111.4466
 30
0.0
 11
154.734397
 21
111.541512
 31
0.0
  0
LINE
  5
138
330
A
100
AcDbEntity
  8
0
 62
     7
100
AcDbLine
 10
154.734052
 20
111.442982
 30
0.0
 11
154.734397
 21
111.4466
 31
0.0
  0
LINE
  5
137
330
A
100
AcDbEntity
  8
0
 62
     7
100
AcDbLine
 10
154.734397
 20
111.541512
 30
0.0
 11
154.706491
 21
111.624539
 31
0.0
  0
LINE
  5
136
330
A
100
AcDbEntity
  8
0
 62
     7
100
AcDbLine
 10
154.706491
 20
111.624539
 30
0.0
 11
154.661705
 21
111.693613
 31
0.0
  0
LINE
  5
135
330
A
100
AcDbEntity
  8
0
 62
     7
100
AcDbLine
 10
154.719583
 20
111.381487
 30
0.0
 11
154.687543
 21
111.333256
 31
0.0
  0
LINE
  5
134
330
A
100
AcDbEntity
  8
0
 62
     7
100
AcDbLine
 10
154.678931
 20
111.327227
 30
0.0
 11
154.687543
 21
111.333256
 31
0.0
  0
LINE
  5
133
330
A
100
AcDbEntity
  8
0
 62
     7
100
AcDbLine
 10
154.597626
 20
111.290537
 30
0.0
 11
154.678931
 21
111.327227
 31
0.0
  0
LINE
  5
132
330
A
100
AcDbEntity
  8
0
 62
     7
100
AcDbLine
 10
154.490828
 20
111.274
 30
0.0
 11
154.597626
 21
111.290537
 31
0.0
  0
LINE
  5
131
330
A
100
AcDbEntity
  8
0
 62
     7
100
AcDbLine
 10
154.490828
 20
111.274
 30
0.0
 11
154.356814
 21
111.271072
 31
0.0
  0
LINE
  5
130
330
A
100
AcDbEntity
  8
0
 62
     7
100
AcDbLine
 10
148.030758
 20
111.130684
 30
0.0
 11
148.337199
 21
111.178571
 31
0.0
  0
LINE
  5
12F
330
A
100
AcDbEntity
  8
0
 62
     7
100
AcDbLine
 10
148.337199
 20
111.178571
 30
0.0
 11
148.644329
 21
111.273828
 31
0.0
  0
LINE
  5
12E
330
A
100
AcDbEntity
  8
0
 62
     7
100
AcDbLine
 10
148.644329
 20
111.273828
 30
0.0
 11
148.944569
 21
111.386827
 31
0.0
  0
LINE
  5
12D
330
A
100
AcDbEntity
  8
0
 62
     7
100
AcDbLine
 10
148.944569
 20
111.386827
 30
0.0
 11
149.233613
 21
111.498793
 31
0.0
  0
LINE
  5
12C
330
A
100
AcDbEntity
  8
0
 62
     7
100
AcDbLine
 10
149.233613
 20
111.498793
 30
0.0
 11
149.519211
 21
111.606108
 31
0.0
  0
LINE
  5
12B
330
A
100
AcDbEntity
  8
0
 62
     7
100
AcDbLine
 10
149.519211
 20
111.606108
 30
0.0
 11
149.810666
 21
111.686378
 31
0.0
  0
LINE
  5
12A
330
A
100
AcDbEntity
  8
0
 62
     7
100
AcDbLine
 10
149.810666
 20
111.686378
 30
0.0
 11
150.103499
 21
111.766821
 31
0.0
  0
LINE
  5
129
330
A
100
AcDbEntity
  8
0
 62
     7
100
AcDbLine
 10
147.831631
 20
111.11811
 30
0.0
 11
148.030758
 21
111.130684
 31
0.0
  0
LINE
  5
128
330
A
100
AcDbEntity
  8
0
 62
     7
100
AcDbLine
 10
148.214726
 20
111.905659
 30
0.0
 11
147.780644
 21
111.922195
 31
0.0
  0
LINE
  5
127
330
A
100
AcDbEntity
  8
0
 62
     7
100
AcDbLine
 10
148.492228
 20
111.99058
 30
0.0
 11
148.21731
 21
111.906003
 31
0.0
  0
LINE
  5
126
330
A
100
AcDbEntity
  8
0
 62
     7
100
AcDbLine
 10
148.77042
 20
112.098067
 30
0.0
 11
148.492228
 21
111.99058
 31
0.0
  0
LINE
  5
125
330
A
100
AcDbEntity
  8
0
 62
     7
100
AcDbLine
 10
149.052401
 20
112.213822
 30
0.0
 11
148.77042
 21
112.098067
 31
0.0
  0
LINE
  5
124
330
A
100
AcDbEntity
  8
0
 62
     7
100
AcDbLine
 10
149.336621
 20
112.331472
 30
0.0
 11
149.052401
 21
112.213822
 31
0.0
  0
LINE
  5
123
330
A
100
AcDbEntity
  8
0
 62
     7
100
AcDbLine
 10
149.627387
 20
112.42828
 30
0.0
 11
149.336621
 21
112.331472
 31
0.0
  0
LINE
  5
122
330
A
100
AcDbEntity
  8
0
 62
     7
100
AcDbLine
 10
149.918153
 20
112.531977
 30
0.0
 11
149.627387
 21
112.42828
 31
0.0
  0
LINE
  5
121
330
A
100
AcDbEntity
  8
0
 62
     7
100
AcDbLine
 10
150.213398
 20
112.637052
 30
0.0
 11
149.918153
 21
112.531977
 31
0.0
  0
LINE
  5
120
330
A
100
AcDbEntity
  8
0
 62
     7
100
AcDbLine
 10
150.513121
 20
112.730242
 30
0.0
 11
150.213398
 21
112.637052
 31
0.0
  0
LINE
  5
11F
330
A
100
AcDbEntity
  8
0
 62
     7
100
AcDbLine
 10
150.80182
 20
112.807929
 30
0.0
 11
150.513121
 21
112.730242
 31
0.0
  0
LINE
  5
11E
330
A
100
AcDbEntity
  8
0
 62
     7
100
AcDbLine
 10
151.092586
 20
112.880793
 30
0.0
 11
150.80182
 21
112.807929
 31
0.0
  0
LINE
  5
11D
330
A
100
AcDbEntity
  8
0
 62
     7
100
AcDbLine
 10
151.389898
 20
112.943838
 30
0.0
 11
151.092586
 21
112.880793
 31
0.0
  0
LINE
  5
11C
330
A
100
AcDbEntity
  8
0
 62
     7
100
AcDbLine
 10
151.692722
 20
112.983629
 30
0.0
 11
151.389898
 21
112.943838
 31
0.0
  0
LINE
  5
11B
330
A
100
AcDbEntity
  8
0
 62
     7
100
AcDbLine
 10
152.076161
 20
112.999993
 30
0.0
 11
151.692722
 21
112.983629
 31
0.0
  0
LINE
  5
11A
330
A
100
AcDbEntity
  8
0
 62
     7
100
AcDbLine
 10
152.459256
 20
112.974327
 30
0.0
 11
152.076161
 21
112.999993
 31
0.0
  0
LINE
  5
119
330
A
100
AcDbEntity
  8
0
 62
     7
100
AcDbLine
 10
152.841661
 20
112.872869
 30
0.0
 11
152.459256
 21
112.974327
 31
0.0
  0
LINE
  5
118
330
A
100
AcDbEntity
  8
0
 62
     7
100
AcDbLine
 10
153.221311
 20
112.687868
 30
0.0
 11
152.841661
 21
112.872869
 31
0.0
  0
LINE
  5
117
330
A
100
AcDbEntity
  8
0
 62
     7
100
AcDbLine
 10
153.451788
 20
112.563327
 30
0.0
 11
153.221311
 21
112.687868
 31
0.0
  0
LINE
  5
116
330
A
100
AcDbEntity
  8
0
 62
     7
100
AcDbLine
 10
153.667106
 20
112.438787
 30
0.0
 11
153.451788
 21
112.563327
 31
0.0
  0
LINE
  5
115
330
A
100
AcDbEntity
  8
0
 62
     7
100
AcDbLine
 10
153.867266
 20
112.314247
 30
0.0
 11
153.667106
 21
112.438787
 31
0.0
  0
LINE
  5
114
330
A
100
AcDbEntity
  8
0
 62
     7
100
AcDbLine
 10
153.867266
 20
112.314247
 30
0.0
 11
153.871745
 21
112.311146
 31
0.0
  0
LINE
  5
113
330
A
100
AcDbEntity
  8
0
 62
     7
100
AcDbLine
 10
150.392887
 20
111.84158
 30
0.0
 11
150.68572
 21
111.906864
 31
0.0
  0
LINE
  5
112
330
A
100
AcDbEntity
  8
0
 62
     7
100
AcDbLine
 10
154.678931
 20
111.327227
 30
0.0
 11
154.597626
 21
111.290537
 31
0.0
  0
LINE
  5
111
330
A
100
AcDbEntity
  8
0
 62
     7
100
AcDbLine
 10
154.116347
 20
111.344797
 30
0.0
 11
154.351302
 21
111.27245
 31
0.0
  0
LINE
  5
110
330
A
100
AcDbEntity
  8
0
 62
     7
100
AcDbLine
 10
144.863854
 20
111.440226
 30
0.0
 11
144.959283
 21
111.410254
 31
0.0
  0
LINE
  5
10F
330
A
100
AcDbEntity
  8
0
 62
     7
100
AcDbLine
 10
144.789612
 20
111.503271
 30
0.0
 11
144.863854
 21
111.440226
 31
0.0
  0
LINE
  5
10E
330
A
100
AcDbEntity
  8
0
 62
     7
100
AcDbLine
 10
144.743792
 20
111.590088
 30
0.0
 11
144.789612
 21
111.503271
 31
0.0
  0
LINE
  5
10D
330
A
100
AcDbEntity
  8
0
 62
     7
100
AcDbLine
 10
144.733629
 20
111.691718
 30
0.0
 11
144.743792
 21
111.590088
 31
0.0
  0
LINE
  5
10C
330
A
100
AcDbEntity
  8
0
 62
     7
100
AcDbLine
 10
144.7872
 20
112.04553
 30
0.0
 11
144.758089
 21
111.947861
 31
0.0
  0
LINE
  5
10B
330
A
100
AcDbEntity
  8
0
 62
     7
100
AcDbLine
 10
144.848523
 20
112.121494
 30
0.0
 11
144.7872
 21
112.04553
 31
0.0
  0
LINE
  5
10A
330
A
100
AcDbEntity
  8
0
 62
     7
100
AcDbLine
 10
144.933272
 20
112.168347
 30
0.0
 11
144.848523
 21
112.121494
 31
0.0
  0
LINE
  5
109
330
A
100
AcDbEntity
  8
0
 62
     7
100
AcDbLine
 10
145.032491
 20
112.17851
 30
0.0
 11
144.933272
 21
112.168347
 31
0.0
  0
LINE
  5
108
330
A
100
AcDbEntity
  8
0
 62
     7
100
AcDbLine
 10
144.758089
 20
111.947861
 30
0.0
 11
144.733629
 21
111.691718
 31
0.0
  0
LINE
  5
107
330
A
100
AcDbEntity
  8
0
 62
     7
100
AcDbLine
 10
145.032491
 20
112.17851
 30
0.0
 11
145.162371
 21
112.193841
 31
0.0
  0
LINE
  5
106
330
A
100
AcDbEntity
  8
0
 62
     7
100
AcDbLine
 10
147.831631
 20
111.11811
 30
0.0
 11
147.782711
 21
111.123105
 31
0.0
  0
LINE
  5
105
330
A
100
AcDbEntity
  8
0
 62
     7
100
AcDbLine
 10
145.008203
 20
111.405259
 30
0.0
 11
144.959283
 21
111.410254
 31
0.0
  0
LINE
  5
104
330
A
100
AcDbEntity
  8
0
 62
     7
100
AcDbLine
 10
146.471507
 20
112.060688
 30
0.0
 11
146.810333
 21
112.026237
 31
0.0
  0
LINE
  5
103
330
A
100
AcDbEntity
  8
0
 62
     7
100
AcDbLine
 10
146.810333
 20
112.026237
 30
0.0
 11
147.125903
 21
111.994198
 31
0.0
  0
LINE
  5
102
330
A
100
AcDbEntity
  8
0
 62
     7
100
AcDbLine
 10
147.125903
 20
111.994198
 30
0.0
 11
147.397032
 21
111.966465
 31
0.0
  0
LINE
  5
101
330
A
100
AcDbEntity
  8
0
 62
     7
100
AcDbLine
 10
147.397032
 20
111.966465
 30
0.0
 11
147.605116
 21
111.945449
 31
0.0
  0
LINE
  5
100
330
A
100
AcDbEntity
  8
0
 62
     7
100
AcDbLine
 10
147.605116
 20
111.945449
 30
0.0
 11
147.735857
 21
111.932014
 31
0.0
  0
LINE
  5
FF
330
A
100
AcDbEntity
  8
0
 62
     7
100
AcDbLine
 10
147.735857
 20
111.932014
 30
0.0
 11
147.780471
 21
111.927535
 31
0.0
  0
LINE
  5
FE
330
A
100
AcDbEntity
  8
0
 62
     7
100
AcDbLine
 10
147.780988
 20
111.981623
 30
0.0
 11
147.780471
 21
111.927535
 31
0.0
  0
LINE
  5
FD
330
A
100
AcDbEntity
  8
0
 62
     7
100
AcDbLine
 10
145.162371
 20
112.193841
 30
0.0
 11
145.206985
 21
112.189362
 31
0.0
  0
LINE
  5
FC
330
A
100
AcDbEntity
  8
0
 62
     7
100
AcDbLine
 10
145.1720169999999
 20
112.246895
 30
0.0
 11
145.162371
 21
112.193841
 31
0.0
  0
LINE
  5
FB
330
A
100
AcDbEntity
  8
0
 62
     7
100
AcDbLine
 10
145.206985
 20
112.189362
 30
0.0
 11
145.337727
 21
112.175926
 31
0.0
  0
LINE
  5
FA
330
A
100
AcDbEntity
  8
0
 62
     7
100
AcDbLine
 10
145.337727
 20
112.175926
 30
0.0
 11
145.54581
 21
112.154911
 31
0.0
  0
LINE
  5
F9
330
A
100
AcDbEntity
  8
0
 62
     7
100
AcDbLine
 10
145.54581
 20
112.154911
 30
0.0
 11
145.816939
 21
112.127178
 31
0.0
  0
LINE
  5
F8
330
A
100
AcDbEntity
  8
0
 62
     7
100
AcDbLine
 10
145.816939
 20
112.127178
 30
0.0
 11
146.132682
 21
112.095139
 31
0.0
  0
LINE
  5
F7
330
A
100
AcDbEntity
  8
0
 62
     7
100
AcDbLine
 10
146.132682
 20
112.095139
 30
0.0
 11
146.471507
 21
112.060688
 31
0.0
  0
LINE
  5
F6
330
A
100
AcDbEntity
  8
0
 62
     7
100
AcDbLine
 10
147.590647
 20
112.247412
 30
0.0
 11
147.710364
 21
112.102029
 31
0.0
  0
LINE
  5
F5
330
A
100
AcDbEntity
  8
0
 62
     7
100
AcDbLine
 10
147.423043
 20
112.365751
 30
0.0
 11
147.590647
 21
112.247412
 31
0.0
  0
LINE
  5
F4
330
A
100
AcDbEntity
  8
0
 62
     7
100
AcDbLine
 10
147.218921
 20
112.450845
 30
0.0
 11
147.423043
 21
112.365751
 31
0.0
  0
LINE
  5
F3
330
A
100
AcDbEntity
  8
0
 62
     7
100
AcDbLine
 10
146.988961
 20
112.496665
 30
0.0
 11
147.218921
 21
112.450845
 31
0.0
  0
LINE
  5
F2
330
A
100
AcDbEntity
  8
0
 62
     7
100
AcDbLine
 10
145.40904
 20
112.469276
 30
0.0
 11
145.264174
 21
112.350765
 31
0.0
  0
LINE
  5
F1
330
A
100
AcDbEntity
  8
0
 62
     7
100
AcDbLine
 10
145.595592
 20
112.551614
 30
0.0
 11
145.40904
 21
112.469276
 31
0.0
  0
LINE
  5
F0
330
A
100
AcDbEntity
  8
0
 62
     7
100
AcDbLine
 10
145.811944
 20
112.593816
 30
0.0
 11
145.595592
 21
112.551614
 31
0.0
  0
LINE
  5
EF
330
A
100
AcDbEntity
  8
0
 62
     7
100
AcDbLine
 10
146.04621
 20
112.592611
 30
0.0
 11
145.811944
 21
112.593816
 31
0.0
  0
LINE
  5
EE
330
A
100
AcDbEntity
  8
0
 62
     7
100
AcDbLine
 10
147.710364
 20
112.102029
 30
0.0
 11
147.780988
 21
111.981623
 31
0.0
  0
LINE
  5
ED
330
A
100
AcDbEntity
  8
0
 62
     7
100
AcDbLine
 10
145.264174
 20
112.350765
 30
0.0
 11
145.1720169999999
 21
112.246895
 31
0.0
  0
LINE
  5
EC
330
A
100
AcDbEntity
  8
0
 62
     7
100
AcDbLine
 10
146.972941
 20
112.498387
 30
0.0
 11
146.988961
 21
112.496665
 31
0.0
  0
LINE
  5
EB
330
A
100
AcDbEntity
  8
0
 62
     7
100
AcDbLine
 10
146.925916
 20
112.50321
 30
0.0
 11
146.972941
 21
112.498387
 31
0.0
  0
LINE
  5
EA
330
A
100
AcDbEntity
  8
0
 62
     7
100
AcDbLine
 10
146.850985
 20
112.51079
 30
0.0
 11
146.925916
 21
112.50321
 31
0.0
  0
LINE
  5
E9
330
A
100
AcDbEntity
  8
0
 62
     7
100
AcDbLine
 10
146.753316
 20
112.520608
 30
0.0
 11
146.850985
 21
112.51079
 31
0.0
  0
LINE
  5
E8
330
A
100
AcDbEntity
  8
0
 62
     7
100
AcDbLine
 10
146.639628
 20
112.532322
 30
0.0
 11
146.753316
 21
112.520608
 31
0.0
  0
LINE
  5
E7
330
A
100
AcDbEntity
  8
0
 62
     7
100
AcDbLine
 10
146.517672
 20
112.544724
 30
0.0
 11
146.639628
 21
112.532322
 31
0.0
  0
LINE
  5
E6
330
A
100
AcDbEntity
  8
0
 62
     7
100
AcDbLine
 10
146.395543
 20
112.557126
 30
0.0
 11
146.517672
 21
112.544724
 31
0.0
  0
LINE
  5
E5
330
A
100
AcDbEntity
  8
0
 62
     7
100
AcDbLine
 10
146.281855
 20
112.568667
 30
0.0
 11
146.395543
 21
112.557126
 31
0.0
  0
LINE
  5
E4
330
A
100
AcDbEntity
  8
0
 62
     7
100
AcDbLine
 10
146.184186
 20
112.578658
 30
0.0
 11
146.281855
 21
112.568667
 31
0.0
  0
LINE
  5
E3
330
A
100
AcDbEntity
  8
0
 62
     7
100
AcDbLine
 10
146.109256
 20
112.586237
 30
0.0
 11
146.184186
 21
112.578658
 31
0.0
  0
LINE
  5
E2
330
A
100
AcDbEntity
  8
0
 62
     7
100
AcDbLine
 10
146.06223
 20
112.59106
 30
0.0
 11
146.109256
 21
112.586237
 31
0.0
  0
LINE
  5
E1
330
A
100
AcDbEntity
  8
0
 62
     7
100
AcDbLine
 10
146.04621
 20
112.592611
 30
0.0
 11
146.06223
 21
112.59106
 31
0.0
  0
LINE
  5
E0
330
A
100
AcDbEntity
  8
0
 62
     7
100
AcDbLine
 10
152.929511
 20
105.669002
 30
0.0
 11
152.398622
 21
105.826443
 31
0.0
  0
LINE
  5
DF
330
A
100
AcDbEntity
  8
0
 62
     7
100
AcDbLine
 10
151.998302
 20
105.909642
 30
0.0
 11
151.449843
 21
105.976305
 31
0.0
  0
LINE
  5
DE
330
A
100
AcDbEntity
  8
0
 62
     7
100
AcDbLine
 10
153.268164
 20
105.467809
 30
0.0
 11
152.929511
 21
105.669002
 31
0.0
  0
LINE
  5
DD
330
A
100
AcDbEntity
  8
0
 62
     7
100
AcDbLine
 10
151.449843
 20
105.976305
 30
0.0
 11
151.061925
 21
105.925662
 31
0.0
  0
LINE
  5
DC
330
A
100
AcDbEntity
  8
0
 62
     7
100
AcDbLine
 10
153.294002
 20
105.441109
 30
0.0
 11
153.278499
 21
105.465397
 31
0.0
  0
LINE
  5
DB
330
A
100
AcDbEntity
  8
0
 62
     7
100
AcDbLine
 10
151.05159
 20
105.927557
 30
0.0
 11
151.0281629999999
 21
105.911537
 31
0.0
  0
LINE
  5
DA
330
A
100
AcDbEntity
  8
0
 62
     7
100
AcDbLine
 10
153.294002
 20
105.441109
 30
0.0
 11
153.222
 21
105.457646
 31
0.0
  0
LINE
  5
D9
330
A
100
AcDbEntity
  8
0
 62
     7
100
AcDbLine
 10
153.262652
 20
105.280051
 30
0.0
 11
153.294002
 21
105.441109
 31
0.0
  0
LINE
  5
D8
330
A
100
AcDbEntity
  8
0
 62
     7
100
AcDbLine
 10
153.222
 20
105.457646
 30
0.0
 11
152.988422
 21
105.507255
 31
0.0
  0
LINE
  5
D7
330
A
100
AcDbEntity
  8
0
 62
     7
100
AcDbLine
 10
152.988422
 20
105.507255
 30
0.0
 11
152.629099
 21
105.582875
 31
0.0
  0
LINE
  5
D6
330
A
100
AcDbEntity
  8
0
 62
     7
100
AcDbLine
 10
152.629099
 20
105.582875
 30
0.0
 11
152.198117
 21
105.672447
 31
0.0
  0
LINE
  5
D5
330
A
100
AcDbEntity
  8
0
 62
     7
100
AcDbLine
 10
152.198117
 20
105.672447
 30
0.0
 11
151.761968
 21
105.762881
 31
0.0
  0
LINE
  5
D4
330
A
100
AcDbEntity
  8
0
 62
     7
100
AcDbLine
 10
151.761968
 20
105.762881
 30
0.0
 11
151.386108
 21
105.839879
 31
0.0
  0
LINE
  5
D3
330
A
100
AcDbEntity
  8
0
 62
     7
100
AcDbLine
 10
151.386108
 20
105.839879
 30
0.0
 11
151.12876
 21
105.892072
 31
0.0
  0
LINE
  5
D2
330
A
100
AcDbEntity
  8
0
 62
     7
100
AcDbLine
 10
151.0281629999999
 20
105.911537
 30
0.0
 11
150.996813
 21
105.750307
 31
0.0
  0
LINE
  5
D1
330
A
100
AcDbEntity
  8
0
 62
     7
100
AcDbLine
 10
151.12876
 20
105.892072
 30
0.0
 11
151.0281629999999
 21
105.911537
 31
0.0
  0
LINE
  5
D0
330
A
100
AcDbEntity
  8
0
 62
     7
100
AcDbLine
 10
153.282289
 20
105.275572
 30
0.0
 11
153.208908
 21
105.292281
 31
0.0
  0
LINE
  5
CF
330
A
100
AcDbEntity
  8
0
 62
     7
100
AcDbLine
 10
153.321219
 20
105.215111
 30
0.0
 11
153.282289
 21
105.275572
 31
0.0
  0
LINE
  5
CE
330
A
100
AcDbEntity
  8
0
 62
     7
100
AcDbLine
 10
153.208908
 20
105.292281
 30
0.0
 11
152.971197
 21
105.342924
 31
0.0
  0
LINE
  5
CD
330
A
100
AcDbEntity
  8
0
 62
     7
100
AcDbLine
 10
152.971197
 20
105.342924
 30
0.0
 11
152.605672
 21
105.41975
 31
0.0
  0
LINE
  5
CC
330
A
100
AcDbEntity
  8
0
 62
     7
100
AcDbLine
 10
152.605672
 20
105.41975
 30
0.0
 11
152.167456
 21
105.511045
 31
0.0
  0
LINE
  5
CB
330
A
100
AcDbEntity
  8
0
 62
     7
100
AcDbLine
 10
152.167456
 20
105.511045
 30
0.0
 11
151.723383
 21
105.602856
 31
0.0
  0
LINE
  5
CA
330
A
100
AcDbEntity
  8
0
 62
     7
100
AcDbLine
 10
151.723383
 20
105.602856
 30
0.0
 11
151.341322
 21
105.681232
 31
0.0
  0
LINE
  5
C9
330
A
100
AcDbEntity
  8
0
 62
     7
100
AcDbLine
 10
151.341322
 20
105.681232
 30
0.0
 11
151.079495
 21
105.734459
 31
0.0
  0
LINE
  5
C8
330
A
100
AcDbEntity
  8
0
 62
     7
100
AcDbLine
 10
150.977176
 20
105.754096
 30
0.0
 11
150.918609
 21
105.713789
 31
0.0
  0
LINE
  5
C7
330
A
100
AcDbEntity
  8
0
 62
     7
100
AcDbLine
 10
151.079495
 20
105.734459
 30
0.0
 11
150.977176
 21
105.754096
 31
0.0
  0
LINE
  5
C6
330
A
100
AcDbEntity
  8
0
 62
     7
100
AcDbLine
 10
153.321219
 20
105.215111
 30
0.0
 11
153.244737
 21
105.232509
 31
0.0
  0
LINE
  5
C5
330
A
100
AcDbEntity
  8
0
 62
     7
100
AcDbLine
 10
153.233024
 20
104.761392
 30
0.0
 11
153.321219
 21
105.215111
 31
0.0
  0
LINE
  5
C4
330
A
100
AcDbEntity
  8
0
 62
     7
100
AcDbLine
 10
153.244737
 20
105.232509
 30
0.0
 11
152.997035
 21
105.285219
 31
0.0
  0
LINE
  5
C3
330
A
100
AcDbEntity
  8
0
 62
     7
100
AcDbLine
 10
152.997035
 20
105.285219
 30
0.0
 11
152.616007
 21
105.365145
 31
0.0
  0
LINE
  5
C2
330
A
100
AcDbEntity
  8
0
 62
     7
100
AcDbLine
 10
152.616007
 20
105.365145
 30
0.0
 11
152.159188
 21
105.460402
 31
0.0
  0
LINE
  5
C1
330
A
100
AcDbEntity
  8
0
 62
     7
100
AcDbLine
 10
152.159188
 20
105.460402
 30
0.0
 11
151.696512
 21
105.556003
 31
0.0
  0
LINE
  5
C0
330
A
100
AcDbEntity
  8
0
 62
     7
100
AcDbLine
 10
151.696512
 20
105.556003
 30
0.0
 11
151.298258
 21
105.637824
 31
0.0
  0
LINE
  5
BF
330
A
100
AcDbEntity
  8
0
 62
     7
100
AcDbLine
 10
151.298258
 20
105.637824
 30
0.0
 11
151.025062
 21
105.69329
 31
0.0
  0
LINE
  5
BE
330
A
100
AcDbEntity
  8
0
 62
     7
100
AcDbLine
 10
150.918609
 20
105.713789
 30
0.0
 11
150.830414
 21
105.260069
 31
0.0
  0
LINE
  5
BD
330
A
100
AcDbEntity
  8
0
 62
     7
100
AcDbLine
 10
151.025062
 20
105.69329
 30
0.0
 11
150.918609
 21
105.713789
 31
0.0
  0
LINE
  5
BC
330
A
100
AcDbEntity
  8
0
 62
     7
100
AcDbLine
 10
153.259207
 20
104.755363
 30
0.0
 11
153.181348
 21
104.773277
 31
0.0
  0
LINE
  5
BB
330
A
100
AcDbEntity
  8
0
 62
     7
100
AcDbLine
 10
153.27092
 20
104.72229
 30
0.0
 11
153.259207
 21
104.755363
 31
0.0
  0
LINE
  5
BA
330
A
100
AcDbEntity
  8
0
 62
     7
100
AcDbLine
 10
153.181348
 20
104.773277
 30
0.0
 11
152.928133
 21
104.827193
 31
0.0
  0
LINE
  5
B9
330
A
100
AcDbEntity
  8
0
 62
     7
100
AcDbLine
 10
152.928133
 20
104.827193
 30
0.0
 11
152.538493
 21
104.909014
 31
0.0
  0
LINE
  5
B8
330
A
100
AcDbEntity
  8
0
 62
     7
100
AcDbLine
 10
152.538493
 20
104.909014
 30
0.0
 11
152.071682
 21
105.006166
 31
0.0
  0
LINE
  5
B7
330
A
100
AcDbEntity
  8
0
 62
     7
100
AcDbLine
 10
152.071682
 20
105.006166
 30
0.0
 11
151.599015
 21
105.104007
 31
0.0
  0
LINE
  5
B6
330
A
100
AcDbEntity
  8
0
 62
     7
100
AcDbLine
 10
151.599015
 20
105.104007
 30
0.0
 11
151.191805
 21
105.18755
 31
0.0
  0
LINE
  5
B5
330
A
100
AcDbEntity
  8
0
 62
     7
100
AcDbLine
 10
151.191805
 20
105.18755
 30
0.0
 11
150.912752
 21
105.24405
 31
0.0
  0
LINE
  5
B4
330
A
100
AcDbEntity
  8
0
 62
     7
100
AcDbLine
 10
150.803887
 20
105.265065
 30
0.0
 11
150.780805
 21
105.239227
 31
0.0
  0
LINE
  5
B3
330
A
100
AcDbEntity
  8
0
 62
     7
100
AcDbLine
 10
150.912752
 20
105.24405
 30
0.0
 11
150.803887
 21
105.265065
 31
0.0
  0
LINE
  5
B2
330
A
100
AcDbEntity
  8
0
 62
     7
100
AcDbLine
 10
153.071449
 20
104.467181
 30
0.0
 11
153.27092
 21
104.72229
 31
0.0
  0
LINE
  5
B1
330
A
100
AcDbEntity
  8
0
 62
     7
100
AcDbLine
 10
150.780805
 20
105.239227
 30
0.0
 11
150.869344
 21
104.924173
 31
0.0
  0
LINE
  5
B0
330
A
100
AcDbEntity
  8
0
 62
     7
100
AcDbLine
 10
152.887481
 20
104.160739
 30
0.0
 11
153.071449
 21
104.467181
 31
0.0
  0
LINE
  5
AF
330
A
100
AcDbEntity
  8
0
 62
     7
100
AcDbLine
 10
150.869344
 20
104.924173
 30
0.0
 11
150.924466
 21
104.568294
 31
0.0
  0
LINE
  5
AE
330
A
100
AcDbEntity
  8
0
 62
     7
100
AcDbLine
 10
152.741409
 20
103.833455
 30
0.0
 11
152.887481
 21
104.160739
 31
0.0
  0
LINE
  5
AD
330
A
100
AcDbEntity
  8
0
 62
     7
100
AcDbLine
 10
150.924466
 20
104.568294
 30
0.0
 11
150.936868
 21
104.207937
 31
0.0
  0
LINE
  5
AC
330
A
100
AcDbEntity
  8
0
 62
     7
100
AcDbLine
 10
152.634956
 20
103.488601
 30
0.0
 11
152.741409
 21
103.833455
 31
0.0
  0
LINE
  5
AB
330
A
100
AcDbEntity
  8
0
 62
     7
100
AcDbLine
 10
150.936868
 20
104.207937
 30
0.0
 11
150.906207
 21
103.84758
 31
0.0
  0
LINE
  5
AA
330
A
100
AcDbEntity
  8
0
 62
     7
100
AcDbLine
 10
152.608084
 20
103.339773
 30
0.0
 11
152.634956
 21
103.488601
 31
0.0
  0
LINE
  5
A9
330
A
100
AcDbEntity
  8
0
 62
     7
100
AcDbLine
 10
150.906207
 20
103.84758
 30
0.0
 11
150.875201
 21
103.699441
 31
0.0
  0
LINE
  5
A8
330
A
100
AcDbEntity
  8
0
 62
     7
100
AcDbLine
 10
152.599127
 20
103.189223
 30
0.0
 11
152.608084
 21
103.339773
 31
0.0
  0
LINE
  5
A7
330
A
100
AcDbEntity
  8
0
 62
     7
100
AcDbLine
 10
150.875201
 20
103.699441
 30
0.0
 11
150.827314
 21
103.557159
 31
0.0
  0
LINE
  5
A6
330
A
100
AcDbEntity
  8
0
 62
     7
100
AcDbLine
 10
152.608084
 20
103.038672
 30
0.0
 11
152.599127
 21
103.189223
 31
0.0
  0
LINE
  5
A5
330
A
100
AcDbEntity
  8
0
 62
     7
100
AcDbLine
 10
150.827314
 20
103.557159
 30
0.0
 11
150.762546
 21
103.421766
 31
0.0
  0
LINE
  5
A4
330
A
100
AcDbEntity
  8
0
 62
     7
100
AcDbLine
 10
152.6353
 20
102.890188
 30
0.0
 11
152.608084
 21
103.038672
 31
0.0
  0
LINE
  5
A3
330
A
100
AcDbEntity
  8
0
 62
     7
100
AcDbLine
 10
150.762546
 20
103.421766
 30
0.0
 11
150.681931
 21
103.295676
 31
0.0
  0
LINE
  5
A2
330
A
100
AcDbEntity
  8
0
 62
     7
100
AcDbLine
 10
152.6353
 20
102.890188
 30
0.0
 11
152.573288
 21
102.904313
 31
0.0
  0
LINE
  5
A1
330
A
100
AcDbEntity
  8
0
 62
     7
100
AcDbLine
 10
152.696623
 20
102.830244
 30
0.0
 11
152.6353
 21
102.890188
 31
0.0
  0
LINE
  5
A0
330
A
100
AcDbEntity
  8
0
 62
     7
100
AcDbLine
 10
152.573288
 20
102.904313
 30
0.0
 11
152.37175
 21
102.947032
 31
0.0
  0
LINE
  5
9F
330
A
100
AcDbEntity
  8
0
 62
     7
100
AcDbLine
 10
152.37175
 20
102.947032
 30
0.0
 11
152.062036
 21
103.012145
 31
0.0
  0
LINE
  5
9E
330
A
100
AcDbEntity
  8
0
 62
     7
100
AcDbLine
 10
152.062036
 20
103.012145
 30
0.0
 11
151.690655
 21
103.089659
 31
0.0
  0
LINE
  5
9D
330
A
100
AcDbEntity
  8
0
 62
     7
100
AcDbLine
 10
151.690655
 20
103.089659
 30
0.0
 11
151.31445
 21
103.167174
 31
0.0
  0
LINE
  5
9C
330
A
100
AcDbEntity
  8
0
 62
     7
100
AcDbLine
 10
151.31445
 20
103.167174
 30
0.0
 11
150.990611
 21
103.233664
 31
0.0
  0
LINE
  5
9B
330
A
100
AcDbEntity
  8
0
 62
     7
100
AcDbLine
 10
150.990611
 20
103.233664
 30
0.0
 11
150.768403
 21
103.278795
 31
0.0
  0
LINE
  5
9A
330
A
100
AcDbEntity
  8
0
 62
     7
100
AcDbLine
 10
150.681931
 20
103.295676
 30
0.0
 11
150.602694
 21
103.26467
 31
0.0
  0
LINE
  5
99
330
A
100
AcDbEntity
  8
0
 62
     7
100
AcDbLine
 10
150.768403
 20
103.278795
 30
0.0
 11
150.681931
 21
103.295676
 31
0.0
  0
LINE
  5
98
330
A
100
AcDbEntity
  8
0
 62
     7
100
AcDbLine
 10
152.708336
 20
102.743772
 30
0.0
 11
152.696623
 21
102.830244
 31
0.0
  0
LINE
  5
97
330
A
100
AcDbEntity
  8
0
 62
     7
100
AcDbLine
 10
150.602694
 20
103.26467
 30
0.0
 11
150.55963
 21
103.189567
 31
0.0
  0
LINE
  5
96
330
A
100
AcDbEntity
  8
0
 62
     7
100
AcDbLine
 10
152.665272
 20
102.668669
 30
0.0
 11
152.708336
 21
102.743772
 31
0.0
  0
LINE
  5
95
330
A
100
AcDbEntity
  8
0
 62
     7
100
AcDbLine
 10
150.55963
 20
103.189567
 30
0.0
 11
150.571343
 21
103.103095
 31
0.0
  0
LINE
  5
94
330
A
100
AcDbEntity
  8
0
 62
     7
100
AcDbLine
 10
152.58638
 20
102.637663
 30
0.0
 11
152.665272
 21
102.668669
 31
0.0
  0
LINE
  5
93
330
A
100
AcDbEntity
  8
0
 62
     7
100
AcDbLine
 10
150.571343
 20
103.103095
 30
0.0
 11
150.632666
 21
103.04315
 31
0.0
  0
LINE
  5
92
330
A
100
AcDbEntity
  8
0
 62
     7
100
AcDbLine
 10
152.344534
 20
105.838156
 30
0.0
 11
152.385875
 21
105.829371
 31
0.0
  0
LINE
  5
91
330
A
100
AcDbEntity
  8
0
 62
     7
100
AcDbLine
 10
152.281144
 20
105.851592
 30
0.0
 11
152.344534
 21
105.838156
 31
0.0
  0
LINE
  5
90
330
A
100
AcDbEntity
  8
0
 62
     7
100
AcDbLine
 10
152.205008
 20
105.86744
 30
0.0
 11
152.281144
 21
105.851592
 31
0.0
  0
LINE
  5
8F
330
A
100
AcDbEntity
  8
0
 62
     7
100
AcDbLine
 10
152.127837
 20
105.883287
 30
0.0
 11
152.205008
 21
105.86744
 31
0.0
  0
LINE
  5
8E
330
A
100
AcDbEntity
  8
0
 62
     7
100
AcDbLine
 10
152.061692
 20
105.896895
 30
0.0
 11
152.127837
 21
105.883287
 31
0.0
  0
LINE
  5
8D
330
A
100
AcDbEntity
  8
0
 62
     7
100
AcDbLine
 10
152.015872
 20
105.906197
 30
0.0
 11
152.061692
 21
105.896895
 31
0.0
  0
LINE
  5
8C
330
A
100
AcDbEntity
  8
0
 62
     7
100
AcDbLine
 10
151.998302
 20
105.909642
 30
0.0
 11
152.015872
 21
105.906197
 31
0.0
  0
LINE
  5
8B
330
A
100
AcDbEntity
  8
0
 62
     7
100
AcDbLine
 10
152.385875
 20
105.829371
 30
0.0
 11
152.398622
 21
105.826443
 31
0.0
  0
LINE
  5
8A
330
A
100
AcDbEntity
  8
0
 62
     7
100
AcDbLine
 10
152.277699
 20
102.69933
 30
0.0
 11
152.499563
 21
102.654544
 31
0.0
  0
LINE
  5
89
330
A
100
AcDbEntity
  8
0
 62
     7
100
AcDbLine
 10
151.975564
 20
102.761342
 30
0.0
 11
152.277699
 21
102.69933
 31
0.0
  0
LINE
  5
88
330
A
100
AcDbEntity
  8
0
 62
     7
100
AcDbLine
 10
151.206274
 20
102.921194
 30
0.0
 11
151.242448
 21
102.913615
 31
0.0
  0
LINE
  5
87
330
A
100
AcDbEntity
  8
0
 62
     7
100
AcDbLine
 10
150.896216
 20
102.986306
 30
0.0
 11
151.206274
 21
102.921194
 31
0.0
  0
LINE
  5
86
330
A
100
AcDbEntity
  8
0
 62
     7
100
AcDbLine
 10
150.695022
 20
103.029026
 30
0.0
 11
150.896216
 21
102.986306
 31
0.0
  0
LINE
  5
85
330
A
100
AcDbEntity
  8
0
 62
     7
100
AcDbLine
 10
150.632666
 20
103.04315
 30
0.0
 11
150.695022
 21
103.029026
 31
0.0
  0
LINE
  5
84
330
A
100
AcDbEntity
  8
0
 62
     7
100
AcDbLine
 10
150.719482
 20
103.026614
 30
0.0
 11
150.632666
 21
103.04315
 31
0.0
  0
LINE
  5
83
330
A
100
AcDbEntity
  8
0
 62
     7
100
AcDbLine
 10
150.941347
 20
102.981483
 30
0.0
 11
150.719482
 21
103.026614
 31
0.0
  0
LINE
  5
82
330
A
100
AcDbEntity
  8
0
 62
     7
100
AcDbLine
 10
151.265186
 20
102.914993
 30
0.0
 11
150.941347
 21
102.981483
 31
0.0
  0
LINE
  5
81
330
A
100
AcDbEntity
  8
0
 62
     7
100
AcDbLine
 10
151.64139
 20
102.837134
 30
0.0
 11
151.265186
 21
102.914993
 31
0.0
  0
LINE
  5
80
330
A
100
AcDbEntity
  8
0
 62
     7
100
AcDbLine
 10
152.012771
 20
102.759964
 30
0.0
 11
151.64139
 21
102.837134
 31
0.0
  0
LINE
  5
7F
330
A
100
AcDbEntity
  8
0
 62
     7
100
AcDbLine
 10
152.32283
 20
102.694851
 30
0.0
 11
152.012771
 21
102.759964
 31
0.0
  0
LINE
  5
7E
330
A
100
AcDbEntity
  8
0
 62
     7
100
AcDbLine
 10
152.524023
 20
102.651788
 30
0.0
 11
152.32283
 21
102.694851
 31
0.0
  0
LINE
  5
7D
330
A
100
AcDbEntity
  8
0
 62
     7
100
AcDbLine
 10
152.58638
 20
102.637663
 30
0.0
 11
152.524023
 21
102.651788
 31
0.0
  0
LINE
  5
7C
330
A
100
AcDbEntity
  8
0
 62
     7
100
AcDbLine
 10
152.499563
 20
102.654544
 30
0.0
 11
152.58638
 21
102.637663
 31
0.0
  0
LINE
  5
7B
330
A
100
AcDbEntity
  8
0
 62
     7
100
AcDbLine
 10
150.01875
 20
99.36620000000001
 30
0.0
 11
149.668039
 21
97.563382
 31
0.0
  0
LINE
  5
7A
330
A
100
AcDbEntity
  8
0
 62
     7
100
AcDbLine
 10
151.777816
 20
99.001364
 30
0.0
 11
151.427105
 21
97.19820099999999
 31
0.0
  0
LINE
  5
79
330
A
100
AcDbEntity
  8
0
 62
     7
100
AcDbLine
 10
150.01875
 20
99.36620000000001
 30
0.0
 11
150.085929
 21
99.35345300000001
 31
0.0
  0
LINE
  5
78
330
A
100
AcDbEntity
  8
0
 62
     7
100
AcDbLine
 10
149.977064
 20
99.41339800000001
 30
0.0
 11
150.01875
 21
99.36620000000001
 31
0.0
  0
LINE
  5
77
330
A
100
AcDbEntity
  8
0
 62
     7
100
AcDbLine
 10
150.085929
 20
99.35345300000001
 30
0.0
 11
150.276443
 21
99.31486800000001
 31
0.0
  0
LINE
  5
76
330
A
100
AcDbEntity
  8
0
 62
     7
100
AcDbLine
 10
150.276443
 20
99.31486800000001
 30
0.0
 11
150.562042
 21
99.256302
 31
0.0
  0
LINE
  5
75
330
A
100
AcDbEntity
  8
0
 62
     7
100
AcDbLine
 10
150.562042
 20
99.256302
 30
0.0
 11
150.898627
 21
99.186711
 31
0.0
  0
LINE
  5
74
330
A
100
AcDbEntity
  8
0
 62
     7
100
AcDbLine
 10
150.898627
 20
99.186711
 30
0.0
 11
151.235213
 21
99.11677500000001
 31
0.0
  0
LINE
  5
73
330
A
100
AcDbEntity
  8
0
 62
     7
100
AcDbLine
 10
151.235213
 20
99.11677500000001
 30
0.0
 11
151.520467
 21
99.056831
 31
0.0
  0
LINE
  5
72
330
A
100
AcDbEntity
  8
0
 62
     7
100
AcDbLine
 10
151.520467
 20
99.056831
 30
0.0
 11
151.710981
 21
99.016523
 31
0.0
  0
LINE
  5
71
330
A
100
AcDbEntity
  8
0
 62
     7
100
AcDbLine
 10
151.710981
 20
99.016523
 30
0.0
 11
151.777816
 21
99.001364
 31
0.0
  0
LINE
  5
70
330
A
100
AcDbEntity
  8
0
 62
     7
100
AcDbLine
 10
151.833626
 20
99.02823599999999
 30
0.0
 11
151.777816
 21
99.001364
 31
0.0
  0
LINE
  5
6F
330
A
100
AcDbEntity
  8
0
 62
     7
100
AcDbLine
 10
149.977064
 20
99.41339800000001
 30
0.0
 11
150.047689
 21
99.39996200000001
 31
0.0
  0
LINE
  5
6E
330
A
100
AcDbEntity
  8
0
 62
     7
100
AcDbLine
 10
149.999457
 20
99.606323
 30
0.0
 11
149.977064
 21
99.41339800000001
 31
0.0
  0
LINE
  5
6D
330
A
100
AcDbEntity
  8
0
 62
     7
100
AcDbLine
 10
150.047689
 20
99.39996200000001
 30
0.0
 11
150.249227
 21
99.35931
 31
0.0
  0
LINE
  5
6C
330
A
100
AcDbEntity
  8
0
 62
     7
100
AcDbLine
 10
150.249227
 20
99.35931
 30
0.0
 11
150.550328
 21
99.297298
 31
0.0
  0
LINE
  5
6B
330
A
100
AcDbEntity
  8
0
 62
     7
100
AcDbLine
 10
150.550328
 20
99.297298
 30
0.0
 11
150.905862
 21
99.22391800000001
 31
0.0
  0
LINE
  5
6A
330
A
100
AcDbEntity
  8
0
 62
     7
100
AcDbLine
 10
150.905862
 20
99.22391800000001
 30
0.0
 11
151.261051
 21
99.150193
 31
0.0
  0
LINE
  5
69
330
A
100
AcDbEntity
  8
0
 62
     7
100
AcDbLine
 10
151.261051
 20
99.150193
 30
0.0
 11
151.562153
 21
99.086803
 31
0.0
  0
LINE
  5
68
330
A
100
AcDbEntity
  8
0
 62
     7
100
AcDbLine
 10
151.562153
 20
99.086803
 30
0.0
 11
151.763346
 21
99.04408400000001
 31
0.0
  0
LINE
  5
67
330
A
100
AcDbEntity
  8
0
 62
     7
100
AcDbLine
 10
151.763346
 20
99.04408400000001
 30
0.0
 11
151.833626
 21
99.02823599999999
 31
0.0
  0
LINE
  5
66
330
A
100
AcDbEntity
  8
0
 62
     7
100
AcDbLine
 10
151.965573
 20
99.507449
 30
0.0
 11
151.833626
 21
99.02823599999999
 31
0.0
  0
LINE
  5
65
330
A
100
AcDbEntity
  8
0
 62
     7
100
AcDbLine
 10
151.169067
 20
97.24953300000001
 30
0.0
 11
151.359926
 21
97.21094800000001
 31
0.0
  0
LINE
  5
64
330
A
100
AcDbEntity
  8
0
 62
     7
100
AcDbLine
 10
150.8838129999999
 20
97.30809999999999
 30
0.0
 11
151.169067
 21
97.24953300000001
 31
0.0
  0
LINE
  5
63
330
A
100
AcDbEntity
  8
0
 62
     7
100
AcDbLine
 10
150.547228
 20
97.37769100000001
 30
0.0
 11
150.8838129999999
 21
97.30809999999999
 31
0.0
  0
LINE
  5
62
330
A
100
AcDbEntity
  8
0
 62
     7
100
AcDbLine
 10
150.210642
 20
97.44797099999999
 30
0.0
 11
150.547228
 21
97.37769100000001
 31
0.0
  0
LINE
  5
61
330
A
100
AcDbEntity
  8
0
 62
     7
100
AcDbLine
 10
149.925388
 20
97.50757100000001
 30
0.0
 11
150.210642
 21
97.44797099999999
 31
0.0
  0
LINE
  5
60
330
A
100
AcDbEntity
  8
0
 62
     7
100
AcDbLine
 10
149.734874
 20
97.548223
 30
0.0
 11
149.925388
 21
97.50757100000001
 31
0.0
  0
LINE
  5
5F
330
A
100
AcDbEntity
  8
0
 62
     7
100
AcDbLine
 10
149.668039
 20
97.563382
 30
0.0
 11
149.734874
 21
97.548223
 31
0.0
  0
LINE
  5
5E
330
A
100
AcDbEntity
  8
0
 62
     7
100
AcDbLine
 10
149.735219
 20
97.550635
 30
0.0
 11
149.668039
 21
97.563382
 31
0.0
  0
LINE
  5
5D
330
A
100
AcDbEntity
  8
0
 62
     7
100
AcDbLine
 10
149.925732
 20
97.51205
 30
0.0
 11
149.735219
 21
97.550635
 31
0.0
  0
LINE
  5
5C
330
A
100
AcDbEntity
  8
0
 62
     7
100
AcDbLine
 10
150.211331
 20
97.45348299999999
 30
0.0
 11
149.925732
 21
97.51205
 31
0.0
  0
LINE
  5
5B
330
A
100
AcDbEntity
  8
0
 62
     7
100
AcDbLine
 10
150.547917
 20
97.383892
 30
0.0
 11
150.211331
 21
97.45348299999999
 31
0.0
  0
LINE
  5
5A
330
A
100
AcDbEntity
  8
0
 62
     7
100
AcDbLine
 10
150.884158
 20
97.31361200000002
 30
0.0
 11
150.547917
 21
97.383892
 31
0.0
  0
LINE
  5
59
330
A
100
AcDbEntity
  8
0
 62
     7
100
AcDbLine
 10
151.169756
 20
97.254012
 30
0.0
 11
150.884158
 21
97.31361200000002
 31
0.0
  0
LINE
  5
58
330
A
100
AcDbEntity
  8
0
 62
     7
100
AcDbLine
 10
151.36027
 20
97.21336
 30
0.0
 11
151.169756
 21
97.254012
 31
0.0
  0
LINE
  5
57
330
A
100
AcDbEntity
  8
0
 62
     7
100
AcDbLine
 10
151.427105
 20
97.19820099999999
 30
0.0
 11
151.36027
 21
97.21336
 31
0.0
  0
LINE
  5
56
330
A
100
AcDbEntity
  8
0
 62
     7
100
AcDbLine
 10
151.359926
 20
97.21094800000001
 30
0.0
 11
151.427105
 21
97.19820099999999
 31
0.0
  0
LINE
  5
55
330
A
100
AcDbEntity
  8
0
 62
     7
100
AcDbLine
 10
151.243137
 20
102.916371
 30
0.0
 11
151.134961
 21
102.361366
 31
0.0
  0
LINE
  5
54
330
A
100
AcDbEntity
  8
0
 62
     7
100
AcDbLine
 10
151.975909
 20
102.764442
 30
0.0
 11
151.868077
 21
102.209093
 31
0.0
  0
LINE
  5
53
330
A
100
AcDbEntity
  8
0
 62
     7
100
AcDbLine
 10
151.609695
 20
102.841612
 30
0.0
 11
151.868766
 21
102.787524
 31
0.0
  0
LINE
  5
52
330
A
100
AcDbEntity
  8
0
 62
     7
100
AcDbLine
 10
151.350624
 20
102.895011
 30
0.0
 11
151.609695
 21
102.841612
 31
0.0
  0
LINE
  5
51
330
A
100
AcDbEntity
  8
0
 62
     7
100
AcDbLine
 10
151.243137
 20
102.916371
 30
0.0
 11
151.350624
 21
102.895011
 31
0.0
  0
LINE
  5
50
330
A
100
AcDbEntity
  8
0
 62
     7
100
AcDbLine
 10
151.868766
 20
102.787524
 30
0.0
 11
151.975909
 21
102.764442
 31
0.0
  0
LINE
  5
4F
330
A
100
AcDbEntity
  8
0
 62
     7
100
AcDbLine
 10
155.295258
 20
98.10253900000001
 30
0.0
 11
155.29078
 21
98.10185
 31
0.0
  0
LINE
  5
4E
330
A
100
AcDbEntity
  8
0
 62
     7
100
AcDbLine
 10
155.29078
 20
98.10185
 30
0.0
 11
154.925255
 21
98.026402
 31
0.0
  0
LINE
  5
4D
330
A
100
AcDbEntity
  8
0
 62
     7
100
AcDbLine
 10
155.696956
 20
98.185566
 30
0.0
 11
155.692478
 21
98.184532
 31
0.0
  0
LINE
  5
4C
330
A
100
AcDbEntity
  8
0
 62
     7
100
AcDbLine
 10
155.692478
 20
98.184532
 30
0.0
 11
155.298014
 21
98.10322800000001
 31
0.0
  0
LINE
  5
4B
330
A
100
AcDbEntity
  8
0
 62
     7
100
AcDbLine
 10
156.09831
 20
98.268248
 30
0.0
 11
155.69799
 21
98.185566
 31
0.0
  0
LINE
  5
4A
330
A
100
AcDbEntity
  8
0
 62
     7
100
AcDbLine
 10
156.469002
 20
98.34507399999999
 30
0.0
 11
156.098655
 21
98.26859300000002
 31
0.0
  0
LINE
  5
49
330
A
100
AcDbEntity
  8
0
 62
     7
100
AcDbLine
 10
156.79043
 20
98.41122
 30
0.0
 11
156.472792
 21
98.34576300000001
 31
0.0
  0
LINE
  5
48
330
A
100
AcDbEntity
  8
0
 62
     7
100
AcDbLine
 10
156.792841
 20
98.411909
 30
0.0
 11
157.036754
 21
98.46220699999999
 31
0.0
  0
LINE
  5
47
330
A
100
AcDbEntity
  8
0
 62
     7
100
AcDbLine
 10
157.037788
 20
98.462896
 30
0.0
 11
157.191439
 21
98.494591
 31
0.0
  0
LINE
  5
46
330
A
100
AcDbEntity
  8
0
 62
     7
100
AcDbLine
 10
157.220378
 20
98.50044799999999
 30
0.0
 11
157.244149
 21
98.505271
 31
0.0
  0
LINE
  5
45
330
A
100
AcDbEntity
  8
0
 62
     7
100
AcDbLine
 10
141.46854
 20
101.923839
 30
0.0
 11
141.46854
 21
101.778111
 31
0.0
  0
LINE
  5
44
330
A
100
AcDbEntity
  8
0
 62
     7
100
AcDbLine
 10
141.483354
 20
102.125722
 30
0.0
 11
141.46854
 21
102.050618
 31
0.0
  0
LINE
  5
43
330
A
100
AcDbEntity
  8
0
 62
     7
100
AcDbLine
 10
141.483354
 20
102.234587
 30
0.0
 11
141.46854
 21
102.429924
 31
0.0
  0
LINE
  5
42
330
A
100
AcDbEntity
  8
0
 62
     7
100
AcDbLine
 10
141.46854
 20
102.458173
 30
0.0
 11
141.46854
 21
102.809918
 31
0.0
  0
LINE
  5
41
330
A
100
AcDbEntity
  8
0
 62
     7
100
AcDbLine
 10
141.46854
 20
102.809918
 30
0.0
 11
141.46854
 21
103.187845
 31
0.0
  0
LINE
  5
40
330
A
100
AcDbEntity
  8
0
 62
     7
100
AcDbLine
 10
141.46854
 20
103.475165
 30
0.0
 11
141.478186
 21
103.565427
 31
0.0
  0
LINE
  5
3F
330
A
100
AcDbEntity
  8
0
 62
     7
100
AcDbLine
 10
141.478186
 20
103.565427
 30
0.0
 11
141.46854
 21
103.685316
 31
0.0
  0
LINE
  5
3E
330
A
100
AcDbEntity
  8
0
 62
     7
100
AcDbLine
 10
151.242103
 20
102.337939
 30
0.0
 11
151.135305
 21
102.361366
 31
0.0
  0
LINE
  5
3D
330
A
100
AcDbEntity
  8
0
 62
     7
100
AcDbLine
 10
151.397822
 20
102.305211
 30
0.0
 11
151.242103
 21
102.337939
 31
0.0
  0
LINE
  5
3C
330
A
100
AcDbEntity
  8
0
 62
     7
100
AcDbLine
 10
151.779883
 20
102.226318
 30
0.0
 11
151.868077
 21
102.209093
 31
0.0
  0
LINE
  5
3B
330
A
100
AcDbEntity
  8
0
 62
     7
100
AcDbLine
 10
151.501175
 20
102.283851
 30
0.0
 11
151.397822
 21
102.305211
 31
0.0
  0
LINE
  5
3A
330
A
100
AcDbEntity
  8
0
 62
     7
100
AcDbLine
 10
151.760246
 20
102.230108
 30
0.0
 11
151.501175
 21
102.283851
 31
0.0
  0
LINE
  5
39
330
A
100
AcDbEntity
  8
0
 62
     7
100
AcDbLine
 10
151.760246
 20
102.230108
 30
0.0
 11
151.779883
 21
102.226318
 31
0.0
  0
LINE
  5
38
330
A
100
AcDbEntity
  8
0
 62
     7
100
AcDbLine
 10
150.077317
 20
99.64043000000001
 30
0.0
 11
150.031497
 21
99.61907
 31
0.0
  0
LINE
  5
37
330
A
100
AcDbEntity
  8
0
 62
     7
100
AcDbLine
 10
150.187215
 20
99.65248800000001
 30
0.0
 11
150.077317
 21
99.64043000000001
 31
0.0
  0
LINE
  5
36
330
A
100
AcDbEntity
  8
0
 62
     7
100
AcDbLine
 10
150.031497
 20
99.61907
 30
0.0
 11
149.999457
 21
99.606323
 31
0.0
  0
LINE
  5
35
330
A
100
AcDbEntity
  8
0
 62
     7
100
AcDbLine
 10
150.621986
 20
99.731725
 30
0.0
 11
150.499341
 21
99.71277700000001
 31
0.0
  0
LINE
  5
34
330
A
100
AcDbEntity
  8
0
 62
     7
100
AcDbLine
 10
151.004392
 20
99.73138
 30
0.0
 11
150.621986
 21
99.731725
 31
0.0
  0
LINE
  5
33
330
A
100
AcDbEntity
  8
0
 62
     7
100
AcDbLine
 10
151.058824
 20
99.723801
 30
0.0
 11
151.004392
 21
99.73138
 31
0.0
  0
LINE
  5
32
330
A
100
AcDbEntity
  8
0
 62
     7
100
AcDbLine
 10
150.295047
 20
99.687627
 30
0.0
 11
150.187215
 21
99.65248800000001
 31
0.0
  0
LINE
  5
31
330
A
100
AcDbEntity
  8
0
 62
     7
100
AcDbLine
 10
150.499341
 20
99.71277700000001
 30
0.0
 11
150.295047
 21
99.687627
 31
0.0
  0
LINE
  5
30
330
A
100
AcDbEntity
  8
0
 62
     7
100
AcDbLine
 10
151.279999
 20
99.70140800000001
 30
0.0
 11
151.058824
 21
99.723801
 31
0.0
  0
LINE
  5
2F
330
A
100
AcDbEntity
  8
0
 62
     7
100
AcDbLine
 10
151.800209
 20
99.56188199999999
 30
0.0
 11
151.897016
 21
99.5419
 31
0.0
  0
LINE
  5
2E
330
A
100
AcDbEntity
  8
0
 62
     7
100
AcDbLine
 10
151.897016
 20
99.5419
 30
0.0
 11
151.927333
 21
99.52467400000001
 31
0.0
  0
LINE
  5
2D
330
A
100
AcDbEntity
  8
0
 62
     7
100
AcDbLine
 10
151.927333
 20
99.52467400000001
 30
0.0
 11
151.965573
 21
99.507449
 31
0.0
  0
LINE
  5
2C
330
A
100
AcDbEntity
  8
0
 62
     7
100
AcDbLine
 10
151.381974
 20
99.687627
 30
0.0
 11
151.279999
 21
99.70140800000001
 31
0.0
  0
LINE
  5
2B
330
A
100
AcDbEntity
  8
0
 62
     7
100
AcDbLine
 10
151.692722
 20
99.607012
 30
0.0
 11
151.381974
 21
99.687627
 31
0.0
  0
LINE
  5
2A
330
A
100
AcDbEntity
  8
0
 62
     7
100
AcDbLine
 10
151.692722
 20
99.607012
 30
0.0
 11
151.720972
 21
99.593232
 31
0.0
  0
LINE
  5
29
330
A
100
AcDbEntity
  8
0
 62
     7
100
AcDbLine
 10
151.720972
 20
99.593232
 30
0.0
 11
151.800209
 21
99.56188199999999
 31
0.0
  0
DIMENSION
  5
346
330
A
100
AcDbEntity
  8
Cotation-JacobDelafon
  6
Continuous
370
     0
100
AcDbDimension
  2
*D1
 10
157.499775
 20
124.3841510125048
 30
0.0
 11
148.4998075
 21
126.8158699756698
 31
0.0
 70
    32
 71
     5
 42
17.99993500000002
 73
     0
 74
     0
 75
     0
  3
Cotation-Jacob-Delafon
100
AcDbAlignedDimension
 13
139.4998399999999
 23
106.258114
 33
0.0
 14
157.499775
 24
98.344385
 34
0.0
100
AcDbRotatedDimension
  0
DIMENSION
  5
353
330
A
100
AcDbEntity
  8
Cotation-JacobDelafon
  6
Continuous
370
     0
100
AcDbDimension
  2
*D2
 10
129.8383323707532
 20
97.10191100000001
 30
0.0
 11
127.4066134075881
 21
105.038119
 31
0.0
 70
    32
  1
16
 71
     5
 42
15.872416
 73
     0
 74
     0
 75
     0
  3
Cotation-Jacob-Delafon
100
AcDbAlignedDimension
 13
152.459256
 23
112.974327
 33
0.0
 14
155.277344
 24
97.10191100000001
 34
0.0
 50
90.0
100
AcDbRotatedDimension
  0
ENDSEC
  0
SECTION
  2
OBJECTS
  0
DICTIONARY
  5
19
330
0
100
AcDbDictionary
281
     1
  3
ACAD_COLOR
350
312
  3
ACAD_GROUP
350
1A
  3
ACAD_LAYOUT
350
1E
  3
ACAD_MATERIAL
350
2E8
  3
ACAD_MLEADERSTYLE
350
327
  3
ACAD_MLINESTYLE
350
1B
  3
ACAD_PLOTSETTINGS
350
22
  3
ACAD_PLOTSTYLENAME
350
1F
  3
ACAD_SCALELIST
350
315
  3
ACAD_TABLESTYLE
350
313
  3
ACAD_VISUALSTYLE
350
301
  3
ACAD_WIPEOUT_VARS
350
23
  3
ACDB_RECOMPOSE_DATA
350
377
  3
AcDbVariableDictionary
350
378
  3
AEC_PROPERTY_SET_DEFS
350
33A
  0
DICTIONARY
  5
372
330
14
100
AcDbDictionary
280
     1
281
     1
  3
ADSK_XREC_LAYER_RECONCILED
360
373
  0
DICTIONARY
  5
340
330
33F
100
AcDbDictionary
280
     1
281
     1
  3
ADSK_XREC_LAYER_RECONCILED
360
374
  0
DICTIONARY
  5
312
102
{ACAD_REACTORS
330
19
102
}
330
19
100
AcDbDictionary
281
     1
  0
DICTIONARY
  5
1A
102
{ACAD_REACTORS
330
19
102
}
330
19
100
AcDbDictionary
281
     1
  0
DICTIONARY
  5
1E
102
{ACAD_REACTORS
330
19
102
}
330
19
100
AcDbDictionary
281
     1
  3
Layout1
350
21
  3
Model
350
20
  0
DICTIONARY
  5
2E8
102
{ACAD_REACTORS
330
19
102
}
330
19
100
AcDbDictionary
281
     1
  3
ByBlock
350
2F1
  3
ByLayer
350
2E9
  3
Global
350
2F9
  0
DICTIONARY
  5
327
102
{ACAD_REACTORS
330
19
102
}
330
19
100
AcDbDictionary
281
     1
  3
Standard
350
328
  0
DICTIONARY
  5
1B
102
{ACAD_REACTORS
330
19
102
}
330
19
100
AcDbDictionary
281
     1
  3
Standard
350
1C
  0
DICTIONARY
  5
22
102
{ACAD_REACTORS
330
19
102
}
330
19
100
AcDbDictionary
281
     1
  0
ACDBDICTIONARYWDFLT
  5
1F
102
{ACAD_REACTORS
330
19
102
}
330
19
100
AcDbDictionary
281
     1
  3
Normal
350
1D
100
AcDbDictionaryWithDefault
340
1D
  0
DICTIONARY
  5
315
102
{ACAD_REACTORS
330
19
102
}
330
19
100
AcDbDictionary
281
     1
  3
A0
350
316
  3
A1
350
317
  3
A2
350
318
  3
A3
350
319
  3
A4
350
31A
  3
A5
350
31B
  3
A6
350
31C
  3
A7
350
31D
  3
A8
350
31E
  3
A9
350
31F
  3
B0
350
320
  3
B1
350
321
  3
B2
350
322
  3
B3
350
323
  3
B4
350
324
  3
B5
350
325
  3
B6
350
326
  0
DICTIONARY
  5
313
102
{ACAD_REACTORS
330
19
102
}
330
19
100
AcDbDictionary
281
     1
  3
Standard
350
314
  0
DICTIONARY
  5
301
102
{ACAD_REACTORS
330
19
102
}
330
19
100
AcDbDictionary
281
     1
  3
2dWireframe
350
307
  3
3D Hidden
350
309
  3
3dWireframe
350
308
  3
Basic
350
306
  3
Brighten
350
30D
  3
ColorChange
350
311
  3
Conceptual
350
30A
  3
Dim
350
30C
  3
Facepattern
350
310
  3
Flat
350
302
  3
FlatWithEdges
350
303
  3
Gouraud
350
304
  3
GouraudWithEdges
350
305
  3
Linepattern
350
30F
  3
Realistic
350
30B
  3
Thicken
350
30E
  0
WIPEOUTVARIABLES
  5
23
330
19
100
AcDbWipeoutVariables
 70
     1
  0
XRECORD
  5
377
102
{ACAD_REACTORS
330
19
102
}
330
19
100
AcDbXrecord
280
     1
 90
        1
330
314
  0
DICTIONARY
  5
378
102
{ACAD_REACTORS
330
19
102
}
330
19
100
AcDbDictionary
281
     1
  3
CANNOSCALE
350
37C
  3
CMLEADERSTYLE
350
37A
  3
CTABLESTYLE
350
379
  3
LAYEREVAL
350
37E
  3
LAYERNOTIFY
350
37F
  3
LIGHTINGUNITS
350
37D
  3
MSLTSCALE
350
37B
  0
DICTIONARY
  5
33A
102
{ACAD_REACTORS
330
19
102
}
330
19
100
AcDbDictionary
281
     1
  0
XRECORD
  5
373
102
{ACAD_REACTORS
330
372
102
}
330
372
100
AcDbXrecord
280
     1
290
     1
  0
XRECORD
  5
374
102
{ACAD_REACTORS
330
340
102
}
330
340
100
AcDbXrecord
280
     1
290
     1
  0
LAYOUT
  5
21
102
{ACAD_REACTORS
330
1E
102
}
330
1E
100
AcDbPlotSettings
  1

  2

  4

  6

 40
0.0
 41
0.0
 42
0.0
 43
0.0
 44
0.0
 45
0.0
 46
0.0
 47
0.0
 48
0.0
 49
0.0
140
0.0
141
0.0
142
1.0
143
1.0
 70
     0
 72
     0
 73
     0
 74
     0
  7

 75
     0
147
1.0
 76
     0
 77
     2
 78
   300
148
0.0
149
0.0
100
AcDbLayout
  1
Layout1
 70
     0
 71
     1
 10
0.0
 20
0.0
 11
12.0
 21
9.0
 12
0.0
 22
0.0
 32
0.0
 14
1.000000000000000E+20
 24
1.000000000000000E+20
 34
1.000000000000000E+20
 15
-1.000000000000000E+20
 25
-1.000000000000000E+20
 35
-1.000000000000000E+20
146
0.0
 13
0.0
 23
0.0
 33
0.0
 16
1.0
 26
0.0
 36
0.0
 17
0.0
 27
1.0
 37
0.0
 76
     0
330
B
  0
LAYOUT
  5
20
102
{ACAD_REACTORS
330
1E
102
}
330
1E
100
AcDbPlotSettings
  1

  2

  4

  6

 40
0.0
 41
0.0
 42
0.0
 43
0.0
 44
0.0
 45
0.0
 46
0.0
 47
0.0
 48
0.0
 49
0.0
140
0.0
141
0.0
142
1.0
143
1.0
 70
  1024
 72
     0
 73
     0
 74
     0
  7

 75
     0
147
1.0
 76
     0
 77
     2
 78
   300
148
0.0
149
0.0
100
AcDbLayout
  1
Model
 70
     0
 71
     0
 10
0.0
 20
0.0
 11
0.0
 21
0.0
 12
0.0
 22
0.0
 32
0.0
 14
0.0
 24
0.0
 34
0.0
 15
0.0
 25
0.0
 35
0.0
146
0.0
 13
0.0
 23
0.0
 33
0.0
 16
0.0
 26
0.0
 36
0.0
 17
0.0
 27
0.0
 37
0.0
 76
     0
330
A
331
15
  0
MATERIAL
  5
2F1
102
{ACAD_XDICTIONARY
360
2F2
102
}
102
{ACAD_REACTORS
330
2E8
102
}
330
2E8
100
AcDbMaterial
  1
ByBlock
 72
     0
 43
0.0208333333333333
 43
0.0
 43
0.0
 43
0.0
 43
0.0
 43
0.0208333333333333
 43
0.0
 43
0.0
 43
0.0
 43
0.0
 43
1.0
 43
0.0
 43
0.0
 43
0.0
 43
0.0
 43
1.0
 77
     0
 47
0.0208333333333333
 47
0.0
 47
0.0
 47
0.0
 47
0.0
 47
0.0208333333333333
 47
0.0
 47
0.0
 47
0.0
 47
0.0
 47
1.0
 47
0.0
 47
0.0
 47
0.0
 47
0.0
 47
1.0
171
     0
 49
0.0208333333333333
 49
0.0
 49
0.0
 49
0.0
 49
0.0
 49
0.0208333333333333
 49
0.0
 49
0.0
 49
0.0
 49
0.0
 49
1.0
 49
0.0
 49
0.0
 49
0.0
 49
0.0
 49
1.0
175
     0
142
0.0208333333333333
142
0.0
142
0.0
142
0.0
142
0.0
142
0.0208333333333333
142
0.0
142
0.0
142
0.0
142
0.0
142
1.0
142
0.0
142
0.0
142
0.0
142
0.0
142
1.0
179
     0
144
0.0208333333333333
144
0.0
144
0.0
144
0.0
144
0.0
144
0.0208333333333333
144
0.0
144
0.0
144
0.0
144
0.0
144
1.0
144
0.0
144
0.0
144
0.0
144
0.0
144
1.0
147
0.0208333333333333
147
0.0
147
0.0
147
0.0
147
0.0
147
0.0208333333333333
147
0.0
147
0.0
147
0.0
147
0.0
147
1.0
147
0.0
147
0.0
147
0.0
147
0.0
147
1.0
  0
MATERIAL
  5
2E9
102
{ACAD_XDICTIONARY
360
2EA
102
}
102
{ACAD_REACTORS
330
2E8
102
}
330
2E8
100
AcDbMaterial
  1
ByLayer
 72
     0
 43
0.0208333333333333
 43
0.0
 43
0.0
 43
0.0
 43
0.0
 43
0.0208333333333333
 43
0.0
 43
0.0
 43
0.0
 43
0.0
 43
1.0
 43
0.0
 43
0.0
 43
0.0
 43
0.0
 43
1.0
 77
     0
 47
0.0208333333333333
 47
0.0
 47
0.0
 47
0.0
 47
0.0
 47
0.0208333333333333
 47
0.0
 47
0.0
 47
0.0
 47
0.0
 47
1.0
 47
0.0
 47
0.0
 47
0.0
 47
0.0
 47
1.0
171
     0
 49
0.0208333333333333
 49
0.0
 49
0.0
 49
0.0
 49
0.0
 49
0.0208333333333333
 49
0.0
 49
0.0
 49
0.0
 49
0.0
 49
1.0
 49
0.0
 49
0.0
 49
0.0
 49
0.0
 49
1.0
175
     0
142
0.0208333333333333
142
0.0
142
0.0
142
0.0
142
0.0
142
0.0208333333333333
142
0.0
142
0.0
142
0.0
142
0.0
142
1.0
142
0.0
142
0.0
142
0.0
142
0.0
142
1.0
179
     0
144
0.0208333333333333
144
0.0
144
0.0
144
0.0
144
0.0
144
0.0208333333333333
144
0.0
144
0.0
144
0.0
144
0.0
144
1.0
144
0.0
144
0.0
144
0.0
144
0.0
144
1.0
147
0.0208333333333333
147
0.0
147
0.0
147
0.0
147
0.0
147
0.0208333333333333
147
0.0
147
0.0
147
0.0
147
0.0
147
1.0
147
0.0
147
0.0
147
0.0
147
0.0
147
1.0
  0
MATERIAL
  5
2F9
102
{ACAD_XDICTIONARY
360
2FA
102
}
102
{ACAD_REACTORS
330
2E8
102
}
330
2E8
100
AcDbMaterial
  1
Global
 72
     0
 43
0.0208333333333333
 43
0.0
 43
0.0
 43
0.0
 43
0.0
 43
0.0208333333333333
 43
0.0
 43
0.0
 43
0.0
 43
0.0
 43
1.0
 43
0.0
 43
0.0
 43
0.0
 43
0.0
 43
1.0
 77
     0
 47
0.0208333333333333
 47
0.0
 47
0.0
 47
0.0
 47
0.0
 47
0.0208333333333333
 47
0.0
 47
0.0
 47
0.0
 47
0.0
 47
1.0
 47
0.0
 47
0.0
 47
0.0
 47
0.0
 47
1.0
171
     0
 49
0.0208333333333333
 49
0.0
 49
0.0
 49
0.0
 49
0.0
 49
0.0208333333333333
 49
0.0
 49
0.0
 49
0.0
 49
0.0
 49
1.0
 49
0.0
 49
0.0
 49
0.0
 49
0.0
 49
1.0
175
     0
142
0.0208333333333333
142
0.0
142
0.0
142
0.0
142
0.0
142
0.0208333333333333
142
0.0
142
0.0
142
0.0
142
0.0
142
1.0
142
0.0
142
0.0
142
0.0
142
0.0
142
1.0
179
     0
144
0.0208333333333333
144
0.0
144
0.0
144
0.0
144
0.0
144
0.0208333333333333
144
0.0
144
0.0
144
0.0
144
0.0
144
1.0
144
0.0
144
0.0
144
0.0
144
0.0
144
1.0
147
0.0208333333333333
147
0.0
147
0.0
147
0.0
147
0.0
147
0.0208333333333333
147
0.0
147
0.0
147
0.0
147
0.0
147
1.0
147
0.0
147
0.0
147
0.0
147
0.0
147
1.0
  0
MLEADERSTYLE
  5
328
102
{ACAD_REACTORS
330
327
102
}
330
327
100
AcDbMLeaderStyle
170
     2
171
     1
172
     0
 90
        2
 40
0.0
 41
0.0
173
     1
 91
-1056964608
340
11
 92
       -2
290
     1
 42
2.0
291
     1
 43
0.36
  3
Standard
 44
4.0
300

342
17
174
     1
178
     6
175
     1
176
     0
 93
-1056964608
 45
4.0
292
     0
297
     0
 46
4.0
 94
-1056964608
 47
1.0
 49
1.0
140
1.0
293
     1
141
0.0
294
     1
177
     0
142
1.0
295
     0
296
     0
143
0.125
1001
ACAD_MLEADERVER
1070
     2
  0
MLINESTYLE
  5
1C
102
{ACAD_REACTORS
330
1B
102
}
330
1B
100
AcDbMlineStyle
  2
STANDARD
 70
     0
  3

 62
     0
 51
90.0
 52
90.0
 71
     2
 49
0.5
 62
   256
  6
BYLAYER
 49
-0.5
 62
   256
  6
BYLAYER
  0
ACDBPLACEHOLDER
  5
1D
102
{ACAD_REACTORS
330
1F
102
}
330
1F
  0
SCALE
  5
316
102
{ACAD_REACTORS
330
315
102
}
330
315
100
AcDbScale
 70
     0
300
1:1
140
1.0
141
1.0
290
     1
  0
SCALE
  5
317
102
{ACAD_REACTORS
330
315
102
}
330
315
100
AcDbScale
 70
     0
300
1:2
140
1.0
141
2.0
290
     0
  0
SCALE
  5
318
102
{ACAD_REACTORS
330
315
102
}
330
315
100
AcDbScale
 70
     0
300
1:4
140
1.0
141
4.0
290
     0
  0
SCALE
  5
319
102
{ACAD_REACTORS
330
315
102
}
330
315
100
AcDbScale
 70
     0
300
1:5
140
1.0
141
5.0
290
     0
  0
SCALE
  5
31A
102
{ACAD_REACTORS
330
315
102
}
330
315
100
AcDbScale
 70
     0
300
1:8
140
1.0
141
8.0
290
     0
  0
SCALE
  5
31B
102
{ACAD_REACTORS
330
315
102
}
330
315
100
AcDbScale
 70
     0
300
1:10
140
1.0
141
10.0
290
     0
  0
SCALE
  5
31C
102
{ACAD_REACTORS
330
315
102
}
330
315
100
AcDbScale
 70
     0
300
1:16
140
1.0
141
16.0
290
     0
  0
SCALE
  5
31D
102
{ACAD_REACTORS
330
315
102
}
330
315
100
AcDbScale
 70
     0
300
1:20
140
1.0
141
20.0
290
     0
  0
SCALE
  5
31E
102
{ACAD_REACTORS
330
315
102
}
330
315
100
AcDbScale
 70
     0
300
1:30
140
1.0
141
30.0
290
     0
  0
SCALE
  5
31F
102
{ACAD_REACTORS
330
315
102
}
330
315
100
AcDbScale
 70
     0
300
1:40
140
1.0
141
40.0
290
     0
  0
SCALE
  5
320
102
{ACAD_REACTORS
330
315
102
}
330
315
100
AcDbScale
 70
     0
300
1:50
140
1.0
141
50.0
290
     0
  0
SCALE
  5
321
102
{ACAD_REACTORS
330
315
102
}
330
315
100
AcDbScale
 70
     0
300
1:100
140
1.0
141
100.0
290
     0
  0
SCALE
  5
322
102
{ACAD_REACTORS
330
315
102
}
330
315
100
AcDbScale
 70
     0
300
2:1
140
2.0
141
1.0
290
     0
  0
SCALE
  5
323
102
{ACAD_REACTORS
330
315
102
}
330
315
100
AcDbScale
 70
     0
300
4:1
140
4.0
141
1.0
290
     0
  0
SCALE
  5
324
102
{ACAD_REACTORS
330
315
102
}
330
315
100
AcDbScale
 70
     0
300
8:1
140
8.0
141
1.0
290
     0
  0
SCALE
  5
325
102
{ACAD_REACTORS
330
315
102
}
330
315
100
AcDbScale
 70
     0
300
10:1
140
10.0
141
1.0
290
     0
  0
SCALE
  5
326
102
{ACAD_REACTORS
330
315
102
}
330
315
100
AcDbScale
 70
     0
300
100:1
140
100.0
141
1.0
290
     0
  0
TABLESTYLE
  5
314
102
{ACAD_XDICTIONARY
360
375
102
}
102
{ACAD_REACTORS
330
313
102
}
330
313
100
AcDbTableStyle
  3
Standard
 70
     0
 71
     0
 40
1.5
 41
1.5
280
     0
281
     0
  7
Standard
140
4.5
170
     2
 62
     0
 63
     7
283
     0
 90
      512
 91
        0
  1

274
    -2
284
     1
 64
     0
275
    -2
285
     1
 65
     0
276
    -2
286
     1
 66
     0
277
    -2
287
     1
 67
     0
278
    -2
288
     1
 68
     0
279
    -2
289
     1
 69
     0
  7
Standard
140
6.0
170
     5
 62
     0
 63
     7
283
     0
 90
      512
 91
        0
  1

274
    -2
284
     1
 64
     0
275
    -2
285
     1
 65
     0
276
    -2
286
     1
 66
     0
277
    -2
287
     1
 67
     0
278
    -2
288
     1
 68
     0
279
    -2
289
     1
 69
     0
  7
Standard
140
4.5
170
     5
 62
     0
 63
     7
283
     0
 90
      512
 91
        0
  1

274
    -2
284
     1
 64
     0
275
    -2
285
     1
 65
     0
276
    -2
286
     1
 66
     0
277
    -2
287
     1
 67
     0
278
    -2
288
     1
 68
     0
279
    -2
289
     1
 69
     0
  0
VISUALSTYLE
  5
307
102
{ACAD_REACTORS
330
301
102
}
330
301
100
AcDbVisualStyle
  2
2dWireframe
 70
     4
 71
     0
 72
     2
 73
     0
 90
        0
 40
-0.6
 41
-30.0
 62
     5
 63
     7
421
 16777215
 74
     1
 91
        4
 64
     7
 65
   257
 75
     1
175
     1
 42
1.0
 92
        0
 66
   257
 43
1.0
 76
     1
 77
     6
 78
     2
 67
     7
 79
     5
170
     0
171
     0
290
     0
174
     0
 93
        1
 44
0.0
173
     0
291
     0
 45
0.0
  0
VISUALSTYLE
  5
309
102
{ACAD_REACTORS
330
301
102
}
330
301
100
AcDbVisualStyle
  2
3D Hidden
 70
     6
 71
     1
 72
     2
 73
     2
 90
        0
 40
-0.6
 41
-30.0
 62
     5
 63
     7
421
 16777215
 74
     2
 91
        2
 64
     7
 65
   257
 75
     2
175
     1
 42
40.0
 92
        0
 66
   257
 43
1.0
 76
     1
 77
     6
 78
     2
 67
     7
 79
     3
170
     0
171
     0
290
     0
174
     0
 93
        1
 44
0.0
173
     0
291
     0
 45
0.0
  0
VISUALSTYLE
  5
308
102
{ACAD_REACTORS
330
301
102
}
330
301
100
AcDbVisualStyle
  2
3dWireframe
 70
     5
 71
     0
 72
     2
 73
     0
 90
        0
 40
-0.6
 41
-30.0
 62
     5
 63
     7
421
 16777215
 74
     1
 91
        4
 64
     7
 65
   257
 75
     1
175
     1
 42
1.0
 92
        0
 66
   257
 43
1.0
 76
     1
 77
     6
 78
     2
 67
     7
 79
     5
170
     0
171
     0
290
     0
174
     0
 93
        1
 44
0.0
173
     0
291
     0
 45
0.0
  0
VISUALSTYLE
  5
306
102
{ACAD_REACTORS
330
301
102
}
330
301
100
AcDbVisualStyle
  2
Basic
 70
     7
 71
     1
 72
     0
 73
     1
 90
        0
 40
-0.6
 41
-30.0
 62
     5
 63
     7
421
 16777215
 74
     0
 91
        4
 64
     7
 65
   257
 75
     1
175
     1
 42
1.0
 92
        8
 66
     7
 43
1.0
 76
     1
 77
     6
 78
     2
 67
     7
 79
     5
170
     0
171
     0
290
     0
174
     0
 93
        1
 44
0.0
173
     0
291
     1
 45
0.0
  0
VISUALSTYLE
  5
30D
102
{ACAD_REACTORS
330
301
102
}
330
301
100
AcDbVisualStyle
  2
Brighten
 70
    12
 71
     2
 72
     2
 73
     0
 90
        0
 40
-0.6
 41
-30.0
 62
     5
 63
     7
421
 16777215
 74
     1
 91
        4
 64
     7
 65
   257
 75
     1
175
     1
 42
1.0
 92
        8
 66
     7
 43
1.0
 76
     1
 77
     6
 78
     2
 67
     7
 79
     5
170
     0
171
     0
290
     0
174
     0
 93
        1
 44
50.0
173
     0
291
     1
 45
0.0
  0
VISUALSTYLE
  5
311
102
{ACAD_REACTORS
330
301
102
}
330
301
100
AcDbVisualStyle
  2
ColorChange
 70
    16
 71
     2
 72
     2
 73
     3
 90
        0
 40
-0.6
 41
-30.0
 62
     5
 63
     8
421
  8421504
 74
     1
 91
        4
 64
     7
 65
   257
 75
     1
175
     1
 42
1.0
 92
        8
 66
     8
424
  8421504
 43
1.0
 76
     1
 77
     6
 78
     2
 67
     7
 79
     5
170
     0
171
     0
290
     0
174
     0
 93
        1
 44
0.0
173
     0
291
     1
 45
0.0
  0
VISUALSTYLE
  5
30A
102
{ACAD_REACTORS
330
301
102
}
330
301
100
AcDbVisualStyle
  2
Conceptual
 70
     9
 71
     3
 72
     2
 73
     0
 90
        0
 40
-0.6
 41
-30.0
 62
     5
 63
     7
421
 16777215
 74
     2
 91
        2
 64
     7
 65
   257
 75
     1
175
     1
 42
40.0
 92
        8
 66
     7
 43
1.0
 76
     1
 77
     6
 78
     2
 67
     7
 79
     3
170
     0
171
     0
290
     0
174
     0
 93
        1
 44
0.0
173
     0
291
     0
 45
0.0
  0
VISUALSTYLE
  5
30C
102
{ACAD_REACTORS
330
301
102
}
330
301
100
AcDbVisualStyle
  2
Dim
 70
    11
 71
     2
 72
     2
 73
     0
 90
        0
 40
-0.6
 41
-30.0
 62
     5
 63
     7
421
 16777215
 74
     1
 91
        4
 64
     7
 65
   257
 75
     1
175
     1
 42
1.0
 92
        8
 66
     7
 43
1.0
 76
     1
 77
     6
 78
     2
 67
     7
 79
     5
170
     0
171
     0
290
     0
174
     0
 93
        1
 44
-50.0
173
     0
291
     1
 45
0.0
  0
VISUALSTYLE
  5
310
102
{ACAD_REACTORS
330
301
102
}
330
301
100
AcDbVisualStyle
  2
Facepattern
 70
    15
 71
     2
 72
     2
 73
     0
 90
        0
 40
-0.6
 41
-30.0
 62
     5
 63
     7
421
 16777215
 74
     1
 91
        4
 64
     7
 65
   257
 75
     1
175
     1
 42
1.0
 92
        8
 66
     7
 43
1.0
 76
     1
 77
     6
 78
     2
 67
     7
 79
     5
170
     0
171
     0
290
     0
174
     0
 93
        1
 44
0.0
173
     0
291
     1
 45
0.0
  0
VISUALSTYLE
  5
302
102
{ACAD_REACTORS
330
301
102
}
330
301
100
AcDbVisualStyle
  2
Flat
 70
     0
 71
     2
 72
     1
 73
     1
 90
        2
 40
-0.6
 41
30.0
 62
     5
 63
     7
421
 16777215
 74
     0
 91
        4
 64
     7
 65
   257
 75
     1
175
     1
 42
1.0
 92
        8
 66
     7
 43
1.0
 76
     1
 77
     6
 78
     2
 67
     7
 79
     5
170
     0
171
     0
290
     0
174
     0
 93
       13
 44
0.0
173
     0
291
     1
 45
0.0
  0
VISUALSTYLE
  5
303
102
{ACAD_REACTORS
330
301
102
}
330
301
100
AcDbVisualStyle
  2
FlatWithEdges
 70
     1
 71
     2
 72
     1
 73
     1
 90
        2
 40
-0.6
 41
30.0
 62
     5
 63
     7
421
 16777215
 74
     1
 91
        4
 64
     7
 65
   257
 75
     1
175
     1
 42
1.0
 92
        0
 66
   257
 43
1.0
 76
     1
 77
     6
 78
     2
 67
     7
 79
     5
170
     0
171
     0
290
     0
174
     0
 93
       13
 44
0.0
173
     0
291
     1
 45
0.0
  0
VISUALSTYLE
  5
304
102
{ACAD_REACTORS
330
301
102
}
330
301
100
AcDbVisualStyle
  2
Gouraud
 70
     2
 71
     2
 72
     2
 73
     1
 90
        2
 40
-0.6
 41
30.0
 62
     5
 63
     7
421
 16777215
 74
     0
 91
        4
 64
     7
 65
   257
 75
     1
175
     1
 42
1.0
 92
        0
 66
     7
 43
1.0
 76
     1
 77
     6
 78
     2
 67
     7
 79
     5
170
     0
171
     0
290
     0
174
     0
 93
       13
 44
0.0
173
     0
291
     1
 45
0.0
  0
VISUALSTYLE
  5
305
102
{ACAD_REACTORS
330
301
102
}
330
301
100
AcDbVisualStyle
  2
GouraudWithEdges
 70
     3
 71
     2
 72
     2
 73
     1
 90
        2
 40
-0.6
 41
30.0
 62
     5
 63
     7
421
 16777215
 74
     1
 91
        4
 64
     7
 65
   257
 75
     1
175
     1
 42
1.0
 92
        0
 66
   257
 43
1.0
 76
     1
 77
     6
 78
     2
 67
     7
 79
     5
170
     0
171
     0
290
     0
174
     0
 93
       13
 44
0.0
173
     0
291
     1
 45
0.0
  0
VISUALSTYLE
  5
30F
102
{ACAD_REACTORS
330
301
102
}
330
301
100
AcDbVisualStyle
  2
Linepattern
 70
    14
 71
     2
 72
     2
 73
     0
 90
        0
 40
-0.6
 41
-30.0
 62
     5
 63
     7
421
 16777215
 74
     1
 91
        4
 64
     7
 65
   257
 75
     7
175
     7
 42
1.0
 92
        8
 66
     7
 43
1.0
 76
     1
 77
     6
 78
     2
 67
     7
 79
     5
170
     0
171
     0
290
     0
174
     0
 93
        1
 44
0.0
173
     0
291
     1
 45
0.0
  0
VISUALSTYLE
  5
30B
102
{ACAD_REACTORS
330
301
102
}
330
301
100
AcDbVisualStyle
  2
Realistic
 70
     8
 71
     2
 72
     2
 73
     0
 90
        0
 40
-0.6
 41
-30.0
 62
     5
 63
     7
421
 16777215
 74
     1
 91
        0
 64
     7
 65
   257
 75
     1
175
     1
 42
1.0
 92
        8
 66
     8
424
  7895160
 43
1.0
 76
     1
 77
     6
 78
     2
 67
     7
 79
     5
170
     0
171
     0
290
     0
174
     0
 93
       13
 44
0.0
173
     0
291
     0
 45
0.0
  0
VISUALSTYLE
  5
30E
102
{ACAD_REACTORS
330
301
102
}
330
301
100
AcDbVisualStyle
  2
Thicken
 70
    13
 71
     2
 72
     2
 73
     0
 90
        0
 40
-0.6
 41
-30.0
 62
     5
 63
     7
421
 16777215
 74
     1
 91
        4
 64
     7
 65
   257
 75
     1
175
     1
 42
1.0
 92
       12
 66
     7
 43
1.0
 76
     1
 77
     6
 78
     2
 67
     7
 79
     5
170
     0
171
     0
290
     0
174
     0
 93
        1
 44
0.0
173
     0
291
     1
 45
0.0
  0
DICTIONARYVAR
  5
37C
102
{ACAD_REACTORS
330
378
102
}
330
378
100
DictionaryVariables
280
     0
  1
1:1
  0
DICTIONARYVAR
  5
37A
102
{ACAD_REACTORS
330
378
102
}
330
378
100
DictionaryVariables
280
     0
  1
STANDARD
  0
DICTIONARYVAR
  5
379
102
{ACAD_REACTORS
330
378
102
}
330
378
100
DictionaryVariables
280
     0
  1
STANDARD
  0
DICTIONARYVAR
  5
37E
102
{ACAD_REACTORS
330
378
102
}
330
378
100
DictionaryVariables
280
     0
  1
1
  0
DICTIONARYVAR
  5
37F
102
{ACAD_REACTORS
330
378
102
}
330
378
100
DictionaryVariables
280
     0
  1
15
  0
DICTIONARYVAR
  5
37D
102
{ACAD_REACTORS
330
378
102
}
330
378
100
DictionaryVariables
280
     0
  1
0
  0
DICTIONARYVAR
  5
37B
102
{ACAD_REACTORS
330
378
102
}
330
378
100
DictionaryVariables
280
     0
  1
0
  0
DICTIONARY
  5
2F2
330
2F1
100
AcDbDictionary
280
     1
281
     1
  3
BUMPTILE
360
2F4
  3
DIFFUSETILE
360
2F3
  3
OPACITYTILE
360
2F7
  3
REFLECTIONTILE
360
2F6
  3
REFRACTIONTILE
360
2F8
  3
SPECULARTILE
360
2F5
  0
DICTIONARY
  5
2EA
330
2E9
100
AcDbDictionary
280
     1
281
     1
  3
BUMPTILE
360
2EC
  3
DIFFUSETILE
360
2EB
  3
OPACITYTILE
360
2EF
  3
REFLECTIONTILE
360
2EE
  3
REFRACTIONTILE
360
2F0
  3
SPECULARTILE
360
2ED
  0
DICTIONARY
  5
2FA
330
2F9
100
AcDbDictionary
280
     1
281
     1
  3
BUMPTILE
360
2FC
  3
DIFFUSETILE
360
2FB
  3
OPACITYTILE
360
2FF
  3
REFLECTIONTILE
360
2FE
  3
REFRACTIONTILE
360
300
  3
SPECULARTILE
360
2FD
  0
DICTIONARY
  5
375
330
314
100
AcDbDictionary
280
     1
281
     1
  3
ACAD_ROUNDTRIP_2008_TABLESTYLE_CELLSTYLEMAP
360
387
  0
XRECORD
  5
2F4
102
{ACAD_REACTORS
330
2F2
102
}
330
2F2
100
AcDbXrecord
280
     1
270
     1
271
     1
  0
XRECORD
  5
2F3
102
{ACAD_REACTORS
330
2F2
102
}
330
2F2
100
AcDbXrecord
280
     1
270
     1
271
     1
  0
XRECORD
  5
2F7
102
{ACAD_REACTORS
330
2F2
102
}
330
2F2
100
AcDbXrecord
280
     1
270
     1
271
     1
  0
XRECORD
  5
2F6
102
{ACAD_REACTORS
330
2F2
102
}
330
2F2
100
AcDbXrecord
280
     1
270
     1
271
     1
  0
XRECORD
  5
2F8
102
{ACAD_REACTORS
330
2F2
102
}
330
2F2
100
AcDbXrecord
280
     1
270
     1
271
     1
  0
XRECORD
  5
2F5
102
{ACAD_REACTORS
330
2F2
102
}
330
2F2
100
AcDbXrecord
280
     1
270
     1
271
     1
  0
XRECORD
  5
2EC
102
{ACAD_REACTORS
330
2EA
102
}
330
2EA
100
AcDbXrecord
280
     1
270
     1
271
     1
  0
XRECORD
  5
2EB
102
{ACAD_REACTORS
330
2EA
102
}
330
2EA
100
AcDbXrecord
280
     1
270
     1
271
     1
  0
XRECORD
  5
2EF
102
{ACAD_REACTORS
330
2EA
102
}
330
2EA
100
AcDbXrecord
280
     1
270
     1
271
     1
  0
XRECORD
  5
2EE
102
{ACAD_REACTORS
330
2EA
102
}
330
2EA
100
AcDbXrecord
280
     1
270
     1
271
     1
  0
XRECORD
  5
2F0
102
{ACAD_REACTORS
330
2EA
102
}
330
2EA
100
AcDbXrecord
280
     1
270
     1
271
     1
  0
XRECORD
  5
2ED
102
{ACAD_REACTORS
330
2EA
102
}
330
2EA
100
AcDbXrecord
280
     1
270
     1
271
     1
  0
XRECORD
  5
2FC
102
{ACAD_REACTORS
330
2FA
102
}
330
2FA
100
AcDbXrecord
280
     1
270
     1
271
     1
  0
XRECORD
  5
2FB
102
{ACAD_REACTORS
330
2FA
102
}
330
2FA
100
AcDbXrecord
280
     1
270
     1
271
     1
  0
XRECORD
  5
2FF
102
{ACAD_REACTORS
330
2FA
102
}
330
2FA
100
AcDbXrecord
280
     1
270
     1
271
     1
  0
XRECORD
  5
2FE
102
{ACAD_REACTORS
330
2FA
102
}
330
2FA
100
AcDbXrecord
280
     1
270
     1
271
     1
  0
XRECORD
  5
300
102
{ACAD_REACTORS
330
2FA
102
}
330
2FA
100
AcDbXrecord
280
     1
270
     1
271
     1
  0
XRECORD
  5
2FD
102
{ACAD_REACTORS
330
2FA
102
}
330
2FA
100
AcDbXrecord
280
     1
270
     1
271
     1
  0
CELLSTYLEMAP
  5
387
102
{ACAD_REACTORS
330
375
102
}
330
375
100
AcDbCellStyleMap
 90
        3
300
CELLSTYLE
  1
TABLEFORMAT_BEGIN
 90
        5
170
     1
 91
        0
 92
    32768
 62
   257
 93
        1
300
CONTENTFORMAT
  1
CONTENTFORMAT_BEGIN
 90
        0
 91
        0
 92
      512
 93
        0
300

 40
0.0
140
1.0
 94
        5
 62
     0
340
17
144
6.0
309
CONTENTFORMAT_END
171
     1
301
MARGIN
  1
CELLMARGIN_BEGIN
 40
1.5
 40
1.5
 40
1.5
 40
1.5
 40
4.5
 40
4.5
309
CELLMARGIN_END
 94
        6
 95
        1
302
GRIDFORMAT
  1
GRIDFORMAT_BEGIN
 90
        0
 91
        1
 62
     0
 92
       -2
340
0
 93
        0
 40
1.125
309
GRIDFORMAT_END
 95
        2
302
GRIDFORMAT
  1
GRIDFORMAT_BEGIN
 90
        0
 91
        1
 62
     0
 92
       -2
340
0
 93
        0
 40
1.125
309
GRIDFORMAT_END
 95
        4
302
GRIDFORMAT
  1
GRIDFORMAT_BEGIN
 90
        0
 91
        1
 62
     0
 92
       -2
340
0
 93
        0
 40
1.125
309
GRIDFORMAT_END
 95
        8
302
GRIDFORMAT
  1
GRIDFORMAT_BEGIN
 90
        0
 91
        1
 62
     0
 92
       -2
340
0
 93
        0
 40
1.125
309
GRIDFORMAT_END
 95
       16
302
GRIDFORMAT
  1
GRIDFORMAT_BEGIN
 90
        0
 91
        1
 62
     0
 92
       -2
340
0
 93
        0
 40
1.125
309
GRIDFORMAT_END
 95
       32
302
GRIDFORMAT
  1
GRIDFORMAT_BEGIN
 90
        0
 91
        1
 62
     0
 92
       -2
340
0
 93
        0
 40
1.125
309
GRIDFORMAT_END
309
TABLEFORMAT_END
  1
CELLSTYLE_BEGIN
 90
        1
 91
        1
300
_TITLE
309
CELLSTYLE_END
300
CELLSTYLE
  1
TABLEFORMAT_BEGIN
 90
        5
170
     1
 91
        0
 92
        0
 62
   257
 93
        1
300
CONTENTFORMAT
  1
CONTENTFORMAT_BEGIN
 90
        0
 91
        0
 92
      512
 93
        0
300

 40
0.0
140
1.0
 94
        5
 62
     0
340
17
144
4.5
309
CONTENTFORMAT_END
171
     1
301
MARGIN
  1
CELLMARGIN_BEGIN
 40
1.5
 40
1.5
 40
1.5
 40
1.5
 40
4.5
 40
4.5
309
CELLMARGIN_END
 94
        6
 95
        1
302
GRIDFORMAT
  1
GRIDFORMAT_BEGIN
 90
        0
 91
        1
 62
     0
 92
       -2
340
0
 93
        0
 40
1.125
309
GRIDFORMAT_END
 95
        2
302
GRIDFORMAT
  1
GRIDFORMAT_BEGIN
 90
        0
 91
        1
 62
     0
 92
       -2
340
0
 93
        0
 40
1.125
309
GRIDFORMAT_END
 95
        4
302
GRIDFORMAT
  1
GRIDFORMAT_BEGIN
 90
        0
 91
        1
 62
     0
 92
       -2
340
0
 93
        0
 40
1.125
309
GRIDFORMAT_END
 95
        8
302
GRIDFORMAT
  1
GRIDFORMAT_BEGIN
 90
        0
 91
        1
 62
     0
 92
       -2
340
0
 93
        0
 40
1.125
309
GRIDFORMAT_END
 95
       16
302
GRIDFORMAT
  1
GRIDFORMAT_BEGIN
 90
        0
 91
        1
 62
     0
 92
       -2
340
0
 93
        0
 40
1.125
309
GRIDFORMAT_END
 95
       32
302
GRIDFORMAT
  1
GRIDFORMAT_BEGIN
 90
        0
 91
        1
 62
     0
 92
       -2
340
0
 93
        0
 40
1.125
309
GRIDFORMAT_END
309
TABLEFORMAT_END
  1
CELLSTYLE_BEGIN
 90
        2
 91
        1
300
_HEADER
309
CELLSTYLE_END
300
CELLSTYLE
  1
TABLEFORMAT_BEGIN
 90
        5
170
     1
 91
        0
 92
        0
 62
   257
 93
        1
300
CONTENTFORMAT
  1
CONTENTFORMAT_BEGIN
 90
        0
 91
        0
 92
      512
 93
        0
300

 40
0.0
140
1.0
 94
        2
 62
     0
340
17
144
4.5
309
CONTENTFORMAT_END
171
     1
301
MARGIN
  1
CELLMARGIN_BEGIN
 40
1.5
 40
1.5
 40
1.5
 40
1.5
 40
4.5
 40
4.5
309
CELLMARGIN_END
 94
        6
 95
        1
302
GRIDFORMAT
  1
GRIDFORMAT_BEGIN
 90
        0
 91
        1
 62
     0
 92
       -2
340
0
 93
        0
 40
1.125
309
GRIDFORMAT_END
 95
        2
302
GRIDFORMAT
  1
GRIDFORMAT_BEGIN
 90
        0
 91
        1
 62
     0
 92
       -2
340
0
 93
        0
 40
1.125
309
GRIDFORMAT_END
 95
        4
302
GRIDFORMAT
  1
GRIDFORMAT_BEGIN
 90
        0
 91
        1
 62
     0
 92
       -2
340
0
 93
        0
 40
1.125
309
GRIDFORMAT_END
 95
        8
302
GRIDFORMAT
  1
GRIDFORMAT_BEGIN
 90
        0
 91
        1
 62
     0
 92
       -2
340
0
 93
        0
 40
1.125
309
GRIDFORMAT_END
 95
       16
302
GRIDFORMAT
  1
GRIDFORMAT_BEGIN
 90
        0
 91
        1
 62
     0
 92
       -2
340
0
 93
        0
 40
1.125
309
GRIDFORMAT_END
 95
       32
302
GRIDFORMAT
  1
GRIDFORMAT_BEGIN
 90
        0
 91
        1
 62
     0
 92
       -2
340
0
 93
        0
 40
1.125
309
GRIDFORMAT_END
309
TABLEFORMAT_END
  1
CELLSTYLE_BEGIN
 90
        3
 91
        2
300
_DATA
309
CELLSTYLE_END
  0
ENDSEC
  0
EOF
