  0
SECTION
  2
HEADER
  9
$ACADVER
  1
AC1009
  9
$INSBASE
 10
-0.0000000000000071
 20
0.0
 30
0.0
  9
$EXTMIN
 10
-98.682637204480557
 20
-11.975343492973691
 30
0.0
  9
$EXTMAX
 10
85.905849999985278
 20
7.5657217598905611
 30
0.0
  9
$LIMMIN
 10
0.0
 20
0.0
  9
$LIMMAX
 10
12.0
 20
9.0
  9
$ORTHOMODE
 70
     1
  9
$REGENMODE
 70
     1
  9
$FILLMODE
 70
     1
  9
$QTEXTMODE
 70
     0
  9
$MIRRTEXT
 70
     1
  9
$DRAGMODE
 70
     2
  9
$LTSCALE
 40
1.0
  9
$OSMODE
 70
    35
  9
$ATTMODE
 70
     1
  9
$TEXTSIZE
 40
0.2
  9
$TRACEWID
 40
0.05
  9
$TEXTSTYLE
  7
STANDARD
  9
$CLAYER
  8
0
  9
$CELTYPE
  6
CONTINUOUS
  9
$CECOLOR
 62
   256
  9
$DIMSCALE
 40
96.0
  9
$DIMASZ
 40
0.18
  9
$DIMEXO
 40
0.0625
  9
$DIMDLI
 40
0.38
  9
$DIMRND
 40
0.0
  9
$DIMDLE
 40
0.0
  9
$DIMEXE
 40
0.18
  9
$DIMTP
 40
0.0
  9
$DIMTM
 40
0.0
  9
$DIMTXT
 40
0.18
  9
$DIMCEN
 40
0.09
  9
$DIMTSZ
 40
0.0
  9
$DIMTOL
 70
     0
  9
$DIMLIM
 70
     0
  9
$DIMTIH
 70
     1
  9
$DIMTOH
 70
     1
  9
$DIMSE1
 70
     0
  9
$DIMSE2
 70
     0
  9
$DIMTAD
 70
     0
  9
$DIMZIN
 70
     0
  9
$DIMBLK
  1

  9
$DIMASO
 70
     1
  9
$DIMSHO
 70
     1
  9
$DIMPOST
  1

  9
$DIMAPOST
  1

  9
$DIMALT
 70
     0
  9
$DIMALTD
 70
     2
  9
$DIMALTF
 40
25.399999999999999
  9
$DIMLFAC
 40
1.0
  9
$DIMTOFL
 70
     0
  9
$DIMTVP
 40
0.0
  9
$DIMTIX
 70
     0
  9
$DIMSOXD
 70
     0
  9
$DIMSAH
 70
     0
  9
$DIMBLK1
  1

  9
$DIMBLK2
  1

  9
$DIMSTYLE
  2
STANDARD
  9
$DIMCLRD
 70
     0
  9
$DIMCLRE
 70
     0
  9
$DIMCLRT
 70
     0
  9
$DIMTFAC
 40
1.0
  9
$DIMGAP
 40
0.09
  9
$LUNITS
 70
     2
  9
$LUPREC
 70
     4
  9
$SKETCHINC
 40
0.1
  9
$FILLETRAD
 40
0.0
  9
$AUNITS
 70
     0
  9
$AUPREC
 70
     2
  9
$MENU
  1
.
  9
$ELEVATION
 40
0.0
  9
$PELEVATION
 40
0.0
  9
$THICKNESS
 40
0.0
  9
$LIMCHECK
 70
     0
  9
$BLIPMODE
 70
     0
  9
$CHAMFERA
 40
0.0
  9
$CHAMFERB
 40
0.0
  9
$SKPOLY
 70
     0
  9
$TDCREATE
 40
2453067.4751237258
  9
$TDUPDATE
 40
2453087.5063255671
  9
$TDINDWG
 40
0.0908866551
  9
$TDUSRTIMER
 40
0.0908866551
  9
$USRTIMER
 70
     1
  9
$ANGBASE
 50
0.0
  9
$ANGDIR
 70
     0
  9
$PDMODE
 70
     0
  9
$PDSIZE
 40
0.0
  9
$PLINEWID
 40
0.0
  9
$COORDS
 70
     0
  9
$SPLFRAME
 70
     0
  9
$SPLINETYPE
 70
     6
  9
$SPLINESEGS
 70
     8
  9
$ATTDIA
 70
     1
  9
$ATTREQ
 70
     1
  9
$HANDLING
 70
 22529
  9
$HANDSEED
  5
275
  9
$SURFTAB1
 70
     6
  9
$SURFTAB2
 70
     6
  9
$SURFTYPE
 70
     6
  9
$SURFU
 70
     6
  9
$SURFV
 70
     6
  9
$UCSNAME
  2

  9
$UCSORG
 10
0.0
 20
0.0
 30
0.0
  9
$UCSXDIR
 10
1.0
 20
0.0
 30
0.0
  9
$UCSYDIR
 10
0.0
 20
1.0
 30
0.0
  9
$PUCSNAME
  2

  9
$PUCSORG
 10
0.0
 20
0.0
 30
0.0
  9
$PUCSXDIR
 10
1.0
 20
0.0
 30
0.0
  9
$PUCSYDIR
 10
0.0
 20
1.0
 30
0.0
  9
$USERI1
 70
     0
  9
$USERI2
 70
     0
  9
$USERI3
 70
     0
  9
$USERI4
 70
     0
  9
$USERI5
 70
     0
  9
$USERR1
 40
0.0
  9
$USERR2
 40
0.0
  9
$USERR3
 40
0.0
  9
$USERR4
 40
0.0
  9
$USERR5
 40
0.0
  9
$WORLDVIEW
 70
     1
  9
$SHADEDGE
 70
     3
  9
$SHADEDIF
 70
    70
  9
$TILEMODE
 70
     1
  9
$MAXACTVP
 70
    64
  9
$PLIMCHECK
 70
     0
  9
$PEXTMIN
 10
0.0651793344004545
 20
0.0843226476883956
 30
-0.000000000000013
  9
$PEXTMAX
 10
297.06739691459393
 20
383.69014308401432
 30
0.0000000000000023
  9
$PLIMMIN
 10
-0.1979161059762549
 20
-0.2679166643638311
  9
$PLIMMAX
 10
11.493750144177531
 20
7.9987497780266699
  9
$UNITMODE
 70
     0
  9
$VISRETAIN
 70
     1
  9
$PLINEGEN
 70
     0
  9
$PSLTSCALE
 70
     1
  0
ENDSEC
  0
SECTION
  2
TABLES
  0
TABLE
  2
VPORT
 70
     2
  0
VPORT
  2
*ACTIVE
 70
     0
 10
0.0
 20
0.0
 11
1.0
 21
1.0
 12
-4.0644414295096283
 22
-2.204466200848735
 13
0.0
 23
0.0
 14
1.0
 24
1.0
 15
0.0
 25
0.0
 16
0.0
 26
0.0
 36
1.0
 17
0.0
 27
0.0
 37
0.0
 40
104.2301035301067
 41
1.828516377649325
 42
50.0
 43
0.0
 44
0.0
 50
0.0
 51
0.0
 71
     0
 72
   100
 73
     1
 74
     1
 75
     0
 76
     0
 77
     0
 78
     0
  0
ENDTAB
  0
TABLE
  2
LTYPE
 70
     1
  0
LTYPE
  2
CONTINUOUS
 70
     0
  3
Solid line
 72
    65
 73
     0
 40
0.0
  0
ENDTAB
  0
TABLE
  2
LAYER
 70
     3
  0
LAYER
  2
0
 70
     0
 62
     7
  6
CONTINUOUS
  0
LAYER
  2
DEFPOINTS
 70
     0
 62
     7
  6
CONTINUOUS
  0
LAYER
  2
COTATION-JACOBDELAFON
 70
     0
 62
     8
  6
CONTINUOUS
  0
ENDTAB
  0
TABLE
  2
STYLE
 70
     2
  0
STYLE
  2
STANDARD
 70
     0
 40
0.0
 41
1.0
 50
0.0
 71
     0
 42
0.2
  3
txt
  4

  0
STYLE
  2
JACOB-DELAFON
 70
     0
 40
0.0
 41
1.0
 50
0.0
 71
     0
 42
2.5
  3
txt
  4

  0
ENDTAB
  0
TABLE
  2
VIEW
 70
     0
  0
ENDTAB
  0
TABLE
  2
UCS
 70
     0
  0
ENDTAB
  0
TABLE
  2
APPID
 70
     9
  0
APPID
  2
ACAD
 70
     0
  0
APPID
  2
ADCADD_ZZ
 70
     0
  0
APPID
  2
SDSK_PMN
 70
     0
  0
APPID
  2
ACAECLAYERSTANDARD
 70
     0
  0
APPID
  2
AECBASE
 70
     0
  0
APPID
  2
AEC_DWGVARSSETUP_DATA
 70
     0
  0
APPID
  2
AEC_DISPREPCONFIG_DATA
 70
     0
  0
APPID
  2
AEC_DISPREPSET_DATA
 70
     0
  0
APPID
  2
DCO15
 70
     0
  0
ENDTAB
  0
TABLE
  2
DIMSTYLE
 70
     2
  0
DIMSTYLE
  2
STANDARD
 70
     0
  3

  4

  5

  6

  7

 40
1.0
 41
0.18
 42
0.0625
 43
0.38
 44
0.18
 45
0.0
 46
0.0
 47
0.0
 48
0.0
140
0.18
141
0.09
142
0.0
143
25.399999999999999
144
1.0
145
0.0
146
1.0
147
0.09
 71
     0
 72
     0
 73
     1
 74
     1
 75
     0
 76
     0
 77
     0
 78
     0
170
     0
171
     2
172
     0
173
     0
174
     0
175
     0
176
     0
177
     0
178
     0
  0
DIMSTYLE
  2
COTATION-JACOB-DELAFON
 70
     0
  3

  4

  5
OBLIQUE
  6

  7

 40
1.0
 41
1.8
 42
0.625
 43
3.7999999999999989
 44
1.8
 45
0.0
 46
0.0
 47
0.0
 48
0.0
140
3.0
141
0.9
142
0.0
143
25.399999999999999
144
1.0
145
0.0
146
1.0
147
0.9
 71
     0
 72
     0
 73
     0
 74
     0
 75
     0
 76
     0
 77
     1
 78
    12
170
     0
171
     2
172
     0
173
     0
174
     0
175
     0
176
     0
177
     0
178
     0
  0
ENDTAB
  0
ENDSEC
  0
SECTION
  2
BLOCKS
  0
BLOCK
  8
0
  2
$MODEL_SPACE
 70
     0
 10
0.0
 20
0.0
 30
0.0
  3
$MODEL_SPACE
  1

  0
ENDBLK
  5
9
  8
0
  0
BLOCK
 67
     1
  8
0
  2
$PAPER_SPACE
 70
     0
 10
0.0
 20
0.0
 30
0.0
  3
$PAPER_SPACE
  1

  0
ENDBLK
  5
E
 67
     1
  8
0
  0
BLOCK
  8
0
  2
*D0
 70
     1
 10
0.0
 20
0.0
 30
0.0
  3
*D0
  1

  0
LINE
  5
E0
  8
COTATION-JACOBDELAFON
 62
     0
 10
-84.998649999985304
 20
0.3874829366477002
 30
0.0
 11
-84.998649999985304
 21
-11.975343492973691
 31
0.0
  0
LINE
  5
E1
  8
COTATION-JACOBDELAFON
 62
     0
 10
85.005849999985287
 20
0.3873829366477253
 30
0.0
 11
85.005849999985287
 21
-11.975343492973691
 31
0.0
  0
LINE
  5
E2
  8
COTATION-JACOBDELAFON
 62
     0
 10
-84.998649999985304
 20
-10.17534349297369
 30
0.0
 11
85.005849999985287
 21
-10.17534349297369
 31
0.0
  0
INSERT
  5
E3
  8
COTATION-JACOBDELAFON
 62
     0
  2
_OBLIQUE
 10
-84.998649999985304
 20
-10.17534349297369
 30
0.0
 41
1.8
 42
1.8
 43
1.8
 50
180.0
  0
INSERT
  5
E4
  8
COTATION-JACOBDELAFON
 62
     0
  2
_OBLIQUE
 10
85.005849999985287
 20
-10.17534349297369
 30
0.0
 41
1.8
 42
1.8
 43
1.8
  0
TEXT
  5
E5
  8
0
  6
CONTINUOUS
 62
     0
 10
-7.2446946793997427
 20
-9.1607459486353591
 30
0.0
 40
6.0
  1
170
  7
JACOB-DELAFON
  0
POINT
  5
E6
  8
DEFPOINTS
 62
     0
 10
-84.998649999985304
 20
1.0124829366476999
 30
0.0
  0
POINT
  5
E7
  8
DEFPOINTS
 62
     0
 10
85.005849999985287
 20
1.0123829366477251
 30
0.0
  0
POINT
  5
E8
  8
DEFPOINTS
 62
     0
 10
85.005849999985287
 20
-10.17534349297369
 30
0.0
  0
ENDBLK
  5
46
  8
0
  0
BLOCK
  8
0
  2
_OBLIQUE
 70
     0
 10
0.0
 20
0.0
 30
0.0
  3
_OBLIQUE
  1

  0
LINE
  5
48
  8
0
  6
BYBLOCK
 62
     0
 10
-0.5
 20
-0.5
 30
0.0
 11
0.5
 21
0.5
 31
0.0
  0
ENDBLK
  5
4A
  8
0
  0
BLOCK
  8
0
  2
*D2
 70
     1
 10
0.0
 20
0.0
 30
0.0
  3
*D2
  1

  0
LINE
  5
E9
  8
COTATION-JACOBDELAFON
 62
     0
 10
-85.000049999985393
 20
0.0000000000000002
 30
0.0
 11
-89.625952347727491
 21
0.0000000000000015
 31
0.0
  0
LINE
  5
EA
  8
COTATION-JACOBDELAFON
 62
     0
 10
-85.627349999985299
 20
3.49569999999943
 30
0.0
 11
-89.625952347727491
 21
3.4956999999994318
 31
0.0
  0
LINE
  5
EB
  8
COTATION-JACOBDELAFON
 62
     0
 10
-87.825952347727494
 20
0.000000000000001
 30
0.0
 11
-87.825952347727494
 21
3.4956999999994309
 31
0.0
  0
TEXT
  5
EC
  8
0
  6
CONTINUOUS
 62
     0
 10
-91.094642661506484
 20
-4.0863928376537757
 30
0.0
 40
6.0
  1
3.5
 50
90.0
  7
JACOB-DELAFON
  0
INSERT
  5
ED
  8
COTATION-JACOBDELAFON
 62
     0
  2
_OBLIQUE
 10
-87.825952347727494
 20
0.000000000000001
 30
0.0
 41
1.8
 42
1.8
 43
1.8
 50
270.0
  0
INSERT
  5
EE
  8
COTATION-JACOBDELAFON
 62
     0
  2
_OBLIQUE
 10
-87.825952347727494
 20
3.4956999999994309
 30
0.0
 41
1.8
 42
1.8
 43
1.8
 50
90.0
  0
POINT
  5
EF
  8
DEFPOINTS
 62
     0
 10
-84.375049999985393
 20
0.0
 30
0.0
  0
POINT
  5
F0
  8
DEFPOINTS
 62
     0
 10
-85.002349999985299
 20
3.49569999999943
 30
0.0
  0
POINT
  5
F1
  8
DEFPOINTS
 62
     0
 10
-87.825952347727494
 20
3.4956999999994309
 30
0.0
  0
ENDBLK
  5
D6
  8
0
  0
BLOCK
  8
0
  2
ADCADD_ZZ
 70
     0
 10
0.0
 20
0.0
 30
0.0
  3
ADCADD_ZZ
  1

  0
ENDBLK
  5
10D
  8
0
  0
ENDSEC
  0
SECTION
  2
ENTITIES
  0
LINE
  5
24
  8
0
  6
CONTINUOUS
 10
84.379517323455488
 20
0.655200002330389
 30
0.0
 11
-84.375049999985407
 21
0.6552999999998974
 31
0.0
  0
LINE
  5
25
  8
0
  6
CONTINUOUS
 10
84.375049999985393
 20
0.0
 30
0.0
 11
-84.375049999985407
 21
0.0
 31
0.0
  0
LINE
  5
26
  8
0
  6
CONTINUOUS
 10
-84.371310749686046
 20
1.5451999999997379
 30
0.0
 11
84.379517850802884
 21
1.545090831869345
 31
0.0
  0
LINE
  5
27
  8
0
  6
CONTINUOUS
 10
-84.998649999985304
 20
0.4812999999999193
 30
0.0
 11
-84.998649999985304
 21
3.49569999999943
 31
0.0
  0
LINE
  5
28
  8
0
  6
CONTINUOUS
 10
-84.372049999985407
 20
3.49569999999943
 30
0.0
 11
-84.371310749686046
 21
1.5451999999997379
 31
0.0
  0
LINE
  5
29
  8
0
  6
CONTINUOUS
 10
-84.375049999985407
 20
0.6552999999998974
 30
0.0
 11
-84.375049999985464
 21
1.5451999999997379
 31
0.0
  0
LINE
  5
2A
  8
0
  6
CONTINUOUS
 10
-84.816049999985367
 20
0.1409999999999627
 30
0.0
 11
-84.998649999985304
 21
0.4812999999999193
 31
0.0
  0
LINE
  5
2B
  8
0
  6
CONTINUOUS
 10
-84.375049999985407
 20
0.0
 30
0.0
 11
-84.816049999985367
 21
0.1409999999999627
 31
0.0
  0
LINE
  5
2C
  8
0
  6
CONTINUOUS
 10
-85.002349999985299
 20
3.49569999999943
 30
0.0
 11
-84.372049999985407
 21
3.49569999999943
 31
0.0
  0
LINE
  5
2D
  8
0
  6
CONTINUOUS
 10
84.379517323455488
 20
0.655200002330389
 30
0.0
 11
84.379517323455488
 21
3.4955999999993992
 31
0.0
  0
LINE
  5
2E
  8
0
  6
CONTINUOUS
 10
85.007649999985276
 20
3.4955999999993992
 30
0.0
 11
85.004049999985284
 21
0.4811999999999444
 31
0.0
  0
LINE
  5
2F
  8
0
  6
CONTINUOUS
 10
84.821349999985273
 20
0.1408999999999878
 30
0.0
 11
84.375049999985393
 21
0.0
 31
0.0
  0
LINE
  5
30
  8
0
  6
CONTINUOUS
 10
85.004049999985284
 20
0.4811999999999444
 30
0.0
 11
84.821349999985273
 21
0.1408999999999878
 31
0.0
  0
LINE
  5
31
  8
0
  6
CONTINUOUS
 10
84.377449999985345
 20
3.4955999999993992
 30
0.0
 11
85.007649999985276
 21
3.4955999999993992
 31
0.0
  0
DIMENSION
  5
38
  8
COTATION-JACOBDELAFON
  2
*D0
 10
85.005849999985287
 20
-10.17534349297369
 30
0.0
 11
0.0035999999999847
 21
-6.2119055666435452
 31
0.0
 70
     0
 13
-84.998649999985304
 23
1.0124829366476999
 33
0.0
 14
85.005849999985287
 24
1.0123829366477251
 34
0.0
1001
ACAD
1000
DSTYLE
1002
{
1070
   140
1040
6.0
1002
}
  0
DIMENSION
  5
C8
  8
COTATION-JACOBDELAFON
  2
*D2
 10
-87.825952347727494
 20
3.4956999999994309
 30
0.0
 11
-94.041436658777954
 21
1.7478499999997019
 31
0.0
 70
     0
 13
-84.375049999985393
 23
0.0
 33
0.0
 14
-85.002349999985299
 24
3.49569999999943
 34
0.0
 50
90.0
1001
ACAD
1000
DSTYLE
1002
{
1070
   140
1040
6.0
1002
}
  0
INSERT
  5
10E
 67
     1
  8
0
  6
CONTINUOUS
  2
ADCADD_ZZ
 10
0.0
 20
0.0
 30
0.0
1001
ADCADD_ZZ
1070
   205
1070
    14
1070
   209
1070
     1
1070
   231
1070
     0
1070
   235
1070
     0
1070
   236
1070
     4
1070
   237
1070
     2
1070
   238
1070
     4
1070
   239
1070
     2
1070
   240
1070
     0
1070
   241
1070
  4096
1070
   242
1070
     2
1070
   244
1070
     0
1070
   245
1070
     1
1070
   303
1040
0.1
1070
   304
1040
4.0
1070
   305
1040
96.0
1070
   306
1040
0.125
1070
   337
1040
0.0
1070
   338
1040
0.3048
1070
   339
1040
0.0625
1070
   340
1040
96.0
1070
   341
1040
4.0
1070
   342
1040
96.0
1070
   530
1010
0.0
1020
0.0
1030
0.0
1070
   531
1010
0.0
1020
0.0
1030
0.0
1070
   107
1000

1070
   108
1000
Architectural Desktop
1070
   135
1000
L120
1070
   136
1000
'
1070
   137
1000
m
1001
SDSK_PMN
1070
   100
1000
ACADARCH
1070
   300
1040
2453087.506375764
  0
ENDSEC
  0
EOF
