  0
SECTION
  2
HEADER
  9
$ACADVER
  1
AC1009
  9
$INSBASE
 10
0.0
 20
0.0
 30
0.0
  9
$EXTMIN
 10
-102.67293864016121
 20
-0.9034332275390601
 30
0.0
  9
$EXTMAX
 10
85.903198598608554
 20
75.1840694811102
 30
0.0
  9
$LIMMIN
 10
0.0
 20
0.0
  9
$LIMMAX
 10
12.0
 20
9.0
  9
$ORTHOMODE
 70
     1
  9
$REGENMODE
 70
     1
  9
$FILLMODE
 70
     1
  9
$QTEXTMODE
 70
     0
  9
$MIRRTEXT
 70
     1
  9
$DRAGMODE
 70
     2
  9
$LTSCALE
 40
1.0
  9
$OSMODE
 70
    35
  9
$ATTMODE
 70
     1
  9
$TEXTSIZE
 40
0.2
  9
$TRACEWID
 40
0.05
  9
$TEXTSTYLE
  7
STANDARD
  9
$CLAYER
  8
0
  9
$CELTYPE
  6
CONTINUOUS
  9
$CECOLOR
 62
   256
  9
$DIMSCALE
 40
96.0
  9
$DIMASZ
 40
0.18
  9
$DIMEXO
 40
0.0625
  9
$DIMDLI
 40
0.38
  9
$DIMRND
 40
0.0
  9
$DIMDLE
 40
0.0
  9
$DIMEXE
 40
0.18
  9
$DIMTP
 40
0.0
  9
$DIMTM
 40
0.0
  9
$DIMTXT
 40
0.18
  9
$DIMCEN
 40
0.09
  9
$DIMTSZ
 40
0.0
  9
$DIMTOL
 70
     0
  9
$DIMLIM
 70
     0
  9
$DIMTIH
 70
     1
  9
$DIMTOH
 70
     1
  9
$DIMSE1
 70
     0
  9
$DIMSE2
 70
     0
  9
$DIMTAD
 70
     0
  9
$DIMZIN
 70
     0
  9
$DIMBLK
  1

  9
$DIMASO
 70
     1
  9
$DIMSHO
 70
     1
  9
$DIMPOST
  1

  9
$DIMAPOST
  1

  9
$DIMALT
 70
     0
  9
$DIMALTD
 70
     2
  9
$DIMALTF
 40
25.399999999999999
  9
$DIMLFAC
 40
1.0
  9
$DIMTOFL
 70
     0
  9
$DIMTVP
 40
0.0
  9
$DIMTIX
 70
     0
  9
$DIMSOXD
 70
     0
  9
$DIMSAH
 70
     0
  9
$DIMBLK1
  1

  9
$DIMBLK2
  1

  9
$DIMSTYLE
  2
STANDARD
  9
$DIMCLRD
 70
     0
  9
$DIMCLRE
 70
     0
  9
$DIMCLRT
 70
     0
  9
$DIMTFAC
 40
1.0
  9
$DIMGAP
 40
0.09
  9
$LUNITS
 70
     2
  9
$LUPREC
 70
     4
  9
$SKETCHINC
 40
0.1
  9
$FILLETRAD
 40
0.0
  9
$AUNITS
 70
     0
  9
$AUPREC
 70
     2
  9
$MENU
  1
.
  9
$ELEVATION
 40
0.0
  9
$PELEVATION
 40
0.0
  9
$THICKNESS
 40
0.0
  9
$LIMCHECK
 70
     0
  9
$BLIPMODE
 70
     0
  9
$CHAMFERA
 40
0.0
  9
$CHAMFERB
 40
0.0
  9
$SKPOLY
 70
     0
  9
$TDCREATE
 40
2453067.4751237258
  9
$TDUPDATE
 40
2453087.5067092241
  9
$TDINDWG
 40
0.0951452315
  9
$TDUSRTIMER
 40
0.0951452315
  9
$USRTIMER
 70
     1
  9
$ANGBASE
 50
0.0
  9
$ANGDIR
 70
     0
  9
$PDMODE
 70
     0
  9
$PDSIZE
 40
0.0
  9
$PLINEWID
 40
0.0
  9
$COORDS
 70
     0
  9
$SPLFRAME
 70
     0
  9
$SPLINETYPE
 70
     6
  9
$SPLINESEGS
 70
     8
  9
$ATTDIA
 70
     1
  9
$ATTREQ
 70
     1
  9
$HANDLING
 70
 22529
  9
$HANDSEED
  5
2A1
  9
$SURFTAB1
 70
     6
  9
$SURFTAB2
 70
     6
  9
$SURFTYPE
 70
     6
  9
$SURFU
 70
     6
  9
$SURFV
 70
     6
  9
$UCSNAME
  2

  9
$UCSORG
 10
0.0
 20
0.0
 30
0.0
  9
$UCSXDIR
 10
1.0
 20
0.0
 30
0.0
  9
$UCSYDIR
 10
0.0
 20
1.0
 30
0.0
  9
$PUCSNAME
  2

  9
$PUCSORG
 10
0.0
 20
0.0
 30
0.0
  9
$PUCSXDIR
 10
1.0
 20
0.0
 30
0.0
  9
$PUCSYDIR
 10
0.0
 20
1.0
 30
0.0
  9
$USERI1
 70
     0
  9
$USERI2
 70
     0
  9
$USERI3
 70
     0
  9
$USERI4
 70
     0
  9
$USERI5
 70
     0
  9
$USERR1
 40
0.0
  9
$USERR2
 40
0.0
  9
$USERR3
 40
0.0
  9
$USERR4
 40
0.0
  9
$USERR5
 40
0.0
  9
$WORLDVIEW
 70
     1
  9
$SHADEDGE
 70
     3
  9
$SHADEDIF
 70
    70
  9
$TILEMODE
 70
     1
  9
$MAXACTVP
 70
    64
  9
$PLIMCHECK
 70
     0
  9
$PEXTMIN
 10
0.0651793344004545
 20
0.0843226476883956
 30
-0.000000000000013
  9
$PEXTMAX
 10
297.06739691459393
 20
383.69014308401432
 30
0.0000000000000023
  9
$PLIMMIN
 10
-0.1979161059762549
 20
-0.2679166643638311
  9
$PLIMMAX
 10
11.493750144177531
 20
7.9987497780266699
  9
$UNITMODE
 70
     0
  9
$VISRETAIN
 70
     1
  9
$PLINEGEN
 70
     0
  9
$PSLTSCALE
 70
     1
  0
ENDSEC
  0
SECTION
  2
TABLES
  0
TABLE
  2
VPORT
 70
     2
  0
VPORT
  2
*ACTIVE
 70
     0
 10
0.0
 20
0.0
 11
1.0
 21
1.0
 12
-6.0081486839062421
 22
37.141156422674491
 13
0.0
 23
0.0
 14
1.0
 24
1.0
 15
0.0
 25
0.0
 16
0.0
 26
0.0
 36
1.0
 17
0.0
 27
0.0
 37
0.0
 40
106.4592592626084
 41
1.828516377649325
 42
50.0
 43
0.0
 44
0.0
 50
0.0
 51
0.0
 71
     0
 72
   100
 73
     1
 74
     1
 75
     0
 76
     0
 77
     0
 78
     0
  0
ENDTAB
  0
TABLE
  2
LTYPE
 70
     1
  0
LTYPE
  2
CONTINUOUS
 70
     0
  3
Solid line
 72
    65
 73
     0
 40
0.0
  0
ENDTAB
  0
TABLE
  2
LAYER
 70
     3
  0
LAYER
  2
0
 70
     0
 62
     7
  6
CONTINUOUS
  0
LAYER
  2
DEFPOINTS
 70
     0
 62
     7
  6
CONTINUOUS
  0
LAYER
  2
COTATION-JACOBDELAFON
 70
     0
 62
     8
  6
CONTINUOUS
  0
ENDTAB
  0
TABLE
  2
STYLE
 70
     2
  0
STYLE
  2
STANDARD
 70
     0
 40
0.0
 41
1.0
 50
0.0
 71
     0
 42
0.2
  3
txt
  4

  0
STYLE
  2
JACOB-DELAFON
 70
     0
 40
0.0
 41
1.0
 50
0.0
 71
     0
 42
2.5
  3
txt
  4

  0
ENDTAB
  0
TABLE
  2
VIEW
 70
     0
  0
ENDTAB
  0
TABLE
  2
UCS
 70
     0
  0
ENDTAB
  0
TABLE
  2
APPID
 70
     9
  0
APPID
  2
ACAD
 70
     0
  0
APPID
  2
ADCADD_ZZ
 70
     0
  0
APPID
  2
SDSK_PMN
 70
     0
  0
APPID
  2
ACAECLAYERSTANDARD
 70
     0
  0
APPID
  2
AECBASE
 70
     0
  0
APPID
  2
AEC_DWGVARSSETUP_DATA
 70
     0
  0
APPID
  2
AEC_DISPREPCONFIG_DATA
 70
     0
  0
APPID
  2
AEC_DISPREPSET_DATA
 70
     0
  0
APPID
  2
DCO15
 70
     0
  0
ENDTAB
  0
TABLE
  2
DIMSTYLE
 70
     2
  0
DIMSTYLE
  2
STANDARD
 70
     0
  3

  4

  5

  6

  7

 40
1.0
 41
0.18
 42
0.0625
 43
0.38
 44
0.18
 45
0.0
 46
0.0
 47
0.0
 48
0.0
140
0.18
141
0.09
142
0.0
143
25.399999999999999
144
1.0
145
0.0
146
1.0
147
0.09
 71
     0
 72
     0
 73
     1
 74
     1
 75
     0
 76
     0
 77
     0
 78
     0
170
     0
171
     2
172
     0
173
     0
174
     0
175
     0
176
     0
177
     0
178
     0
  0
DIMSTYLE
  2
COTATION-JACOB-DELAFON
 70
     0
  3

  4

  5
OBLIQUE
  6

  7

 40
1.0
 41
1.8
 42
0.625
 43
3.7999999999999989
 44
1.8
 45
0.0
 46
0.0
 47
0.0
 48
0.0
140
3.0
141
0.9
142
0.0
143
25.399999999999999
144
1.0
145
0.0
146
1.0
147
0.9
 71
     0
 72
     0
 73
     0
 74
     0
 75
     0
 76
     0
 77
     1
 78
    12
170
     0
171
     2
172
     0
173
     0
174
     0
175
     0
176
     0
177
     0
178
     0
  0
ENDTAB
  0
ENDSEC
  0
SECTION
  2
BLOCKS
  0
BLOCK
  8
0
  2
$MODEL_SPACE
 70
     0
 10
0.0
 20
0.0
 30
0.0
  3
$MODEL_SPACE
  1

  0
ENDBLK
  5
9
  8
0
  0
BLOCK
 67
     1
  8
0
  2
$PAPER_SPACE
 70
     0
 10
0.0
 20
0.0
 30
0.0
  3
$PAPER_SPACE
  1

  0
ENDBLK
  5
E
 67
     1
  8
0
  0
BLOCK
  8
0
  2
*D0
 70
     1
 10
0.0
 20
0.0
 30
0.0
  3
*D0
  1

  0
LINE
  5
10C
  8
COTATION-JACOBDELAFON
 62
     0
 10
-84.999498640284074
 20
54.014803340629491
 30
0.0
 11
-84.999498640284074
 21
68.381477393797795
 31
0.0
  0
LINE
  5
10D
  8
COTATION-JACOBDELAFON
 62
     0
 10
85.003198598608549
 20
54.014803340629491
 30
0.0
 11
85.003198598608549
 21
68.381477393797795
 31
0.0
  0
LINE
  5
10E
  8
COTATION-JACOBDELAFON
 62
     0
 10
-84.999498640284074
 20
66.581477393797798
 30
0.0
 11
85.003198598608549
 21
66.581477393797798
 31
0.0
  0
INSERT
  5
10F
  8
COTATION-JACOBDELAFON
 62
     0
  2
_OBLIQUE
 10
-84.999498640284074
 20
66.581477393797798
 30
0.0
 41
1.8
 42
1.8
 43
1.8
 50
180.0
  0
INSERT
  5
110
  8
COTATION-JACOBDELAFON
 62
     0
  2
_OBLIQUE
 10
85.003198598608549
 20
66.581477393797798
 30
0.0
 41
1.8
 42
1.8
 43
1.8
  0
TEXT
  5
111
  8
0
  6
CONTINUOUS
 62
     0
 10
-7.2464447002374968
 20
67.596074938136127
 30
0.0
 40
6.0
  1
170
  7
JACOB-DELAFON
  0
POINT
  5
112
  8
DEFPOINTS
 62
     0
 10
-84.999498640284074
 20
53.389803340629491
 30
0.0
  0
POINT
  5
113
  8
DEFPOINTS
 62
     0
 10
85.003198598608549
 20
53.389803340629491
 30
0.0
  0
POINT
  5
114
  8
DEFPOINTS
 62
     0
 10
85.003198598608549
 20
66.581477393797798
 30
0.0
  0
ENDBLK
  5
68
  8
0
  0
BLOCK
  8
0
  2
_OBLIQUE
 70
     0
 10
0.0
 20
0.0
 30
0.0
  3
_OBLIQUE
  1

  0
LINE
  5
6A
  8
0
  6
BYBLOCK
 62
     0
 10
-0.5
 20
-0.5
 30
0.0
 11
0.5
 21
0.5
 31
0.0
  0
ENDBLK
  5
6C
  8
0
  0
BLOCK
  8
0
  2
*D2
 70
     1
 10
0.0
 20
0.0
 30
0.0
  3
*D2
  1

  0
LINE
  5
115
  8
COTATION-JACOBDELAFON
 62
     0
 10
-85.624498640284074
 20
54.000266723623888
 30
0.0
 11
-95.882624861170797
 21
54.000266723623888
 31
0.0
  0
LINE
  5
116
  8
COTATION-JACOBDELAFON
 62
     0
 10
-85.628198598608549
 20
-0.0034332275390623
 30
0.0
 11
-95.882624861170811
 21
-0.0034332275390594
 31
0.0
  0
LINE
  5
117
  8
COTATION-JACOBDELAFON
 62
     0
 10
-94.082624861170785
 20
54.000266723623888
 30
0.0
 11
-94.082624861170814
 21
-0.0034332275390599
 31
0.0
  0
INSERT
  5
118
  8
COTATION-JACOBDELAFON
 62
     0
  2
_OBLIQUE
 10
-94.082624861170785
 20
54.000266723623888
 30
0.0
 41
1.8
 42
1.8
 43
1.8
 50
90.0
  0
INSERT
  5
119
  8
COTATION-JACOBDELAFON
 62
     0
  2
_OBLIQUE
 10
-94.082624861170814
 20
-0.0034332275390599
 30
0.0
 41
1.8
 42
1.8
 43
1.8
 50
270.0
  0
TEXT
  5
11A
  8
0
  6
CONTINUOUS
 62
     0
 10
-95.084944097187204
 20
22.36540174122111
 30
0.0
 40
6.0
  1
54
 50
90.0
  7
JACOB-DELAFON
  0
POINT
  5
11B
  8
DEFPOINTS
 62
     0
 10
-84.999498640284074
 20
54.000266723623888
 30
0.0
  0
POINT
  5
11C
  8
DEFPOINTS
 62
     0
 10
-85.003198598608549
 20
-0.0034332275390625
 30
0.0
  0
POINT
  5
11D
  8
DEFPOINTS
 62
     0
 10
-94.082624861170814
 20
-0.0034332275390599
 30
0.0
  0
ENDBLK
  5
CB
  8
0
  0
BLOCK
  8
0
  2
ADCADD_ZZ
 70
     0
 10
0.0
 20
0.0
 30
0.0
  3
ADCADD_ZZ
  1

  0
ENDBLK
  5
139
  8
0
  0
ENDSEC
  0
SECTION
  2
ENTITIES
  0
LINE
  5
24
  8
0
  6
CONTINUOUS
 10
-84.37589845536678
 20
12.15858459472445
 30
0.0
 11
84.391106580481221
 21
12.15858459472445
 31
0.0
  0
LINE
  5
25
  8
0
  6
CONTINUOUS
 10
84.378100846991231
 20
14.20402526855224
 30
0.0
 11
-84.37589845536678
 21
14.20402526855224
 31
0.0
  0
LINE
  5
26
  8
0
  6
CONTINUOUS
 10
-84.37589845536678
 20
12.84065246581809
 30
0.0
 11
84.38260695813625
 21
12.84065246581809
 31
0.0
  0
LINE
  5
27
  8
0
  6
CONTINUOUS
 10
-84.37589845536678
 20
11.614608764646441
 30
0.0
 11
84.394098733648946
 21
11.614608764646441
 31
0.0
  0
LINE
  5
28
  8
0
  6
CONTINUOUS
 10
84.378100846991231
 20
13.47999572753673
 30
0.0
 11
-84.37589845536678
 21
13.47999572753673
 31
0.0
  0
LINE
  5
29
  8
0
  6
CONTINUOUS
 10
-84.37589845536678
 20
14.983749389645819
 30
0.0
 11
84.37420270322292
 21
14.983749389645819
 31
0.0
  0
LINE
  5
2A
  8
0
  6
CONTINUOUS
 10
85.003198598608549
 20
54.000266723623888
 30
0.0
 11
-84.999498640284074
 21
54.000266723623888
 31
0.0
  0
LINE
  5
2B
  8
0
  6
CONTINUOUS
 10
-84.91149834273773
 20
54.201682739248888
 30
0.0
 11
84.912711206454276
 21
54.202602310791171
 31
0.0
  0
LINE
  5
2C
  8
0
  6
CONTINUOUS
 10
84.463299726233174
 20
54.368766479483263
 30
0.0
 11
-84.459598277792622
 21
54.368766479483263
 31
0.0
  0
LINE
  5
2D
  8
0
  6
CONTINUOUS
 10
-84.37579861758681
 20
54.569419555655081
 30
0.0
 11
84.381903623327901
 21
54.569419555655081
 31
0.0
  0
LINE
  5
2E
  8
0
  6
CONTINUOUS
 10
84.379602884039571
 20
56.67665832518594
 30
0.0
 11
-84.37589845536678
 21
56.67665832518594
 31
0.0
  0
LINE
  5
2F
  8
0
  6
CONTINUOUS
 10
-85.003198598608549
 20
-0.0034332275390625
 30
0.0
 11
85.003198598608549
 21
0.0034332275390625
 31
0.0
  0
LINE
  5
30
  8
0
  6
CONTINUOUS
 10
-84.999498640284074
 20
54.000266723623888
 30
0.0
 11
-85.003198598608549
 21
-0.0034332275390625
 31
0.0
  0
LINE
  5
31
  8
0
  6
CONTINUOUS
 10
-84.816898320898616
 20
14.24522399902099
 30
0.0
 11
-84.999498640284074
 21
14.34516906738031
 31
0.0
  0
LINE
  5
32
  8
0
  6
CONTINUOUS
 10
-84.816898320898616
 20
13.56010437011485
 30
0.0
 11
-84.999498640284074
 21
13.75312805175548
 31
0.0
  0
LINE
  5
33
  8
0
  6
CONTINUOUS
 10
-84.816898320898616
 20
12.95433044433366
 30
0.0
 11
-84.999498640284074
 21
13.22975158691173
 31
0.0
  0
LINE
  5
34
  8
0
  6
CONTINUOUS
 10
-84.816898320898616
 20
12.287521362302581
 30
0.0
 11
-84.999498640284074
 21
12.598800659177471
 31
0.0
  0
LINE
  5
35
  8
0
  6
CONTINUOUS
 10
-84.816898320898616
 20
11.635208129880761
 30
0.0
 11
-84.999498640284074
 21
11.684799194333889
 31
0.0
  0
LINE
  5
36
  8
0
  6
CONTINUOUS
 10
-84.999498640284074
 20
14.983749389645819
 30
0.0
 11
-84.816898320898616
 21
14.983749389645819
 31
0.0
  0
LINE
  5
37
  8
0
  6
CONTINUOUS
 10
-84.37589845536678
 20
14.20402526855224
 30
0.0
 11
-84.816898320898616
 21
14.24522399902099
 31
0.0
  0
LINE
  5
38
  8
0
  6
CONTINUOUS
 10
-84.37589845536678
 20
13.47999572753673
 30
0.0
 11
-84.816898320898616
 21
13.56010437011485
 31
0.0
  0
LINE
  5
39
  8
0
  6
CONTINUOUS
 10
-84.37589845536678
 20
12.84065246581809
 30
0.0
 11
-84.816898320898616
 21
12.95433044433366
 31
0.0
  0
LINE
  5
3A
  8
0
  6
CONTINUOUS
 10
-84.37589845536678
 20
12.15858459472445
 30
0.0
 11
-84.816898320898616
 21
12.287521362302581
 31
0.0
  0
LINE
  5
3B
  8
0
  6
CONTINUOUS
 10
-84.37589845536678
 20
11.614608764646441
 30
0.0
 11
-84.816898320898616
 21
11.635208129880761
 31
0.0
  0
LINE
  5
3C
  8
0
  6
CONTINUOUS
 10
-84.816898320898616
 20
14.983749389645819
 30
0.0
 11
-84.37589845536678
 21
14.983749389645819
 31
0.0
  0
LINE
  5
3D
  8
0
  6
CONTINUOUS
 10
-84.37589845536678
 20
56.67665832518594
 30
0.0
 11
-84.377999519095141
 21
56.67360656737344
 31
0.0
  0
LINE
  5
3E
  8
0
  6
CONTINUOUS
 10
-84.377999519095141
 20
56.67360656737344
 30
0.0
 11
-84.37579861758681
 21
54.561784320569011
 31
0.0
  0
LINE
  5
3F
  8
0
  6
CONTINUOUS
 10
-84.908498738989437
 20
54.203971557608263
 30
0.0
 11
-84.999498640284074
 21
54.000266723623888
 31
0.0
  0
LINE
  5
40
  8
0
  6
CONTINUOUS
 10
-84.459377643672894
 20
54.3692695648786
 30
0.0
 11
-84.908498738989437
 21
54.203971557608263
 31
0.0
  0
LINE
  5
41
  8
0
  6
CONTINUOUS
 10
-84.37579861758681
 20
54.561784320569011
 30
0.0
 11
-84.459377643672894
 21
54.3692695648786
 31
0.0
  0
LINE
  5
42
  8
0
  6
CONTINUOUS
 10
85.003198598608549
 20
0.0034332275390625
 30
0.0
 11
85.003198598608549
 21
54.000266723623888
 31
0.0
  0
LINE
  5
43
  8
0
  6
CONTINUOUS
 10
84.820498441443078
 20
11.635208129880761
 30
0.0
 11
85.003198598608549
 21
11.684799194333889
 31
0.0
  0
LINE
  5
44
  8
0
  6
CONTINUOUS
 10
84.394098733648946
 20
11.614608764646441
 30
0.0
 11
84.820498441443078
 21
11.635208129880761
 31
0.0
  0
LINE
  5
45
  8
0
  6
CONTINUOUS
 10
84.820498441443078
 20
12.287521362302581
 30
0.0
 11
85.003198598608549
 21
12.598800659177471
 31
0.0
  0
LINE
  5
46
  8
0
  6
CONTINUOUS
 10
84.391106580481221
 20
12.15858459472445
 30
0.0
 11
84.820498441443078
 21
12.287521362302581
 31
0.0
  0
LINE
  5
47
  8
0
  6
CONTINUOUS
 10
84.820498441443078
 20
12.95433044433366
 30
0.0
 11
85.003198598608549
 21
13.22975158691173
 31
0.0
  0
LINE
  5
48
  8
0
  6
CONTINUOUS
 10
84.38260695813625
 20
12.84065246581809
 30
0.0
 11
84.820498441443078
 21
12.95433044433366
 31
0.0
  0
LINE
  5
49
  8
0
  6
CONTINUOUS
 10
84.820498441443078
 20
13.56010437011485
 30
0.0
 11
85.003198598608549
 21
13.75312805175548
 31
0.0
  0
LINE
  5
4A
  8
0
  6
CONTINUOUS
 10
84.378100846991231
 20
13.47999572753673
 30
0.0
 11
84.820498441443078
 21
13.56010437011485
 31
0.0
  0
LINE
  5
4B
  8
0
  6
CONTINUOUS
 10
84.820498441443078
 20
14.24522399902099
 30
0.0
 11
85.003198598608549
 21
14.34516906738031
 31
0.0
  0
LINE
  5
4C
  8
0
  6
CONTINUOUS
 10
84.378100846991231
 20
14.20402526855224
 30
0.0
 11
84.820498441443078
 21
14.24522399902099
 31
0.0
  0
LINE
  5
4D
  8
0
  6
CONTINUOUS
 10
84.820498441443078
 20
14.983749389645819
 30
0.0
 11
85.003198598608549
 21
14.983749389645819
 31
0.0
  0
LINE
  5
4E
  8
0
  6
CONTINUOUS
 10
84.37420270322292
 20
14.983749389645819
 30
0.0
 11
84.820498441443078
 21
14.983749389645819
 31
0.0
  0
LINE
  5
4F
  8
0
  6
CONTINUOUS
 10
84.381605600104024
 20
56.67360656737344
 30
0.0
 11
84.379602884039571
 21
56.67665832518594
 31
0.0
  0
LINE
  5
50
  8
0
  6
CONTINUOUS
 10
84.381903623327901
 20
54.569419555655081
 30
0.0
 11
84.381605600104024
 21
56.67360656737344
 31
0.0
  0
LINE
  5
51
  8
0
  6
CONTINUOUS
 10
84.463099442115336
 20
54.369260208579867
 30
0.0
 11
84.381903623327901
 21
54.569419555655081
 31
0.0
  0
LINE
  5
52
  8
0
  6
CONTINUOUS
 10
84.915198301062162
 20
54.201682739248888
 30
0.0
 11
84.463099442115336
 21
54.369260208579867
 31
0.0
  0
LINE
  5
53
  8
0
  6
CONTINUOUS
 10
85.003198598608549
 20
54.000266723623888
 30
0.0
 11
84.915198301062162
 21
54.201682739248888
 31
0.0
  0
DIMENSION
  5
5A
  8
COTATION-JACOBDELAFON
  2
*D0
 10
85.003198598608549
 20
66.581477393797798
 30
0.0
 11
0.0018499791622306
 21
70.544915320127942
 31
0.0
 70
     0
 13
-84.999498640284074
 23
53.389803340629491
 33
0.0
 14
85.003198598608549
 24
53.389803340629491
 34
0.0
1001
ACAD
1000
DSTYLE
1002
{
1070
   140
1040
6.0
1002
}
  0
DIMENSION
  5
BD
  8
COTATION-JACOBDELAFON
  2
*D2
 10
-94.082624861170814
 20
-0.0034332275390599
 30
0.0
 11
-98.033784479179005
 21
26.998416748042398
 31
0.0
 70
     0
 13
-84.999498640284074
 23
54.000266723623888
 33
0.0
 14
-85.003198598608549
 24
-0.0034332275390625
 34
0.0
 50
90.0
1001
ACAD
1000
DSTYLE
1002
{
1070
   140
1040
6.0
1002
}
  0
INSERT
  5
13A
 67
     1
  8
0
  6
CONTINUOUS
  2
ADCADD_ZZ
 10
0.0
 20
0.0
 30
0.0
1001
ADCADD_ZZ
1070
   205
1070
    14
1070
   209
1070
     1
1070
   231
1070
     0
1070
   235
1070
     0
1070
   236
1070
     4
1070
   237
1070
     2
1070
   238
1070
     4
1070
   239
1070
     2
1070
   240
1070
     0
1070
   241
1070
  4096
1070
   242
1070
     2
1070
   244
1070
     0
1070
   245
1070
     1
1070
   303
1040
0.1
1070
   304
1040
4.0
1070
   305
1040
96.0
1070
   306
1040
0.125
1070
   337
1040
0.0
1070
   338
1040
0.3048
1070
   339
1040
0.0625
1070
   340
1040
96.0
1070
   341
1040
4.0
1070
   342
1040
96.0
1070
   530
1010
0.0
1020
0.0
1030
0.0
1070
   531
1010
0.0
1020
0.0
1030
0.0
1070
   107
1000

1070
   108
1000
Architectural Desktop
1070
   135
1000
L120
1070
   136
1000
'
1070
   137
1000
m
1001
SDSK_PMN
1070
   100
1000
ACADARCH
1070
   300
1040
2453087.5067633558
  0
ENDSEC
  0
EOF
