  0
SECTION
  2
HEADER
  9
$ACADVER
  1
AC1009
  9
$INSBASE
 10
-0.0000000000000142
 20
0.0
 30
0.0
  9
$EXTMIN
 10
-95.464065195184375
 20
-11.841977972095309
 30
0.0
  9
$EXTMAX
 10
80.901500682773275
 20
6.0205310062189437
 30
0.0
  9
$LIMMIN
 10
0.0
 20
0.0
  9
$LIMMAX
 10
12.0
 20
9.0
  9
$ORTHOMODE
 70
     1
  9
$REGENMODE
 70
     1
  9
$FILLMODE
 70
     1
  9
$QTEXTMODE
 70
     0
  9
$MIRRTEXT
 70
     1
  9
$DRAGMODE
 70
     2
  9
$LTSCALE
 40
1.0
  9
$OSMODE
 70
    35
  9
$ATTMODE
 70
     1
  9
$TEXTSIZE
 40
0.2
  9
$TRACEWID
 40
0.05
  9
$TEXTSTYLE
  7
STANDARD
  9
$CLAYER
  8
0
  9
$CELTYPE
  6
CONTINUOUS
  9
$CECOLOR
 62
   256
  9
$DIMSCALE
 40
96.0
  9
$DIMASZ
 40
0.18
  9
$DIMEXO
 40
0.0625
  9
$DIMDLI
 40
0.38
  9
$DIMRND
 40
0.0
  9
$DIMDLE
 40
0.0
  9
$DIMEXE
 40
0.18
  9
$DIMTP
 40
0.0
  9
$DIMTM
 40
0.0
  9
$DIMTXT
 40
0.18
  9
$DIMCEN
 40
0.09
  9
$DIMTSZ
 40
0.0
  9
$DIMTOL
 70
     0
  9
$DIMLIM
 70
     0
  9
$DIMTIH
 70
     1
  9
$DIMTOH
 70
     1
  9
$DIMSE1
 70
     0
  9
$DIMSE2
 70
     0
  9
$DIMTAD
 70
     0
  9
$DIMZIN
 70
     0
  9
$DIMBLK
  1

  9
$DIMASO
 70
     1
  9
$DIMSHO
 70
     1
  9
$DIMPOST
  1

  9
$DIMAPOST
  1

  9
$DIMALT
 70
     0
  9
$DIMALTD
 70
     2
  9
$DIMALTF
 40
25.399999999999999
  9
$DIMLFAC
 40
1.0
  9
$DIMTOFL
 70
     0
  9
$DIMTVP
 40
0.0
  9
$DIMTIX
 70
     0
  9
$DIMSOXD
 70
     0
  9
$DIMSAH
 70
     0
  9
$DIMBLK1
  1

  9
$DIMBLK2
  1

  9
$DIMSTYLE
  2
STANDARD
  9
$DIMCLRD
 70
     0
  9
$DIMCLRE
 70
     0
  9
$DIMCLRT
 70
     0
  9
$DIMTFAC
 40
1.0
  9
$DIMGAP
 40
0.09
  9
$LUNITS
 70
     2
  9
$LUPREC
 70
     4
  9
$SKETCHINC
 40
0.1
  9
$FILLETRAD
 40
0.0
  9
$AUNITS
 70
     0
  9
$AUPREC
 70
     2
  9
$MENU
  1
.
  9
$ELEVATION
 40
0.0
  9
$PELEVATION
 40
0.0
  9
$THICKNESS
 40
0.0
  9
$LIMCHECK
 70
     0
  9
$BLIPMODE
 70
     0
  9
$CHAMFERA
 40
0.0
  9
$CHAMFERB
 40
0.0
  9
$SKPOLY
 70
     0
  9
$TDCREATE
 40
2453067.4538152078
  9
$TDUPDATE
 40
2453087.507467384
  9
$TDINDWG
 40
0.0706911227
  9
$TDUSRTIMER
 40
0.0706911227
  9
$USRTIMER
 70
     1
  9
$ANGBASE
 50
0.0
  9
$ANGDIR
 70
     0
  9
$PDMODE
 70
     0
  9
$PDSIZE
 40
0.0
  9
$PLINEWID
 40
0.0
  9
$COORDS
 70
     0
  9
$SPLFRAME
 70
     0
  9
$SPLINETYPE
 70
     6
  9
$SPLINESEGS
 70
     8
  9
$ATTDIA
 70
     1
  9
$ATTREQ
 70
     1
  9
$HANDLING
 70
 22529
  9
$HANDSEED
  5
2C5
  9
$SURFTAB1
 70
     6
  9
$SURFTAB2
 70
     6
  9
$SURFTYPE
 70
     6
  9
$SURFU
 70
     6
  9
$SURFV
 70
     6
  9
$UCSNAME
  2

  9
$UCSORG
 10
0.0
 20
0.0
 30
0.0
  9
$UCSXDIR
 10
1.0
 20
0.0
 30
0.0
  9
$UCSYDIR
 10
0.0
 20
1.0
 30
0.0
  9
$PUCSNAME
  2

  9
$PUCSORG
 10
0.0
 20
0.0
 30
0.0
  9
$PUCSXDIR
 10
1.0
 20
0.0
 30
0.0
  9
$PUCSYDIR
 10
0.0
 20
1.0
 30
0.0
  9
$USERI1
 70
     0
  9
$USERI2
 70
     0
  9
$USERI3
 70
     0
  9
$USERI4
 70
     0
  9
$USERI5
 70
     0
  9
$USERR1
 40
0.0
  9
$USERR2
 40
0.0
  9
$USERR3
 40
0.0
  9
$USERR4
 40
0.0
  9
$USERR5
 40
0.0
  9
$WORLDVIEW
 70
     1
  9
$SHADEDGE
 70
     3
  9
$SHADEDIF
 70
    70
  9
$TILEMODE
 70
     1
  9
$MAXACTVP
 70
    64
  9
$PLIMCHECK
 70
     0
  9
$PEXTMIN
 10
-0.0028987415928441
 20
0.0305398514722128
 30
-0.0000000000112498
  9
$PEXTMAX
 10
297.03470453907431
 20
403.99354732078808
 30
0.0000000000002956
  9
$PLIMMIN
 10
-0.1979161059762549
 20
-0.2679166643638311
  9
$PLIMMAX
 10
11.493750144177531
 20
7.9987497780266699
  9
$UNITMODE
 70
     0
  9
$VISRETAIN
 70
     1
  9
$PLINEGEN
 70
     0
  9
$PSLTSCALE
 70
     1
  0
ENDSEC
  0
SECTION
  2
TABLES
  0
TABLE
  2
VPORT
 70
     2
  0
VPORT
  2
*ACTIVE
 70
     0
 10
0.0
 20
0.0
 11
1.0
 21
1.0
 12
-5.0582649921844052
 22
-2.9106481008901279
 13
0.0
 23
0.0
 14
1.0
 24
1.0
 15
0.0
 25
0.0
 16
0.0
 26
0.0
 36
1.0
 17
0.0
 27
0.0
 37
0.0
 40
99.550126390128867
 41
1.828516377649325
 42
50.0
 43
0.0
 44
0.0
 50
0.0
 51
0.0
 71
     0
 72
   100
 73
     1
 74
     1
 75
     0
 76
     0
 77
     0
 78
     0
  0
ENDTAB
  0
TABLE
  2
LTYPE
 70
     1
  0
LTYPE
  2
CONTINUOUS
 70
     0
  3
Solid line
 72
    65
 73
     0
 40
0.0
  0
ENDTAB
  0
TABLE
  2
LAYER
 70
     3
  0
LAYER
  2
0
 70
     0
 62
     7
  6
CONTINUOUS
  0
LAYER
  2
DEFPOINTS
 70
     0
 62
     7
  6
CONTINUOUS
  0
LAYER
  2
COTATION-JACOBDELAFON
 70
     0
 62
     8
  6
CONTINUOUS
  0
ENDTAB
  0
TABLE
  2
STYLE
 70
     3
  0
STYLE
  2
STANDARD
 70
     0
 40
0.0
 41
1.0
 50
0.0
 71
     0
 42
0.2
  3
txt
  4

  0
STYLE
  2
ROMANS
 70
     0
 40
0.0
 41
1.0
 50
0.0
 71
     0
 42
2.5
  3
Romans.shx
  4

  0
STYLE
  2
JACOB-DELAFON
 70
     0
 40
0.0
 41
1.0
 50
0.0
 71
     0
 42
2.5
  3
txt
  4

  0
ENDTAB
  0
TABLE
  2
VIEW
 70
     0
  0
ENDTAB
  0
TABLE
  2
UCS
 70
     0
  0
ENDTAB
  0
TABLE
  2
APPID
 70
     9
  0
APPID
  2
ACAD
 70
     0
  0
APPID
  2
ADCADD_ZZ
 70
     0
  0
APPID
  2
SDSK_PMN
 70
     0
  0
APPID
  2
ACAECLAYERSTANDARD
 70
     0
  0
APPID
  2
AECBASE
 70
     0
  0
APPID
  2
AEC_DWGVARSSETUP_DATA
 70
     0
  0
APPID
  2
AEC_DISPREPCONFIG_DATA
 70
     0
  0
APPID
  2
AEC_DISPREPSET_DATA
 70
     0
  0
APPID
  2
DCO15
 70
     0
  0
ENDTAB
  0
TABLE
  2
DIMSTYLE
 70
     3
  0
DIMSTYLE
  2
STANDARD
 70
     0
  3

  4

  5

  6

  7

 40
1.0
 41
0.18
 42
0.0625
 43
0.38
 44
0.18
 45
0.0
 46
0.0
 47
0.0
 48
0.0
140
0.18
141
0.09
142
0.0
143
25.399999999999999
144
1.0
145
0.0
146
1.0
147
0.09
 71
     0
 72
     0
 73
     1
 74
     1
 75
     0
 76
     0
 77
     0
 78
     0
170
     0
171
     2
172
     0
173
     0
174
     0
175
     0
176
     0
177
     0
178
     0
  0
DIMSTYLE
  2
ISO-25
 70
     0
  3

  4

  5

  6

  7

 40
1.0
 41
2.5
 42
0.625
 43
3.75
 44
1.25
 45
0.0
 46
0.0
 47
0.0
 48
0.0
140
2.5
141
2.5
142
0.0
143
0.03937007874016
144
1.0
145
0.0
146
1.0
147
0.625
 71
     0
 72
     0
 73
     0
 74
     0
 75
     0
 76
     0
 77
     1
 78
     8
170
     0
171
     3
172
     1
173
     0
174
     0
175
     0
176
     0
177
     0
178
     0
  0
DIMSTYLE
  2
COTATION-JACOB-DELAFON
 70
     0
  3

  4

  5
OBLIQUE
  6

  7

 40
1.0
 41
1.8
 42
0.625
 43
3.7999999999999989
 44
1.8
 45
0.0
 46
0.0
 47
0.0
 48
0.0
140
3.0
141
0.9
142
0.0
143
25.399999999999999
144
1.0
145
0.0
146
1.0
147
0.9
 71
     0
 72
     0
 73
     0
 74
     0
 75
     0
 76
     0
 77
     1
 78
    12
170
     0
171
     2
172
     0
173
     0
174
     0
175
     0
176
     0
177
     0
178
     0
  0
ENDTAB
  0
ENDSEC
  0
SECTION
  2
BLOCKS
  0
BLOCK
  8
0
  2
$MODEL_SPACE
 70
     0
 10
0.0
 20
0.0
 30
0.0
  3
$MODEL_SPACE
  1

  0
ENDBLK
  5
9
  8
0
  0
BLOCK
 67
     1
  8
0
  2
$PAPER_SPACE
 70
     0
 10
0.0
 20
0.0
 30
0.0
  3
$PAPER_SPACE
  1

  0
ENDBLK
  5
E
 67
     1
  8
0
  0
BLOCK
  8
0
  2
A$C66864DF0
 70
     0
 10
0.0
 20
0.0
 30
0.0
  3
A$C66864DF0
  1

  0
LINE
  5
38
  8
0
  6
CONTINUOUS
 10
0.7183072018822259
 20
1.758888751088306
 30
0.0
 11
192.7946249994711
 21
1.758764485890139
 31
0.0
  0
LINE
  5
39
  8
0
  6
CONTINUOUS
 10
192.78953928109101
 20
0.0000001126813345
 30
0.0
 11
0.7140508435676196
 21
0.0000001126813345
 31
0.0
  0
LINE
  5
3A
  8
0
  6
CONTINUOUS
 10
192.79462439919581
 20
0.7458089658934455
 30
0.0
 11
0.7140508435676196
 21
0.7459227924302923
 31
0.0
  0
LINE
  5
3B
  8
0
  6
CONTINUOUS
 10
75.845276551352526
 20
58.25873386301447
 30
0.0
 11
269.35079790804451
 21
58.266549893187289
 31
0.0
  0
LINE
  5
3C
  8
0
  6
CONTINUOUS
 10
268.64096395948462
 20
119.72660048548551
 30
0.0
 11
76.559327221051717
 21
119.72660048548551
 31
0.0
  0
LINE
  5
3D
  8
0
  6
CONTINUOUS
 10
76.559440865587646
 20
117.3279476702259
 30
0.0
 11
268.64358287237229
 21
117.3279476702259
 31
0.0
  0
LINE
  5
3E
  8
0
  6
CONTINUOUS
 10
268.73623539671257
 20
117.09954589962
 30
0.0
 11
76.464052391449385
 21
117.09954589962
 31
0.0
  0
LINE
  5
3F
  8
0
  6
CONTINUOUS
 10
75.949658209513416
 20
116.9093558320813
 30
0.0
 11
269.24779684282367
 21
116.9104025729161
 31
0.0
  0
LINE
  5
40
  8
0
  6
CONTINUOUS
 10
269.35079790804451
 20
116.6800856136785
 30
0.0
 11
75.849488183930447
 21
116.6800856136785
 31
0.0
  0
LINE
  5
41
  8
0
  6
CONTINUOUS
 10
76.559327221051717
 20
75.318522386896177
 30
0.0
 11
268.63481697742162
 21
75.318522386896177
 31
0.0
  0
LINE
  5
42
  8
0
  6
CONTINUOUS
 10
268.63925420288422
 20
73.606811779047916
 30
0.0
 11
76.559327221051717
 21
73.606811779047916
 31
0.0
  0
LINE
  5
43
  8
0
  6
CONTINUOUS
 10
76.559327221051717
 20
71.48345691543102
 30
0.0
 11
268.65746446762722
 21
71.48345691543102
 31
0.0
  0
LINE
  5
44
  8
0
  6
CONTINUOUS
 10
76.559327221051717
 20
72.102660194677981
 30
0.0
 11
268.65405852392342
 21
72.102660194677981
 31
0.0
  0
LINE
  5
45
  8
0
  6
CONTINUOUS
 10
76.559327221051717
 20
72.879052525178395
 30
0.0
 11
268.64438347268521
 21
72.879052525178395
 31
0.0
  0
LINE
  5
46
  8
0
  6
CONTINUOUS
 10
21.46363304355318
 20
108.8089521387068
 30
0.0
 11
21.468528239533811
 21
47.344559307423701
 31
0.0
  0
LINE
  5
47
  8
0
  6
CONTINUOUS
 10
23.688823588488649
 20
47.353243785393538
 30
0.0
 11
23.688823588488649
 21
60.569282359840258
 31
0.0
  0
LINE
  5
48
  8
0
  6
CONTINUOUS
 10
0.0000003369194701
 20
3.979127095129797
 30
0.0
 11
0.7174657192569925
 21
3.979127095129797
 31
0.0
  0
LINE
  5
49
  8
0
  6
CONTINUOUS
 10
0.7140508435676196
 20
0.0000001126813345
 30
0.0
 11
0.212064117229616
 21
0.1604992700819139
 31
0.0
  0
LINE
  5
4A
  8
0
  6
CONTINUOUS
 10
0.212064117229616
 20
0.1604992700819139
 30
0.0
 11
0.0042120169363642
 21
0.5478600024466119
 31
0.0
  0
LINE
  5
4B
  8
0
  6
CONTINUOUS
 10
0.7140508435676196
 20
0.7459227924302923
 30
0.0
 11
0.714050843567577
 21
1.758888751088306
 31
0.0
  0
LINE
  5
4C
  8
0
  6
CONTINUOUS
 10
0.7174657192569925
 20
3.979127095129797
 30
0.0
 11
0.7183072018822259
 21
1.758888751088306
 31
0.0
  0
LINE
  5
4D
  8
0
  6
CONTINUOUS
 10
0.0042120169363642
 20
0.5478600024466119
 30
0.0
 11
0.0000003369194701
 21
3.979127095129797
 31
0.0
  0
LINE
  5
4E
  8
0
  6
CONTINUOUS
 10
21.468528239533811
 20
47.344559307423701
 30
0.0
 11
23.688823588488649
 21
47.353243785393538
 31
0.0
  0
LINE
  5
4F
  8
0
  6
CONTINUOUS
 10
25.447654274071489
 20
64.404347831305415
 30
0.0
 11
25.443929447192261
 21
105.7667795058848
 31
0.0
  0
LINE
  5
50
  8
0
  6
CONTINUOUS
 10
25.35992069233124
 20
63.517662630588518
 30
0.0
 11
25.447654274071489
 21
64.404347831305415
 31
0.0
  0
LINE
  5
51
  8
0
  6
CONTINUOUS
 10
24.160275401525951
 20
61.368254333062168
 30
0.0
 11
24.701762780065799
 21
61.96487796958769
 31
0.0
  0
LINE
  5
52
  8
0
  6
CONTINUOUS
 10
23.688823588488649
 20
60.569282359840258
 30
0.0
 11
23.758374044479631
 21
60.918398374226342
 31
0.0
  0
LINE
  5
53
  8
0
  6
CONTINUOUS
 10
23.758374044479631
 20
60.918398374226342
 30
0.0
 11
23.951369605487479
 21
61.189354086884236
 31
0.0
  0
LINE
  5
54
  8
0
  6
CONTINUOUS
 10
23.951369605487479
 20
61.189354086884236
 30
0.0
 11
24.160275401525951
 21
61.368254333062168
 31
0.0
  0
LINE
  5
55
  8
0
  6
CONTINUOUS
 10
24.701762780065799
 20
61.96487796958769
 30
0.0
 11
25.106537478065398
 21
62.693505671254172
 31
0.0
  0
LINE
  5
56
  8
0
  6
CONTINUOUS
 10
25.106537478065398
 20
62.693505671254172
 30
0.0
 11
25.35992069233124
 21
63.517662630588518
 31
0.0
  0
LINE
  5
57
  8
0
  6
CONTINUOUS
 10
24.889208416871071
 20
108.8124259298947
 30
0.0
 11
21.46363304355318
 21
108.8089521387068
 31
0.0
  0
LINE
  5
58
  8
0
  6
CONTINUOUS
 10
24.89399166450287
 20
106.4146415624321
 30
0.0
 11
21.468528239533811
 21
106.4129046668381
 31
0.0
  0
LINE
  5
59
  8
0
  6
CONTINUOUS
 10
25.443929447192261
 20
105.7667795058848
 30
0.0
 11
21.468528239533811
 21
105.7667795058848
 31
0.0
  0
LINE
  5
5A
  8
0
  6
CONTINUOUS
 10
24.967894536601388
 20
106.18537134402931
 30
0.0
 11
21.468528239533811
 21
106.1879766874202
 31
0.0
  0
LINE
  5
5B
  8
0
  6
CONTINUOUS
 10
25.366383165195479
 20
105.9960497242876
 30
0.0
 11
21.468528239533811
 21
105.9977866198815
 31
0.0
  0
LINE
  5
5C
  8
0
  6
CONTINUOUS
 10
25.443929447192261
 20
105.7667795058848
 30
0.0
 11
25.366383165195479
 21
105.9960497242876
 31
0.0
  0
LINE
  5
5D
  8
0
  6
CONTINUOUS
 10
25.366383165195479
 20
105.9960497242876
 30
0.0
 11
24.967894536601388
 21
106.18537134402931
 31
0.0
  0
LINE
  5
5E
  8
0
  6
CONTINUOUS
 10
24.967894536601388
 20
106.18537134402931
 30
0.0
 11
24.89399166450287
 21
106.4146415624321
 31
0.0
  0
LINE
  5
5F
  8
0
  6
CONTINUOUS
 10
24.89399166450287
 20
106.4146415624321
 30
0.0
 11
24.889238948238919
 21
108.8124259298947
 31
0.0
  0
LINE
  5
60
  8
0
  6
CONTINUOUS
 10
75.849488183930447
 20
116.6800856136785
 30
0.0
 11
75.845276551352526
 21
58.25873386301447
 31
0.0
  0
LINE
  5
61
  8
0
  6
CONTINUOUS
 10
75.849488183930447
 20
72.143477241136054
 30
0.0
 11
76.559327221051717
 21
71.48345691543102
 31
0.0
  0
LINE
  5
62
  8
0
  6
CONTINUOUS
 10
76.057340647777664
 20
75.318522386896177
 30
0.0
 11
76.559327221051717
 21
75.318522386896177
 31
0.0
  0
LINE
  5
63
  8
0
  6
CONTINUOUS
 10
76.559327221051717
 20
73.606811779047916
 30
0.0
 11
76.057340647777664
 21
73.697998797730861
 31
0.0
  0
LINE
  5
64
  8
0
  6
CONTINUOUS
 10
76.057340647777664
 20
72.436144148718427
 30
0.0
 11
76.559327221051717
 21
72.102660194677981
 31
0.0
  0
LINE
  5
65
  8
0
  6
CONTINUOUS
 10
76.057340647777664
 20
73.008451246928473
 30
0.0
 11
76.559327221051717
 21
72.879052525178395
 31
0.0
  0
LINE
  5
66
  8
0
  6
CONTINUOUS
 10
75.849488183930447
 20
75.318522386896177
 30
0.0
 11
76.057340647777664
 21
75.318522386896177
 31
0.0
  0
LINE
  5
67
  8
0
  6
CONTINUOUS
 10
75.849488183930447
 20
72.808708253623024
 30
0.0
 11
76.057340647777664
 21
72.436144148718427
 31
0.0
  0
LINE
  5
68
  8
0
  6
CONTINUOUS
 10
76.057340647777664
 20
73.697998797730861
 30
0.0
 11
75.849488183930447
 21
74.591631580823616
 31
0.0
  0
LINE
  5
69
  8
0
  6
CONTINUOUS
 10
76.057340647777664
 20
73.008451246928473
 30
0.0
 11
75.849488183930447
 21
73.917716090366923
 31
0.0
  0
LINE
  5
6A
  8
0
  6
CONTINUOUS
 10
76.559440865587646
 20
117.3192565439998
 30
0.0
 11
76.464303537479964
 21
117.1001185576488
 31
0.0
  0
LINE
  5
6B
  8
0
  6
CONTINUOUS
 10
76.464303537479964
 20
117.1001185576488
 30
0.0
 11
75.953072634152704
 21
116.9119611754723
 31
0.0
  0
LINE
  5
6C
  8
0
  6
CONTINUOUS
 10
75.953072634152704
 20
116.9119611754723
 30
0.0
 11
75.849488183930447
 21
116.6800856136785
 31
0.0
  0
LINE
  5
6D
  8
0
  6
CONTINUOUS
 10
76.556935597235821
 20
119.7231266942976
 30
0.0
 11
76.559440865587646
 21
117.3192565439998
 31
0.0
  0
LINE
  5
6E
  8
0
  6
CONTINUOUS
 10
76.559327221051717
 20
119.72660048548551
 30
0.0
 11
76.556935597235821
 21
119.7231266942976
 31
0.0
  0
LINE
  5
6F
  8
0
  6
CONTINUOUS
 10
192.79227118164249
 20
3.9790132659401252
 30
0.0
 11
193.5096227347903
 21
3.9790132659401252
 31
0.0
  0
LINE
  5
70
  8
0
  6
CONTINUOUS
 10
193.50552488396301
 20
0.5477461732569396
 30
0.0
 11
193.29755895448019
 21
0.1603854408922984
 31
0.0
  0
LINE
  5
71
  8
0
  6
CONTINUOUS
 10
193.29755895448019
 20
0.1603854408922984
 30
0.0
 11
192.78953928109101
 21
0.0000001126813345
 31
0.0
  0
LINE
  5
72
  8
0
  6
CONTINUOUS
 10
192.7946249994711
 20
1.758764485890139
 30
0.0
 11
192.79462439919581
 21
0.7458089658934455
 31
0.0
  0
LINE
  5
73
  8
0
  6
CONTINUOUS
 10
192.7946249994711
 20
1.758764485890139
 30
0.0
 11
192.79227118164249
 21
3.9790132659401252
 31
0.0
  0
LINE
  5
74
  8
0
  6
CONTINUOUS
 10
193.5096227347903
 20
3.9790132659401252
 30
0.0
 11
193.50552488396301
 21
0.5477461732569396
 31
0.0
  0
LINE
  5
75
  8
0
  6
CONTINUOUS
 10
269.35079790804451
 20
58.266549893187289
 30
0.0
 11
269.35079790804451
 21
116.6800856136785
 31
0.0
  0
LINE
  5
76
  8
0
  6
CONTINUOUS
 10
269.14283179966139
 20
71.923759948500049
 30
0.0
 11
269.35079790804451
 21
72.143477241136054
 31
0.0
  0
LINE
  5
77
  8
0
  6
CONTINUOUS
 10
268.65746446762722
 20
71.48345691543102
 30
0.0
 11
269.14283179966139
 21
71.923759948500049
 31
0.0
  0
LINE
  5
78
  8
0
  6
CONTINUOUS
 10
268.63481697742162
 20
75.318522386896177
 30
0.0
 11
269.14283179966139
 21
75.318522386896177
 31
0.0
  0
LINE
  5
79
  8
0
  6
CONTINUOUS
 10
269.14283179966139
 20
75.318522386896177
 30
0.0
 11
269.35079790804451
 21
75.318522386896177
 31
0.0
  0
LINE
  5
7A
  8
0
  6
CONTINUOUS
 10
269.14283179966139
 20
73.697998797730861
 30
0.0
 11
268.63925420288422
 21
73.606811779047916
 31
0.0
  0
LINE
  5
7B
  8
0
  6
CONTINUOUS
 10
268.65405852392342
 20
72.102660194677981
 30
0.0
 11
269.14283179966139
 21
72.436144148718427
 31
0.0
  0
LINE
  5
7C
  8
0
  6
CONTINUOUS
 10
268.64438347268521
 20
72.879052525178395
 30
0.0
 11
269.14283179966139
 21
73.008451246928473
 31
0.0
  0
LINE
  5
7D
  8
0
  6
CONTINUOUS
 10
269.14283179966139
 20
73.008451246928473
 30
0.0
 11
269.35079790804451
 21
73.917716090366923
 31
0.0
  0
LINE
  5
7E
  8
0
  6
CONTINUOUS
 10
269.14283179966139
 20
73.697998797730861
 30
0.0
 11
269.35079790804451
 21
74.591631580823616
 31
0.0
  0
LINE
  5
7F
  8
0
  6
CONTINUOUS
 10
269.14283179966139
 20
72.436144148718427
 30
0.0
 11
269.35079790804451
 21
73.321960901638363
 31
0.0
  0
LINE
  5
80
  8
0
  6
CONTINUOUS
 10
268.64358287237229
 20
117.3279476702259
 30
0.0
 11
268.6432436349516
 21
119.7231266942976
 31
0.0
  0
LINE
  5
81
  8
0
  6
CONTINUOUS
 10
268.6432436349516
 20
119.7231266942976
 30
0.0
 11
268.64096395948462
 21
119.72660048548551
 31
0.0
  0
LINE
  5
82
  8
0
  6
CONTINUOUS
 10
269.35079790804451
 20
116.6800856136785
 30
0.0
 11
269.25062788246157
 21
116.9093558320813
 31
0.0
  0
LINE
  5
83
  8
0
  6
CONTINUOUS
 10
269.25062788246157
 20
116.9093558320813
 30
0.0
 11
268.7360074149243
 21
117.1001079074498
 31
0.0
  0
LINE
  5
84
  8
0
  6
CONTINUOUS
 10
268.7360074149243
 20
117.1001079074498
 30
0.0
 11
268.64358287237229
 21
117.3279476702259
 31
0.0
  0
ENDBLK
  5
86
  8
0
  0
BLOCK
  8
0
  2
_ARCHTICK
 70
     0
 10
0.0
 20
0.0
 30
0.0
  3
_ARCHTICK
  1

  0
POLYLINE
  5
89
  8
0
  6
BYBLOCK
 62
     0
 66
     1
 10
0.0
 20
0.0
 30
0.0
 40
0.15
 41
0.15
  0
VERTEX
  5
2C2
  8
0
  6
BYBLOCK
 62
     0
 10
-0.5
 20
-0.5
 30
0.0
  0
VERTEX
  5
2C3
  8
0
  6
BYBLOCK
 62
     0
 10
0.5
 20
0.5
 30
0.0
  0
SEQEND
  5
2C4
  8
0
  6
BYBLOCK
 62
     0
  0
ENDBLK
  5
8B
  8
0
  0
BLOCK
  8
0
  2
_OBLIQUE
 70
     0
 10
0.0
 20
0.0
 30
0.0
  3
_OBLIQUE
  1

  0
LINE
  5
8D
  8
0
  6
BYBLOCK
 62
     0
 10
-0.5
 20
-0.5
 30
0.0
 11
0.5
 21
0.5
 31
0.0
  0
ENDBLK
  5
8F
  8
0
  0
BLOCK
  8
0
  2
*D3
 70
     1
 10
0.0
 20
0.0
 30
0.0
  3
*D3
  1

  0
LINE
  5
12B
  8
COTATION-JACOBDELAFON
 62
     0
 10
-79.998499317226745
 20
-1.688948542652269
 30
0.0
 11
-79.998499317226745
 21
-11.841977972095309
 31
0.0
  0
LINE
  5
12C
  8
COTATION-JACOBDELAFON
 62
     0
 10
80.001500682773255
 20
-1.689148551777691
 30
0.0
 11
80.001500682773255
 21
-11.841977972095309
 31
0.0
  0
LINE
  5
12D
  8
COTATION-JACOBDELAFON
 62
     0
 10
-79.998499317226745
 20
-10.04197797209531
 30
0.0
 11
80.001500682773255
 21
-10.04197797209531
 31
0.0
  0
INSERT
  5
12E
  8
COTATION-JACOBDELAFON
 62
     0
  2
_OBLIQUE
 10
-79.998499317226745
 20
-10.04197797209531
 30
0.0
 41
1.8
 42
1.8
 43
1.8
 50
180.0
  0
INSERT
  5
12F
  8
COTATION-JACOBDELAFON
 62
     0
  2
_OBLIQUE
 10
80.001500682773255
 20
-10.04197797209531
 30
0.0
 41
1.8
 42
1.8
 43
1.8
  0
TEXT
  5
130
  8
0
  6
CONTINUOUS
 62
     0
 10
-7.2467939966264661
 20
-9.0273804277569738
 30
0.0
 40
6.0
  1
160
  7
JACOB-DELAFON
  0
POINT
  5
131
  8
DEFPOINTS
 62
     0
 10
-79.998499317226745
 20
-1.063948542652269
 30
0.0
  0
POINT
  5
132
  8
DEFPOINTS
 62
     0
 10
80.001500682773255
 20
-1.064148551777691
 30
0.0
  0
POINT
  5
133
  8
DEFPOINTS
 62
     0
 10
80.001500682773255
 20
-10.04197797209531
 30
0.0
  0
ENDBLK
  5
CC
  8
0
  0
BLOCK
  8
0
  2
*D4
 70
     1
 10
0.0
 20
0.0
 30
0.0
  3
*D4
  1

  0
LINE
  5
CE
  8
COTATION-JACOBDELAFON
 62
     0
 10
-39.99999701976779
 20
43.071766322061897
 30
0.0
 11
-39.99999701976779
 21
58.493086573326487
 31
0.0
  0
LINE
  5
CF
  8
COTATION-JACOBDELAFON
 62
     0
 10
40.000002980232182
 20
43.071766322061897
 30
0.0
 11
40.000002980232182
 21
58.493086573326487
 31
0.0
  0
LINE
  5
D0
  8
COTATION-JACOBDELAFON
 62
     0
 10
-39.99999701976779
 20
56.693086573326489
 30
0.0
 11
40.000002980232182
 21
56.693086573326489
 31
0.0
  0
INSERT
  5
D1
  8
COTATION-JACOBDELAFON
 62
     0
  2
_OBLIQUE
 10
-39.99999701976779
 20
56.693086573326489
 30
0.0
 41
1.8
 42
1.8
 43
1.8
 50
180.0
  0
INSERT
  5
D2
  8
COTATION-JACOBDELAFON
 62
     0
  2
_OBLIQUE
 10
40.000002980232182
 20
56.693086573326489
 30
0.0
 41
1.8
 42
1.8
 43
1.8
  0
TEXT
  5
D3
  8
0
  6
CONTINUOUS
 62
     0
 10
-4.630965641868757
 20
57.707684117664833
 30
0.0
 40
6.0
  1
80
  7
JACOB-DELAFON
  0
POINT
  5
D4
  8
DEFPOINTS
 62
     0
 10
-39.99999701976779
 20
42.446766322061897
 30
0.0
  0
POINT
  5
D5
  8
DEFPOINTS
 62
     0
 10
40.000002980232182
 20
42.446766322061897
 30
0.0
  0
POINT
  5
D6
  8
DEFPOINTS
 62
     0
 10
40.000002980232182
 20
56.693086573326489
 30
0.0
  0
ENDBLK
  5
D8
  8
0
  0
BLOCK
  8
0
  2
A$C293612C9
 70
     0
 10
0.0
 20
0.0
 30
0.0
  3
A$C293612C9
  1

  0
DIMENSION
  5
DA
  8
COTATION-JACOBDELAFON
  2
*D4
 10
80.899999680470714
 20
14.246320221904931
 30
0.0
 11
40.899999680470749
 21
18.209758148235078
 31
0.0
 12
40.899996700238553
 22
-42.446766351421559
 32
0.0
  3
COTATION-JACOB-DELAFON
 13
0.8999996804707635
 23
-0.0000000293596614
 33
0.0
 14
80.899999680470714
 24
-0.0000000293596614
 34
0.0
1001
ACAD
1000
DSTYLE
1002
{
1070
   140
1040
6.0
1002
}
  0
ENDBLK
  5
DC
  8
0
  0
BLOCK
  8
0
  2
*D6
 70
     1
 10
0.0
 20
0.0
 30
0.0
  3
*D6
  1

  0
LINE
  5
134
  8
COTATION-JACOBDELAFON
 62
     0
 10
-79.999870864178575
 20
-1.5452705029667291
 30
0.0
 11
-86.407380338431309
 21
-1.545270502966728
 31
0.0
  0
LINE
  5
135
  8
COTATION-JACOBDELAFON
 62
     0
 10
-80.627099481484251
 20
1.9505889956229221
 30
0.0
 11
-86.407380338431309
 21
1.9505889956229241
 31
0.0
  0
LINE
  5
136
  8
COTATION-JACOBDELAFON
 62
     0
 10
-84.607380338431312
 20
-1.545270502966728
 30
0.0
 11
-84.607380338431312
 21
1.950588995622923
 31
0.0
  0
TEXT
  5
137
  8
0
  6
CONTINUOUS
 62
     0
 10
-87.876070652210288
 20
-5.6315835913253931
 30
0.0
 40
6.0
  1
3.5
 50
90.0
  7
JACOB-DELAFON
  0
INSERT
  5
138
  8
COTATION-JACOBDELAFON
 62
     0
  2
_OBLIQUE
 10
-84.607380338431312
 20
-1.545270502966728
 30
0.0
 41
1.8
 42
1.8
 43
1.8
 50
270.0
  0
INSERT
  5
139
  8
COTATION-JACOBDELAFON
 62
     0
  2
_OBLIQUE
 10
-84.607380338431312
 20
1.950588995622923
 30
0.0
 41
1.8
 42
1.8
 43
1.8
 50
90.0
  0
POINT
  5
13A
  8
DEFPOINTS
 62
     0
 10
-79.374870864178575
 20
-1.5452705029667291
 30
0.0
  0
POINT
  5
13B
  8
DEFPOINTS
 62
     0
 10
-80.002099481484251
 20
1.9505889956229221
 30
0.0
  0
POINT
  5
13C
  8
DEFPOINTS
 62
     0
 10
-84.607380338431312
 20
1.950588995622923
 30
0.0
  0
ENDBLK
  5
121
  8
0
  0
BLOCK
  8
0
  2
ADCADD_ZZ
 70
     0
 10
0.0
 20
0.0
 30
0.0
  3
ADCADD_ZZ
  1

  0
ENDBLK
  5
159
  8
0
  0
ENDSEC
  0
SECTION
  2
ENTITIES
  0
LINE
  5
24
  8
0
  6
CONTINUOUS
 10
-79.374870864178575
 20
-1.5452705029667291
 30
0.0
 11
79.372571987901551
 21
-1.545370507529412
 31
0.0
  0
LINE
  5
25
  8
0
  6
CONTINUOUS
 10
79.374870303455168
 20
-0.8901406088215821
 30
0.0
 11
-79.370637935325647
 21
-0.8902530281442579
 31
0.0
  0
LINE
  5
26
  8
0
  6
CONTINUOUS
 10
-79.374870864178575
 20
0.0
 30
0.0
 11
79.374870864178547
 21
0.0
 31
0.0
  0
LINE
  5
27
  8
0
  6
CONTINUOUS
 10
-80.002099481484251
 20
1.9505889956229221
 30
0.0
 11
-79.998499317226745
 21
-1.063948542652241
 31
0.0
  0
LINE
  5
28
  8
0
  6
CONTINUOUS
 10
-79.998499317226745
 20
-1.063948542652241
 30
0.0
 11
-79.815790981158912
 21
-1.4043640741109009
 31
0.0
  0
LINE
  5
29
  8
0
  6
CONTINUOUS
 10
-79.815790981158912
 20
-1.4043640741109009
 30
0.0
 11
-79.374870864178575
 21
-1.5452705029667291
 31
0.0
  0
LINE
  5
2A
  8
0
  6
CONTINUOUS
 10
-79.37177072273461
 20
1.9505889956229221
 30
0.0
 11
-80.002099481484251
 21
1.9505889956229221
 31
0.0
  0
LINE
  5
2B
  8
0
  6
CONTINUOUS
 10
-79.370637935325647
 20
-0.8902530281442579
 30
0.0
 11
-79.37177072273461
 21
1.9505889956229221
 31
0.0
  0
LINE
  5
2C
  8
0
  6
CONTINUOUS
 10
80.001500682773255
 20
-1.0641485517776621
 30
0.0
 11
80.005200851593415
 21
1.950488991060211
 31
0.0
  0
LINE
  5
2D
  8
0
  6
CONTINUOUS
 10
79.372571987901551
 20
-1.545370507529412
 30
0.0
 11
79.818892351268119
 21
-1.404464078673612
 31
0.0
  0
LINE
  5
2E
  8
0
  6
CONTINUOUS
 10
79.818892351268119
 20
-1.404464078673612
 30
0.0
 11
80.001500682773255
 21
-1.0641485517776621
 31
0.0
  0
LINE
  5
2F
  8
0
  6
CONTINUOUS
 10
80.005200851593415
 20
1.950488991060211
 30
0.0
 11
79.374872092843873
 21
1.950488991060211
 31
0.0
  0
LINE
  5
30
  8
0
  6
CONTINUOUS
 10
79.374872092843873
 20
1.950488991060211
 30
0.0
 11
79.374870303455168
 21
-0.8901406088215821
 31
0.0
  0
DIMENSION
  5
BF
  8
COTATION-JACOBDELAFON
  2
*D3
 10
80.001500682773255
 20
-10.04197797209531
 30
0.0
 11
0.0015006827732622
 21
-6.0785400457651591
 31
0.0
 70
     0
 13
-79.998499317226745
 23
-1.063948542652269
 33
0.0
 14
80.001500682773255
 24
-1.064148551777691
 34
0.0
1001
ACAD
1000
DSTYLE
1002
{
1070
   140
1040
6.0
1002
}
  0
DIMENSION
  5
113
  8
COTATION-JACOBDELAFON
  2
*D6
 10
-84.607380338431312
 20
1.950588995622923
 30
0.0
 11
-90.822864649481787
 21
0.2026592463280844
 31
0.0
 70
     0
 13
-79.374870864178575
 23
-1.5452705029667291
 33
0.0
 14
-80.002099481484251
 24
1.9505889956229221
 34
0.0
 50
90.0
1001
ACAD
1000
DSTYLE
1002
{
1070
   140
1040
6.0
1002
}
  0
INSERT
  5
15A
 67
     1
  8
0
  6
CONTINUOUS
  2
ADCADD_ZZ
 10
0.0
 20
0.0
 30
0.0
1001
ADCADD_ZZ
1070
   205
1070
    14
1070
   209
1070
     1
1070
   231
1070
     0
1070
   235
1070
     0
1070
   236
1070
     4
1070
   237
1070
     2
1070
   238
1070
     4
1070
   239
1070
     2
1070
   240
1070
     0
1070
   241
1070
  4096
1070
   242
1070
     2
1070
   244
1070
     0
1070
   245
1070
     1
1070
   303
1040
0.1
1070
   304
1040
4.0
1070
   305
1040
96.0
1070
   306
1040
0.125
1070
   337
1040
0.0
1070
   338
1040
0.3048
1070
   339
1040
0.0625
1070
   340
1040
96.0
1070
   341
1040
4.0
1070
   342
1040
96.0
1070
   530
1010
0.0
1020
0.0
1030
0.0
1070
   531
1010
0.0
1020
0.0
1030
0.0
1070
   107
1000

1070
   108
1000
Architectural Desktop
1070
   135
1000
L120
1070
   136
1000
'
1070
   137
1000
m
1001
SDSK_PMN
1070
   100
1000
ACADARCH
1070
   300
1040
2453087.5075145601
  0
ENDSEC
  0
EOF
