  0
SECTION
  2
HEADER
  9
$ACADVER
  1
AC1009
  9
$INSBASE
 10
0.0
 20
0.0
 30
0.0
  9
$EXTMIN
 10
-96.016182661727527
 20
-0.8999999999999978
 30
0.0
  9
$EXTMAX
 10
80.901304511941319
 20
74.227044017369437
 30
0.0
  9
$LIMMIN
 10
0.0
 20
0.0
  9
$LIMMAX
 10
12.0
 20
9.0
  9
$ORTHOMODE
 70
     1
  9
$REGENMODE
 70
     1
  9
$FILLMODE
 70
     1
  9
$QTEXTMODE
 70
     0
  9
$MIRRTEXT
 70
     1
  9
$DRAGMODE
 70
     2
  9
$LTSCALE
 40
1.0
  9
$OSMODE
 70
    35
  9
$ATTMODE
 70
     1
  9
$TEXTSIZE
 40
0.2
  9
$TRACEWID
 40
0.05
  9
$TEXTSTYLE
  7
STANDARD
  9
$CLAYER
  8
0
  9
$CELTYPE
  6
CONTINUOUS
  9
$CECOLOR
 62
   256
  9
$DIMSCALE
 40
96.0
  9
$DIMASZ
 40
0.18
  9
$DIMEXO
 40
0.0625
  9
$DIMDLI
 40
0.38
  9
$DIMRND
 40
0.0
  9
$DIMDLE
 40
0.0
  9
$DIMEXE
 40
0.18
  9
$DIMTP
 40
0.0
  9
$DIMTM
 40
0.0
  9
$DIMTXT
 40
0.18
  9
$DIMCEN
 40
0.09
  9
$DIMTSZ
 40
0.0
  9
$DIMTOL
 70
     0
  9
$DIMLIM
 70
     0
  9
$DIMTIH
 70
     1
  9
$DIMTOH
 70
     1
  9
$DIMSE1
 70
     0
  9
$DIMSE2
 70
     0
  9
$DIMTAD
 70
     0
  9
$DIMZIN
 70
     0
  9
$DIMBLK
  1

  9
$DIMASO
 70
     1
  9
$DIMSHO
 70
     1
  9
$DIMPOST
  1

  9
$DIMAPOST
  1

  9
$DIMALT
 70
     0
  9
$DIMALTD
 70
     2
  9
$DIMALTF
 40
25.399999999999999
  9
$DIMLFAC
 40
1.0
  9
$DIMTOFL
 70
     0
  9
$DIMTVP
 40
0.0
  9
$DIMTIX
 70
     0
  9
$DIMSOXD
 70
     0
  9
$DIMSAH
 70
     0
  9
$DIMBLK1
  1

  9
$DIMBLK2
  1

  9
$DIMSTYLE
  2
STANDARD
  9
$DIMCLRD
 70
     0
  9
$DIMCLRE
 70
     0
  9
$DIMCLRT
 70
     0
  9
$DIMTFAC
 40
1.0
  9
$DIMGAP
 40
0.09
  9
$LUNITS
 70
     2
  9
$LUPREC
 70
     4
  9
$SKETCHINC
 40
0.1
  9
$FILLETRAD
 40
0.0
  9
$AUNITS
 70
     0
  9
$AUPREC
 70
     2
  9
$MENU
  1
.
  9
$ELEVATION
 40
0.0
  9
$PELEVATION
 40
0.0
  9
$THICKNESS
 40
0.0
  9
$LIMCHECK
 70
     0
  9
$BLIPMODE
 70
     0
  9
$CHAMFERA
 40
0.0
  9
$CHAMFERB
 40
0.0
  9
$SKPOLY
 70
     0
  9
$TDCREATE
 40
2453067.4538152078
  9
$TDUPDATE
 40
2453087.5078568398
  9
$TDINDWG
 40
0.0741057639
  9
$TDUSRTIMER
 40
0.0741057639
  9
$USRTIMER
 70
     1
  9
$ANGBASE
 50
0.0
  9
$ANGDIR
 70
     0
  9
$PDMODE
 70
     0
  9
$PDSIZE
 40
0.0
  9
$PLINEWID
 40
0.0
  9
$COORDS
 70
     0
  9
$SPLFRAME
 70
     0
  9
$SPLINETYPE
 70
     6
  9
$SPLINESEGS
 70
     8
  9
$ATTDIA
 70
     1
  9
$ATTREQ
 70
     1
  9
$HANDLING
 70
 22529
  9
$HANDSEED
  5
2E3
  9
$SURFTAB1
 70
     6
  9
$SURFTAB2
 70
     6
  9
$SURFTYPE
 70
     6
  9
$SURFU
 70
     6
  9
$SURFV
 70
     6
  9
$UCSNAME
  2

  9
$UCSORG
 10
0.0
 20
0.0
 30
0.0
  9
$UCSXDIR
 10
1.0
 20
0.0
 30
0.0
  9
$UCSYDIR
 10
0.0
 20
1.0
 30
0.0
  9
$PUCSNAME
  2

  9
$PUCSORG
 10
0.0
 20
0.0
 30
0.0
  9
$PUCSXDIR
 10
1.0
 20
0.0
 30
0.0
  9
$PUCSYDIR
 10
0.0
 20
1.0
 30
0.0
  9
$USERI1
 70
     0
  9
$USERI2
 70
     0
  9
$USERI3
 70
     0
  9
$USERI4
 70
     0
  9
$USERI5
 70
     0
  9
$USERR1
 40
0.0
  9
$USERR2
 40
0.0
  9
$USERR3
 40
0.0
  9
$USERR4
 40
0.0
  9
$USERR5
 40
0.0
  9
$WORLDVIEW
 70
     1
  9
$SHADEDGE
 70
     3
  9
$SHADEDIF
 70
    70
  9
$TILEMODE
 70
     1
  9
$MAXACTVP
 70
    64
  9
$PLIMCHECK
 70
     0
  9
$PEXTMIN
 10
-0.0028987415928441
 20
0.0305398514722128
 30
-0.0000000000112498
  9
$PEXTMAX
 10
297.03470453907431
 20
403.99354732078808
 30
0.0000000000002956
  9
$PLIMMIN
 10
-0.1979161059762549
 20
-0.2679166643638311
  9
$PLIMMAX
 10
11.493750144177531
 20
7.9987497780266699
  9
$UNITMODE
 70
     0
  9
$VISRETAIN
 70
     1
  9
$PLINEGEN
 70
     0
  9
$PSLTSCALE
 70
     1
  0
ENDSEC
  0
SECTION
  2
TABLES
  0
TABLE
  2
VPORT
 70
     2
  0
VPORT
  2
*ACTIVE
 70
     0
 10
0.0
 20
0.0
 11
1.0
 21
1.0
 12
-5.3268264423655154
 22
36.6635071366372
 13
0.0
 23
0.0
 14
1.0
 24
1.0
 15
0.0
 25
0.0
 16
0.0
 26
0.0
 36
1.0
 17
0.0
 27
0.0
 37
0.0
 40
99.845942973329954
 41
1.828516377649325
 42
50.0
 43
0.0
 44
0.0
 50
0.0
 51
0.0
 71
     0
 72
   100
 73
     1
 74
     1
 75
     0
 76
     0
 77
     0
 78
     0
  0
ENDTAB
  0
TABLE
  2
LTYPE
 70
     1
  0
LTYPE
  2
CONTINUOUS
 70
     0
  3
Solid line
 72
    65
 73
     0
 40
0.0
  0
ENDTAB
  0
TABLE
  2
LAYER
 70
     3
  0
LAYER
  2
0
 70
     0
 62
     7
  6
CONTINUOUS
  0
LAYER
  2
DEFPOINTS
 70
     0
 62
     7
  6
CONTINUOUS
  0
LAYER
  2
COTATION-JACOBDELAFON
 70
     0
 62
     8
  6
CONTINUOUS
  0
ENDTAB
  0
TABLE
  2
STYLE
 70
     3
  0
STYLE
  2
STANDARD
 70
     0
 40
0.0
 41
1.0
 50
0.0
 71
     0
 42
0.2
  3
txt
  4

  0
STYLE
  2
ROMANS
 70
     0
 40
0.0
 41
1.0
 50
0.0
 71
     0
 42
2.5
  3
Romans.shx
  4

  0
STYLE
  2
JACOB-DELAFON
 70
     0
 40
0.0
 41
1.0
 50
0.0
 71
     0
 42
2.5
  3
txt
  4

  0
ENDTAB
  0
TABLE
  2
VIEW
 70
     0
  0
ENDTAB
  0
TABLE
  2
UCS
 70
     0
  0
ENDTAB
  0
TABLE
  2
APPID
 70
     9
  0
APPID
  2
ACAD
 70
     0
  0
APPID
  2
ADCADD_ZZ
 70
     0
  0
APPID
  2
SDSK_PMN
 70
     0
  0
APPID
  2
ACAECLAYERSTANDARD
 70
     0
  0
APPID
  2
AECBASE
 70
     0
  0
APPID
  2
AEC_DWGVARSSETUP_DATA
 70
     0
  0
APPID
  2
AEC_DISPREPCONFIG_DATA
 70
     0
  0
APPID
  2
AEC_DISPREPSET_DATA
 70
     0
  0
APPID
  2
DCO15
 70
     0
  0
ENDTAB
  0
TABLE
  2
DIMSTYLE
 70
     3
  0
DIMSTYLE
  2
STANDARD
 70
     0
  3

  4

  5

  6

  7

 40
1.0
 41
0.18
 42
0.0625
 43
0.38
 44
0.18
 45
0.0
 46
0.0
 47
0.0
 48
0.0
140
0.18
141
0.09
142
0.0
143
25.399999999999999
144
1.0
145
0.0
146
1.0
147
0.09
 71
     0
 72
     0
 73
     1
 74
     1
 75
     0
 76
     0
 77
     0
 78
     0
170
     0
171
     2
172
     0
173
     0
174
     0
175
     0
176
     0
177
     0
178
     0
  0
DIMSTYLE
  2
ISO-25
 70
     0
  3

  4

  5

  6

  7

 40
1.0
 41
2.5
 42
0.625
 43
3.75
 44
1.25
 45
0.0
 46
0.0
 47
0.0
 48
0.0
140
2.5
141
2.5
142
0.0
143
0.03937007874016
144
1.0
145
0.0
146
1.0
147
0.625
 71
     0
 72
     0
 73
     0
 74
     0
 75
     0
 76
     0
 77
     1
 78
     8
170
     0
171
     3
172
     1
173
     0
174
     0
175
     0
176
     0
177
     0
178
     0
  0
DIMSTYLE
  2
COTATION-JACOB-DELAFON
 70
     0
  3

  4

  5
OBLIQUE
  6

  7

 40
1.0
 41
1.8
 42
0.625
 43
3.7999999999999989
 44
1.8
 45
0.0
 46
0.0
 47
0.0
 48
0.0
140
3.0
141
0.9
142
0.0
143
25.399999999999999
144
1.0
145
0.0
146
1.0
147
0.9
 71
     0
 72
     0
 73
     0
 74
     0
 75
     0
 76
     0
 77
     1
 78
    12
170
     0
171
     2
172
     0
173
     0
174
     0
175
     0
176
     0
177
     0
178
     0
  0
ENDTAB
  0
ENDSEC
  0
SECTION
  2
BLOCKS
  0
BLOCK
  8
0
  2
$MODEL_SPACE
 70
     0
 10
0.0
 20
0.0
 30
0.0
  3
$MODEL_SPACE
  1

  0
ENDBLK
  5
9
  8
0
  0
BLOCK
 67
     1
  8
0
  2
$PAPER_SPACE
 70
     0
 10
0.0
 20
0.0
 30
0.0
  3
$PAPER_SPACE
  1

  0
ENDBLK
  5
E
 67
     1
  8
0
  0
BLOCK
  8
0
  2
*D0
 70
     1
 10
0.0
 20
0.0
 30
0.0
  3
*D0
  1

  0
LINE
  5
152
  8
COTATION-JACOBDELAFON
 62
     0
 10
-79.423037096977666
 20
0.0000000000000002
 30
0.0
 11
-89.225868882737075
 21
0.000000000000003
 31
0.0
  0
LINE
  5
153
  8
COTATION-JACOBDELAFON
 62
     0
 10
-80.002699842736845
 20
54.004464037816142
 30
0.0
 11
-89.225868882737061
 21
54.004464037816142
 31
0.0
  0
LINE
  5
154
  8
COTATION-JACOBDELAFON
 62
     0
 10
-87.425868882737078
 20
0.0000000000000024
 30
0.0
 11
-87.425868882737063
 21
54.004464037816142
 31
0.0
  0
INSERT
  5
155
  8
COTATION-JACOBDELAFON
 62
     0
  2
_OBLIQUE
 10
-87.425868882737078
 20
0.0000000000000024
 30
0.0
 41
1.8
 42
1.8
 43
1.8
 50
270.0
  0
INSERT
  5
156
  8
COTATION-JACOBDELAFON
 62
     0
  2
_OBLIQUE
 10
-87.425868882737063
 20
54.004464037816142
 30
0.0
 41
1.8
 42
1.8
 43
1.8
 50
90.0
  0
TEXT
  5
157
  8
0
  6
CONTINUOUS
 62
     0
 10
-88.428188118753454
 20
22.369217012086779
 30
0.0
 40
6.0
  1
54
 50
90.0
  7
JACOB-DELAFON
  0
POINT
  5
158
  8
DEFPOINTS
 62
     0
 10
-78.798037096977666
 20
0.0
 30
0.0
  0
POINT
  5
159
  8
DEFPOINTS
 62
     0
 10
-79.377699842736845
 20
54.004464037816142
 30
0.0
  0
POINT
  5
15A
  8
DEFPOINTS
 62
     0
 10
-87.425868882737063
 20
54.004464037816142
 30
0.0
  0
ENDBLK
  5
7F
  8
0
  0
BLOCK
  8
0
  2
_ARCHTICK
 70
     0
 10
0.0
 20
0.0
 30
0.0
  3
_ARCHTICK
  1

  0
POLYLINE
  5
81
  8
0
  6
BYBLOCK
 62
     0
 66
     1
 10
0.0
 20
0.0
 30
0.0
 40
0.15
 41
0.15
  0
VERTEX
  5
2E0
  8
0
  6
BYBLOCK
 62
     0
 10
-0.5
 20
-0.5
 30
0.0
  0
VERTEX
  5
2E1
  8
0
  6
BYBLOCK
 62
     0
 10
0.5
 20
0.5
 30
0.0
  0
SEQEND
  5
2E2
  8
0
  6
BYBLOCK
 62
     0
  0
ENDBLK
  5
83
  8
0
  0
BLOCK
  8
0
  2
_OBLIQUE
 70
     0
 10
0.0
 20
0.0
 30
0.0
  3
_OBLIQUE
  1

  0
LINE
  5
85
  8
0
  6
BYBLOCK
 62
     0
 10
-0.5
 20
-0.5
 30
0.0
 11
0.5
 21
0.5
 31
0.0
  0
ENDBLK
  5
87
  8
0
  0
BLOCK
  8
0
  2
*D3
 70
     1
 10
0.0
 20
0.0
 30
0.0
  3
*D3
  1

  0
LINE
  5
149
  8
COTATION-JACOBDELAFON
 62
     0
 10
-80.001399879375128
 20
53.905706140966281
 30
0.0
 11
-80.001399879375128
 21
67.424451930057032
 31
0.0
  0
LINE
  5
14A
  8
COTATION-JACOBDELAFON
 62
     0
 10
80.001304511941328
 20
53.905706140966281
 30
0.0
 11
80.001304511941328
 21
67.424451930057032
 31
0.0
  0
LINE
  5
14B
  8
COTATION-JACOBDELAFON
 62
     0
 10
-80.001399879375128
 20
65.624451930057035
 30
0.0
 11
80.001304511941328
 21
65.624451930057035
 31
0.0
  0
INSERT
  5
14C
  8
COTATION-JACOBDELAFON
 62
     0
  2
_OBLIQUE
 10
-80.001399879375128
 20
65.624451930057035
 30
0.0
 41
1.8
 42
1.8
 43
1.8
 50
180.0
  0
INSERT
  5
14D
  8
COTATION-JACOBDELAFON
 62
     0
  2
_OBLIQUE
 10
80.001304511941328
 20
65.624451930057035
 30
0.0
 41
1.8
 42
1.8
 43
1.8
  0
TEXT
  5
14E
  8
0
  6
CONTINUOUS
 62
     0
 10
-7.2483423631166284
 20
66.639049474395364
 30
0.0
 40
6.0
  1
160
  7
JACOB-DELAFON
  0
POINT
  5
14F
  8
DEFPOINTS
 62
     0
 10
-80.001399879375128
 20
53.280706140966281
 30
0.0
  0
POINT
  5
150
  8
DEFPOINTS
 62
     0
 10
80.001304511941328
 20
53.280706140966281
 30
0.0
  0
POINT
  5
151
  8
DEFPOINTS
 62
     0
 10
80.001304511941328
 20
65.624451930057035
 30
0.0
  0
ENDBLK
  5
D6
  8
0
  0
BLOCK
  8
0
  2
ADCADD_ZZ
 70
     0
 10
0.0
 20
0.0
 30
0.0
  3
ADCADD_ZZ
  1

  0
ENDBLK
  5
177
  8
0
  0
ENDSEC
  0
SECTION
  2
ENTITIES
  0
LINE
  5
24
  8
0
  6
CONTINUOUS
 10
-80.004999999999995
 20
0.0
 30
0.0
 11
80.004999999999995
 21
0.0
 31
0.0
  0
LINE
  5
25
  8
0
  6
CONTINUOUS
 10
79.377708783433775
 20
56.680092759730528
 30
0.0
 11
-79.377799680519104
 21
56.680092759730528
 31
0.0
  0
LINE
  5
26
  8
0
  6
CONTINUOUS
 10
-79.373499950360497
 20
54.573616882568999
 30
0.0
 11
79.374705899045551
 21
54.573688523480818
 31
0.0
  0
LINE
  5
27
  8
0
  6
CONTINUOUS
 10
80.001304511941328
 20
54.004464037816142
 30
0.0
 11
-80.0013998793751
 21
54.004464037816142
 31
0.0
  0
LINE
  5
28
  8
0
  6
CONTINUOUS
 10
-80.0013998793751
 20
14.98794589164725
 30
0.0
 11
80.001304511941328
 21
14.98794589164725
 31
0.0
  0
LINE
  5
29
  8
0
  6
CONTINUOUS
 10
79.386899819863544
 20
12.319946564434749
 30
0.0
 11
-79.377799680519104
 21
12.319946564434749
 31
0.0
  0
LINE
  5
2A
  8
0
  6
CONTINUOUS
 10
-79.377799680519104
 20
11.924743918882539
 30
0.0
 11
79.391405931109318
 21
11.924743918882539
 31
0.0
  0
LINE
  5
2B
  8
0
  6
CONTINUOUS
 10
79.392204633367157
 20
11.618042251870969
 30
0.0
 11
-79.377799680519104
 21
11.618042251870969
 31
0.0
  0
LINE
  5
2C
  8
0
  6
CONTINUOUS
 10
-79.377799680519104
 20
14.20822175312537
 30
0.0
 11
79.373298039621801
 21
14.20822175312537
 31
0.0
  0
LINE
  5
2D
  8
0
  6
CONTINUOUS
 10
79.376206746351841
 20
13.48419219592642
 30
0.0
 11
-79.377799680519104
 21
13.48419219592642
 31
0.0
  0
LINE
  5
2E
  8
0
  6
CONTINUOUS
 10
-79.377799680519104
 20
12.844848919917229
 30
0.0
 11
79.388127508528044
 21
12.846749028468761
 31
0.0
  0
LINE
  5
2F
  8
0
  6
CONTINUOUS
 10
-79.461499766234638
 20
54.372206190999513
 30
0.0
 11
79.461374527272881
 21
54.372277910741829
 31
0.0
  0
LINE
  5
30
  8
0
  6
CONTINUOUS
 10
-79.910300027153966
 20
54.20741126544106
 30
0.0
 11
79.909072994395473
 21
54.207483389786589
 31
0.0
  0
LINE
  5
31
  8
0
  6
CONTINUOUS
 10
-80.0013998793751
 20
54.004464037816142
 30
0.0
 11
-80.0013998793751
 21
14.98794589164725
 31
0.0
  0
LINE
  5
32
  8
0
  6
CONTINUOUS
 10
-79.377799680519104
 20
0.0076293947017803
 30
0.0
 11
-79.377699842736845
 21
54.004464037816142
 31
0.0
  0
LINE
  5
33
  8
0
  6
CONTINUOUS
 10
-80.0013998793751
 20
11.688995622597529
 30
0.0
 11
-80.004999999999995
 21
0.0
 31
0.0
  0
LINE
  5
34
  8
0
  6
CONTINUOUS
 10
-80.0013998793751
 20
14.98794589164725
 30
0.0
 11
-80.0013998793751
 21
11.688995622597529
 31
0.0
  0
LINE
  5
35
  8
0
  6
CONTINUOUS
 10
-79.818700090654914
 20
12.00485256325123
 30
0.0
 11
-80.0013998793751
 21
12.197876249206271
 31
0.0
  0
LINE
  5
36
  8
0
  6
CONTINUOUS
 10
-79.818700090654914
 20
11.639404557035951
 30
0.0
 11
-80.0013998793751
 21
11.688995622597529
 31
0.0
  0
LINE
  5
37
  8
0
  6
CONTINUOUS
 10
-79.377799680519104
 20
11.618042251870969
 30
0.0
 11
-79.818700090654914
 21
11.639404557035951
 31
0.0
  0
LINE
  5
38
  8
0
  6
CONTINUOUS
 10
-79.377776495568298
 20
11.924743918882539
 30
0.0
 11
-79.818700090654914
 21
12.00485256325123
 31
0.0
  0
LINE
  5
39
  8
0
  6
CONTINUOUS
 10
-79.377775726694807
 20
12.319946564434749
 30
0.0
 11
-79.818700090654914
 21
12.45574979012644
 31
0.0
  0
LINE
  5
3A
  8
0
  6
CONTINUOUS
 10
-79.377799680519104
 20
12.844848919917229
 30
0.0
 11
-79.818700090654914
 21
12.958526900973711
 31
0.0
  0
LINE
  5
3B
  8
0
  6
CONTINUOUS
 10
-79.377773461634931
 20
13.48419219592642
 30
0.0
 11
-79.818700090654914
 21
13.56353790082494
 31
0.0
  0
LINE
  5
3C
  8
0
  6
CONTINUOUS
 10
-79.377799680519104
 20
14.20822175312537
 30
0.0
 11
-79.818700090654914
 21
14.24942048451498
 31
0.0
  0
LINE
  5
3D
  8
0
  6
CONTINUOUS
 10
-79.818700090654914
 20
14.24942048451498
 30
0.0
 11
-80.0013998793751
 21
14.349365555108299
 31
0.0
  0
LINE
  5
3E
  8
0
  6
CONTINUOUS
 10
-79.818700090654914
 20
13.56353790082494
 30
0.0
 11
-80.0013998793751
 21
13.756561586779981
 31
0.0
  0
LINE
  5
3F
  8
0
  6
CONTINUOUS
 10
-79.818700090654914
 20
12.958526900973711
 30
0.0
 11
-80.0013998793751
 21
13.23394804970803
 31
0.0
  0
LINE
  5
40
  8
0
  6
CONTINUOUS
 10
-79.818700090654914
 20
12.45574979012644
 30
0.0
 11
-80.0013998793751
 21
12.783050822832809
 31
0.0
  0
LINE
  5
41
  8
0
  6
CONTINUOUS
 10
-79.379800161454071
 20
56.677803941319951
 30
0.0
 11
-79.373499950360497
 21
54.573616882568999
 31
0.0
  0
LINE
  5
42
  8
0
  6
CONTINUOUS
 10
-79.373499950360497
 20
54.573616882568999
 30
0.0
 11
-79.460885300819143
 21
54.37360751767573
 31
0.0
  0
LINE
  5
43
  8
0
  6
CONTINUOUS
 10
-79.460885300819143
 20
54.37360751767573
 30
0.0
 11
-79.913399952390748
 21
54.205880057943141
 31
0.0
  0
LINE
  5
44
  8
0
  6
CONTINUOUS
 10
-79.913399952390748
 20
54.205880057943141
 30
0.0
 11
-80.0013998793751
 21
54.004464037816142
 31
0.0
  0
LINE
  5
45
  8
0
  6
CONTINUOUS
 10
-79.379800161454071
 20
56.677803941319951
 30
0.0
 11
-79.377799680519104
 21
56.680092759730528
 31
0.0
  0
LINE
  5
46
  8
0
  6
CONTINUOUS
 10
-79.377699842736845
 20
54.004464037816142
 30
0.0
 11
-79.377699842736845
 21
54.004464037816142
 31
0.0
  0
LINE
  5
47
  8
0
  6
CONTINUOUS
 10
-79.377699842736845
 20
54.004464037816142
 30
0.0
 11
-79.377699842736845
 21
54.004464037816142
 31
0.0
  0
LINE
  5
48
  8
0
  6
CONTINUOUS
 10
-79.377699842736845
 20
54.004464037816142
 30
0.0
 11
-79.373500061470665
 21
54.573611554011379
 31
0.0
  0
LINE
  5
49
  8
0
  6
CONTINUOUS
 10
80.004999999999995
 20
0.0
 30
0.0
 11
80.001304511941328
 21
54.004464037816142
 31
0.0
  0
LINE
  5
4A
  8
0
  6
CONTINUOUS
 10
79.392204633367157
 20
0.0076293947017803
 30
0.0
 11
79.380104890207292
 21
54.573616882568999
 31
0.0
  0
LINE
  5
4B
  8
0
  6
CONTINUOUS
 10
79.818699718125885
 20
12.00485256325123
 30
0.0
 11
80.001304511941328
 21
12.197876249206271
 31
0.0
  0
LINE
  5
4C
  8
0
  6
CONTINUOUS
 10
79.818699718125885
 20
11.639404557035951
 30
0.0
 11
80.001304511941328
 21
11.688995622597529
 31
0.0
  0
LINE
  5
4D
  8
0
  6
CONTINUOUS
 10
79.391405931109318
 20
11.924743918882539
 30
0.0
 11
79.818699718125885
 21
12.00485256325123
 31
0.0
  0
LINE
  5
4E
  8
0
  6
CONTINUOUS
 10
79.818699718125885
 20
11.639404557035951
 30
0.0
 11
79.392204633367157
 21
11.618042251870969
 31
0.0
  0
LINE
  5
4F
  8
0
  6
CONTINUOUS
 10
79.818699718125885
 20
14.24942048451498
 30
0.0
 11
80.001304511941328
 21
14.349365555108299
 31
0.0
  0
LINE
  5
50
  8
0
  6
CONTINUOUS
 10
80.001304511941328
 20
13.756561586779981
 30
0.0
 11
79.818699718125885
 21
13.56353790082494
 31
0.0
  0
LINE
  5
51
  8
0
  6
CONTINUOUS
 10
80.001304511941328
 20
13.23394804970803
 30
0.0
 11
79.818699718125885
 21
12.958526900973711
 31
0.0
  0
LINE
  5
52
  8
0
  6
CONTINUOUS
 10
79.818699718125885
 20
12.45574979012644
 30
0.0
 11
80.001304511941328
 21
12.783050822832809
 31
0.0
  0
LINE
  5
53
  8
0
  6
CONTINUOUS
 10
79.373298039621801
 20
14.20822175312537
 30
0.0
 11
79.818699718125885
 21
14.24942048451498
 31
0.0
  0
LINE
  5
54
  8
0
  6
CONTINUOUS
 10
79.386899819863544
 20
12.319946564434749
 30
0.0
 11
79.818699718125885
 21
12.45574979012644
 31
0.0
  0
LINE
  5
55
  8
0
  6
CONTINUOUS
 10
79.818699718125885
 20
12.958526900973711
 30
0.0
 11
79.380808225031373
 21
12.844848919917229
 31
0.0
  0
LINE
  5
56
  8
0
  6
CONTINUOUS
 10
79.818699718125885
 20
13.56353790082494
 30
0.0
 11
79.376206746351841
 21
13.48419219592642
 31
0.0
  0
LINE
  5
57
  8
0
  6
CONTINUOUS
 10
80.001304511941328
 20
54.004464037816142
 30
0.0
 11
79.91339957986176
 21
54.205880057943141
 31
0.0
  0
LINE
  5
58
  8
0
  6
CONTINUOUS
 10
79.91339957986176
 20
54.205880057943141
 30
0.0
 11
79.460846672109852
 21
54.373585629339402
 31
0.0
  0
LINE
  5
59
  8
0
  6
CONTINUOUS
 10
79.460846672109852
 20
54.373585629339402
 30
0.0
 11
79.380104890207292
 21
54.573616882568999
 31
0.0
  0
LINE
  5
5A
  8
0
  6
CONTINUOUS
 10
79.380104890207292
 20
54.573616882568999
 30
0.0
 11
79.379806866976764
 21
56.677803941319951
 31
0.0
  0
LINE
  5
5B
  8
0
  6
CONTINUOUS
 10
79.379806866976764
 20
56.677803941319951
 30
0.0
 11
79.377708783433775
 21
56.680092759730528
 31
0.0
  0
DIMENSION
  5
71
  8
COTATION-JACOBDELAFON
  2
*D0
 10
-87.425868882737063
 20
54.004464037816142
 30
0.0
 11
-91.377028500745269
 21
27.00223201890806
 31
0.0
 70
     0
 13
-78.798037096977666
 23
0.0
 33
0.0
 14
-79.377699842736845
 24
54.004464037816142
 34
0.0
 50
90.0
1001
ACAD
1000
DSTYLE
1002
{
1070
   140
1040
6.0
1002
}
  0
DIMENSION
  5
C9
  8
COTATION-JACOBDELAFON
  2
*D3
 10
80.001304511941328
 20
65.624451930057035
 30
0.0
 11
-0.0000476837169001
 21
69.587889856387179
 31
0.0
 70
     0
 13
-80.001399879375128
 23
53.280706140966281
 33
0.0
 14
80.001304511941328
 24
53.280706140966281
 34
0.0
1001
ACAD
1000
DSTYLE
1002
{
1070
   140
1040
6.0
1002
}
  0
INSERT
  5
178
 67
     1
  8
0
  6
CONTINUOUS
  2
ADCADD_ZZ
 10
0.0
 20
0.0
 30
0.0
1001
ADCADD_ZZ
1070
   205
1070
    14
1070
   209
1070
     1
1070
   231
1070
     0
1070
   235
1070
     0
1070
   236
1070
     4
1070
   237
1070
     2
1070
   238
1070
     4
1070
   239
1070
     2
1070
   240
1070
     0
1070
   241
1070
  4096
1070
   242
1070
     2
1070
   244
1070
     0
1070
   245
1070
     1
1070
   303
1040
0.1
1070
   304
1040
4.0
1070
   305
1040
96.0
1070
   306
1040
0.125
1070
   337
1040
0.0
1070
   338
1040
0.3048
1070
   339
1040
0.0625
1070
   340
1040
96.0
1070
   341
1040
4.0
1070
   342
1040
96.0
1070
   530
1010
0.0
1020
0.0
1030
0.0
1070
   531
1010
0.0
1020
0.0
1030
0.0
1070
   107
1000

1070
   108
1000
Architectural Desktop
1070
   135
1000
L120
1070
   136
1000
'
1070
   137
1000
m
1001
SDSK_PMN
1070
   100
1000
ACADARCH
1070
   300
1040
2453087.5078999531
  0
ENDSEC
  0
EOF
