  0
SECTION
  2
HEADER
  9
$ACADVER
  1
AC1009
  9
$INSBASE
 10
-0.0023601398973909
 20
-0.0732167843722778
 30
0.0
  9
$EXTMIN
 10
-52.53359341571192
 20
-3.1325848532938072
 30
0.0
  9
$EXTMAX
 10
38.400944647786481
 20
14.931453555870471
 30
0.0
  9
$LIMMIN
 10
0.0
 20
0.0
  9
$LIMMAX
 10
12.0
 20
9.0
  9
$ORTHOMODE
 70
     1
  9
$REGENMODE
 70
     1
  9
$FILLMODE
 70
     1
  9
$QTEXTMODE
 70
     0
  9
$MIRRTEXT
 70
     1
  9
$DRAGMODE
 70
     2
  9
$LTSCALE
 40
1.0
  9
$OSMODE
 70
    35
  9
$ATTMODE
 70
     1
  9
$TEXTSIZE
 40
0.2
  9
$TRACEWID
 40
0.05
  9
$TEXTSTYLE
  7
STANDARD
  9
$CLAYER
  8
0
  9
$CELTYPE
  6
CONTINUOUS
  9
$CECOLOR
 62
   256
  9
$DIMSCALE
 40
96.0
  9
$DIMASZ
 40
0.18
  9
$DIMEXO
 40
0.0625
  9
$DIMDLI
 40
0.38
  9
$DIMRND
 40
0.0
  9
$DIMDLE
 40
0.0
  9
$DIMEXE
 40
0.18
  9
$DIMTP
 40
0.0
  9
$DIMTM
 40
0.0
  9
$DIMTXT
 40
0.18
  9
$DIMCEN
 40
0.09
  9
$DIMTSZ
 40
0.0
  9
$DIMTOL
 70
     0
  9
$DIMLIM
 70
     0
  9
$DIMTIH
 70
     1
  9
$DIMTOH
 70
     1
  9
$DIMSE1
 70
     0
  9
$DIMSE2
 70
     0
  9
$DIMTAD
 70
     0
  9
$DIMZIN
 70
     0
  9
$DIMBLK
  1

  9
$DIMASO
 70
     1
  9
$DIMSHO
 70
     1
  9
$DIMPOST
  1

  9
$DIMAPOST
  1

  9
$DIMALT
 70
     0
  9
$DIMALTD
 70
     2
  9
$DIMALTF
 40
25.399999999999999
  9
$DIMLFAC
 40
1.0
  9
$DIMTOFL
 70
     0
  9
$DIMTVP
 40
0.0
  9
$DIMTIX
 70
     0
  9
$DIMSOXD
 70
     0
  9
$DIMSAH
 70
     0
  9
$DIMBLK1
  1

  9
$DIMBLK2
  1

  9
$DIMSTYLE
  2
STANDARD
  9
$DIMCLRD
 70
     0
  9
$DIMCLRE
 70
     0
  9
$DIMCLRT
 70
     0
  9
$DIMTFAC
 40
1.0
  9
$DIMGAP
 40
0.09
  9
$LUNITS
 70
     2
  9
$LUPREC
 70
     4
  9
$SKETCHINC
 40
0.1
  9
$FILLETRAD
 40
0.0
  9
$AUNITS
 70
     0
  9
$AUPREC
 70
     2
  9
$MENU
  1
.
  9
$ELEVATION
 40
0.0
  9
$PELEVATION
 40
0.0
  9
$THICKNESS
 40
0.0
  9
$LIMCHECK
 70
     0
  9
$BLIPMODE
 70
     0
  9
$CHAMFERA
 40
0.0
  9
$CHAMFERB
 40
0.0
  9
$SKPOLY
 70
     0
  9
$TDCREATE
 40
2453067.568213657
  9
$TDUPDATE
 40
2453087.5041047572
  9
$TDINDWG
 40
0.0672514583
  9
$TDUSRTIMER
 40
0.0672514583
  9
$USRTIMER
 70
     1
  9
$ANGBASE
 50
0.0
  9
$ANGDIR
 70
     0
  9
$PDMODE
 70
     0
  9
$PDSIZE
 40
0.0
  9
$PLINEWID
 40
0.0
  9
$COORDS
 70
     0
  9
$SPLFRAME
 70
     0
  9
$SPLINETYPE
 70
     6
  9
$SPLINESEGS
 70
     8
  9
$ATTDIA
 70
     1
  9
$ATTREQ
 70
     1
  9
$HANDLING
 70
 22529
  9
$HANDSEED
  5
265
  9
$SURFTAB1
 70
     6
  9
$SURFTAB2
 70
     6
  9
$SURFTYPE
 70
     6
  9
$SURFU
 70
     6
  9
$SURFV
 70
     6
  9
$UCSNAME
  2

  9
$UCSORG
 10
0.0
 20
0.0
 30
0.0
  9
$UCSXDIR
 10
1.0
 20
0.0
 30
0.0
  9
$UCSYDIR
 10
0.0
 20
1.0
 30
0.0
  9
$PUCSNAME
  2

  9
$PUCSORG
 10
0.0
 20
0.0
 30
0.0
  9
$PUCSXDIR
 10
1.0
 20
0.0
 30
0.0
  9
$PUCSYDIR
 10
0.0
 20
1.0
 30
0.0
  9
$USERI1
 70
     0
  9
$USERI2
 70
     0
  9
$USERI3
 70
     0
  9
$USERI4
 70
     0
  9
$USERI5
 70
     0
  9
$USERR1
 40
0.0
  9
$USERR2
 40
0.0
  9
$USERR3
 40
0.0
  9
$USERR4
 40
0.0
  9
$USERR5
 40
0.0
  9
$WORLDVIEW
 70
     1
  9
$SHADEDGE
 70
     3
  9
$SHADEDIF
 70
    70
  9
$TILEMODE
 70
     1
  9
$MAXACTVP
 70
    64
  9
$PLIMCHECK
 70
     0
  9
$PEXTMIN
 10
0.0728391742330814
 20
0.0777537839745435
 30
0.0
  9
$PEXTMAX
 10
297.07283917423302
 20
452.25478213986452
 30
0.0
  9
$PLIMMIN
 10
-0.1979161059762549
 20
-0.2679166643638311
  9
$PLIMMAX
 10
11.493750144177531
 20
7.9987497780266699
  9
$UNITMODE
 70
     0
  9
$VISRETAIN
 70
     1
  9
$PLINEGEN
 70
     0
  9
$PSLTSCALE
 70
     1
  0
ENDSEC
  0
SECTION
  2
TABLES
  0
TABLE
  2
VPORT
 70
     2
  0
VPORT
  2
*ACTIVE
 70
     0
 10
0.0
 20
0.0
 11
1.0
 21
1.0
 12
-5.9201954133061099
 22
5.8994343933469544
 13
0.0
 23
0.0
 14
1.0
 24
1.0
 15
0.0
 25
0.0
 16
0.0
 26
0.0
 36
1.0
 17
0.0
 27
0.0
 37
0.0
 40
51.325314582302347
 41
1.828516377649325
 42
50.0
 43
0.0
 44
0.0
 50
0.0
 51
0.0
 71
     0
 72
   100
 73
     1
 74
     1
 75
     0
 76
     0
 77
     0
 78
     0
  0
ENDTAB
  0
TABLE
  2
LTYPE
 70
     1
  0
LTYPE
  2
CONTINUOUS
 70
     0
  3
Solid line
 72
    65
 73
     0
 40
0.0
  0
ENDTAB
  0
TABLE
  2
LAYER
 70
     3
  0
LAYER
  2
0
 70
     0
 62
     7
  6
CONTINUOUS
  0
LAYER
  2
DEFPOINTS
 70
     0
 62
     7
  6
CONTINUOUS
  0
LAYER
  2
COTATION-JACOBDELAFON
 70
     0
 62
     8
  6
CONTINUOUS
  0
ENDTAB
  0
TABLE
  2
STYLE
 70
     2
  0
STYLE
  2
STANDARD
 70
     0
 40
0.0
 41
1.0
 50
0.0
 71
     0
 42
0.2
  3
txt
  4

  0
STYLE
  2
JACOB-DELAFON
 70
     0
 40
0.0
 41
1.0
 50
0.0
 71
     0
 42
2.5
  3
txt
  4

  0
ENDTAB
  0
TABLE
  2
VIEW
 70
     0
  0
ENDTAB
  0
TABLE
  2
UCS
 70
     0
  0
ENDTAB
  0
TABLE
  2
APPID
 70
     9
  0
APPID
  2
ACAD
 70
     0
  0
APPID
  2
ADCADD_ZZ
 70
     0
  0
APPID
  2
SDSK_PMN
 70
     0
  0
APPID
  2
ACAECLAYERSTANDARD
 70
     0
  0
APPID
  2
AECBASE
 70
     0
  0
APPID
  2
AEC_DWGVARSSETUP_DATA
 70
     0
  0
APPID
  2
AEC_DISPREPCONFIG_DATA
 70
     0
  0
APPID
  2
AEC_DISPREPSET_DATA
 70
     0
  0
APPID
  2
DCO15
 70
     0
  0
ENDTAB
  0
TABLE
  2
DIMSTYLE
 70
     2
  0
DIMSTYLE
  2
STANDARD
 70
     0
  3

  4

  5

  6

  7

 40
1.0
 41
0.18
 42
0.0625
 43
0.38
 44
0.18
 45
0.0
 46
0.0
 47
0.0
 48
0.0
140
0.18
141
0.09
142
0.0
143
25.399999999999999
144
1.0
145
0.0
146
1.0
147
0.09
 71
     0
 72
     0
 73
     1
 74
     1
 75
     0
 76
     0
 77
     0
 78
     0
170
     0
171
     2
172
     0
173
     0
174
     0
175
     0
176
     0
177
     0
178
     0
  0
DIMSTYLE
  2
COTATION-JACOB-DELAFON
 70
     0
  3

  4

  5
OBLIQUE
  6

  7

 40
1.0
 41
1.8
 42
0.625
 43
3.7999999999999989
 44
1.8
 45
0.0
 46
0.0
 47
0.0
 48
0.0
140
3.0
141
0.9
142
0.0
143
25.399999999999999
144
1.0
145
0.0
146
1.0
147
0.9
 71
     0
 72
     0
 73
     0
 74
     0
 75
     0
 76
     0
 77
     1
 78
    12
170
     0
171
     2
172
     0
173
     0
174
     0
175
     0
176
     0
177
     0
178
     0
  0
ENDTAB
  0
ENDSEC
  0
SECTION
  2
BLOCKS
  0
BLOCK
  8
0
  2
$MODEL_SPACE
 70
     0
 10
0.0
 20
0.0
 30
0.0
  3
$MODEL_SPACE
  1

  0
ENDBLK
  5
9
  8
0
  0
BLOCK
 67
     1
  8
0
  2
$PAPER_SPACE
 70
     0
 10
0.0
 20
0.0
 30
0.0
  3
$PAPER_SPACE
  1

  0
ENDBLK
  5
E
 67
     1
  8
0
  0
BLOCK
  8
0
  2
*D0
 70
     1
 10
0.0
 20
0.0
 30
0.0
  3
*D0
  1

  0
LINE
  5
D0
  8
COTATION-JACOBDELAFON
 62
     0
 10
-37.49905653586854
 20
4.14557697848113
 30
0.0
 11
-37.49905653586854
 21
8.1411397768800278
 31
0.0
  0
LINE
  5
D1
  8
COTATION-JACOBDELAFON
 62
     0
 10
37.500944647786483
 20
4.1523951604069111
 30
0.0
 11
37.500944647786483
 21
8.1411397768800278
 31
0.0
  0
LINE
  5
D2
  8
COTATION-JACOBDELAFON
 62
     0
 10
-37.49905653586854
 20
6.3411397768800271
 30
0.0
 11
37.500944647786483
 21
6.3411397768800271
 31
0.0
  0
INSERT
  5
D3
  8
COTATION-JACOBDELAFON
 62
     0
  2
_OBLIQUE
 10
-37.49905653586854
 20
6.3411397768800271
 30
0.0
 41
1.8
 42
1.8
 43
1.8
 50
180.0
  0
INSERT
  5
D4
  8
COTATION-JACOBDELAFON
 62
     0
  2
_OBLIQUE
 10
37.500944647786483
 20
6.3411397768800271
 30
0.0
 41
1.8
 42
1.8
 43
1.8
  0
TEXT
  5
D5
  8
0
  6
CONTINUOUS
 62
     0
 10
-4.6914161077518051
 20
7.343459012896397
 30
0.0
 40
6.0
  1
75
  7
JACOB-DELAFON
  0
POINT
  5
D6
  8
DEFPOINTS
 62
     0
 10
-37.49905653586854
 20
3.52057697848113
 30
0.0
  0
POINT
  5
D7
  8
DEFPOINTS
 62
     0
 10
37.500944647786483
 20
3.5273951604069111
 30
0.0
  0
POINT
  5
D8
  8
DEFPOINTS
 62
     0
 10
37.500944647786483
 20
6.3411397768800271
 30
0.0
  0
ENDBLK
  5
63
  8
0
  0
BLOCK
  8
0
  2
_OBLIQUE
 70
     0
 10
0.0
 20
0.0
 30
0.0
  3
_OBLIQUE
  1

  0
LINE
  5
65
  8
0
  6
BYBLOCK
 62
     0
 10
-0.5
 20
-0.5
 30
0.0
 11
0.5
 21
0.5
 31
0.0
  0
ENDBLK
  5
67
  8
0
  0
BLOCK
  8
0
  2
*D2
 70
     1
 10
0.0
 20
0.0
 30
0.0
  3
*D2
  1

  0
LINE
  5
D9
  8
COTATION-JACOBDELAFON
 62
     0
 10
-37.467727854181653
 20
4.0276399235465297
 30
0.0
 11
-43.583320564415871
 21
4.0276399235465323
 31
0.0
  0
LINE
  5
DA
  8
COTATION-JACOBDELAFON
 62
     0
 10
-37.46982575631268
 20
-0.0731643368189905
 30
0.0
 11
-43.583320564415871
 21
-0.0731643368189888
 31
0.0
  0
LINE
  5
DB
  8
COTATION-JACOBDELAFON
 62
     0
 10
-41.783320564415867
 20
4.0276399235465314
 30
0.0
 11
-41.783320564415867
 21
-0.0731643368189893
 31
0.0
  0
TEXT
  5
DC
  8
0
  6
CONTINUOUS
 62
     0
 10
-44.945598872737833
 20
-3.1325848532938072
 30
0.0
 40
6.0
  1
4.1
 50
90.0
  7
JACOB-DELAFON
  0
INSERT
  5
DD
  8
COTATION-JACOBDELAFON
 62
     0
  2
_OBLIQUE
 10
-41.783320564415867
 20
4.0276399235465314
 30
0.0
 41
1.8
 42
1.8
 43
1.8
 50
90.0
  0
INSERT
  5
DE
  8
COTATION-JACOBDELAFON
 62
     0
  2
_OBLIQUE
 10
-41.783320564415867
 20
-0.0731643368189893
 30
0.0
 41
1.8
 42
1.8
 43
1.8
 50
270.0
  0
POINT
  5
DF
  8
DEFPOINTS
 62
     0
 10
-36.842727854181653
 20
4.0276399235465297
 30
0.0
  0
POINT
  5
E0
  8
DEFPOINTS
 62
     0
 10
-36.84482575631268
 20
-0.0731643368189907
 30
0.0
  0
POINT
  5
E1
  8
DEFPOINTS
 62
     0
 10
-41.783320564415867
 20
-0.0731643368189893
 30
0.0
  0
ENDBLK
  5
AB
  8
0
  0
BLOCK
  8
0
  2
ADCADD_ZZ
 70
     0
 10
0.0
 20
0.0
 30
0.0
  3
ADCADD_ZZ
  1

  0
ENDBLK
  5
FD
  8
0
  0
ENDSEC
  0
SECTION
  2
ENTITIES
  0
LINE
  5
24
  8
0
  6
CONTINUOUS
 10
36.847972609509199
 20
3.5247727827431272
 30
0.0
 11
-36.842622959075108
 21
3.5257168387021229
 31
0.0
  0
LINE
  5
25
  8
0
  6
CONTINUOUS
 10
-36.842570511521849
 20
0.4276049018534423
 30
0.0
 11
36.84576981227162
 21
0.4297028039844122
 31
0.0
  0
LINE
  5
26
  8
0
  6
CONTINUOUS
 10
36.85164393823846
 20
3.5956818747712869
 30
0.0
 11
-36.842622959075108
 21
3.5955769796647701
 31
0.0
  0
LINE
  5
27
  8
0
  6
CONTINUOUS
 10
36.849546036107469
 20
0.3587937119562525
 30
0.0
 11
-36.84482575631268
 21
0.3588986070627698
 31
0.0
  0
LINE
  5
28
  8
0
  6
CONTINUOUS
 10
36.846923658443679
 20
3.95452803428077
 30
0.0
 11
-36.842622959075108
 21
3.9544231391742519
 31
0.0
  0
LINE
  5
29
  8
0
  6
CONTINUOUS
 10
-36.84482575631268
 20
0.000052447553287
 30
0.0
 11
36.84482575631268
 21
-0.0000524475532302
 31
0.0
  0
LINE
  5
2A
  8
0
  6
CONTINUOUS
 10
36.842308273755471
 20
4.0276399235465297
 30
0.0
 11
-36.842727854181653
 21
4.0276399235465297
 31
0.0
  0
LINE
  5
2B
  8
0
  6
CONTINUOUS
 10
-36.84482575631268
 20
-0.0731643368189907
 30
0.0
 11
36.840105476517898
 21
-0.0732692319255648
 31
0.0
  0
LINE
  5
2C
  8
0
  6
CONTINUOUS
 10
-36.930525058364459
 20
3.5289685870051239
 30
0.0
 11
-36.929476107298989
 21
3.52057697848113
 31
0.0
  0
LINE
  5
2D
  8
0
  6
CONTINUOUS
 10
-36.904720862153027
 20
3.5760664898463679
 30
0.0
 11
-36.930525058364459
 21
3.5289685870051239
 31
0.0
  0
LINE
  5
2E
  8
0
  6
CONTINUOUS
 10
-36.842622959075108
 20
3.5955769796647701
 30
0.0
 11
-36.904720862153027
 21
3.5760664898463679
 31
0.0
  0
LINE
  5
2F
  8
0
  6
CONTINUOUS
 10
-37.404546044866493
 20
3.5289685870051239
 30
0.0
 11
-37.403497093800993
 21
3.52057697848113
 31
0.0
  0
LINE
  5
30
  8
0
  6
CONTINUOUS
 10
-37.239965622688644
 20
3.829807752592159
 30
0.0
 11
-37.404546044866493
 21
3.5289685870051239
 31
0.0
  0
LINE
  5
31
  8
0
  6
CONTINUOUS
 10
-36.842622959075108
 20
3.9544231391742519
 30
0.0
 11
-37.239965622688644
 21
3.829807752592159
 31
0.0
  0
LINE
  5
32
  8
0
  6
CONTINUOUS
 10
-37.496853738630968
 20
3.5342133423326909
 30
0.0
 11
-37.49905653586854
 21
3.52057697848113
 31
0.0
  0
LINE
  5
33
  8
0
  6
CONTINUOUS
 10
-37.30521037896311
 20
3.8830944667198528
 30
0.0
 11
-37.496853738630968
 21
3.5342133423326909
 31
0.0
  0
LINE
  5
34
  8
0
  6
CONTINUOUS
 10
-36.842727854181653
 20
4.0276399235465297
 30
0.0
 11
-37.30521037896311
 21
3.8830944667198528
 31
0.0
  0
LINE
  5
35
  8
0
  6
CONTINUOUS
 10
-36.906923659390621
 20
0.3784090968812279
 30
0.0
 11
-36.84482575631268
 21
0.3588986070627698
 31
0.0
  0
LINE
  5
36
  8
0
  6
CONTINUOUS
 10
-36.932622960495472
 20
0.4254021046158414
 30
0.0
 11
-36.906923659390621
 21
0.3784090968812279
 31
0.0
  0
LINE
  5
37
  8
0
  6
CONTINUOUS
 10
-37.242168419926202
 20
0.12466783413538
 30
0.0
 11
-36.84482575631268
 21
0.000052447553287
 31
0.0
  0
LINE
  5
38
  8
0
  6
CONTINUOUS
 10
-37.406748842104079
 20
0.4254021046158414
 30
0.0
 11
-37.242168419926202
 21
0.12466783413538
 31
0.0
  0
LINE
  5
39
  8
0
  6
CONTINUOUS
 10
-37.307413176200669
 20
0.0713811200076862
 30
0.0
 11
-36.84482575631268
 21
-0.0731643368189907
 31
0.0
  0
LINE
  5
3A
  8
0
  6
CONTINUOUS
 10
-37.49905653586854
 20
0.4202622443949054
 30
0.0
 11
-37.307413176200669
 21
0.0713811200076862
 31
0.0
  0
LINE
  5
3B
  8
0
  6
CONTINUOUS
 10
-36.842622959075108
 20
3.5257168387021229
 30
0.0
 11
-36.842570511521849
 21
0.4276049018534423
 31
0.0
  0
LINE
  5
3C
  8
0
  6
CONTINUOUS
 10
-36.929476107298989
 20
3.52057697848113
 30
0.0
 11
-36.932622960495472
 21
0.4254021046158414
 31
0.0
  0
LINE
  5
3D
  8
0
  6
CONTINUOUS
 10
-37.403497093800993
 20
3.52057697848113
 30
0.0
 11
-37.406748842104079
 21
0.4254021046158414
 31
0.0
  0
LINE
  5
3E
  8
0
  6
CONTINUOUS
 10
-37.49905653586854
 20
3.52057697848113
 30
0.0
 11
-37.49905653586854
 21
0.4202622443949054
 31
0.0
  0
LINE
  5
3F
  8
0
  6
CONTINUOUS
 10
36.90996561748058
 20
3.576171384952886
 30
0.0
 11
36.85164393823846
 21
3.5956818747712869
 31
0.0
  0
LINE
  5
40
  8
0
  6
CONTINUOUS
 10
36.933042540921697
 20
3.5247727827431272
 30
0.0
 11
36.90996561748058
 21
3.576171384952886
 31
0.0
  0
LINE
  5
41
  8
0
  6
CONTINUOUS
 10
37.245210378016182
 20
3.8299126476987331
 30
0.0
 11
36.846923658443679
 21
3.95452803428077
 31
0.0
  0
LINE
  5
42
  8
0
  6
CONTINUOUS
 10
37.407063527423709
 20
3.5247727827431272
 30
0.0
 11
37.245210378016182
 21
3.8299126476987331
 31
0.0
  0
LINE
  5
43
  8
0
  6
CONTINUOUS
 10
37.310455134290642
 20
3.8831993618264269
 30
0.0
 11
36.842308273755471
 21
4.0276399235465297
 31
0.0
  0
LINE
  5
44
  8
0
  6
CONTINUOUS
 10
37.500944647786483
 20
3.5273951604069111
 30
0.0
 11
37.310455134290642
 21
3.8831993618264269
 31
0.0
  0
LINE
  5
45
  8
0
  6
CONTINUOUS
 10
36.907867715349582
 20
0.3783042017746538
 30
0.0
 11
36.849546036107469
 21
0.3587937119562525
 31
0.0
  0
LINE
  5
46
  8
0
  6
CONTINUOUS
 10
36.933567016454461
 20
0.4252972095092673
 30
0.0
 11
36.907867715349582
 21
0.3783042017746538
 31
0.0
  0
LINE
  5
47
  8
0
  6
CONTINUOUS
 10
37.243007580778631
 20
0.1244580439222318
 30
0.0
 11
37.40769289806304
 21
0.4252972095092673
 31
0.0
  0
LINE
  5
48
  8
0
  6
CONTINUOUS
 10
36.84482575631268
 20
-0.0000524475532302
 30
0.0
 11
37.243007580778631
 21
0.1244580439222318
 31
0.0
  0
LINE
  5
49
  8
0
  6
CONTINUOUS
 10
37.308357232159622
 20
0.0711713297945949
 30
0.0
 11
37.499895696720969
 21
0.4252972095092673
 31
0.0
  0
LINE
  5
4A
  8
0
  6
CONTINUOUS
 10
36.840105476517898
 20
-0.0732692319255648
 30
0.0
 11
37.308357232159622
 21
0.0711713297945949
 31
0.0
  0
LINE
  5
4B
  8
0
  6
CONTINUOUS
 10
36.84576981227162
 20
0.4297028039844122
 30
0.0
 11
36.846504078017503
 21
3.523933621890762
 31
0.0
  0
LINE
  5
4C
  8
0
  6
CONTINUOUS
 10
36.933567016454461
 20
0.4252972095092673
 30
0.0
 11
36.933042540921697
 21
3.5247727827431272
 31
0.0
  0
LINE
  5
4D
  8
0
  6
CONTINUOUS
 10
37.40769289806304
 20
0.4252972095092673
 30
0.0
 11
37.407063527423709
 21
3.5247727827431272
 31
0.0
  0
LINE
  5
4E
  8
0
  6
CONTINUOUS
 10
37.499895696720969
 20
0.4252972095092673
 30
0.0
 11
37.500944647786483
 21
3.5273951604069111
 31
0.0
  0
DIMENSION
  5
55
  8
COTATION-JACOBDELAFON
  2
*D0
 10
37.500944647786483
 20
6.3411397768800271
 30
0.0
 11
0.0009440559589715
 21
10.292299394888211
 31
0.0
 70
     0
 13
-37.49905653586854
 23
3.52057697848113
 33
0.0
 14
37.500944647786483
 24
3.5273951604069111
 34
0.0
1001
ACAD
1000
DSTYLE
1002
{
1070
   140
1040
6.0
1002
}
  0
DIMENSION
  5
9D
  8
COTATION-JACOBDELAFON
  2
*D2
 10
-41.783320564415867
 20
-0.0731643368189893
 30
0.0
 11
-47.945598872737833
 21
1.9772377933637639
 31
0.0
 70
     0
 13
-36.842727854181653
 23
4.0276399235465297
 33
0.0
 14
-36.84482575631268
 24
-0.0731643368189907
 34
0.0
 50
90.0
1001
ACAD
1000
DSTYLE
1002
{
1070
   140
1040
6.0
1002
}
  0
INSERT
  5
FE
 67
     1
  8
0
  6
CONTINUOUS
  2
ADCADD_ZZ
 10
0.0
 20
0.0
 30
0.0
1001
ADCADD_ZZ
1070
   205
1070
    14
1070
   209
1070
     1
1070
   231
1070
     0
1070
   235
1070
     0
1070
   236
1070
     4
1070
   237
1070
     2
1070
   238
1070
     4
1070
   239
1070
     2
1070
   240
1070
     0
1070
   241
1070
  4096
1070
   242
1070
     2
1070
   244
1070
     0
1070
   245
1070
     1
1070
   303
1040
0.1
1070
   304
1040
4.0
1070
   305
1040
96.0
1070
   306
1040
0.125
1070
   337
1040
0.0
1070
   338
1040
0.3048
1070
   339
1040
0.0625
1070
   340
1040
96.0
1070
   341
1040
4.0
1070
   342
1040
96.0
1070
   530
1010
0.0
1020
0.0
1030
0.0
1070
   531
1010
0.0
1020
0.0
1030
0.0
1070
   107
1000

1070
   108
1000
Architectural Desktop
1070
   135
1000
L120
1070
   136
1000
'
1070
   137
1000
m
1001
SDSK_PMN
1070
   100
1000
ACADARCH
1070
   300
1040
2453087.5041550691
  0
ENDSEC
  0
EOF
