  0
SECTION
  2
HEADER
  9
$ACADVER
  1
AC1009
  9
$INSBASE
 10
0.0
 20
0.0
 30
0.0
  9
$EXTMIN
 10
-119.9408833639346
 20
-0.899999999999993
 30
0.0
  9
$EXTMAX
 10
90.896404945836466
 20
84.265277119774922
 30
0.0
  9
$LIMMIN
 10
0.0
 20
0.0
  9
$LIMMAX
 10
12.0
 20
9.0
  9
$ORTHOMODE
 70
     1
  9
$REGENMODE
 70
     1
  9
$FILLMODE
 70
     1
  9
$QTEXTMODE
 70
     0
  9
$MIRRTEXT
 70
     1
  9
$DRAGMODE
 70
     2
  9
$LTSCALE
 40
1.0
  9
$OSMODE
 70
    35
  9
$ATTMODE
 70
     1
  9
$TEXTSIZE
 40
0.2
  9
$TRACEWID
 40
0.05
  9
$TEXTSTYLE
  7
STANDARD
  9
$CLAYER
  8
0
  9
$CELTYPE
  6
CONTINUOUS
  9
$CECOLOR
 62
   256
  9
$DIMSCALE
 40
1.0
  9
$DIMASZ
 40
0.18
  9
$DIMEXO
 40
0.0625
  9
$DIMDLI
 40
0.38
  9
$DIMRND
 40
0.0
  9
$DIMDLE
 40
0.0
  9
$DIMEXE
 40
0.18
  9
$DIMTP
 40
0.0
  9
$DIMTM
 40
0.0
  9
$DIMTXT
 40
0.18
  9
$DIMCEN
 40
0.09
  9
$DIMTSZ
 40
0.0
  9
$DIMTOL
 70
     0
  9
$DIMLIM
 70
     0
  9
$DIMTIH
 70
     1
  9
$DIMTOH
 70
     1
  9
$DIMSE1
 70
     0
  9
$DIMSE2
 70
     0
  9
$DIMTAD
 70
     0
  9
$DIMZIN
 70
     0
  9
$DIMBLK
  1

  9
$DIMASO
 70
     1
  9
$DIMSHO
 70
     1
  9
$DIMPOST
  1

  9
$DIMAPOST
  1

  9
$DIMALT
 70
     0
  9
$DIMALTD
 70
     2
  9
$DIMALTF
 40
25.399999999999999
  9
$DIMLFAC
 40
1.0
  9
$DIMTOFL
 70
     0
  9
$DIMTVP
 40
0.0
  9
$DIMTIX
 70
     0
  9
$DIMSOXD
 70
     0
  9
$DIMSAH
 70
     0
  9
$DIMBLK1
  1

  9
$DIMBLK2
  1

  9
$DIMSTYLE
  2
STANDARD
  9
$DIMCLRD
 70
     0
  9
$DIMCLRE
 70
     0
  9
$DIMCLRT
 70
     0
  9
$DIMTFAC
 40
1.0
  9
$DIMGAP
 40
0.09
  9
$LUNITS
 70
     2
  9
$LUPREC
 70
     4
  9
$SKETCHINC
 40
0.1
  9
$FILLETRAD
 40
0.0
  9
$AUNITS
 70
     0
  9
$AUPREC
 70
     2
  9
$MENU
  1
.
  9
$ELEVATION
 40
0.0
  9
$PELEVATION
 40
0.0
  9
$THICKNESS
 40
0.0
  9
$LIMCHECK
 70
     0
  9
$BLIPMODE
 70
     0
  9
$CHAMFERA
 40
0.0
  9
$CHAMFERB
 40
0.0
  9
$SKPOLY
 70
     0
  9
$TDCREATE
 40
2453068.6242009718
  9
$TDUPDATE
 40
2453090.5928069088
  9
$TDINDWG
 40
0.0494021875
  9
$TDUSRTIMER
 40
0.0494021875
  9
$USRTIMER
 70
     1
  9
$ANGBASE
 50
0.0
  9
$ANGDIR
 70
     0
  9
$PDMODE
 70
     0
  9
$PDSIZE
 40
0.0
  9
$PLINEWID
 40
0.0
  9
$COORDS
 70
     0
  9
$SPLFRAME
 70
     0
  9
$SPLINETYPE
 70
     6
  9
$SPLINESEGS
 70
     8
  9
$ATTDIA
 70
     1
  9
$ATTREQ
 70
     1
  9
$HANDLING
 70
     1
  9
$HANDSEED
  5
270
  9
$SURFTAB1
 70
     6
  9
$SURFTAB2
 70
     6
  9
$SURFTYPE
 70
     6
  9
$SURFU
 70
     6
  9
$SURFV
 70
     6
  9
$UCSNAME
  2

  9
$UCSORG
 10
0.0
 20
0.0
 30
0.0
  9
$UCSXDIR
 10
1.0
 20
0.0
 30
0.0
  9
$UCSYDIR
 10
0.0
 20
1.0
 30
0.0
  9
$PUCSNAME
  2

  9
$PUCSORG
 10
0.0
 20
0.0
 30
0.0
  9
$PUCSXDIR
 10
1.0
 20
0.0
 30
0.0
  9
$PUCSYDIR
 10
0.0
 20
1.0
 30
0.0
  9
$USERI1
 70
     0
  9
$USERI2
 70
     0
  9
$USERI3
 70
     0
  9
$USERI4
 70
     0
  9
$USERI5
 70
     0
  9
$USERR1
 40
0.0
  9
$USERR2
 40
0.0
  9
$USERR3
 40
0.0
  9
$USERR4
 40
0.0
  9
$USERR5
 40
0.0
  9
$WORLDVIEW
 70
     1
  9
$SHADEDGE
 70
     3
  9
$SHADEDIF
 70
    70
  9
$TILEMODE
 70
     1
  9
$MAXACTVP
 70
    64
  9
$PLIMCHECK
 70
     0
  9
$PEXTMIN
 10
0.1365046323501247
 20
0.0624198045697142
 30
0.0
  9
$PEXTMAX
 10
297.13650463235012
 20
341.56164829045628
 30
0.0
  9
$PLIMMIN
 10
-0.1979161059762549
 20
-0.2679166643638311
  9
$PLIMMAX
 10
11.493750144177531
 20
7.9987497780266699
  9
$UNITMODE
 70
     0
  9
$VISRETAIN
 70
     1
  9
$PLINEGEN
 70
     0
  9
$PSLTSCALE
 70
     1
  0
ENDSEC
  0
SECTION
  2
TABLES
  0
TABLE
  2
VPORT
 70
     2
  0
VPORT
  2
*ACTIVE
 70
     0
 10
0.0
 20
0.0
 11
1.0
 21
1.0
 12
34.141363837351093
 22
35.886153722874752
 13
0.0
 23
0.0
 14
1.0
 24
1.0
 15
0.0
 25
0.0
 16
0.0
 26
0.0
 36
1.0
 17
0.0
 27
0.0
 37
0.0
 40
242.90216544839279
 41
1.828516377649325
 42
50.0
 43
0.0
 44
0.0
 50
0.0
 51
0.0
 71
     0
 72
   100
 73
     1
 74
     1
 75
     0
 76
     0
 77
     0
 78
     0
  0
ENDTAB
  0
TABLE
  2
LTYPE
 70
     1
  0
LTYPE
  2
CONTINUOUS
 70
     0
  3
Solid line
 72
    65
 73
     0
 40
0.0
  0
ENDTAB
  0
TABLE
  2
LAYER
 70
     3
  0
LAYER
  2
0
 70
     0
 62
     7
  6
CONTINUOUS
  0
LAYER
  2
DEFPOINTS
 70
     0
 62
     7
  6
CONTINUOUS
  0
LAYER
  2
COTATION-JACOBDELAFON
 70
     0
 62
     8
  6
CONTINUOUS
  0
ENDTAB
  0
TABLE
  2
STYLE
 70
     2
  0
STYLE
  2
STANDARD
 70
     0
 40
0.0
 41
1.0
 50
0.0
 71
     0
 42
0.2
  3
txt
  4

  0
STYLE
  2
JACOB-DELAFON
 70
     0
 40
0.0
 41
1.0
 50
0.0
 71
     0
 42
2.5
  3
txt
  4

  0
ENDTAB
  0
TABLE
  2
VIEW
 70
     0
  0
ENDTAB
  0
TABLE
  2
UCS
 70
     0
  0
ENDTAB
  0
TABLE
  2
APPID
 70
     8
  0
APPID
  2
ACAD
 70
     0
  0
APPID
  2
ACAECLAYERSTANDARD
 70
     0
  0
APPID
  2
ADCADD_ZZ
 70
     0
  0
APPID
  2
SDSK_PMN
 70
     0
  0
APPID
  2
AECBASE
 70
     0
  0
APPID
  2
AEC_DWGVARSSETUP_DATA
 70
     0
  0
APPID
  2
AEC_DISPREPCONFIG_DATA
 70
     0
  0
APPID
  2
AEC_DISPREPSET_DATA
 70
     0
  0
ENDTAB
  0
TABLE
  2
DIMSTYLE
 70
     2
  0
DIMSTYLE
  2
STANDARD
 70
     0
  3

  4

  5

  6

  7

 40
1.0
 41
0.18
 42
0.0625
 43
0.38
 44
0.18
 45
0.0
 46
0.0
 47
0.0
 48
0.0
140
0.18
141
0.09
142
0.0
143
25.399999999999999
144
1.0
145
0.0
146
1.0
147
0.09
 71
     0
 72
     0
 73
     1
 74
     1
 75
     0
 76
     0
 77
     0
 78
     0
170
     0
171
     2
172
     0
173
     0
174
     0
175
     0
176
     0
177
     0
178
     0
  0
DIMSTYLE
  2
COTATION-JACOB-DELAFON
 70
     0
  3

  4

  5
OBLIQUE
  6

  7

 40
1.0
 41
1.8
 42
0.625
 43
3.7999999999999989
 44
1.8
 45
0.0
 46
0.0
 47
0.0
 48
0.0
140
3.0
141
0.9
142
0.0
143
25.399999999999999
144
1.0
145
0.0
146
1.0
147
0.9
 71
     0
 72
     0
 73
     0
 74
     0
 75
     0
 76
     0
 77
     1
 78
    12
170
     0
171
     2
172
     0
173
     0
174
     0
175
     0
176
     0
177
     0
178
     0
  0
ENDTAB
  0
ENDSEC
  0
SECTION
  2
BLOCKS
  0
BLOCK
  8
0
  2
$MODEL_SPACE
 70
     0
 10
0.0
 20
0.0
 30
0.0
  3
$MODEL_SPACE
  1

  0
ENDBLK
  5
9
  8
0
  0
BLOCK
 67
     1
  8
0
  2
$PAPER_SPACE
 70
     0
 10
0.0
 20
0.0
 30
0.0
  3
$PAPER_SPACE
  1

  0
ENDBLK
  5
E
 67
     1
  8
0
  0
BLOCK
  8
0
  2
_OBLIQUE
 70
     0
 10
0.0
 20
0.0
 30
0.0
  3
_OBLIQUE
  1

  0
LINE
  5
5C
  8
0
  6
BYBLOCK
 62
     0
 10
-0.5
 20
-0.5
 30
0.0
 11
0.5
 21
0.5
 31
0.0
  0
ENDBLK
  5
5E
  8
0
  0
BLOCK
  8
0
  2
*D2
 70
     1
 10
0.0
 20
0.0
 30
0.0
  3
*D2
  1

  0
LINE
  5
218
  8
COTATION-JACOBDELAFON
 62
     0
 10
-89.996303617940356
 20
51.948699951163967
 30
0.0
 11
-89.996303617940356
 21
81.313981076118694
 31
0.0
  0
LINE
  5
219
  8
COTATION-JACOBDELAFON
 62
     0
 10
89.996404945836474
 20
51.948699951163967
 30
0.0
 11
89.996404945836474
 21
81.313981076118694
 31
0.0
  0
LINE
  5
21A
  8
COTATION-JACOBDELAFON
 62
     0
 10
-89.996303617940356
 20
79.513981076118711
 30
0.0
 11
89.996404945836474
 21
79.513981076118711
 31
0.0
  0
INSERT
  5
21B
  8
COTATION-JACOBDELAFON
 62
     0
  2
_OBLIQUE
 10
-89.996303617940356
 20
79.513981076118711
 30
0.0
 41
1.8
 42
1.8
 43
1.8
 50
180.0
  0
INSERT
  5
21C
  8
COTATION-JACOBDELAFON
 62
     0
  2
_OBLIQUE
 10
89.996404945836474
 20
79.513981076118711
 30
0.0
 41
1.8
 42
1.8
 43
1.8
  0
TEXT
  5
21D
  8
0
  6
CONTINUOUS
 62
     0
 10
-3.6240966757518041
 20
80.471279848287878
 30
0.0
 40
3.0
  1
180
  7
JACOB-DELAFON
  0
POINT
  5
21E
  8
DEFPOINTS
 62
     0
 10
-89.996303617940356
 20
51.323699951163967
 30
0.0
  0
POINT
  5
21F
  8
DEFPOINTS
 62
     0
 10
89.996404945836474
 20
51.323699951163967
 30
0.0
  0
POINT
  5
220
  8
DEFPOINTS
 62
     0
 10
89.996404945836474
 20
79.513981076118711
 30
0.0
  0
ENDBLK
  5
85
  8
0
  0
BLOCK
  8
0
  2
ADCADD_ZZ
 70
     0
 10
0.0
 20
0.0
 30
0.0
  3
ADCADD_ZZ
  1

  0
ENDBLK
  5
A5
  8
0
  0
BLOCK
  8
0
  2
*D4
 70
     1
 10
0.0
 20
0.0
 30
0.0
  3
*D4
  1

  0
LINE
  5
25C
  8
COTATION-JACOBDELAFON
 62
     0
 10
-90.625005066380908
 20
0.0000000000000002
 30
0.0
 11
-116.99572647443939
 21
0.0000000000000076
 31
0.0
  0
LINE
  5
25D
  8
COTATION-JACOBDELAFON
 62
     0
 10
-89.997704923139125
 20
54.000091552726069
 30
0.0
 11
-116.99572647443939
 21
54.000091552726083
 31
0.0
  0
LINE
  5
25E
  8
COTATION-JACOBDELAFON
 62
     0
 10
-115.1957264744394
 20
0.0000000000000071
 30
0.0
 11
-115.1957264744394
 21
54.000091552726083
 31
0.0
  0
INSERT
  5
25F
  8
COTATION-JACOBDELAFON
 62
     0
  2
_OBLIQUE
 10
-115.1957264744394
 20
0.0000000000000071
 30
0.0
 41
1.8
 42
1.8
 43
1.8
 50
270.0
  0
INSERT
  5
260
  8
COTATION-JACOBDELAFON
 62
     0
  2
_OBLIQUE
 10
-115.1957264744394
 20
54.000091552726083
 30
0.0
 41
1.8
 42
1.8
 43
1.8
 50
90.0
  0
TEXT
  5
261
  8
0
  6
CONTINUOUS
 62
     0
 10
-116.1468860924476
 20
24.683538272952379
 30
0.0
 40
3.0
  1
54
 50
90.0
  7
JACOB-DELAFON
  0
POINT
  5
262
  8
DEFPOINTS
 62
     0
 10
-90.000005066380908
 20
0.0
 30
0.0
  0
POINT
  5
263
  8
DEFPOINTS
 62
     0
 10
-89.372704923139125
 20
54.000091552726069
 30
0.0
  0
POINT
  5
264
  8
DEFPOINTS
 62
     0
 10
-115.1957264744394
 20
54.000091552726083
 30
0.0
  0
ENDBLK
  5
22D
  8
0
  0
ENDSEC
  0
SECTION
  2
ENTITIES
  0
LINE
  5
24
  8
0
  6
CONTINUOUS
 10
-90.000005066380908
 20
0.0
 30
0.0
 11
90.000005066380908
 21
0.0
 31
0.0
  0
LINE
  5
25
  8
0
  6
CONTINUOUS
 10
89.372797310338541
 20
54.000091552726069
 30
0.0
 11
-89.372704923139125
 21
54.000091552726069
 31
0.0
  0
LINE
  5
26
  8
0
  6
CONTINUOUS
 10
-89.996303617940356
 20
51.323699951163967
 30
0.0
 11
89.996404945836474
 21
51.323699951163967
 31
0.0
  0
LINE
  5
27
  8
0
  6
CONTINUOUS
 10
89.369699083953122
 20
51.892916290494838
 30
0.0
 11
-89.368404546662106
 21
51.892848069588581
 31
0.0
  0
LINE
  5
28
  8
0
  6
CONTINUOUS
 10
89.452194461080254
 20
51.693793870765262
 30
0.0
 11
-89.453403651700526
 21
51.693725585929542
 31
0.0
  0
LINE
  5
29
  8
0
  6
CONTINUOUS
 10
89.907374659443661
 20
51.527473416199648
 30
0.0
 11
-89.905305206761767
 21
51.527404785148292
 31
0.0
  0
LINE
  5
2A
  8
0
  6
CONTINUOUS
 10
-89.372704923139125
 20
14.987182617185219
 30
0.0
 11
89.367385208592935
 21
14.987182617185219
 31
0.0
  0
LINE
  5
2B
  8
0
  6
CONTINUOUS
 10
-89.371703565106884
 20
14.20745849609159
 30
0.0
 11
89.368386566625162
 21
14.20745849609159
 31
0.0
  0
LINE
  5
2C
  8
0
  6
CONTINUOUS
 10
-89.368794858441831
 20
13.48342895507607
 30
0.0
 11
89.371295273290201
 21
13.48342895507607
 31
0.0
  0
LINE
  5
2D
  8
0
  6
CONTINUOUS
 10
-89.372704923139082
 20
12.84408569335738
 30
0.0
 11
89.375801384435221
 21
12.84408569335738
 31
0.0
  0
LINE
  5
2E
  8
0
  6
CONTINUOUS
 10
-89.372704923139167
 20
12.31994628906056
 30
0.0
 11
89.381904900060221
 21
12.319946289060621
 31
0.0
  0
LINE
  5
2F
  8
0
  6
CONTINUOUS
 10
-89.372704923139153
 20
11.924743652341929
 30
0.0
 11
89.386506378636881
 21
11.924743652341929
 31
0.0
  0
LINE
  5
30
  8
0
  6
CONTINUOUS
 10
-89.372704923139153
 20
11.618041992185731
 30
0.0
 11
89.387197792516275
 21
11.618041992185679
 31
0.0
  0
LINE
  5
31
  8
0
  6
CONTINUOUS
 10
-89.996303617940356
 20
51.323699951163967
 30
0.0
 11
-90.000005066380908
 21
0.0
 31
0.0
  0
LINE
  5
32
  8
0
  6
CONTINUOUS
 10
-89.372704923139125
 20
12.84408569335738
 30
0.0
 11
-89.813704788670975
 21
12.95776367187301
 31
0.0
  0
LINE
  5
33
  8
0
  6
CONTINUOUS
 10
-89.372704923139125
 20
11.618041992185679
 30
0.0
 11
-89.813704788670975
 21
11.638641357420051
 31
0.0
  0
LINE
  5
34
  8
0
  6
CONTINUOUS
 10
-89.813704788670975
 20
11.638641357420051
 30
0.0
 11
-89.996303617940356
 21
11.688232421873179
 31
0.0
  0
LINE
  5
35
  8
0
  6
CONTINUOUS
 10
-89.372704923139125
 20
11.924743652341929
 30
0.0
 11
-89.813704788670975
 21
12.004852294920051
 31
0.0
  0
LINE
  5
36
  8
0
  6
CONTINUOUS
 10
-89.813704788670975
 20
12.004852294920051
 30
0.0
 11
-89.996303617940356
 21
12.197875976560621
 31
0.0
  0
LINE
  5
37
  8
0
  6
CONTINUOUS
 10
-89.372704923139125
 20
12.319946289060621
 30
0.0
 11
-89.813704788670975
 21
12.454986572263691
 31
0.0
  0
LINE
  5
38
  8
0
  6
CONTINUOUS
 10
-89.813704788670975
 20
12.454986572263691
 30
0.0
 11
-89.996303617940356
 21
12.78228759765431
 31
0.0
  0
LINE
  5
39
  8
0
  6
CONTINUOUS
 10
-89.813704788670975
 20
12.95776367187301
 30
0.0
 11
-89.996303617940356
 21
13.23318481445107
 31
0.0
  0
LINE
  5
3A
  8
0
  6
CONTINUOUS
 10
-89.372704923139125
 20
13.48342895507607
 30
0.0
 11
-89.813704788670975
 21
13.5635375976542
 31
0.0
  0
LINE
  5
3B
  8
0
  6
CONTINUOUS
 10
-89.813704788670975
 20
13.5635375976542
 30
0.0
 11
-89.996303617940356
 21
13.75656127929477
 31
0.0
  0
LINE
  5
3C
  8
0
  6
CONTINUOUS
 10
-89.372704923139125
 20
14.20745849609159
 30
0.0
 11
-89.813704788670975
 21
14.24865722656034
 31
0.0
  0
LINE
  5
3D
  8
0
  6
CONTINUOUS
 10
-89.813704788670975
 20
14.24865722656034
 30
0.0
 11
-89.996303617940356
 21
14.348602294919649
 31
0.0
  0
LINE
  5
3E
  8
0
  6
CONTINUOUS
 10
-89.996303617940356
 20
14.987182617185219
 30
0.0
 11
-89.372704923139125
 21
14.987182617185219
 31
0.0
  0
LINE
  5
3F
  8
0
  6
CONTINUOUS
 10
-89.905305206761767
 20
51.527404785148292
 30
0.0
 11
-89.996303617940356
 21
51.323699951163967
 31
0.0
  0
LINE
  5
40
  8
0
  6
CONTINUOUS
 10
-89.372603595243007
 20
51.89285278319516
 30
0.0
 11
-89.453403651700526
 21
51.693725585929542
 31
0.0
  0
LINE
  5
41
  8
0
  6
CONTINUOUS
 10
-89.453403651700526
 20
51.693725585929542
 30
0.0
 11
-89.905305206761767
 21
51.527404785148292
 31
0.0
  0
LINE
  5
42
  8
0
  6
CONTINUOUS
 10
-89.374803006635204
 20
53.997039794913569
 30
0.0
 11
-89.372603595243007
 21
51.89285278319516
 31
0.0
  0
LINE
  5
43
  8
0
  6
CONTINUOUS
 10
90.000005066380908
 20
0.0
 30
0.0
 11
89.996404945836474
 21
51.323699951163967
 31
0.0
  0
LINE
  5
44
  8
0
  6
CONTINUOUS
 10
89.813704788670947
 20
12.95776367187301
 30
0.0
 11
89.375801384435221
 21
12.84408569335738
 31
0.0
  0
LINE
  5
45
  8
0
  6
CONTINUOUS
 10
89.996404945836474
 20
12.78228759765431
 30
0.0
 11
89.813704788670947
 21
12.454986572263691
 31
0.0
  0
LINE
  5
46
  8
0
  6
CONTINUOUS
 10
89.813704788670947
 20
12.454986572263691
 30
0.0
 11
89.381904900060221
 21
12.319946289060621
 31
0.0
  0
LINE
  5
47
  8
0
  6
CONTINUOUS
 10
89.996404945836474
 20
12.197875976560621
 30
0.0
 11
89.813704788670947
 21
12.004852294920051
 31
0.0
  0
LINE
  5
48
  8
0
  6
CONTINUOUS
 10
89.813704788670947
 20
12.004852294920051
 30
0.0
 11
89.386506378636881
 21
11.924743652341929
 31
0.0
  0
LINE
  5
49
  8
0
  6
CONTINUOUS
 10
89.996404945836474
 20
11.688232421873179
 30
0.0
 11
89.813704788670947
 21
11.638641357420051
 31
0.0
  0
LINE
  5
4A
  8
0
  6
CONTINUOUS
 10
89.813704788670947
 20
11.638641357420051
 30
0.0
 11
89.387197792516275
 21
11.618041992185679
 31
0.0
  0
LINE
  5
4B
  8
0
  6
CONTINUOUS
 10
89.367385208592935
 20
14.987182617185219
 30
0.0
 11
89.996404945836474
 21
14.987182617185219
 31
0.0
  0
LINE
  5
4C
  8
0
  6
CONTINUOUS
 10
89.996404945836474
 20
14.348602294919649
 30
0.0
 11
89.813704788670947
 21
14.24865722656034
 31
0.0
  0
LINE
  5
4D
  8
0
  6
CONTINUOUS
 10
89.813704788670947
 20
14.24865722656034
 30
0.0
 11
89.368386566625162
 21
14.20745849609159
 31
0.0
  0
LINE
  5
4E
  8
0
  6
CONTINUOUS
 10
89.996404945836474
 20
13.75656127929477
 30
0.0
 11
89.813704788670947
 21
13.5635375976542
 31
0.0
  0
LINE
  5
4F
  8
0
  6
CONTINUOUS
 10
89.813704788670947
 20
13.5635375976542
 30
0.0
 11
89.371295273290201
 21
13.48342895507607
 31
0.0
  0
LINE
  5
50
  8
0
  6
CONTINUOUS
 10
89.996404945836474
 20
13.23318481445107
 30
0.0
 11
89.813704788670947
 21
12.95776367187301
 31
0.0
  0
LINE
  5
51
  8
0
  6
CONTINUOUS
 10
89.996404945836474
 20
51.323699951163967
 30
0.0
 11
89.908404648290087
 21
51.525115966788967
 31
0.0
  0
LINE
  5
52
  8
0
  6
CONTINUOUS
 10
89.908404648290087
 20
51.525115966788967
 30
0.0
 11
89.456506073461085
 21
51.692199707023292
 31
0.0
  0
LINE
  5
53
  8
0
  6
CONTINUOUS
 10
89.456506073461085
 20
51.692199707023292
 30
0.0
 11
89.375086128697916
 21
51.89285278319516
 31
0.0
  0
LINE
  5
54
  8
0
  6
CONTINUOUS
 10
89.375086128697916
 20
51.89285278319516
 30
0.0
 11
89.372797310338541
 21
54.000091552726069
 31
0.0
  0
DIMENSION
  5
79
  8
COTATION-JACOBDELAFON
  2
*D2
 10
89.996404945836474
 20
79.513981076118711
 30
0.0
 11
0.0000506639480592
 21
81.945700039283793
 31
0.0
 70
     0
 13
-89.996303617940356
 23
51.323699951163967
 33
0.0
 14
89.996404945836474
 24
51.323699951163967
 34
0.0
 50
180.0
1001
ACAD
1000
DSTYLE
1002
{
1070
   271
1070
     1
1002
}
  0
DIMENSION
  5
221
  8
COTATION-JACOBDELAFON
  2
*D4
 10
-115.1957264744394
 20
54.000091552726083
 30
0.0
 11
-117.6213062834435
 21
27.00004577636302
 31
0.0
 70
     0
 13
-90.000005066380908
 23
0.0
 33
0.0
 14
-89.372704923139125
 24
54.000091552726069
 34
0.0
 50
270.0
1001
ACAD
1000
DSTYLE
1002
{
1070
   271
1070
     1
1002
}
  0
INSERT
  5
A6
 67
     1
  8
0
  6
CONTINUOUS
  2
ADCADD_ZZ
 10
0.0
 20
0.0
 30
0.0
1001
ADCADD_ZZ
1070
   205
1070
    14
1070
   209
1070
     1
1070
   231
1070
     0
1070
   235
1070
     0
1070
   236
1070
     4
1070
   237
1070
     2
1070
   238
1070
     4
1070
   239
1070
     2
1070
   240
1070
     0
1070
   241
1070
  4096
1070
   242
1070
     2
1070
   244
1070
     0
1070
   245
1070
     1
1070
   303
1040
0.1
1070
   304
1040
4.0
1070
   305
1040
1.0
1070
   306
1040
1.0
1070
   337
1040
0.0
1070
   338
1040
0.3048
1070
   339
1040
0.0625
1070
   340
1040
96.0
1070
   341
1040
4.0
1070
   342
1040
1.0
1070
   530
1010
0.0
1020
0.0
1030
0.0
1070
   531
1010
0.0
1020
0.0
1030
0.0
1070
   107
1000
AD256
1070
   108
1000
AIA (256 color)
1070
   135
1000
L120
1070
   136
1000
'
1070
   137
1000
m
1001
SDSK_PMN
1070
   100
1000
ACADARCH
1070
   300
1040
2453090.5930286339
  0
ENDSEC
  0
EOF
