  0
SECTION
  2
HEADER
  9
$ACADVER
  1
AC1009
  9
$INSBASE
 10
0.0000000000000071
 20
0.0
 30
0.0
  9
$EXTMIN
 10
-99.715192964367532
 20
-0.8999999999999946
 30
0.0
  9
$EXTMAX
 10
75.896302276833097
 20
80.675262855636888
 30
0.0
  9
$LIMMIN
 10
0.0
 20
0.0
  9
$LIMMAX
 10
12.0
 20
9.0
  9
$ORTHOMODE
 70
     1
  9
$REGENMODE
 70
     1
  9
$FILLMODE
 70
     1
  9
$QTEXTMODE
 70
     0
  9
$MIRRTEXT
 70
     1
  9
$DRAGMODE
 70
     2
  9
$LTSCALE
 40
1.0
  9
$OSMODE
 70
    35
  9
$ATTMODE
 70
     1
  9
$TEXTSIZE
 40
0.2
  9
$TRACEWID
 40
0.05
  9
$TEXTSTYLE
  7
STANDARD
  9
$CLAYER
  8
0
  9
$CELTYPE
  6
CONTINUOUS
  9
$CECOLOR
 62
   256
  9
$DIMSCALE
 40
1.0
  9
$DIMASZ
 40
0.18
  9
$DIMEXO
 40
0.0625
  9
$DIMDLI
 40
0.38
  9
$DIMRND
 40
0.0
  9
$DIMDLE
 40
0.0
  9
$DIMEXE
 40
0.18
  9
$DIMTP
 40
0.0
  9
$DIMTM
 40
0.0
  9
$DIMTXT
 40
0.18
  9
$DIMCEN
 40
0.09
  9
$DIMTSZ
 40
0.0
  9
$DIMTOL
 70
     0
  9
$DIMLIM
 70
     0
  9
$DIMTIH
 70
     1
  9
$DIMTOH
 70
     1
  9
$DIMSE1
 70
     0
  9
$DIMSE2
 70
     0
  9
$DIMTAD
 70
     0
  9
$DIMZIN
 70
     0
  9
$DIMBLK
  1

  9
$DIMASO
 70
     1
  9
$DIMSHO
 70
     1
  9
$DIMPOST
  1

  9
$DIMAPOST
  1

  9
$DIMALT
 70
     0
  9
$DIMALTD
 70
     2
  9
$DIMALTF
 40
25.399999999999999
  9
$DIMLFAC
 40
1.0
  9
$DIMTOFL
 70
     0
  9
$DIMTVP
 40
0.0
  9
$DIMTIX
 70
     0
  9
$DIMSOXD
 70
     0
  9
$DIMSAH
 70
     0
  9
$DIMBLK1
  1

  9
$DIMBLK2
  1

  9
$DIMSTYLE
  2
STANDARD
  9
$DIMCLRD
 70
     0
  9
$DIMCLRE
 70
     0
  9
$DIMCLRT
 70
     0
  9
$DIMTFAC
 40
1.0
  9
$DIMGAP
 40
0.09
  9
$LUNITS
 70
     2
  9
$LUPREC
 70
     4
  9
$SKETCHINC
 40
0.1
  9
$FILLETRAD
 40
0.0
  9
$AUNITS
 70
     0
  9
$AUPREC
 70
     2
  9
$MENU
  1
.
  9
$ELEVATION
 40
0.0
  9
$PELEVATION
 40
0.0
  9
$THICKNESS
 40
0.0
  9
$LIMCHECK
 70
     0
  9
$BLIPMODE
 70
     0
  9
$CHAMFERA
 40
0.0
  9
$CHAMFERB
 40
0.0
  9
$SKPOLY
 70
     0
  9
$TDCREATE
 40
2453068.6082649301
  9
$TDUPDATE
 40
2453090.5942397681
  9
$TDINDWG
 40
0.037551794
  9
$TDUSRTIMER
 40
0.037551794
  9
$USRTIMER
 70
     1
  9
$ANGBASE
 50
0.0
  9
$ANGDIR
 70
     0
  9
$PDMODE
 70
     0
  9
$PDSIZE
 40
0.0
  9
$PLINEWID
 40
0.0
  9
$COORDS
 70
     0
  9
$SPLFRAME
 70
     0
  9
$SPLINETYPE
 70
     6
  9
$SPLINESEGS
 70
     8
  9
$ATTDIA
 70
     1
  9
$ATTREQ
 70
     1
  9
$HANDLING
 70
     1
  9
$HANDSEED
  5
275
  9
$SURFTAB1
 70
     6
  9
$SURFTAB2
 70
     6
  9
$SURFTYPE
 70
     6
  9
$SURFU
 70
     6
  9
$SURFV
 70
     6
  9
$UCSNAME
  2

  9
$UCSORG
 10
0.0
 20
0.0
 30
0.0
  9
$UCSXDIR
 10
1.0
 20
0.0
 30
0.0
  9
$UCSYDIR
 10
0.0
 20
1.0
 30
0.0
  9
$PUCSNAME
  2

  9
$PUCSORG
 10
0.0
 20
0.0
 30
0.0
  9
$PUCSXDIR
 10
1.0
 20
0.0
 30
0.0
  9
$PUCSYDIR
 10
0.0
 20
1.0
 30
0.0
  9
$USERI1
 70
     0
  9
$USERI2
 70
     0
  9
$USERI3
 70
     0
  9
$USERI4
 70
     0
  9
$USERI5
 70
     0
  9
$USERR1
 40
0.0
  9
$USERR2
 40
0.0
  9
$USERR3
 40
0.0
  9
$USERR4
 40
0.0
  9
$USERR5
 40
0.0
  9
$WORLDVIEW
 70
     1
  9
$SHADEDGE
 70
     3
  9
$SHADEDIF
 70
    70
  9
$TILEMODE
 70
     1
  9
$MAXACTVP
 70
    64
  9
$PLIMCHECK
 70
     0
  9
$PEXTMIN
 10
0.1103976533303808
 20
0.1300781498477477
 30
0.0
  9
$PEXTMAX
 10
297.11039765333032
 20
429.60372635022168
 30
0.0
  9
$PLIMMIN
 10
-0.1979161059762549
 20
-0.2679166643638311
  9
$PLIMMAX
 10
11.493750144177531
 20
7.9987497780266699
  9
$UNITMODE
 70
     0
  9
$VISRETAIN
 70
     1
  9
$PLINEGEN
 70
     0
  9
$PSLTSCALE
 70
     1
  0
ENDSEC
  0
SECTION
  2
TABLES
  0
TABLE
  2
VPORT
 70
     2
  0
VPORT
  2
*ACTIVE
 70
     0
 10
0.0
 20
0.0
 11
1.0
 21
1.0
 12
-6.8276099583834764
 22
21.42905191934323
 13
0.0
 23
0.0
 14
1.0
 24
1.0
 15
0.0
 25
0.0
 16
0.0
 26
0.0
 36
1.0
 17
0.0
 27
0.0
 37
0.0
 40
239.21901952024581
 41
1.828516377649325
 42
50.0
 43
0.0
 44
0.0
 50
0.0
 51
0.0
 71
     0
 72
   100
 73
     1
 74
     1
 75
     0
 76
     0
 77
     0
 78
     0
  0
ENDTAB
  0
TABLE
  2
LTYPE
 70
     1
  0
LTYPE
  2
CONTINUOUS
 70
     0
  3
Solid line
 72
    65
 73
     0
 40
0.0
  0
ENDTAB
  0
TABLE
  2
LAYER
 70
     3
  0
LAYER
  2
0
 70
     0
 62
     7
  6
CONTINUOUS
  0
LAYER
  2
DEFPOINTS
 70
     0
 62
     7
  6
CONTINUOUS
  0
LAYER
  2
COTATION-JACOBDELAFON
 70
     0
 62
     8
  6
CONTINUOUS
  0
ENDTAB
  0
TABLE
  2
STYLE
 70
     2
  0
STYLE
  2
STANDARD
 70
     0
 40
0.0
 41
1.0
 50
0.0
 71
     0
 42
0.2
  3
txt
  4

  0
STYLE
  2
JACOB-DELAFON
 70
     0
 40
0.0
 41
1.0
 50
0.0
 71
     0
 42
2.5
  3
txt
  4

  0
ENDTAB
  0
TABLE
  2
VIEW
 70
     0
  0
ENDTAB
  0
TABLE
  2
UCS
 70
     0
  0
ENDTAB
  0
TABLE
  2
APPID
 70
     8
  0
APPID
  2
ACAD
 70
     0
  0
APPID
  2
ACAECLAYERSTANDARD
 70
     0
  0
APPID
  2
ADCADD_ZZ
 70
     0
  0
APPID
  2
SDSK_PMN
 70
     0
  0
APPID
  2
AECBASE
 70
     0
  0
APPID
  2
AEC_DWGVARSSETUP_DATA
 70
     0
  0
APPID
  2
AEC_DISPREPCONFIG_DATA
 70
     0
  0
APPID
  2
AEC_DISPREPSET_DATA
 70
     0
  0
ENDTAB
  0
TABLE
  2
DIMSTYLE
 70
     2
  0
DIMSTYLE
  2
STANDARD
 70
     0
  3

  4

  5

  6

  7

 40
1.0
 41
0.18
 42
0.0625
 43
0.38
 44
0.18
 45
0.0
 46
0.0
 47
0.0
 48
0.0
140
0.18
141
0.09
142
0.0
143
25.399999999999999
144
1.0
145
0.0
146
1.0
147
0.09
 71
     0
 72
     0
 73
     1
 74
     1
 75
     0
 76
     0
 77
     0
 78
     0
170
     0
171
     2
172
     0
173
     0
174
     0
175
     0
176
     0
177
     0
178
     0
  0
DIMSTYLE
  2
COTATION-JACOB-DELAFON
 70
     0
  3

  4

  5
OBLIQUE
  6

  7

 40
1.0
 41
1.8
 42
0.625
 43
3.7999999999999989
 44
1.8
 45
0.0
 46
0.0
 47
0.0
 48
0.0
140
3.0
141
0.9
142
0.0
143
25.399999999999999
144
1.0
145
0.0
146
1.0
147
0.9
 71
     0
 72
     0
 73
     0
 74
     0
 75
     0
 76
     0
 77
     1
 78
    12
170
     0
171
     2
172
     0
173
     0
174
     0
175
     0
176
     0
177
     0
178
     0
  0
ENDTAB
  0
ENDSEC
  0
SECTION
  2
BLOCKS
  0
BLOCK
  8
0
  2
$MODEL_SPACE
 70
     0
 10
0.0
 20
0.0
 30
0.0
  3
$MODEL_SPACE
  1

  0
ENDBLK
  5
9
  8
0
  0
BLOCK
 67
     1
  8
0
  2
$PAPER_SPACE
 70
     0
 10
0.0
 20
0.0
 30
0.0
  3
$PAPER_SPACE
  1

  0
ENDBLK
  5
E
 67
     1
  8
0
  0
BLOCK
  8
0
  2
_OBLIQUE
 70
     0
 10
0.0
 20
0.0
 30
0.0
  3
_OBLIQUE
  1

  0
LINE
  5
50
  8
0
  6
BYBLOCK
 62
     0
 10
-0.5
 20
-0.5
 30
0.0
 11
0.5
 21
0.5
 31
0.0
  0
ENDBLK
  5
52
  8
0
  0
BLOCK
  8
0
  2
*D2
 70
     1
 10
0.0
 20
0.0
 30
0.0
  3
*D2
  1

  0
LINE
  5
EB
  8
COTATION-JACOBDELAFON
 62
     0
 10
-74.996397644264732
 20
51.948699951160499
 30
0.0
 11
-74.996397644264732
 21
77.723966811980674
 31
0.0
  0
LINE
  5
EC
  8
COTATION-JACOBDELAFON
 62
     0
 10
74.996302276833092
 20
51.948699951160499
 30
0.0
 11
74.996302276833092
 21
77.723966811980674
 31
0.0
  0
LINE
  5
ED
  8
COTATION-JACOBDELAFON
 62
     0
 10
-74.996397644264732
 20
75.923966811980677
 30
0.0
 11
74.996302276833092
 21
75.923966811980677
 31
0.0
  0
INSERT
  5
EE
  8
COTATION-JACOBDELAFON
 62
     0
  2
_OBLIQUE
 10
-74.996397644264732
 20
75.923966811980677
 30
0.0
 41
1.8
 42
1.8
 43
1.8
 50
180.0
  0
INSERT
  5
EF
  8
COTATION-JACOBDELAFON
 62
     0
  2
_OBLIQUE
 10
74.996302276833092
 20
75.923966811980677
 30
0.0
 41
1.8
 42
1.8
 43
1.8
  0
TEXT
  5
F0
  8
0
  6
CONTINUOUS
 62
     0
 10
-3.6241950234156839
 20
76.881265584149844
 30
0.0
 40
3.0
  1
150
  7
JACOB-DELAFON
  0
POINT
  5
F1
  8
DEFPOINTS
 62
     0
 10
-74.996397644264732
 20
51.323699951160499
 30
0.0
  0
POINT
  5
F2
  8
DEFPOINTS
 62
     0
 10
74.996302276833092
 20
51.323699951160499
 30
0.0
  0
POINT
  5
F3
  8
DEFPOINTS
 62
     0
 10
74.996302276833092
 20
75.923966811980677
 30
0.0
  0
ENDBLK
  5
79
  8
0
  0
BLOCK
  8
0
  2
*D3
 70
     1
 10
0.0
 20
0.0
 30
0.0
  3
*D3
  1

  0
LINE
  5
F4
  8
COTATION-JACOBDELAFON
 62
     0
 10
-75.624997764809166
 20
0.0000000000000002
 30
0.0
 11
-96.770036074872294
 21
0.0000000000000062
 31
0.0
  0
LINE
  5
F5
  8
COTATION-JACOBDELAFON
 62
     0
 10
-74.998797699792547
 20
53.998565673816131
 30
0.0
 11
-96.770036074872266
 21
53.998565673816138
 31
0.0
  0
LINE
  5
F6
  8
COTATION-JACOBDELAFON
 62
     0
 10
-94.970036074872269
 20
0.0000000000000057
 30
0.0
 11
-94.970036074872269
 21
53.998565673816138
 31
0.0
  0
INSERT
  5
F7
  8
COTATION-JACOBDELAFON
 62
     0
  2
_OBLIQUE
 10
-94.970036074872269
 20
0.0000000000000057
 30
0.0
 41
1.8
 42
1.8
 43
1.8
 50
270.0
  0
INSERT
  5
F8
  8
COTATION-JACOBDELAFON
 62
     0
  2
_OBLIQUE
 10
-94.970036074872269
 20
53.998565673816138
 30
0.0
 41
1.8
 42
1.8
 43
1.8
 50
90.0
  0
TEXT
  5
F9
  8
0
  6
CONTINUOUS
 62
     0
 10
-95.921195692880474
 20
24.68277533349741
 30
0.0
 40
3.0
  1
54
 50
90.0
  7
JACOB-DELAFON
  0
POINT
  5
FA
  8
DEFPOINTS
 62
     0
 10
-74.999997764809166
 20
0.0
 30
0.0
  0
POINT
  5
FB
  8
DEFPOINTS
 62
     0
 10
-74.373797699792547
 20
53.998565673816131
 30
0.0
  0
POINT
  5
FC
  8
DEFPOINTS
 62
     0
 10
-94.970036074872269
 20
53.998565673816138
 30
0.0
  0
ENDBLK
  5
8F
  8
0
  0
BLOCK
  8
0
  2
ADCADD_ZZ
 70
     0
 10
0.0
 20
0.0
 30
0.0
  3
ADCADD_ZZ
  1

  0
ENDBLK
  5
113
  8
0
  0
ENDSEC
  0
SECTION
  2
ENTITIES
  0
LINE
  5
24
  8
0
  6
CONTINUOUS
 10
74.371204525215745
 20
11.92474365234113
 30
0.0
 11
-74.372797459347424
 21
11.92474365234113
 31
0.0
  0
LINE
  5
25
  8
0
  6
CONTINUOUS
 10
74.371204525215745
 20
12.31994628905977
 30
0.0
 11
-74.372797459347424
 21
12.31994628905977
 31
0.0
  0
LINE
  5
26
  8
0
  6
CONTINUOUS
 10
74.371204525215745
 20
13.48342895507516
 30
0.0
 11
-74.372797459347424
 21
13.48342895507516
 31
0.0
  0
LINE
  5
27
  8
0
  6
CONTINUOUS
 10
-74.996397644264732
 20
14.9871826171842
 30
0.0
 11
74.996302276833092
 21
14.9871826171842
 31
0.0
  0
LINE
  5
28
  8
0
  6
CONTINUOUS
 10
74.387202411873488
 20
11.61804199218494
 30
0.0
 11
-74.372797459347424
 21
11.61804199218494
 31
0.0
  0
LINE
  5
29
  8
0
  6
CONTINUOUS
 10
-74.372697621567426
 20
51.892852783191579
 30
0.0
 11
74.369703682490126
 21
51.892927917017801
 31
0.0
  0
LINE
  5
2A
  8
0
  6
CONTINUOUS
 10
74.456403404457717
 20
51.692199707019768
 30
0.0
 11
-74.453497678024917
 21
51.693725585926018
 31
0.0
  0
LINE
  5
2B
  8
0
  6
CONTINUOUS
 10
-74.908397346718345
 20
51.525115966785449
 30
0.0
 11
74.908301979286705
 21
51.525115966785449
 31
0.0
  0
LINE
  5
2C
  8
0
  6
CONTINUOUS
 10
74.996302276833092
 20
51.323699951160499
 30
0.0
 11
-74.996397644264732
 21
51.323699951160499
 31
0.0
  0
LINE
  5
2D
  8
0
  6
CONTINUOUS
 10
-74.373797699792547
 20
53.998565673816131
 30
0.0
 11
74.374697357399612
 21
53.997039794909881
 31
0.0
  0
LINE
  5
2E
  8
0
  6
CONTINUOUS
 10
74.999997764809166
 20
0.0
 30
0.0
 11
-74.999997764809152
 21
0.0
 31
0.0
  0
LINE
  5
2F
  8
0
  6
CONTINUOUS
 10
-74.999997764809152
 20
0.0
 30
0.0
 11
-74.996397644264732
 21
51.323699951160499
 31
0.0
  0
LINE
  5
30
  8
0
  6
CONTINUOUS
 10
-74.372797459347424
 20
13.48342895507516
 30
0.0
 11
-74.813697487099233
 21
13.56353759765323
 31
0.0
  0
LINE
  5
31
  8
0
  6
CONTINUOUS
 10
-74.813697487099233
 20
12.454986572262889
 30
0.0
 11
-74.372797459347424
 21
12.31994628905977
 31
0.0
  0
LINE
  5
32
  8
0
  6
CONTINUOUS
 10
-74.813697487099233
 20
12.0048522949192
 30
0.0
 11
-74.372797459347424
 21
11.92474365234113
 31
0.0
  0
LINE
  5
33
  8
0
  6
CONTINUOUS
 10
-74.372797459347424
 20
11.61804199218494
 30
0.0
 11
-74.813697487099233
 21
11.63864135741931
 31
0.0
  0
LINE
  5
34
  8
0
  6
CONTINUOUS
 10
-74.996397644264732
 20
12.782287597653401
 30
0.0
 11
-74.813697487099233
 21
12.454986572262889
 31
0.0
  0
LINE
  5
35
  8
0
  6
CONTINUOUS
 10
-74.996397644264732
 20
12.19787597655977
 30
0.0
 11
-74.813697487099233
 21
12.0048522949192
 31
0.0
  0
LINE
  5
36
  8
0
  6
CONTINUOUS
 10
-74.813697487099233
 20
11.63864135741931
 30
0.0
 11
-74.996397644264732
 21
11.68823242187238
 31
0.0
  0
LINE
  5
37
  8
0
  6
CONTINUOUS
 10
-74.813697487099233
 20
13.56353759765323
 30
0.0
 11
-74.996397644264732
 21
13.7565612792938
 31
0.0
  0
LINE
  5
38
  8
0
  6
CONTINUOUS
 10
-74.905397742970024
 20
51.527404785144768
 30
0.0
 11
-74.456497281773238
 21
51.692199707019768
 31
0.0
  0
LINE
  5
39
  8
0
  6
CONTINUOUS
 10
-74.996397644264732
 20
51.323699951160499
 30
0.0
 11
-74.905397742970024
 21
51.527404785144768
 31
0.0
  0
LINE
  5
3A
  8
0
  6
CONTINUOUS
 10
-74.372697621567426
 20
51.892852783191579
 30
0.0
 11
-74.373797699792547
 21
53.998565673816131
 31
0.0
  0
LINE
  5
3B
  8
0
  6
CONTINUOUS
 10
-74.456497281773238
 20
51.692199707019768
 30
0.0
 11
-74.372697621567426
 21
51.892852783191579
 31
0.0
  0
LINE
  5
3C
  8
0
  6
CONTINUOUS
 10
74.996302276833092
 20
51.323699951160499
 30
0.0
 11
74.999997764809166
 21
0.0
 31
0.0
  0
LINE
  5
3D
  8
0
  6
CONTINUOUS
 10
74.813602119667564
 20
12.454986572262889
 30
0.0
 11
74.996302276833092
 21
12.782287597653401
 31
0.0
  0
LINE
  5
3E
  8
0
  6
CONTINUOUS
 10
74.381802231056838
 20
12.31994628905977
 30
0.0
 11
74.813602119667564
 21
12.454986572262889
 31
0.0
  0
LINE
  5
3F
  8
0
  6
CONTINUOUS
 10
74.813602119667564
 20
12.0048522949192
 30
0.0
 11
74.996302276833092
 21
12.19787597655977
 31
0.0
  0
LINE
  5
40
  8
0
  6
CONTINUOUS
 10
74.386403709633498
 20
11.92474365234113
 30
0.0
 11
74.813602119667564
 21
12.0048522949192
 31
0.0
  0
LINE
  5
41
  8
0
  6
CONTINUOUS
 10
74.813602119667564
 20
11.63864135741931
 30
0.0
 11
74.387202411873488
 21
11.61804199218494
 31
0.0
  0
LINE
  5
42
  8
0
  6
CONTINUOUS
 10
74.996302276833092
 20
11.68823242187238
 30
0.0
 11
74.813602119667564
 21
11.63864135741931
 31
0.0
  0
LINE
  5
43
  8
0
  6
CONTINUOUS
 10
74.813602119667564
 20
13.56353759765323
 30
0.0
 11
74.996302276833092
 21
13.7565612792938
 31
0.0
  0
LINE
  5
44
  8
0
  6
CONTINUOUS
 10
74.371204525215745
 20
13.48342895507516
 30
0.0
 11
74.813602119667564
 21
13.56353759765323
 31
0.0
  0
LINE
  5
45
  8
0
  6
CONTINUOUS
 10
74.907285891678328
 20
51.522954862023091
 30
0.0
 11
74.996302276833092
 21
51.323699951160499
 31
0.0
  0
LINE
  5
46
  8
0
  6
CONTINUOUS
 10
74.456403404457717
 20
51.692199707019768
 30
0.0
 11
74.907285891678328
 21
51.522954862023091
 31
0.0
  0
LINE
  5
47
  8
0
  6
CONTINUOUS
 10
74.375007301552444
 20
51.892852783191579
 30
0.0
 11
74.456403404457717
 21
51.692199707019768
 31
0.0
  0
LINE
  5
48
  8
0
  6
CONTINUOUS
 10
74.372706562264113
 20
54.000091552722381
 30
0.0
 11
74.375007301552444
 21
51.892852783191579
 31
0.0
  0
DIMENSION
  5
6D
  8
COTATION-JACOBDELAFON
  2
*D2
 10
74.996302276833092
 20
75.923966811980677
 30
0.0
 11
-0.0000476837158202
 21
78.355685775145758
 31
0.0
 70
     0
 13
-74.996397644264732
 23
51.323699951160499
 33
0.0
 14
74.996302276833092
 24
51.323699951160499
 34
0.0
 50
180.0
1001
ACAD
1000
DSTYLE
1002
{
1070
   271
1070
     1
1002
}
  0
DIMENSION
  5
83
  8
COTATION-JACOBDELAFON
  2
*D3
 10
-94.970036074872269
 20
53.998565673816138
 30
0.0
 11
-97.395615883876374
 21
26.999282836908051
 31
0.0
 70
     0
 13
-74.999997764809166
 23
0.0
 33
0.0
 14
-74.373797699792547
 24
53.998565673816131
 34
0.0
 50
270.0
1001
ACAD
1000
DSTYLE
1002
{
1070
   271
1070
     1
1002
}
  0
INSERT
  5
114
 67
     1
  8
0
  6
CONTINUOUS
  2
ADCADD_ZZ
 10
0.0
 20
0.0
 30
0.0
1001
ADCADD_ZZ
1070
   205
1070
    14
1070
   209
1070
     1
1070
   231
1070
     0
1070
   235
1070
     0
1070
   236
1070
     4
1070
   237
1070
     2
1070
   238
1070
     4
1070
   239
1070
     2
1070
   240
1070
     0
1070
   241
1070
  4096
1070
   242
1070
     2
1070
   244
1070
     0
1070
   245
1070
     1
1070
   303
1040
0.1
1070
   304
1040
4.0
1070
   305
1040
1.0
1070
   306
1040
1.0
1070
   337
1040
0.0
1070
   338
1040
0.3048
1070
   339
1040
0.0625
1070
   340
1040
96.0
1070
   341
1040
4.0
1070
   342
1040
1.0
1070
   530
1010
0.0
1020
0.0
1030
0.0
1070
   531
1010
0.0
1020
0.0
1030
0.0
1070
   107
1000
AD256
1070
   108
1000
AIA (256 color)
1070
   135
1000
L120
1070
   136
1000
'
1070
   137
1000
m
1001
SDSK_PMN
1070
   100
1000
ACADARCH
1070
   300
1040
2453090.5942857871
  0
ENDSEC
  0
EOF
