  0
SECTION
  2
HEADER
  9
$ACADVER
  1
AC1015
  9
$ACADMAINTVER
 70
    20
  9
$DWGCODEPAGE
  3
ANSI_1252
  9
$INSBASE
 10
0.0
 20
0.0
 30
0.0
  9
$EXTMIN
 10
-18.90652700376048
 20
-0.9000000000000046
 30
0.0
  9
$EXTMAX
 10
27.65284426247652
 20
52.75202899255842
 30
0.0
  9
$LIMMIN
 10
0.0
 20
0.0
  9
$LIMMAX
 10
12.0
 20
9.0
  9
$ORTHOMODE
 70
     1
  9
$REGENMODE
 70
     1
  9
$FILLMODE
 70
     1
  9
$QTEXTMODE
 70
     0
  9
$MIRRTEXT
 70
     1
  9
$LTSCALE
 40
1.0
  9
$ATTMODE
 70
     1
  9
$TEXTSIZE
 40
0.2
  9
$TRACEWID
 40
0.05
  9
$TEXTSTYLE
  7
Standard
  9
$CLAYER
  8
0
  9
$CELTYPE
  6
Continuous
  9
$CECOLOR
 62
   256
  9
$CELTSCALE
 40
1.0
  9
$DISPSILH
 70
     0
  9
$DIMSCALE
 40
96.0
  9
$DIMASZ
 40
1.8
  9
$DIMEXO
 40
0.625
  9
$DIMDLI
 40
3.799999999999999
  9
$DIMRND
 40
0.0
  9
$DIMDLE
 40
0.0
  9
$DIMEXE
 40
1.8
  9
$DIMTP
 40
0.0
  9
$DIMTM
 40
0.0
  9
$DIMTXT
 40
3.0
  9
$DIMCEN
 40
0.9
  9
$DIMTSZ
 40
0.0
  9
$DIMTOL
 70
     0
  9
$DIMLIM
 70
     0
  9
$DIMTIH
 70
     0
  9
$DIMTOH
 70
     0
  9
$DIMSE1
 70
     0
  9
$DIMSE2
 70
     0
  9
$DIMTAD
 70
     1
  9
$DIMZIN
 70
    12
  9
$DIMBLK
  1
Oblique
  9
$DIMASO
 70
     1
  9
$DIMSHO
 70
     1
  9
$DIMPOST
  1

  9
$DIMAPOST
  1

  9
$DIMALT
 70
     0
  9
$DIMALTD
 70
     2
  9
$DIMALTF
 40
25.4
  9
$DIMLFAC
 40
1.0
  9
$DIMTOFL
 70
     0
  9
$DIMTVP
 40
0.0
  9
$DIMTIX
 70
     0
  9
$DIMSOXD
 70
     0
  9
$DIMSAH
 70
     0
  9
$DIMBLK1
  1

  9
$DIMBLK2
  1

  9
$DIMSTYLE
  2
Cotation-Jacob-Delafon
  9
$DIMCLRD
 70
     0
  9
$DIMCLRE
 70
     0
  9
$DIMCLRT
 70
     0
  9
$DIMTFAC
 40
1.0
  9
$DIMGAP
 40
0.9
  9
$DIMJUST
 70
     0
  9
$DIMSD1
 70
     0
  9
$DIMSD2
 70
     0
  9
$DIMTOLJ
 70
     1
  9
$DIMTZIN
 70
     0
  9
$DIMALTZ
 70
     0
  9
$DIMALTTZ
 70
     0
  9
$DIMUPT
 70
     0
  9
$DIMDEC
 70
     2
  9
$DIMTDEC
 70
     2
  9
$DIMALTU
 70
     2
  9
$DIMALTTD
 70
     2
  9
$DIMTXSTY
  7
Jacob-Delafon
  9
$DIMAUNIT
 70
     0
  9
$DIMADEC
 70
     0
  9
$DIMALTRND
 40
0.0
  9
$DIMAZIN
 70
     3
  9
$DIMDSEP
 70
    46
  9
$DIMATFIT
 70
     3
  9
$DIMFRAC
 70
     0
  9
$DIMLDRBLK
  1
Oblique
  9
$DIMLUNIT
 70
     2
  9
$DIMLWD
 70
    -2
  9
$DIMLWE
 70
    -2
  9
$DIMTMOVE
 70
     2
  9
$LUNITS
 70
     2
  9
$LUPREC
 70
     4
  9
$SKETCHINC
 40
0.1
  9
$FILLETRAD
 40
0.0
  9
$AUNITS
 70
     0
  9
$AUPREC
 70
     2
  9
$MENU
  1
.
  9
$ELEVATION
 40
0.0
  9
$PELEVATION
 40
0.0
  9
$THICKNESS
 40
0.0
  9
$LIMCHECK
 70
     0
  9
$CHAMFERA
 40
0.0
  9
$CHAMFERB
 40
0.0
  9
$CHAMFERC
 40
0.0
  9
$CHAMFERD
 40
0.0
  9
$SKPOLY
 70
     0
  9
$TDCREATE
 40
2453059.599180475
  9
$TDUCREATE
 40
2453059.557513808
  9
$TDUPDATE
 40
2453746.773791968
  9
$TDUUPDATE
 40
2453746.732125301
  9
$TDINDWG
 40
0.2942836111
  9
$TDUSRTIMER
 40
0.2942836111
  9
$USRTIMER
 70
     1
  9
$ANGBASE
 50
0.0
  9
$ANGDIR
 70
     0
  9
$PDMODE
 70
     0
  9
$PDSIZE
 40
0.0
  9
$PLINEWID
 40
0.0
  9
$SPLFRAME
 70
     0
  9
$SPLINETYPE
 70
     6
  9
$SPLINESEGS
 70
     8
  9
$HANDSEED
  5
A7C
  9
$SURFTAB1
 70
     6
  9
$SURFTAB2
 70
     6
  9
$SURFTYPE
 70
     6
  9
$SURFU
 70
     6
  9
$SURFV
 70
     6
  9
$UCSBASE
  2

  9
$UCSNAME
  2

  9
$UCSORG
 10
0.0
 20
0.0
 30
0.0
  9
$UCSXDIR
 10
1.0
 20
0.0
 30
0.0
  9
$UCSYDIR
 10
0.0
 20
1.0
 30
0.0
  9
$UCSORTHOREF
  2

  9
$UCSORTHOVIEW
 70
     1
  9
$UCSORGTOP
 10
0.0
 20
0.0
 30
0.0
  9
$UCSORGBOTTOM
 10
0.0
 20
0.0
 30
0.0
  9
$UCSORGLEFT
 10
0.0
 20
0.0
 30
0.0
  9
$UCSORGRIGHT
 10
0.0
 20
0.0
 30
0.0
  9
$UCSORGFRONT
 10
0.0
 20
0.0
 30
0.0
  9
$UCSORGBACK
 10
0.0
 20
0.0
 30
0.0
  9
$PUCSBASE
  2

  9
$PUCSNAME
  2

  9
$PUCSORG
 10
0.0
 20
0.0
 30
0.0
  9
$PUCSXDIR
 10
1.0
 20
0.0
 30
0.0
  9
$PUCSYDIR
 10
0.0
 20
1.0
 30
0.0
  9
$PUCSORTHOREF
  2

  9
$PUCSORTHOVIEW
 70
     0
  9
$PUCSORGTOP
 10
0.0
 20
0.0
 30
0.0
  9
$PUCSORGBOTTOM
 10
0.0
 20
0.0
 30
0.0
  9
$PUCSORGLEFT
 10
0.0
 20
0.0
 30
0.0
  9
$PUCSORGRIGHT
 10
0.0
 20
0.0
 30
0.0
  9
$PUCSORGFRONT
 10
0.0
 20
0.0
 30
0.0
  9
$PUCSORGBACK
 10
0.0
 20
0.0
 30
0.0
  9
$USERI1
 70
     0
  9
$USERI2
 70
     0
  9
$USERI3
 70
     0
  9
$USERI4
 70
     0
  9
$USERI5
 70
     0
  9
$USERR1
 40
0.0
  9
$USERR2
 40
0.0
  9
$USERR3
 40
0.0
  9
$USERR4
 40
0.0
  9
$USERR5
 40
0.0
  9
$WORLDVIEW
 70
     1
  9
$SHADEDGE
 70
     3
  9
$SHADEDIF
 70
    70
  9
$TILEMODE
 70
     1
  9
$MAXACTVP
 70
    64
  9
$PINSBASE
 10
0.0
 20
0.0
 30
0.0
  9
$PLIMCHECK
 70
     0
  9
$PEXTMIN
 10
-1.585300379204397
 20
-1.639098515165159
 30
0.0
  9
$PEXTMAX
 10
295.4146996207956
 20
511.9015371446048
 30
0.0
  9
$PLIMMIN
 10
-0.1979161059762549
 20
-0.2679166643638311
  9
$PLIMMAX
 10
11.49375014417753
 20
7.99874977802667
  9
$UNITMODE
 70
     0
  9
$VISRETAIN
 70
     1
  9
$PLINEGEN
 70
     0
  9
$PSLTSCALE
 70
     1
  9
$TREEDEPTH
 70
  3020
  9
$CMLSTYLE
  2
Standard
  9
$CMLJUST
 70
     0
  9
$CMLSCALE
 40
1.0
  9
$PROXYGRAPHICS
 70
     1
  9
$MEASUREMENT
 70
     0
  9
$CELWEIGHT
370
    -1
  9
$ENDCAPS
280
     0
  9
$JOINSTYLE
280
     0
  9
$LWDISPLAY
290
     0
  9
$INSUNITS
 70
     5
  9
$HYPERLINKBASE
  1

  9
$STYLESHEET
  1

  9
$XEDIT
290
     1
  9
$CEPSNTYPE
380
     0
  9
$PSTYLEMODE
290
     1
  9
$FINGERPRINTGUID
  2
{218CDF35-CD53-4C1B-BB16-01801F7C6D80}
  9
$VERSIONGUID
  2
{36FADB4E-9ABD-45F0-94F6-69197B7EEF5F}
  9
$EXTNAMES
290
     1
  9
$PSVPSCALE
 40
0.0
  9
$OLESTARTUP
290
     0
  0
ENDSEC
  0
SECTION
  2
CLASSES
  0
CLASS
  1
ACDBDICTIONARYWDFLT
  2
AcDbDictionaryWithDefault
  3
ObjectDBX Classes
 90
        0
280
     0
281
     0
  0
CLASS
  1
ACDBPLACEHOLDER
  2
AcDbPlaceHolder
  3
ObjectDBX Classes
 90
        0
280
     0
281
     0
  0
CLASS
  1
LAYOUT
  2
AcDbLayout
  3
ObjectDBX Classes
 90
        0
280
     0
281
     0
  0
CLASS
  1
AEC_VARS_DWG_SETUP
  2
AecDbVarsDwgSetup
  3
AecBase40|Product Desc: Autodesk Architectural Desktop 2005 |Company: Autodesk,Inc. |WEB Address: www.autodesk.com
 90
      129
280
     0
281
     0
  0
CLASS
  1
AEC_LAYERKEY_STYLE
  2
AecDbLayerKeyStyle
  3
AecBase40|Product Desc: Autodesk Architectural Desktop 2005 |Company: Autodesk,Inc. |WEB Address: www.autodesk.com
 90
      129
280
     0
281
     0
  0
CLASS
  1
AEC_DISP_REP_CONFIG
  2
AecDbDispRepConfig
  3
AecBase40|Product Desc: Autodesk Architectural Desktop 2005 |Company: Autodesk,Inc. |WEB Address: www.autodesk.com
 90
      129
280
     0
281
     0
  0
CLASS
  1
AEC_DISP_REP_SET
  2
AecDbDispRepSet
  3
AecBase40|Product Desc: Autodesk Architectural Desktop 2005 |Company: Autodesk,Inc. |WEB Address: www.autodesk.com
 90
      129
280
     0
281
     0
  0
CLASS
  1
AEC_DISP_REP_ANCHOR_BUB_TO_GRID
  2
AecDbDispRepAnchorBubToGrid
  3
AecStructureBase40|Product Desc: Autodesk Architectural Desktop 2005 |Company: Autodesk,Inc. |WEB Address: www.autodesk.com
 90
      129
280
     0
281
     0
  0
CLASS
  1
AEC_DISP_REP_ANCHOR_BUB_TO_GRID_MODEL
  2
AecDbDispRepAnchorBubToGridMdl
  3
AecStructureBase40|Product Desc: Autodesk Architectural Desktop 2005 |Company: Autodesk,Inc. |WEB Address: www.autodesk.com
 90
      129
280
     0
281
     0
  0
CLASS
  1
AEC_DISP_REP_ANCHOR_ENT_TO_NODE
  2
AecDbDispRepAnchorEntToNode
  3
AecBase40|Product Desc: Autodesk Architectural Desktop 2005 |Company: Autodesk,Inc. |WEB Address: www.autodesk.com
 90
      129
280
     0
281
     0
  0
CLASS
  1
AEC_DISP_REP_AREA
  2
AecDbDispRepArea
  3
AecAreaCalculationBase40|Product Desc: Autodesk Architectural Desktop 2005 |Company: Autodesk,Inc. |WEB Address: www.autodesk.com
 90
      129
280
     0
281
     0
  0
CLASS
  1
AEC_DISP_REP_AREAGROUP
  2
AecDbDispRepAreaGroup
  3
AecAreaCalculationBase40|Product Desc: Autodesk Architectural Desktop 2005 |Company: Autodesk,Inc. |WEB Address: www.autodesk.com
 90
      129
280
     0
281
     0
  0
CLASS
  1
AEC_DISP_REP_BDG_ELEVLINE_MODEL
  2
AecDbDispRepBdgElevLineModel
  3
AecArchBase40|Product Desc: Autodesk Architectural Desktop 2005 |Company: Autodesk,Inc. |WEB Address: www.autodesk.com
 90
      129
280
     0
281
     0
  0
CLASS
  1
AEC_DISP_REP_BDG_SECTIONLINE_PLAN
  2
AecDbDispRepBdgElevLinePlan
  3
AecArchBase40|Product Desc: Autodesk Architectural Desktop 2005 |Company: Autodesk,Inc. |WEB Address: www.autodesk.com
 90
      129
280
     0
281
     0
  0
CLASS
  1
AEC_DISP_REP_BDG_SECTIONLINE_MODEL
  2
AecDbDispRepBdgSectionLineModel
  3
AecArchBase40|Product Desc: Autodesk Architectural Desktop 2005 |Company: Autodesk,Inc. |WEB Address: www.autodesk.com
 90
      129
280
     0
281
     0
  0
CLASS
  1
AEC_DISP_REP_BDG_SECTIONLINE_PLAN
  2
AecDbDispRepBdgSectionLinePlan
  3
AecArchBase40|Product Desc: Autodesk Architectural Desktop 2005 |Company: Autodesk,Inc. |WEB Address: www.autodesk.com
 90
      129
280
     0
281
     0
  0
CLASS
  1
AEC_DISP_REP_BDG_SECTION_SUBDIV
  2
AecDbDispRepBdgSectionSubDiv
  3
AecArchBase40|Product Desc: Autodesk Architectural Desktop 2005 |Company: Autodesk,Inc. |WEB Address: www.autodesk.com
 90
      129
280
     0
281
     0
  0
CLASS
  1
AEC_DISP_REP_CAMERA
  2
AecDbDispRepCamera
  3
AecBase40|Product Desc: Autodesk Architectural Desktop 2005 |Company: Autodesk,Inc. |WEB Address: www.autodesk.com
 90
      129
280
     0
281
     0
  0
CLASS
  1
AEC_DISP_REP_CEILING_GRID
  2
AecDbDispRepCeilingGrid
  3
AecArchBase40|Product Desc: Autodesk Architectural Desktop 2005 |Company: Autodesk,Inc. |WEB Address: www.autodesk.com
 90
      893
280
     0
281
     0
  0
CLASS
  1
AEC_DISP_REP_CEILING_GRID_MODEL
  2
AecDbDispRepCeilingGridModel
  3
AecArchBase40|Product Desc: Autodesk Architectural Desktop 2005 |Company: Autodesk,Inc. |WEB Address: www.autodesk.com
 90
      129
280
     0
281
     0
  0
CLASS
  1
AEC_DISP_REP_CLIP_VOLUME_MODEL
  2
AecDbDispRepClipVolModel
  3
AecBase40|Product Desc: Autodesk Architectural Desktop 2005 |Company: Autodesk,Inc. |WEB Address: www.autodesk.com
 90
      129
280
     0
281
     0
  0
CLASS
  1
AEC_DISP_REP_CLIP_VOLUME_PLAN
  2
AecDbDispRepClipVolPlan
  3
AecBase40|Product Desc: Autodesk Architectural Desktop 2005 |Company: Autodesk,Inc. |WEB Address: www.autodesk.com
 90
      129
280
     0
281
     0
  0
CLASS
  1
AEC_DISP_REP_CLIP_VOLUME_RESULT_SUBDIV
  2
AecDbDispRepClipVolResSubDiv
  3
AecBase40|Product Desc: Autodesk Architectural Desktop 2005 |Company: Autodesk,Inc. |WEB Address: www.autodesk.com
 90
      129
280
     0
281
     0
  0
CLASS
  1
AEC_DISP_REP_COLUMN_GRID
  2
AecDbDispRepColumnGrid
  3
AecStructureBase40|Product Desc: Autodesk Architectural Desktop 2005 |Company: Autodesk,Inc. |WEB Address: www.autodesk.com
 90
      129
280
     0
281
     0
  0
CLASS
  1
AEC_DISP_REP_COLUMN_GRID_MODEL
  2
AecDbDispRepColumnGridModel
  3
AecStructureBase40|Product Desc: Autodesk Architectural Desktop 2005 |Company: Autodesk,Inc. |WEB Address: www.autodesk.com
 90
      129
280
     0
281
     0
  0
CLASS
  1
AEC_DB_DISP_REP_DIM_GROUP_PLAN
  2
AecDbDispRepDimGroupPlan
  3
AecArchDACHBase40|Product Desc: Autodesk Architectural Desktop 2005 |Company: Autodesk,Inc. |WEB Address: www.autodesk.com
 90
      129
280
     0
281
     0
  0
CLASS
  1
AEC_DISP_REP_DOOR_MODEL
  2
AecDbDispRepDoorModel
  3
AecArchBase40|Product Desc: Autodesk Architectural Desktop 2005 |Company: Autodesk,Inc. |WEB Address: www.autodesk.com
 90
      129
280
     0
281
     0
  0
CLASS
  1
AEC_DISP_REP_DOOR_PLAN
  2
AecDbDispRepDoorPlan
  3
AecArchBase40|Product Desc: Autodesk Architectural Desktop 2005 |Company: Autodesk,Inc. |WEB Address: www.autodesk.com
 90
      129
280
     0
281
     0
  0
CLASS
  1
AEC_DISP_REP_DOOR_THRESHOLD_PLAN
  2
AecDbDispRepDoorThresholdPlan
  3
AecArchBase40|Product Desc: Autodesk Architectural Desktop 2005 |Company: Autodesk,Inc. |WEB Address: www.autodesk.com
 90
      129
280
     0
281
     0
  0
CLASS
  1
AEC_DISP_REP_ENT_REF
  2
AecDbDispRepEntRef
  3
AecBase40|Product Desc: Autodesk Architectural Desktop 2005 |Company: Autodesk,Inc. |WEB Address: www.autodesk.com
 90
      129
280
     0
281
     0
  0
CLASS
  1
AEC_DISP_REP_LAYOUT_CURVE
  2
AecDbDispRepLayoutCurve
  3
AecBase40|Product Desc: Autodesk Architectural Desktop 2005 |Company: Autodesk,Inc. |WEB Address: www.autodesk.com
 90
      129
280
     0
281
     0
  0
CLASS
  1
AEC_DISP_REP_LAYOUT_GRID2D
  2
AecDbDispRepLayoutGrid2d
  3
AecBase40|Product Desc: Autodesk Architectural Desktop 2005 |Company: Autodesk,Inc. |WEB Address: www.autodesk.com
 90
      129
280
     0
281
     0
  0
CLASS
  1
AEC_DISP_REP_LAYOUT_GRID3D
  2
AecDbDispRepLayoutGrid3d
  3
AecBase40|Product Desc: Autodesk Architectural Desktop 2005 |Company: Autodesk,Inc. |WEB Address: www.autodesk.com
 90
      129
280
     0
281
     0
  0
CLASS
  1
AEC_DISP_REP_MASKBLOCK_REF
  2
AecDbDispRepMaskBlockRef
  3
AecBase40|Product Desc: Autodesk Architectural Desktop 2005 |Company: Autodesk,Inc. |WEB Address: www.autodesk.com
 90
      129
280
     0
281
     0
  0
CLASS
  1
AEC_DISP_REP_MASS_ELEM_MODEL
  2
AecDbDispRepMassElemModel
  3
AecBase40|Product Desc: Autodesk Architectural Desktop 2005 |Company: Autodesk,Inc. |WEB Address: www.autodesk.com
 90
      129
280
     0
281
     0
  0
CLASS
  1
AEC_DISP_REP_MASS_ELEM_SCHEM
  2
AecDbDispRepMassElemSchem
  3
AecBase40|Product Desc: Autodesk Architectural Desktop 2005 |Company: Autodesk,Inc. |WEB Address: www.autodesk.com
 90
      129
280
     0
281
     0
  0
CLASS
  1
AEC_DISP_REP_MASS_GROUP_MODEL
  2
AecDbDispRepMassGroupModel
  3
AecBase40|Product Desc: Autodesk Architectural Desktop 2005 |Company: Autodesk,Inc. |WEB Address: www.autodesk.com
 90
      129
280
     0
281
     0
  0
CLASS
  1
AEC_DISP_REP_MASS_GROUP_PLAN
  2
AecDbDispRepMassGroupPlan
  3
AecBase40|Product Desc: Autodesk Architectural Desktop 2005 |Company: Autodesk,Inc. |WEB Address: www.autodesk.com
 90
      129
280
     0
281
     0
  0
CLASS
  1
AEC_DISP_REP_MVBLOCK_REF
  2
AecDbDispRepMvBlockRef
  3
AecBase40|Product Desc: Autodesk Architectural Desktop 2005 |Company: Autodesk,Inc. |WEB Address: www.autodesk.com
 90
      129
280
     0
281
     0
  0
CLASS
  1
AEC_DISP_REP_MVBLOCK_REF_MODEL
  2
AecDbDispRepMvBlockRefModel
  3
AecBase40|Product Desc: Autodesk Architectural Desktop 2005 |Company: Autodesk,Inc. |WEB Address: www.autodesk.com
 90
      129
280
     0
281
     0
  0
CLASS
  1
AEC_DISP_REP_OPENING
  2
AecDbDispRepOpening
  3
AecArchBase40|Product Desc: Autodesk Architectural Desktop 2005 |Company: Autodesk,Inc. |WEB Address: www.autodesk.com
 90
      129
280
     0
281
     0
  0
CLASS
  1
AEC_DISP_REP_OPENING_MODEL
  2
AecDbDispRepOpeningModel
  3
AecArchBase40|Product Desc: Autodesk Architectural Desktop 2005 |Company: Autodesk,Inc. |WEB Address: www.autodesk.com
 90
      129
280
     0
281
     0
  0
CLASS
  1
AEC_DISP_REP_RAILING_MODEL
  2
AecDbDispRepRailingModel
  3
AecArchBase40|Product Desc: Autodesk Architectural Desktop 2005 |Company: Autodesk,Inc. |WEB Address: www.autodesk.com
 90
      129
280
     0
281
     0
  0
CLASS
  1
AEC_DISP_REP_RAILING_PLAN
  2
AecDbDispRepRailingPlan
  3
AecArchBase40|Product Desc: Autodesk Architectural Desktop 2005 |Company: Autodesk,Inc. |WEB Address: www.autodesk.com
 90
      129
280
     0
281
     0
  0
CLASS
  1
AEC_DISP_REP_ROOF_MODEL
  2
AecDbDispRepRoofModel
  3
AecArchBase40|Product Desc: Autodesk Architectural Desktop 2005 |Company: Autodesk,Inc. |WEB Address: www.autodesk.com
 90
      129
280
     0
281
     0
  0
CLASS
  1
AEC_DISP_REP_ROOF_PLAN
  2
AecDbDispRepRoofPlan
  3
AecArchBase40|Product Desc: Autodesk Architectural Desktop 2005 |Company: Autodesk,Inc. |WEB Address: www.autodesk.com
 90
      129
280
     0
281
     0
  0
CLASS
  1
AEC_DISP_REP_SCHEDULE_TABLE
  2
AecDbDispRepScheduleTable
  3
AecSchedule40|Product Desc: Autodesk Architectural Desktop 2004 |Company: Autodesk,Inc. |WEB Address: www.autodesk.com
 90
      129
280
     0
281
     0
  0
CLASS
  1
AEC_DISP_REP_SLICE
  2
AecDbDispRepSlice
  3
AecBase40|Product Desc: Autodesk Architectural Desktop 2005 |Company: Autodesk,Inc. |WEB Address: www.autodesk.com
 90
      129
280
     0
281
     0
  0
CLASS
  1
AEC_DISP_REP_SPACE_BOUNDARY_MODEL
  2
AecDbDispRepSpaceBoundaryModel
  3
AecArchBase40|Product Desc: Autodesk Architectural Desktop 2005 |Company: Autodesk,Inc. |WEB Address: www.autodesk.com
 90
      129
280
     0
281
     0
  0
CLASS
  1
AEC_DISP_REP_SPACE_BOUNDARY_PLAN
  2
AecDbDispRepSpaceBoundaryPlan
  3
AecArchBase40|Product Desc: Autodesk Architectural Desktop 2005 |Company: Autodesk,Inc. |WEB Address: www.autodesk.com
 90
      129
280
     0
281
     0
  0
CLASS
  1
AEC_DISP_REP_SPACE_MODEL
  2
AecDbDispRepSpaceModel
  3
AecArchBase40|Product Desc: Autodesk Architectural Desktop 2005 |Company: Autodesk,Inc. |WEB Address: www.autodesk.com
 90
      129
280
     0
281
     0
  0
CLASS
  1
AEC_DISP_REP_SPACE_PLAN
  2
AecDbDispRepSpacePlan
  3
AecArchBase40|Product Desc: Autodesk Architectural Desktop 2005 |Company: Autodesk,Inc. |WEB Address: www.autodesk.com
 90
      129
280
     0
281
     0
  0
CLASS
  1
AEC_DISP_REP_STAIR_MODEL
  2
AecDbDispRepStairModel
  3
AecArchBase40|Product Desc: Autodesk Architectural Desktop 2005 |Company: Autodesk,Inc. |WEB Address: www.autodesk.com
 90
      129
280
     0
281
     0
  0
CLASS
  1
AEC_DISP_REP_STAIR_PLAN
  2
AecDbDispRepStairPlan
  3
AecArchBase40|Product Desc: Autodesk Architectural Desktop 2005 |Company: Autodesk,Inc. |WEB Address: www.autodesk.com
 90
      129
280
     0
281
     0
  0
CLASS
  1
AEC_DISP_REP_WALL_MODEL
  2
AecDbDispRepWallModel
  3
AecArchBase40|Product Desc: Autodesk Architectural Desktop 2005 |Company: Autodesk,Inc. |WEB Address: www.autodesk.com
 90
      129
280
     0
281
     0
  0
CLASS
  1
AEC_DISP_REP_WALL_PLAN
  2
AecDbDispRepWallPlan
  3
AecArchBase40|Product Desc: Autodesk Architectural Desktop 2005 |Company: Autodesk,Inc. |WEB Address: www.autodesk.com
 90
      129
280
     0
281
     0
  0
CLASS
  1
AEC_DISP_REP_WINDOW_MODEL
  2
AecDbDispRepWindowModel
  3
AecArchBase40|Product Desc: Autodesk Architectural Desktop 2005 |Company: Autodesk,Inc. |WEB Address: www.autodesk.com
 90
      129
280
     0
281
     0
  0
CLASS
  1
AEC_DISP_REP_WINDOW_PLAN
  2
AecDbDispRepWindowPlan
  3
AecArchBase40|Product Desc: Autodesk Architectural Desktop 2005 |Company: Autodesk,Inc. |WEB Address: www.autodesk.com
 90
      129
280
     0
281
     0
  0
CLASS
  1
AEC_DISP_REP_WINDOW_SILL_PLAN
  2
AecDbDispRepWindowSillPlan
  3
AecArchBase40|Product Desc: Autodesk Architectural Desktop 2005 |Company: Autodesk,Inc. |WEB Address: www.autodesk.com
 90
      129
280
     0
281
     0
  0
CLASS
  1
AEC_DISP_PROPS_CAMERA
  2
AecDbDispPropsCamera
  3
AecBase40|Product Desc: Autodesk Architectural Desktop 2005 |Company: Autodesk,Inc. |WEB Address: www.autodesk.com
 90
      129
280
     0
281
     0
  0
CLASS
  1
AEC_DISP_PROPS_DIM
  2
AecDbDispPropsDimGroup
  3
AecArchDACHBase40|Product Desc: Autodesk Architectural Desktop 2005 |Company: Autodesk,Inc. |WEB Address: www.autodesk.com
 90
      129
280
     0
281
     0
  0
CLASS
  1
AEC_DISP_PROPS_CLIP_VOLUME_RESULT
  2
AecDbDispPropsClipVolResSubDiv
  3
AecBase40|Product Desc: Autodesk Architectural Desktop 2005 |Company: Autodesk,Inc. |WEB Address: www.autodesk.com
 90
      129
280
     0
281
     0
  0
CLASS
  1
AEC_DISP_PROPS_ENT_REF
  2
AecDbDispPropsEntRef
  3
AecBase40|Product Desc: Autodesk Architectural Desktop 2005 |Company: Autodesk,Inc. |WEB Address: www.autodesk.com
 90
      129
280
     0
281
     0
  0
CLASS
  1
AEC_DISP_PROPS_LAYOUT_GRID3D
  2
AecDbDispPropsLayoutGrid3d
  3
AecBase40|Product Desc: Autodesk Architectural Desktop 2005 |Company: Autodesk,Inc. |WEB Address: www.autodesk.com
 90
      129
280
     0
281
     0
  0
CLASS
  1
AEC_DISP_PROPS_LAYOUT_GRID2D
  2
AecDbDispPropsLayoutGrid2d
  3
AecBase40|Product Desc: Autodesk Architectural Desktop 2005 |Company: Autodesk,Inc. |WEB Address: www.autodesk.com
 90
      129
280
     0
281
     0
  0
CLASS
  1
AEC_DISP_PROPS_OPENING
  2
AecDbDispPropsOpening
  3
AecArchBase40|Product Desc: Autodesk Architectural Desktop 2005 |Company: Autodesk,Inc. |WEB Address: www.autodesk.com
 90
      129
280
     0
281
     0
  0
CLASS
  1
AEC_DISP_PROPS_SCHEDULE_TABLE
  2
AecDbDispPropsScheduleTable
  3
AecSchedule40|Product Desc: Autodesk Architectural Desktop 2004 |Company: Autodesk,Inc. |WEB Address: www.autodesk.com
 90
      129
280
     0
281
     0
  0
CLASS
  1
AEC_DISP_PROPS_MASS_ELEM_MODEL
  2
AecDbDispPropsMassElem
  3
AecBase40|Product Desc: Autodesk Architectural Desktop 2005 |Company: Autodesk,Inc. |WEB Address: www.autodesk.com
 90
      129
280
     0
281
     0
  0
CLASS
  1
AEC_DISP_PROPS_WINDOW
  2
AecDbDispPropsWindow
  3
AecArchBase40|Product Desc: Autodesk Architectural Desktop 2005 |Company: Autodesk,Inc. |WEB Address: www.autodesk.com
 90
      129
280
     0
281
     0
  0
CLASS
  1
AEC_DISP_PROPS_MASS_GROUP
  2
AecDbDispPropsMassGroup
  3
AecBase40|Product Desc: Autodesk Architectural Desktop 2005 |Company: Autodesk,Inc. |WEB Address: www.autodesk.com
 90
      129
280
     0
281
     0
  0
CLASS
  1
AEC_DISP_PROPS_LAYOUT_CURVE
  2
AecDbDispPropsLayoutCurve
  3
AecBase40|Product Desc: Autodesk Architectural Desktop 2005 |Company: Autodesk,Inc. |WEB Address: www.autodesk.com
 90
      129
280
     0
281
     0
  0
CLASS
  1
AEC_DISP_PROPS_SPACE_PLAN
  2
AecDbDispPropsSpacePlan
  3
AecArchBase40|Product Desc: Autodesk Architectural Desktop 2005 |Company: Autodesk,Inc. |WEB Address: www.autodesk.com
 90
      129
280
     0
281
     0
  0
CLASS
  1
AEC_DISP_PROPS_ENT
  2
AecDbDispPropsEnt
  3
AecBase40|Product Desc: Autodesk Architectural Desktop 2005 |Company: Autodesk,Inc. |WEB Address: www.autodesk.com
 90
      129
280
     0
281
     0
  0
CLASS
  1
AEC_DISP_PROPS_CLIP_VOLUME
  2
AecDbDispPropsClipVol
  3
AecBase40|Product Desc: Autodesk Architectural Desktop 2005 |Company: Autodesk,Inc. |WEB Address: www.autodesk.com
 90
      129
280
     0
281
     0
  0
CLASS
  1
AEC_DISP_PROPS_MASKBLOCK
  2
AecDbDispPropsMaskBlock
  3
AecBase40|Product Desc: Autodesk Architectural Desktop 2005 |Company: Autodesk,Inc. |WEB Address: www.autodesk.com
 90
      129
280
     0
281
     0
  0
CLASS
  1
AEC_DISP_PROPS_WALL
  2
AecDbDispPropsWall
  3
AecArchBase40|Product Desc: Autodesk Architectural Desktop 2005 |Company: Autodesk,Inc. |WEB Address: www.autodesk.com
 90
      129
280
     0
281
     0
  0
CLASS
  1
AEC_DISP_PROPS_STAIR_PLAN
  2
AecDbDispPropsStairPlan
  3
AecArchBase40|Product Desc: Autodesk Architectural Desktop 2005 |Company: Autodesk,Inc. |WEB Address: www.autodesk.com
 90
      129
280
     0
281
     0
  0
CLASS
  1
AEC_DISP_PROPS_SPACE_MODEL
  2
AecDbDispPropsSpaceModel
  3
AecArchBase40|Product Desc: Autodesk Architectural Desktop 2005 |Company: Autodesk,Inc. |WEB Address: www.autodesk.com
 90
      129
280
     0
281
     0
  0
CLASS
  1
AEC_DISP_PROPS_WALL_PLAN
  2
AecDbDispPropsWallPlan
  3
AecArchBase40|Product Desc: Autodesk Architectural Desktop 2005 |Company: Autodesk,Inc. |WEB Address: www.autodesk.com
 90
      129
280
     0
281
     0
  0
CLASS
  1
AEC_DISP_PROPS_DOOR
  2
AecDbDispPropsDoor
  3
AecArchBase40|Product Desc: Autodesk Architectural Desktop 2005 |Company: Autodesk,Inc. |WEB Address: www.autodesk.com
 90
      129
280
     0
281
     0
  0
CLASS
  1
AEC_DISP_PROPS_ROOF
  2
AecDbDispPropsRoof
  3
AecArchBase40|Product Desc: Autodesk Architectural Desktop 2005 |Company: Autodesk,Inc. |WEB Address: www.autodesk.com
 90
      129
280
     0
281
     0
  0
CLASS
  1
AEC_DISP_PROPS_STAIR_MODEL
  2
AecDbDispPropsStairModel
  3
AecArchBase40|Product Desc: Autodesk Architectural Desktop 2005 |Company: Autodesk,Inc. |WEB Address: www.autodesk.com
 90
      129
280
     0
281
     0
  0
CLASS
  1
AEC_DISP_PROPS_RAILING_PLAN
  2
AecDbDispPropsRailingPlan
  3
AecArchBase40|Product Desc: Autodesk Architectural Desktop 2005 |Company: Autodesk,Inc. |WEB Address: www.autodesk.com
 90
      129
280
     0
281
     0
  0
CLASS
  1
AEC_DISP_PROPS_SLICE
  2
AecDbDispPropsSlice
  3
AecBase40|Product Desc: Autodesk Architectural Desktop 2005 |Company: Autodesk,Inc. |WEB Address: www.autodesk.com
 90
      129
280
     0
281
     0
  0
CLASS
  1
AEC_DISP_PROPS_WINDOW_SILL_PLAN
  2
AecDbDispPropsWindowSillPlan
  3
AecArchBase40|Product Desc: Autodesk Architectural Desktop 2005 |Company: Autodesk,Inc. |WEB Address: www.autodesk.com
 90
      129
280
     0
281
     0
  0
CLASS
  1
AEC_DISP_PROPS_DOOR_THRESHOLD_PLAN
  2
AecDbDispPropsDoorThresholdPlan
  3
AecArchBase40|Product Desc: Autodesk Architectural Desktop 2005 |Company: Autodesk,Inc. |WEB Address: www.autodesk.com
 90
      129
280
     0
281
     0
  0
CLASS
  1
AEC_DISP_PROPS_AREAGROUP
  2
AecDbDispPropsAreaGroup
  3
AecAreaCalculationBase40|Product Desc: Autodesk Architectural Desktop 2005 |Company: Autodesk,Inc. |WEB Address: www.autodesk.com
 90
      129
280
     0
281
     0
  0
CLASS
  1
AEC_DISP_PROPS_AREA
  2
AecDbDispPropsArea
  3
AecAreaCalculationBase40|Product Desc: Autodesk Architectural Desktop 2005 |Company: Autodesk,Inc. |WEB Address: www.autodesk.com
 90
      129
280
     0
281
     0
  0
CLASS
  1
AEC_DISP_PROPS_RAILING_MODEL
  2
AecDbDispPropsRailingModel
  3
AecArchBase40|Product Desc: Autodesk Architectural Desktop 2005 |Company: Autodesk,Inc. |WEB Address: www.autodesk.com
 90
      129
280
     0
281
     0
  0
CLASS
  1
AEC_VARS_ARCHBASE
  2
AecDbVarsArchBase
  3
AecArchBase40|Product Desc: Autodesk Architectural Desktop 2005 |Company: Autodesk,Inc. |WEB Address: www.autodesk.com
 90
      129
280
     0
281
     0
  0
CLASS
  1
AEC_DISP_REP_2D_SECTION
  2
AecDbDispRep2dSection
  3
AecBase40|Product Desc: Autodesk Architectural Desktop 2005 |Company: Autodesk,Inc. |WEB Address: www.autodesk.com
 90
      129
280
     0
281
     0
  0
CLASS
  1
AEC_DISP_PROPS_2D_SECTION
  2
AecDbDispProps2dSection
  3
AecBase40|Product Desc: Autodesk Architectural Desktop 2005 |Company: Autodesk,Inc. |WEB Address: www.autodesk.com
 90
      129
280
     0
281
     0
  0
CLASS
  1
AEC_DISP_REP_ANCHOR
  2
AecDbDispRepAnchor
  3
AecBase40|Product Desc: Autodesk Architectural Desktop 2005 |Company: Autodesk,Inc. |WEB Address: www.autodesk.com
 90
      129
280
     0
281
     0
  0
CLASS
  1
AEC_DISP_REP_CLIP_VOLUME_RESULT
  2
AecDbDispRepClipVolResult
  3
AecBase40|Product Desc: Autodesk Architectural Desktop 2005 |Company: Autodesk,Inc. |WEB Address: www.autodesk.com
 90
      129
280
     0
281
     0
  0
CLASS
  1
AEC_DISP_REP_POLYGON_MODEL
  2
AecDbDispRepPolygonModel
  3
AecBase40|Product Desc: Autodesk Architectural Desktop 2005 |Company: Autodesk,Inc. |WEB Address: www.autodesk.com
 90
      129
280
     0
281
     0
  0
CLASS
  1
AEC_DISP_PROPS_POLYGON_MODEL
  2
AecDbDispPropsPolygonModel
  3
AecBase40|Product Desc: Autodesk Architectural Desktop 2005 |Company: Autodesk,Inc. |WEB Address: www.autodesk.com
 90
      129
280
     0
281
     0
  0
CLASS
  1
AEC_DISP_REP_POLYGON_TRUECOLOUR
  2
AecDbDispRepPolygonTrueColour
  3
AecBase40|Product Desc: Autodesk Architectural Desktop 2005 |Company: Autodesk,Inc. |WEB Address: www.autodesk.com
 90
      129
280
     0
281
     0
  0
CLASS
  1
AEC_DISP_PROPS_POLYGON_TRUECOLOUR
  2
AecDbDispPropsPolygonTrueColour
  3
AecBase40|Product Desc: Autodesk Architectural Desktop 2005 |Company: Autodesk,Inc. |WEB Address: www.autodesk.com
 90
      129
280
     0
281
     0
  0
CLASS
  1
AEC_DISP_REP_ANCHOR_BUB_TO_GRID_RCP
  2
AecDbDispRepAnchorBubToGridRcp
  3
AecStructureBase40|Product Desc: Autodesk Architectural Desktop 2005 |Company: Autodesk,Inc. |WEB Address: www.autodesk.com
 90
      129
280
     0
281
     0
  0
CLASS
  1
AEC_DISP_REP_BDG_ELEVLINE_RCP
  2
AecDbDispRepBdgElevLineRcp
  3
AecArchBase40|Product Desc: Autodesk Architectural Desktop 2005 |Company: Autodesk,Inc. |WEB Address: www.autodesk.com
 90
      129
280
     0
281
     0
  0
CLASS
  1
AEC_DISP_REP_BDG_SECTIONLINE_RCP
  2
AecDbDispRepBdgSectionLineRcp
  3
AecArchBase40|Product Desc: Autodesk Architectural Desktop 2005 |Company: Autodesk,Inc. |WEB Address: www.autodesk.com
 90
      129
280
     0
281
     0
  0
CLASS
  1
AEC_DISP_REP_BDG_SECTION_MODEL
  2
AecDbDispRepBdgSectionModel
  3
AecArchBase40|Product Desc: Autodesk Architectural Desktop 2005 |Company: Autodesk,Inc. |WEB Address: www.autodesk.com
 90
      129
280
     0
281
     0
  0
CLASS
  1
AEC_DISP_REP_CEILING_GRID_RCP
  2
AecDbDispRepCeilingGridRcp
  3
AecArchBase40|Product Desc: Autodesk Architectural Desktop 2005 |Company: Autodesk,Inc. |WEB Address: www.autodesk.com
 90
      129
280
     0
281
     0
  0
CLASS
  1
AEC_DISP_REP_COLUMN_GRID_RCP
  2
AecDbDispRepColumnGridRcp
  3
AecStructureBase40|Product Desc: Autodesk Architectural Desktop 2005 |Company: Autodesk,Inc. |WEB Address: www.autodesk.com
 90
      129
280
     0
281
     0
  0
CLASS
  1
AEC_DISP_REP_CURTAIN_WALL_LAYOUT_MODEL
  2
AecDbDispRepCurtainWallLayoutModel
  3
AecArchBase40|Product Desc: Autodesk Architectural Desktop 2005 |Company: Autodesk,Inc. |WEB Address: www.autodesk.com
 90
      129
280
     0
281
     0
  0
CLASS
  1
AEC_DISP_PROPS_GRID_ASSEMBLY_MODEL
  2
AecDbDispPropsGridAssemblyModel
  3
AecArchBase40|Product Desc: Autodesk Architectural Desktop 2005 |Company: Autodesk,Inc. |WEB Address: www.autodesk.com
 90
      129
280
     0
281
     0
  0
CLASS
  1
AEC_DISP_REP_CURTAIN_WALL_LAYOUT_PLAN
  2
AecDbDispRepCurtainWallLayoutPlan
  3
AecArchBase40|Product Desc: Autodesk Architectural Desktop 2005 |Company: Autodesk,Inc. |WEB Address: www.autodesk.com
 90
      129
280
     0
281
     0
  0
CLASS
  1
AEC_DISP_PROPS_GRID_ASSEMBLY_PLAN
  2
AecDbDispPropsGridAssemblyPlan
  3
AecArchBase40|Product Desc: Autodesk Architectural Desktop 2005 |Company: Autodesk,Inc. |WEB Address: www.autodesk.com
 90
      129
280
     0
281
     0
  0
CLASS
  1
AEC_DISP_REP_CURTAIN_WALL_UNIT_MODEL
  2
AecDbDispRepCurtainWallUnitModel
  3
AecArchBase40|Product Desc: Autodesk Architectural Desktop 2005 |Company: Autodesk,Inc. |WEB Address: www.autodesk.com
 90
      129
280
     0
281
     0
  0
CLASS
  1
AEC_DISP_REP_CURTAIN_WALL_UNIT_PLAN
  2
AecDbDispRepCurtainWallUnitPlan
  3
AecArchBase40|Product Desc: Autodesk Architectural Desktop 2005 |Company: Autodesk,Inc. |WEB Address: www.autodesk.com
 90
      129
280
     0
281
     0
  0
CLASS
  1
AEC_DISP_REP_DOOR_ELEV
  2
AecDbDispRepDoorElev
  3
AecArchBase40|Product Desc: Autodesk Architectural Desktop 2005 |Company: Autodesk,Inc. |WEB Address: www.autodesk.com
 90
      129
280
     0
281
     0
  0
CLASS
  1
AEC_DISP_REP_DOOR_NOMINAL
  2
AecDbDispRepDoorNominal
  3
AecArchBase40|Product Desc: Autodesk Architectural Desktop 2005 |Company: Autodesk,Inc. |WEB Address: www.autodesk.com
 90
      129
280
     0
281
     0
  0
CLASS
  1
AEC_DISP_PROPS_DOOR_NOMINAL
  2
AecDbDispPropsDoorNominal
  3
AecArchBase40|Product Desc: Autodesk Architectural Desktop 2005 |Company: Autodesk,Inc. |WEB Address: www.autodesk.com
 90
      129
280
     0
281
     0
  0
CLASS
  1
AEC_DISP_REP_DOOR_RCP
  2
AecDbDispRepDoorRcp
  3
AecArchBase40|Product Desc: Autodesk Architectural Desktop 2005 |Company: Autodesk,Inc. |WEB Address: www.autodesk.com
 90
      129
280
     0
281
     0
  0
CLASS
  1
AEC_DISP_REP_MASKBLOCK_REF_RCP
  2
AecDbDispRepMaskBlockRefRcp
  3
AecArchBase40|Product Desc: Autodesk Architectural Desktop 2005 |Company: Autodesk,Inc. |WEB Address: www.autodesk.com
 90
      129
280
     0
281
     0
  0
CLASS
  1
AEC_DISP_REP_MASS_ELEM_RCP
  2
AecDbDispRepMassElemRcp
  3
AecArchBase40|Product Desc: Autodesk Architectural Desktop 2005 |Company: Autodesk,Inc. |WEB Address: www.autodesk.com
 90
      129
280
     0
281
     0
  0
CLASS
  1
AEC_DISP_REP_MASS_GROUP_RCP
  2
AecDbDispRepMassGroupRcp
  3
AecArchBase40|Product Desc: Autodesk Architectural Desktop 2005 |Company: Autodesk,Inc. |WEB Address: www.autodesk.com
 90
      129
280
     0
281
     0
  0
CLASS
  1
AEC_DISP_REP_MVBLOCK_REF_RCP
  2
AecDbDispRepMvBlockRefRcp
  3
AecArchBase40|Product Desc: Autodesk Architectural Desktop 2005 |Company: Autodesk,Inc. |WEB Address: www.autodesk.com
 90
      129
280
     0
281
     0
  0
CLASS
  1
AEC_DISP_REP_ROOF_RCP
  2
AecDbDispRepRoofRcp
  3
AecArchBase40|Product Desc: Autodesk Architectural Desktop 2005 |Company: Autodesk,Inc. |WEB Address: www.autodesk.com
 90
      129
280
     0
281
     0
  0
CLASS
  1
AEC_DISP_REP_SLAB_MODEL
  2
AecDbDispRepSlabModel
  3
AecArchBase40|Product Desc: Autodesk Architectural Desktop 2005 |Company: Autodesk,Inc. |WEB Address: www.autodesk.com
 90
      129
280
     0
281
     0
  0
CLASS
  1
AEC_DISP_PROPS_SLAB
  2
AecDbDispPropsSlab
  3
AecArchBase40|Product Desc: Autodesk Architectural Desktop 2005 |Company: Autodesk,Inc. |WEB Address: www.autodesk.com
 90
      129
280
     0
281
     0
  0
CLASS
  1
AEC_DISP_REP_ROOFSLAB_MODEL
  2
AecDbDispRepRoofSlabModel
  3
AecArchBase40|Product Desc: Autodesk Architectural Desktop 2005 |Company: Autodesk,Inc. |WEB Address: www.autodesk.com
 90
      129
280
     0
281
     0
  0
CLASS
  1
AEC_DISP_PROPS_ROOFSLAB
  2
AecDbDispPropsRoofSlab
  3
AecArchBase40|Product Desc: Autodesk Architectural Desktop 2005 |Company: Autodesk,Inc. |WEB Address: www.autodesk.com
 90
      129
280
     0
281
     0
  0
CLASS
  1
AEC_DISP_REP_SLAB_PLAN
  2
AecDbDispRepSlabPlan
  3
AecArchBase40|Product Desc: Autodesk Architectural Desktop 2005 |Company: Autodesk,Inc. |WEB Address: www.autodesk.com
 90
      129
280
     0
281
     0
  0
CLASS
  1
AEC_DISP_PROPS_SLAB_PLAN
  2
AecDbDispPropsSlabPlan
  3
AecArchBase40|Product Desc: Autodesk Architectural Desktop 2005 |Company: Autodesk,Inc. |WEB Address: www.autodesk.com
 90
      129
280
     0
281
     0
  0
CLASS
  1
AEC_DISP_REP_ROOFSLAB_PLAN
  2
AecDbDispRepRoofSlabPlan
  3
AecArchBase40|Product Desc: Autodesk Architectural Desktop 2005 |Company: Autodesk,Inc. |WEB Address: www.autodesk.com
 90
      129
280
     0
281
     0
  0
CLASS
  1
AEC_DISP_PROPS_ROOFSLAB_PLAN
  2
AecDbDispPropsRoofSlabPlan
  3
AecArchBase40|Product Desc: Autodesk Architectural Desktop 2005 |Company: Autodesk,Inc. |WEB Address: www.autodesk.com
 90
      129
280
     0
281
     0
  0
CLASS
  1
AEC_DISP_REP_SPACE_BOUNDARY_DIAGRAM
  2
AecDbDispRepSpaceBoundaryDgrm
  3
AecArchBase40|Product Desc: Autodesk Architectural Desktop 2005 |Company: Autodesk,Inc. |WEB Address: www.autodesk.com
 90
      129
280
     0
281
     0
  0
CLASS
  1
AEC_DISP_REP_SPACE_BOUNDARY_SCHEM
  2
AecDbDispRepSpaceBoundarySketch
  3
AecArchBase40|Product Desc: Autodesk Architectural Desktop 2005 |Company: Autodesk,Inc. |WEB Address: www.autodesk.com
 90
      129
280
     0
281
     0
  0
CLASS
  1
AEC_DISP_REP_SPACE_RCP
  2
AecDbDispRepSpaceRcp
  3
AecArchBase40|Product Desc: Autodesk Architectural Desktop 2005 |Company: Autodesk,Inc. |WEB Address: www.autodesk.com
 90
      129
280
     0
281
     0
  0
CLASS
  1
AEC_DISP_REP_SPACE_VOLUME
  2
AecDbDispRepSpaceVolume
  3
AecArchBase40|Product Desc: Autodesk Architectural Desktop 2005 |Company: Autodesk,Inc. |WEB Address: www.autodesk.com
 90
      129
280
     0
281
     0
  0
CLASS
  1
AEC_DISP_REP_STAIR_RCP
  2
AecDbDispRepStairRcp
  3
AecArchBase40|Product Desc: Autodesk Architectural Desktop 2005 |Company: Autodesk,Inc. |WEB Address: www.autodesk.com
 90
      129
280
     0
281
     0
  0
CLASS
  1
AEC_DISP_REP_WALL_GRAPH
  2
AecDbDispRepWallGraph
  3
AecArchBase40|Product Desc: Autodesk Architectural Desktop 2005 |Company: Autodesk,Inc. |WEB Address: www.autodesk.com
 90
      129
280
     0
281
     0
  0
CLASS
  1
AEC_DISP_PROPS_WALL_GRAPH
  2
AecDbDispPropsWallGraph
  3
AecArchBase40|Product Desc: Autodesk Architectural Desktop 2005 |Company: Autodesk,Inc. |WEB Address: www.autodesk.com
 90
      129
280
     0
281
     0
  0
CLASS
  1
AEC_DISP_REP_WALL_RCP
  2
AecDbDispRepWallRcp
  3
AecArchBase40|Product Desc: Autodesk Architectural Desktop 2005 |Company: Autodesk,Inc. |WEB Address: www.autodesk.com
 90
      129
280
     0
281
     0
  0
CLASS
  1
AEC_DISP_REP_WALL_SCHEM
  2
AecDbDispRepWallSchem
  3
AecArchBase40|Product Desc: Autodesk Architectural Desktop 2005 |Company: Autodesk,Inc. |WEB Address: www.autodesk.com
 90
      129
280
     0
281
     0
  0
CLASS
  1
AEC_DISP_PROPS_WALL_SCHEM
  2
AecDbDispPropsWallSchem
  3
AecArchBase40|Product Desc: Autodesk Architectural Desktop 2005 |Company: Autodesk,Inc. |WEB Address: www.autodesk.com
 90
      129
280
     0
281
     0
  0
CLASS
  1
AEC_DISP_REP_WINDOW_ASSEMBLY_MODEL
  2
AecDbDispRepWindowAssemblyModel
  3
AecArchBase40|Product Desc: Autodesk Architectural Desktop 2005 |Company: Autodesk,Inc. |WEB Address: www.autodesk.com
 90
      129
280
     0
281
     0
  0
CLASS
  1
AEC_DISP_REP_WINDOW_ASSEMBLY_PLAN
  2
AecDbDispRepWindowAssemblyPlan
  3
AecArchBase40|Product Desc: Autodesk Architectural Desktop 2005 |Company: Autodesk,Inc. |WEB Address: www.autodesk.com
 90
      129
280
     0
281
     0
  0
CLASS
  1
AEC_DISP_REP_WINDOW_ELEV
  2
AecDbDispRepWindowElev
  3
AecArchBase40|Product Desc: Autodesk Architectural Desktop 2005 |Company: Autodesk,Inc. |WEB Address: www.autodesk.com
 90
      129
280
     0
281
     0
  0
CLASS
  1
AEC_DISP_REP_WINDOW_NOMINAL
  2
AecDbDispRepWindowNominal
  3
AecArchBase40|Product Desc: Autodesk Architectural Desktop 2005 |Company: Autodesk,Inc. |WEB Address: www.autodesk.com
 90
      129
280
     0
281
     0
  0
CLASS
  1
AEC_DISP_PROPS_WINDOW_NOMINAL
  2
AecDbDispPropsWindowNominal
  3
AecArchBase40|Product Desc: Autodesk Architectural Desktop 2005 |Company: Autodesk,Inc. |WEB Address: www.autodesk.com
 90
      129
280
     0
281
     0
  0
CLASS
  1
AEC_DISP_REP_WINDOW_RCP
  2
AecDbDispRepWindowRcp
  3
AecArchBase40|Product Desc: Autodesk Architectural Desktop 2005 |Company: Autodesk,Inc. |WEB Address: www.autodesk.com
 90
      129
280
     0
281
     0
  0
CLASS
  1
AEC_DISP_REP_ANCHOR_TAG_TO_ENT
  2
AecDbDispRepAnchorTagToEnt
  3
AecScheduleData40|Product Desc: Autodesk Architectural Desktop 2005 |Company: Autodesk,Inc. |WEB Address: www.autodesk.com
 90
      129
280
     0
281
     0
  0
CLASS
  1
AECS_DISP_REP_MEMBER_ELEVATION_DESIGN
  2
AecsDbDispRepMemberElevationDesign
  3
AecStructureBase40|Product Desc: Autodesk Architectural Desktop 2005 |Company: Autodesk,Inc. |WEB Address: www.autodesk.com
 90
      129
280
     0
281
     0
  0
CLASS
  1
AECS_DISP_PROPS_MEMBER_PROJECTED
  2
AecsDbDispPropsMemberProjected
  3
AecStructureBase40|Product Desc: Autodesk Architectural Desktop 2005 |Company: Autodesk,Inc. |WEB Address: www.autodesk.com
 90
      129
280
     0
281
     0
  0
CLASS
  1
AECS_DISP_REP_MEMBER_ELEVATION_DETAIL
  2
AecsDbDispRepMemberElevationDetail
  3
AecStructureBase40|Product Desc: Autodesk Architectural Desktop 2005 |Company: Autodesk,Inc. |WEB Address: www.autodesk.com
 90
      129
280
     0
281
     0
  0
CLASS
  1
AECS_DISP_REP_MEMBER_LOGICAL
  2
AecsDbDispRepMemberLogical
  3
AecStructureBase40|Product Desc: Autodesk Architectural Desktop 2005 |Company: Autodesk,Inc. |WEB Address: www.autodesk.com
 90
      129
280
     0
281
     0
  0
CLASS
  1
AECS_DISP_PROPS_MEMBER_LOGICAL
  2
AecsDbDispPropsMemberLogical
  3
AecStructureBase40|Product Desc: Autodesk Architectural Desktop 2005 |Company: Autodesk,Inc. |WEB Address: www.autodesk.com
 90
      129
280
     0
281
     0
  0
CLASS
  1
AECS_DISP_REP_MEMBER_MODEL_DESIGN
  2
AecsDbDispRepMemberModelDesign
  3
AecStructureBase40|Product Desc: Autodesk Architectural Desktop 2005 |Company: Autodesk,Inc. |WEB Address: www.autodesk.com
 90
      129
280
     0
281
     0
  0
CLASS
  1
AECS_DISP_PROPS_MEMBER
  2
AecsDbDispPropsMember
  3
AecStructureBase40|Product Desc: Autodesk Architectural Desktop 2005 |Company: Autodesk,Inc. |WEB Address: www.autodesk.com
 90
      129
280
     0
281
     0
  0
CLASS
  1
AECS_DISP_REP_MEMBER_MODEL_DETAIL
  2
AecsDbDispRepMemberModelDetail
  3
AecStructureBase40|Product Desc: Autodesk Architectural Desktop 2005 |Company: Autodesk,Inc. |WEB Address: www.autodesk.com
 90
      129
280
     0
281
     0
  0
CLASS
  1
AECS_DISP_REP_MEMBER_PLAN_DESIGN
  2
AecsDbDispRepMemberPlanDesign
  3
AecStructureBase40|Product Desc: Autodesk Architectural Desktop 2005 |Company: Autodesk,Inc. |WEB Address: www.autodesk.com
 90
      129
280
     0
281
     0
  0
CLASS
  1
AECS_DISP_PROPS_MEMBER_PLAN
  2
AecsDbDispPropsMemberPlan
  3
AecStructureBase40|Product Desc: Autodesk Architectural Desktop 2005 |Company: Autodesk,Inc. |WEB Address: www.autodesk.com
 90
      129
280
     0
281
     0
  0
CLASS
  1
AECS_DISP_REP_MEMBER_PLAN_DETAIL
  2
AecsDbDispRepMemberPlanDetail
  3
AecStructureBase40|Product Desc: Autodesk Architectural Desktop 2005 |Company: Autodesk,Inc. |WEB Address: www.autodesk.com
 90
      129
280
     0
281
     0
  0
CLASS
  1
AECS_DISP_REP_MEMBER_PLAN_SKETCH
  2
AecsDbDispRepMemberPlanSketch
  3
AecStructureBase40|Product Desc: Autodesk Architectural Desktop 2005 |Company: Autodesk,Inc. |WEB Address: www.autodesk.com
 90
      129
280
     0
281
     0
  0
CLASS
  1
AECS_DISP_PROPS_MEMBER_PLAN_SKETCH
  2
AecsDbDispPropsMemberPlanSketch
  3
AecStructureBase40|Product Desc: Autodesk Architectural Desktop 2005 |Company: Autodesk,Inc. |WEB Address: www.autodesk.com
 90
      129
280
     0
281
     0
  0
CLASS
  1
AEC_DISP_REP_AREA_DECOMPOSED
  2
AecDbDispRepAreaDecomposed
  3
AecAreaCalculationBase40|Product Desc: Autodesk Architectural Desktop 2005 |Company: Autodesk,Inc. |WEB Address: www.autodesk.com
 90
      129
280
     0
281
     0
  0
CLASS
  1
AEC_DISP_PROPS_AREA_DECOMPOSED
  2
AecDbDispPropsAreaDecomposed
  3
AecAreaCalculationBase40|Product Desc: Autodesk Architectural Desktop 2005 |Company: Autodesk,Inc. |WEB Address: www.autodesk.com
 90
      129
280
     0
281
     0
  0
CLASS
  1
AEC_AECDBDISPREPAREA100
  2
AecDbDispRepArea100
  3
AecBase40|Product Desc: Autodesk Architectural Desktop 2005 |Company: Autodesk,Inc. |WEB Address: www.autodesk.com
 90
      129
280
     0
281
     0
  0
CLASS
  1
AEC_AECDBDISPREPAREAGROUP100
  2
AecDbDispRepAreaGroup100
  3
AecBase40|Product Desc: Autodesk Architectural Desktop 2005 |Company: Autodesk,Inc. |WEB Address: www.autodesk.com
 90
      129
280
     0
281
     0
  0
CLASS
  1
AEC_AECDBDISPREPBDGELEVLINEPLAN100
  2
AecDbDispRepBdgElevLinePlan100
  3
AecBase40|Product Desc: Autodesk Architectural Desktop 2005 |Company: Autodesk,Inc. |WEB Address: www.autodesk.com
 90
      129
280
     0
281
     0
  0
CLASS
  1
AEC_AECDBDISPREPBDGSECTIONLINEPLAN100
  2
AecDbDispRepBdgSectionLinePlan100
  3
AecBase40|Product Desc: Autodesk Architectural Desktop 2005 |Company: Autodesk,Inc. |WEB Address: www.autodesk.com
 90
      129
280
     0
281
     0
  0
CLASS
  1
AEC_AECDBDISPREPCEILINGGRIDPLAN100
  2
AecDbDispRepCeilingGridPlan100
  3
AecBase40|Product Desc: Autodesk Architectural Desktop 2005 |Company: Autodesk,Inc. |WEB Address: www.autodesk.com
 90
      129
280
     0
281
     0
  0
CLASS
  1
AEC_AECDBDISPREPCOLUMNGRIDPLAN100
  2
AecDbDispRepColumnGridPlan100
  3
AecBase40|Product Desc: Autodesk Architectural Desktop 2005 |Company: Autodesk,Inc. |WEB Address: www.autodesk.com
 90
      129
280
     0
281
     0
  0
CLASS
  1
AEC_AECDBDISPREPCURTAINWALLLAYOUTPLAN100
  2
AecDbDispRepCurtainWallLayoutPlan100
  3
AecBase40|Product Desc: Autodesk Architectural Desktop 2005 |Company: Autodesk,Inc. |WEB Address: www.autodesk.com
 90
      129
280
     0
281
     0
  0
CLASS
  1
AEC_AECDBDISPREPCURTAINWALLUNITPLAN100
  2
AecDbDispRepCurtainWallUnitPlan100
  3
AecBase40|Product Desc: Autodesk Architectural Desktop 2005 |Company: Autodesk,Inc. |WEB Address: www.autodesk.com
 90
      129
280
     0
281
     0
  0
CLASS
  1
AEC_AECDBDISPREPMVBLOCKREFPLAN100
  2
AecDbDispRepMvBlockRefPlan100
  3
AecBase40|Product Desc: Autodesk Architectural Desktop 2005 |Company: Autodesk,Inc. |WEB Address: www.autodesk.com
 90
      129
280
     0
281
     0
  0
CLASS
  1
AEC_AECDBDISPREPROOFPLAN100
  2
AecDbDispRepRoofPlan100
  3
AecBase40|Product Desc: Autodesk Architectural Desktop 2005 |Company: Autodesk,Inc. |WEB Address: www.autodesk.com
 90
      129
280
     0
281
     0
  0
CLASS
  1
AEC_AECDBDISPREPROOFSLABPLAN100
  2
AecDbDispRepRoofSlabPlan100
  3
AecBase40|Product Desc: Autodesk Architectural Desktop 2005 |Company: Autodesk,Inc. |WEB Address: www.autodesk.com
 90
      129
280
     0
281
     0
  0
CLASS
  1
AEC_AECDBDISPREPSLABPLAN100
  2
AecDbDispRepSlabPlan100
  3
AecBase40|Product Desc: Autodesk Architectural Desktop 2005 |Company: Autodesk,Inc. |WEB Address: www.autodesk.com
 90
      129
280
     0
281
     0
  0
CLASS
  1
AEC_AECDBDISPREPSPACEBOUNDARYPLAN100
  2
AecDbDispRepSpaceBoundaryPlan100
  3
AecBase40|Product Desc: Autodesk Architectural Desktop 2005 |Company: Autodesk,Inc. |WEB Address: www.autodesk.com
 90
      129
280
     0
281
     0
  0
CLASS
  1
AEC_AECDBDISPREPSPACEPLAN100
  2
AecDbDispRepSpacePlan100
  3
AecBase40|Product Desc: Autodesk Architectural Desktop 2005 |Company: Autodesk,Inc. |WEB Address: www.autodesk.com
 90
      129
280
     0
281
     0
  0
CLASS
  1
AEC_AECDBDISPREPWALLPLAN100
  2
AecDbDispRepWallPlan100
  3
AecBase40|Product Desc: Autodesk Architectural Desktop 2005 |Company: Autodesk,Inc. |WEB Address: www.autodesk.com
 90
      129
280
     0
281
     0
  0
CLASS
  1
AEC_AECDBDISPREPWINDOWASSEMBLYPLAN100
  2
AecDbDispRepWindowAssemblyPlan100
  3
AecBase40|Product Desc: Autodesk Architectural Desktop 2005 |Company: Autodesk,Inc. |WEB Address: www.autodesk.com
 90
      129
280
     0
281
     0
  0
CLASS
  1
AEC_AECSDBDISPREPMEMBERPLAN100
  2
AecsDbDispRepMemberPlan100
  3
AecBase40|Product Desc: Autodesk Architectural Desktop 2005 |Company: Autodesk,Inc. |WEB Address: www.autodesk.com
 90
    32897
280
     0
281
     0
  0
CLASS
  1
AEC_AECDBDISPREPAREA50
  2
AecDbDispRepArea50
  3
AecBase40|Product Desc: Autodesk Architectural Desktop 2005 |Company: Autodesk,Inc. |WEB Address: www.autodesk.com
 90
      129
280
     0
281
     0
  0
CLASS
  1
AEC_AECDBDISPREPAREAGROUP50
  2
AecDbDispRepAreaGroup50
  3
AecBase40|Product Desc: Autodesk Architectural Desktop 2005 |Company: Autodesk,Inc. |WEB Address: www.autodesk.com
 90
      129
280
     0
281
     0
  0
CLASS
  1
AEC_AECDBDISPREPBDGELEVLINEPLAN50
  2
AecDbDispRepBdgElevLinePlan50
  3
AecBase40|Product Desc: Autodesk Architectural Desktop 2005 |Company: Autodesk,Inc. |WEB Address: www.autodesk.com
 90
      129
280
     0
281
     0
  0
CLASS
  1
AEC_AECDBDISPREPBDGSECTIONLINEPLAN50
  2
AecDbDispRepBdgSectionLinePlan50
  3
AecBase40|Product Desc: Autodesk Architectural Desktop 2005 |Company: Autodesk,Inc. |WEB Address: www.autodesk.com
 90
      129
280
     0
281
     0
  0
CLASS
  1
AEC_AECDBDISPREPCEILINGGRIDPLAN50
  2
AecDbDispRepCeilingGridPlan50
  3
AecBase40|Product Desc: Autodesk Architectural Desktop 2005 |Company: Autodesk,Inc. |WEB Address: www.autodesk.com
 90
      129
280
     0
281
     0
  0
CLASS
  1
AEC_AECDBDISPREPCOLUMNGRIDPLAN50
  2
AecDbDispRepColumnGridPlan50
  3
AecBase40|Product Desc: Autodesk Architectural Desktop 2005 |Company: Autodesk,Inc. |WEB Address: www.autodesk.com
 90
      129
280
     0
281
     0
  0
CLASS
  1
AEC_AECDBDISPREPCURTAINWALLLAYOUTPLAN50
  2
AecDbDispRepCurtainWallLayoutPlan50
  3
AecBase40|Product Desc: Autodesk Architectural Desktop 2005 |Company: Autodesk,Inc. |WEB Address: www.autodesk.com
 90
      129
280
     0
281
     0
  0
CLASS
  1
AEC_AECDBDISPREPCURTAINWALLUNITPLAN50
  2
AecDbDispRepCurtainWallUnitPlan50
  3
AecBase40|Product Desc: Autodesk Architectural Desktop 2005 |Company: Autodesk,Inc. |WEB Address: www.autodesk.com
 90
      129
280
     0
281
     0
  0
CLASS
  1
AEC_AECDBDISPREPMVBLOCKREFPLAN50
  2
AecDbDispRepMvBlockRefPlan50
  3
AecBase40|Product Desc: Autodesk Architectural Desktop 2005 |Company: Autodesk,Inc. |WEB Address: www.autodesk.com
 90
      129
280
     0
281
     0
  0
CLASS
  1
AEC_AECDBDISPREPROOFPLAN50
  2
AecDbDispRepRoofPlan50
  3
AecBase40|Product Desc: Autodesk Architectural Desktop 2005 |Company: Autodesk,Inc. |WEB Address: www.autodesk.com
 90
      129
280
     0
281
     0
  0
CLASS
  1
AEC_AECDBDISPREPROOFSLABPLAN50
  2
AecDbDispRepRoofSlabPlan50
  3
AecBase40|Product Desc: Autodesk Architectural Desktop 2005 |Company: Autodesk,Inc. |WEB Address: www.autodesk.com
 90
      129
280
     0
281
     0
  0
CLASS
  1
AEC_AECDBDISPREPSLABPLAN50
  2
AecDbDispRepSlabPlan50
  3
AecBase40|Product Desc: Autodesk Architectural Desktop 2005 |Company: Autodesk,Inc. |WEB Address: www.autodesk.com
 90
      129
280
     0
281
     0
  0
CLASS
  1
AEC_AECDBDISPREPSPACEBOUNDARYPLAN50
  2
AecDbDispRepSpaceBoundaryPlan50
  3
AecBase40|Product Desc: Autodesk Architectural Desktop 2005 |Company: Autodesk,Inc. |WEB Address: www.autodesk.com
 90
      129
280
     0
281
     0
  0
CLASS
  1
AEC_AECDBDISPREPSPACEPLAN50
  2
AecDbDispRepSpacePlan50
  3
AecBase40|Product Desc: Autodesk Architectural Desktop 2005 |Company: Autodesk,Inc. |WEB Address: www.autodesk.com
 90
      129
280
     0
281
     0
  0
CLASS
  1
AEC_AECDBDISPREPWALLPLAN50
  2
AecDbDispRepWallPlan50
  3
AecBase40|Product Desc: Autodesk Architectural Desktop 2005 |Company: Autodesk,Inc. |WEB Address: www.autodesk.com
 90
      129
280
     0
281
     0
  0
CLASS
  1
AEC_AECDBDISPREPWINDOWASSEMBLYPLAN50
  2
AecDbDispRepWindowAssemblyPlan50
  3
AecBase40|Product Desc: Autodesk Architectural Desktop 2005 |Company: Autodesk,Inc. |WEB Address: www.autodesk.com
 90
      129
280
     0
281
     0
  0
CLASS
  1
AEC_AECSDBDISPREPMEMBERPLAN50
  2
AecsDbDispRepMemberPlan50
  3
AecBase40|Product Desc: Autodesk Architectural Desktop 2005 |Company: Autodesk,Inc. |WEB Address: www.autodesk.com
 90
    32897
280
     0
281
     0
  0
CLASS
  1
AEC_AECDBDISPREPCURTAINWALLLAYOUTXSECTION
  2
AecDbDispRepCurtainWallLayoutXSection
  3
AecBase40|Product Desc: Autodesk Architectural Desktop 2005 |Company: Autodesk,Inc. |WEB Address: www.autodesk.com
 90
      129
280
     0
281
     0
  0
CLASS
  1
AEC_DISPROPSXSECTIONCOMMON
  2
AecDbDispPropsXSectionCmn
  3
AecArchDACHBase40|Product Desc: Autodesk Architectural Desktop 2005 |Company: Autodesk,Inc. |WEB Address: www.autodesk.com
 90
      129
280
     0
281
     0
  0
CLASS
  1
AEC_AECDBDISPREPCURTAINWALLUNITXSECTION
  2
AecDbDispRepCurtainWallUnitXSection
  3
AecBase40|Product Desc: Autodesk Architectural Desktop 2005 |Company: Autodesk,Inc. |WEB Address: www.autodesk.com
 90
      129
280
     0
281
     0
  0
CLASS
  1
AEC_AECDBDISPREPDOORXSECTION
  2
AecDbDispRepDoorXSection
  3
AecBase40|Product Desc: Autodesk Architectural Desktop 2005 |Company: Autodesk,Inc. |WEB Address: www.autodesk.com
 90
      129
280
     0
281
     0
  0
CLASS
  1
AEC_AECDBDISPREPMASSELEMXSECTION
  2
AecDbDispRepMassElemXSection
  3
AecBase40|Product Desc: Autodesk Architectural Desktop 2005 |Company: Autodesk,Inc. |WEB Address: www.autodesk.com
 90
      129
280
     0
281
     0
  0
CLASS
  1
AEC_AECDBDISPREPROOFXSECTION
  2
AecDbDispRepRoofXSection
  3
AecBase40|Product Desc: Autodesk Architectural Desktop 2005 |Company: Autodesk,Inc. |WEB Address: www.autodesk.com
 90
      129
280
     0
281
     0
  0
CLASS
  1
AEC_AECDBDISPREPROOFSLABXSECTION
  2
AecDbDispRepRoofSlabXSection
  3
AecBase40|Product Desc: Autodesk Architectural Desktop 2005 |Company: Autodesk,Inc. |WEB Address: www.autodesk.com
 90
      129
280
     0
281
     0
  0
CLASS
  1
AEC_AECDBDISPREPSLABXSECTION
  2
AecDbDispRepSlabXSection
  3
AecBase40|Product Desc: Autodesk Architectural Desktop 2005 |Company: Autodesk,Inc. |WEB Address: www.autodesk.com
 90
      129
280
     0
281
     0
  0
CLASS
  1
AEC_AECDBDISPREPSPACEXSECTION
  2
AecDbDispRepSpaceXSection
  3
AecBase40|Product Desc: Autodesk Architectural Desktop 2005 |Company: Autodesk,Inc. |WEB Address: www.autodesk.com
 90
      129
280
     0
281
     0
  0
CLASS
  1
AEC_AECDBDISPREPSPACEBOUNDARYXSECTION
  2
AecDbDispRepSpaceBoundaryXSection
  3
AecBase40|Product Desc: Autodesk Architectural Desktop 2005 |Company: Autodesk,Inc. |WEB Address: www.autodesk.com
 90
      129
280
     0
281
     0
  0
CLASS
  1
AEC_AECDBDISPREPWINDOWXSECTION
  2
AecDbDispRepWindowXSection
  3
AecBase40|Product Desc: Autodesk Architectural Desktop 2005 |Company: Autodesk,Inc. |WEB Address: www.autodesk.com
 90
      129
280
     0
281
     0
  0
CLASS
  1
AEC_AECDBDISPREPWINDOWASSEMBLYXSECTION
  2
AecDbDispRepWindowAssemblyXSection
  3
AecBase40|Product Desc: Autodesk Architectural Desktop 2005 |Company: Autodesk,Inc. |WEB Address: www.autodesk.com
 90
      129
280
     0
281
     0
  0
CLASS
  1
AEC_AECDBDISPREPMEMBERXSECTION
  2
AecDbDispRepMemberXSection
  3
AecBase40|Product Desc: Autodesk Architectural Desktop 2005 |Company: Autodesk,Inc. |WEB Address: www.autodesk.com
 90
      129
280
     0
281
     0
  0
CLASS
  1
AEC_DB_DISP_REP_DIM_GROUP_PLAN100
  2
AecDbDispRepDimGroupPlan100
  3
AecArchDACHBase40|Product Desc: Autodesk Architectural Desktop 2005 |Company: Autodesk,Inc. |WEB Address: www.autodesk.com
 90
      129
280
     0
281
     0
  0
CLASS
  1
AEC_DB_DISP_REP_DIM_GROUP_PLAN50
  2
AecDbDispRepDimGroupPlan50
  3
AecArchDACHBase40|Product Desc: Autodesk Architectural Desktop 2005 |Company: Autodesk,Inc. |WEB Address: www.autodesk.com
 90
      129
280
     0
281
     0
  0
CLASS
  1
AEC_DISP_REP_DOOR_PLAN_50
  2
AecDbDispRepDoorPlan50
  3
AecArchDACHBase40|Product Desc: Autodesk Architectural Desktop 2005 |Company: Autodesk,Inc. |WEB Address: www.autodesk.com
 90
      129
280
     0
281
     0
  0
CLASS
  1
AEC_DISP_PROPS_DOOR_PLAN_50
  2
AecDbDispPropsDoorPlan50
  3
AecArchDACHBase40|Product Desc: Autodesk Architectural Desktop 2005 |Company: Autodesk,Inc. |WEB Address: www.autodesk.com
 90
      129
280
     0
281
     0
  0
CLASS
  1
AEC_DISP_REP_DOOR_PLAN_HEKTO
  2
AecDbDispRepDoorPlanHekto
  3
AecArchDACHBase40|Product Desc: Autodesk Architectural Desktop 2005 |Company: Autodesk,Inc. |WEB Address: www.autodesk.com
 90
      129
280
     0
281
     0
  0
CLASS
  1
AEC_DISP_PROPS_DOOR_PLAN_100
  2
AecDbDispPropsDoorPlan100
  3
AecArchDACHBase40|Product Desc: Autodesk Architectural Desktop 2005 |Company: Autodesk,Inc. |WEB Address: www.autodesk.com
 90
      129
280
     0
281
     0
  0
CLASS
  1
AEC_DISP_REP_DOOR_THRESHOLD_SYMBOL_PLAN
  2
AecDbDispRepDoorThresholdSymbolPlan
  3
AecArchDACHBase40|Product Desc: Autodesk Architectural Desktop 2005 |Company: Autodesk,Inc. |WEB Address: www.autodesk.com
 90
      129
280
     0
281
     0
  0
CLASS
  1
AEC_DISP_PROPS_DOOR_THRESHOLD_SYMBOL_PLAN
  2
AecDbDispPropsDoorThresholdSymbolPlan
  3
AecArchDACHBase40|Product Desc: Autodesk Architectural Desktop 2005 |Company: Autodesk,Inc. |WEB Address: www.autodesk.com
 90
      129
280
     0
281
     0
  0
CLASS
  1
AEC_DISPREPAECDBDISPREPMASSELEMPLAN100
  2
AecDbDispRepMassElemPlan100
  3
AecArchDACHBase40|Product Desc: Autodesk Architectural Desktop 2005 |Company: Autodesk,Inc. |WEB Address: www.autodesk.com
 90
      129
280
     0
281
     0
  0
CLASS
  1
AEC_DISPROPSMASSELEMPLANCOMMON
  2
AecDbDispPropsMassElemPlanCommon
  3
AecArchDACHBase40|Product Desc: Autodesk Architectural Desktop 2005 |Company: Autodesk,Inc. |WEB Address: www.autodesk.com
 90
      129
280
     0
281
     0
  0
CLASS
  1
AEC_DISPREPAECDBDISPREPMASSELEMPLAN50
  2
AecDbDispRepMassElemPlan50
  3
AecArchDACHBase40|Product Desc: Autodesk Architectural Desktop 2005 |Company: Autodesk,Inc. |WEB Address: www.autodesk.com
 90
      129
280
     0
281
     0
  0
CLASS
  1
AEC_DISPREPAECDBDISPREPMASSGROUPPLAN100
  2
AecDbDispRepMassGroupPlan100
  3
AecArchDACHBase40|Product Desc: Autodesk Architectural Desktop 2005 |Company: Autodesk,Inc. |WEB Address: www.autodesk.com
 90
      129
280
     0
281
     0
  0
CLASS
  1
AEC_DISPROPSMASSGROUPPLANCOMMON
  2
AecDbDispPropsMassGroupPlanCommon
  3
AecArchDACHBase40|Product Desc: Autodesk Architectural Desktop 2005 |Company: Autodesk,Inc. |WEB Address: www.autodesk.com
 90
      129
280
     0
281
     0
  0
CLASS
  1
AEC_DISPREPAECDBDISPREPMASSGROUPPLAN50
  2
AecDbDispRepMassGroupPlan50
  3
AecArchDACHBase40|Product Desc: Autodesk Architectural Desktop 2005 |Company: Autodesk,Inc. |WEB Address: www.autodesk.com
 90
      129
280
     0
281
     0
  0
CLASS
  1
AEC_DISPREPMASSGROUPXSECTION
  2
AecDbDispRepMassGroupXSection
  3
AecArchDACHBase40|Product Desc: Autodesk Architectural Desktop 2005 |Company: Autodesk,Inc. |WEB Address: www.autodesk.com
 90
      129
280
     0
281
     0
  0
CLASS
  1
AEC_DISPREPAECDBDISPREPOPENINGPLAN100
  2
AecDbDispRepOpeningPlan100
  3
AecArchDACHBase40|Product Desc: Autodesk Architectural Desktop 2005 |Company: Autodesk,Inc. |WEB Address: www.autodesk.com
 90
      129
280
     0
281
     0
  0
CLASS
  1
AEC_DISPROPSOPENINGPLANCOMMONHATCHED
  2
AecDbDispPropsOpeningPlanCommonHatched
  3
AecArchDACHBase40|Product Desc: Autodesk Architectural Desktop 2005 |Company: Autodesk,Inc. |WEB Address: www.autodesk.com
 90
      129
280
     0
281
     0
  0
CLASS
  1
AEC_DISPREPAECDBDISPREPOPENINGPLAN50
  2
AecDbDispRepOpeningPlan50
  3
AecArchDACHBase40|Product Desc: Autodesk Architectural Desktop 2005 |Company: Autodesk,Inc. |WEB Address: www.autodesk.com
 90
      129
280
     0
281
     0
  0
CLASS
  1
AEC_DISPREPAECDBDISPREPOPENINGPLANREFLECTED
  2
AecDbDispRepOpeningPlanReflected
  3
AecArchDACHBase40|Product Desc: Autodesk Architectural Desktop 2005 |Company: Autodesk,Inc. |WEB Address: www.autodesk.com
 90
      129
280
     0
281
     0
  0
CLASS
  1
AEC_DISPROPSOPENINGPLANCOMMON
  2
AecDbDispPropsOpeningPlanCommon
  3
AecArchDACHBase40|Product Desc: Autodesk Architectural Desktop 2005 |Company: Autodesk,Inc. |WEB Address: www.autodesk.com
 90
      129
280
     0
281
     0
  0
CLASS
  1
AEC_DISPREPAECDBDISPREPOPENINGSILLPLAN
  2
AecDbDispRepOpeningSillPlan
  3
AecArchDACHBase40|Product Desc: Autodesk Architectural Desktop 2005 |Company: Autodesk,Inc. |WEB Address: www.autodesk.com
 90
      129
280
     0
281
     0
  0
CLASS
  1
AEC_DISPROPSOPENINGSILLPLAN
  2
AecDbDispPropsOpeningSillPlan
  3
AecArchDACHBase40|Product Desc: Autodesk Architectural Desktop 2005 |Company: Autodesk,Inc. |WEB Address: www.autodesk.com
 90
      129
280
     0
281
     0
  0
CLASS
  1
AEC_DISP_REP_RAILING_PLAN_100
  2
AecDbDispRepRailingPlan100
  3
AecArchDACHBase40|Product Desc: Autodesk Architectural Desktop 2005 |Company: Autodesk,Inc. |WEB Address: www.autodesk.com
 90
      129
280
     0
281
     0
  0
CLASS
  1
AEC_DISP_ROPS_RAILING_PLAN_100
  2
AecDbDispPropsRailingPlan100
  3
AecArchDACHBase40|Product Desc: Autodesk Architectural Desktop 2005 |Company: Autodesk,Inc. |WEB Address: www.autodesk.com
 90
      129
280
     0
281
     0
  0
CLASS
  1
AEC_DISP_REP_RAILING_PLAN_50
  2
AecDbDispRepRailingPlan50
  3
AecArchDACHBase40|Product Desc: Autodesk Architectural Desktop 2005 |Company: Autodesk,Inc. |WEB Address: www.autodesk.com
 90
      129
280
     0
281
     0
  0
CLASS
  1
AEC_DISP_ROPS_RAILING_PLAN_COMMON
  2
AecDbDispPropsRailingPlanCommon
  3
AecArchDACHBase40|Product Desc: Autodesk Architectural Desktop 2005 |Company: Autodesk,Inc. |WEB Address: www.autodesk.com
 90
      129
280
     0
281
     0
  0
CLASS
  1
AEC_DISPREPRAILINGXSECTION
  2
AecDbDispRepRailingXSection
  3
AecArchDACHBase40|Product Desc: Autodesk Architectural Desktop 2005 |Company: Autodesk,Inc. |WEB Address: www.autodesk.com
 90
      129
280
     0
281
     0
  0
CLASS
  1
AEC_DISP_REP_STAIR_PLAN_100
  2
AecDbDispRepStairPlan100
  3
AecArchDACHBase40|Product Desc: Autodesk Architectural Desktop 2005 |Company: Autodesk,Inc. |WEB Address: www.autodesk.com
 90
      129
280
     0
281
     0
  0
CLASS
  1
AEC_DISP_ROPS_STAIR_PLAN_100
  2
AecDbDispPropsStairPlan100
  3
AecArchDACHBase40|Product Desc: Autodesk Architectural Desktop 2005 |Company: Autodesk,Inc. |WEB Address: www.autodesk.com
 90
      129
280
     0
281
     0
  0
CLASS
  1
AEC_DISP_REP_STAIR_PLAN_50
  2
AecDbDispRepStairPlan50
  3
AecArchDACHBase40|Product Desc: Autodesk Architectural Desktop 2005 |Company: Autodesk,Inc. |WEB Address: www.autodesk.com
 90
      129
280
     0
281
     0
  0
CLASS
  1
AEC_DISP_ROPS_STAIR_PLAN_50
  2
AecDbDispPropsStairPlan50
  3
AecArchDACHBase40|Product Desc: Autodesk Architectural Desktop 2005 |Company: Autodesk,Inc. |WEB Address: www.autodesk.com
 90
      129
280
     0
281
     0
  0
CLASS
  1
AEC_DISPREPSTAIRXSECTION
  2
AecDbDispRepStairXSection
  3
AecArchDACHBase40|Product Desc: Autodesk Architectural Desktop 2005 |Company: Autodesk,Inc. |WEB Address: www.autodesk.com
 90
      129
280
     0
281
     0
  0
CLASS
  1
AEC_DISPREPWALLXSECTION
  2
AecDbDispRepWallXSection
  3
AecArchDACHBase40|Product Desc: Autodesk Architectural Desktop 2005 |Company: Autodesk,Inc. |WEB Address: www.autodesk.com
 90
      129
280
     0
281
     0
  0
CLASS
  1
AEC_DISPROPSXSECTIONWALL
  2
AecDbDispPropsWallXSection
  3
AecArchDACHBase40|Product Desc: Autodesk Architectural Desktop 2005 |Company: Autodesk,Inc. |WEB Address: www.autodesk.com
 90
      129
280
     0
281
     0
  0
CLASS
  1
AEC_DISP_REP_WINDOW_PLAN_100
  2
AecDbDispRepWindowPlan100
  3
AecArchDACHBase40|Product Desc: Autodesk Architectural Desktop 2005 |Company: Autodesk,Inc. |WEB Address: www.autodesk.com
 90
      129
280
     0
281
     0
  0
CLASS
  1
AEC_DISP_PROPS_WINDOW_PLAN_100
  2
AecDbDispPropsWindowPlan100
  3
AecArchDACHBase40|Product Desc: Autodesk Architectural Desktop 2005 |Company: Autodesk,Inc. |WEB Address: www.autodesk.com
 90
      129
280
     0
281
     0
  0
CLASS
  1
AEC_DISP_REP_WINDOW_PLAN_50
  2
AecDbDispRepWindowPlan50
  3
AecArchDACHBase40|Product Desc: Autodesk Architectural Desktop 2005 |Company: Autodesk,Inc. |WEB Address: www.autodesk.com
 90
      129
280
     0
281
     0
  0
CLASS
  1
AEC_DISP_PROPS_WINDOW_PLAN_50
  2
AecDbDispPropsWindowPlan50
  3
AecArchDACHBase40|Product Desc: Autodesk Architectural Desktop 2005 |Company: Autodesk,Inc. |WEB Address: www.autodesk.com
 90
      129
280
     0
281
     0
  0
CLASS
  1
BINRECORD
  2
AcAecBinRecord
  3
AecBase40|Product Desc: Autodesk Architectural Desktop 2005 |Company: Autodesk,Inc. |WEB Address: www.autodesk.com
 90
      129
280
     0
281
     0
  0
CLASS
  1
AEC_BDG_ELEVLINE
  2
AecDbBdgElevLine
  3
AecArchBase40|Product Desc: Autodesk Architectural Desktop 2005 |Company: Autodesk,Inc. |WEB Address: www.autodesk.com
 90
    33661
280
     0
281
     1
  0
CLASS
  1
AEC_MVBLOCK_DEF
  2
AecDbMvBlockDef
  3
AecBase40|Product Desc: Autodesk Architectural Desktop 2005 |Company: Autodesk,Inc. |WEB Address: www.autodesk.com
 90
    32897
280
     0
281
     0
  0
CLASS
  1
AEC_MVBLOCK_REF
  2
AecDbMvBlockRef
  3
AecBase40|Product Desc: Autodesk Architectural Desktop 2005 |Company: Autodesk,Inc. |WEB Address: www.autodesk.com
 90
    33661
280
     0
281
     1
  0
CLASS
  1
AEC_ANCHOR_ENT_TO_CURVE
  2
AecDbAnchorEntToCurve
  3
AecBase40|Product Desc: Autodesk Architectural Desktop 2005 |Company: Autodesk,Inc. |WEB Address: www.autodesk.com
 90
    32897
280
     0
281
     0
  0
CLASS
  1
AEC_2DSECTION_STYLE
  2
AecDb2dSectionStyle
  3
AecBase40|Product Desc: Autodesk Architectural Desktop 2005 |Company: Autodesk,Inc. |WEB Address: www.autodesk.com
 90
    32897
280
     0
281
     0
  0
CLASS
  1
AEC_2D_SECTION
  2
AecDb2dSection
  3
AecBase40|Product Desc: Autodesk Architectural Desktop 2005 |Company: Autodesk,Inc. |WEB Address: www.autodesk.com
 90
    33661
280
     0
281
     1
  0
CLASS
  1
DICTIONARYVAR
  2
AcDbDictionaryVar
  3
ObjectDBX Classes
 90
        0
280
     0
281
     0
  0
CLASS
  1
RASTERVARIABLES
  2
AcDbRasterVariables
  3
ISM
 90
        0
280
     0
281
     0
  0
CLASS
  1
IMAGEDEF
  2
AcDbRasterImageDef
  3
ISM
 90
        0
280
     0
281
     0
  0
CLASS
  1
IMAGEDEF_REACTOR
  2
AcDbRasterImageDefReactor
  3
ISM
 90
    32769
280
     0
281
     0
  0
CLASS
  1
IMAGE
  2
AcDbRasterImage
  3
ISM
 90
    32895
280
     0
281
     1
  0
CLASS
  1
AEC_DISP_PROPS_SPACE_BOUNDARY
  2
AecDbDispPropsSpaceBoundary
  3
AecArchBase40|Product Desc: Autodesk Architectural Desktop 2005 |Company: Autodesk,Inc. |WEB Address: www.autodesk.com
 90
      129
280
     0
281
     0
  0
CLASS
  1
AEC_DISP_PROPS_WALL_MODEL
  2
AecDbDispPropsWallModel
  3
AecArchBase40|Product Desc: Autodesk Architectural Desktop 2005 |Company: Autodesk,Inc. |WEB Address: www.autodesk.com
 90
      129
280
     0
281
     0
  0
CLASS
  1
AEC_DISP_ROPS_RAILING_PLAN_50
  2
AecDbDispPropsRailingPlan50
  3
AecArchDACHBase40|Product Desc: Autodesk Architectural Desktop 2005 |Company: Autodesk,Inc. |WEB Address: www.autodesk.com
 90
      129
280
     0
281
     0
  0
CLASS
  1
TABLESTYLE
  2
AcDbTableStyle
  3
ObjectDBX Classes
 90
     2047
280
     0
281
     0
  0
ENDSEC
  0
SECTION
  2
TABLES
  0
TABLE
  2
VPORT
  5
19
330
0
100
AcDbSymbolTable
 70
     3
  0
VPORT
  5
A76
330
19
100
AcDbSymbolTableRecord
100
AcDbViewportTableRecord
  2
*Active
 70
     0
 10
0.0
 20
0.0
 11
1.0
 21
1.0
 12
41.73494021296995
 22
56.1321718603714
 13
0.0
 23
0.0
 14
1.0
 24
1.0
 15
0.0
 25
0.0
 16
0.0
 26
0.0
 36
1.0
 17
-1.231698635749096
 27
0.0341407252638295
 37
0.274902937879691
 40
140.279517963595
 41
2.10828025477707
 42
50.0
 43
0.0
 44
0.0
 50
0.0
 51
0.0
 71
     0
 72
   100
 73
     1
 74
     3
 75
     0
 76
     0
 77
     0
 78
     0
281
     0
 65
     1
110
0.0
120
0.0
130
0.0
111
1.0
121
0.0
131
0.0
112
0.0
122
1.0
132
0.0
 79
     0
146
0.0
  0
ENDTAB
  0
TABLE
  2
LTYPE
  5
14
330
0
100
AcDbSymbolTable
 70
     1
  0
LTYPE
  5
15
330
14
100
AcDbSymbolTableRecord
100
AcDbLinetypeTableRecord
  2
ByBlock
 70
     0
  3

 72
    65
 73
     0
 40
0.0
  0
LTYPE
  5
16
330
14
100
AcDbSymbolTableRecord
100
AcDbLinetypeTableRecord
  2
ByLayer
 70
     0
  3

 72
    65
 73
     0
 40
0.0
  0
LTYPE
  5
8
330
14
100
AcDbSymbolTableRecord
100
AcDbLinetypeTableRecord
  2
Continuous
 70
     0
  3
Solid line
 72
    65
 73
     0
 40
0.0
  0
ENDTAB
  0
TABLE
  2
LAYER
  5
10
330
0
100
AcDbSymbolTable
 70
     3
  0
LAYER
  5
4
330
10
100
AcDbSymbolTableRecord
100
AcDbLayerTableRecord
  2
0
 70
     0
 62
     7
  6
Continuous
370
    -3
390
5
  0
LAYER
  5
3F
330
10
100
AcDbSymbolTableRecord
100
AcDbLayerTableRecord
  2
Defpoints
 70
     0
 62
     7
  6
Continuous
290
     0
370
    -3
390
5
  0
LAYER
  5
6C
330
10
100
AcDbSymbolTableRecord
100
AcDbLayerTableRecord
  2
Cotation-JacobDelafon
 70
     0
 62
     8
  6
Continuous
370
    -3
390
5
  0
ENDTAB
  0
TABLE
  2
STYLE
  5
11
330
0
100
AcDbSymbolTable
 70
     2
  0
STYLE
  5
12
330
11
100
AcDbSymbolTableRecord
100
AcDbTextStyleTableRecord
  2
Standard
 70
     0
 40
0.0
 41
1.0
 50
0.0
 71
     0
 42
0.2
  3
txt
  4

  0
STYLE
  5
6D
330
11
100
AcDbSymbolTableRecord
100
AcDbTextStyleTableRecord
  2
Jacob-Delafon
 70
     0
 40
0.0
 41
1.0
 50
0.0
 71
     0
 42
2.5
  3
ARIAL.TTF
  4

1001
ACAD
1000
Arial
1071
       34
  0
ENDTAB
  0
TABLE
  2
VIEW
  5
17
330
0
100
AcDbSymbolTable
 70
     0
  0
ENDTAB
  0
TABLE
  2
UCS
  5
18
330
0
100
AcDbSymbolTable
 70
     0
  0
ENDTAB
  0
TABLE
  2
APPID
  5
1B
330
0
100
AcDbSymbolTable
 70
     9
  0
APPID
  5
1C
330
1B
100
AcDbSymbolTableRecord
100
AcDbRegAppTableRecord
  2
ACAD
 70
     0
  0
APPID
  5
C2
330
1B
100
AcDbSymbolTableRecord
100
AcDbRegAppTableRecord
  2
DCO15
 70
     0
  0
APPID
  5
E2
330
1B
100
AcDbSymbolTableRecord
100
AcDbRegAppTableRecord
  2
ADCADD_ZZ
 70
     0
  0
APPID
  5
E3
330
1B
100
AcDbSymbolTableRecord
100
AcDbRegAppTableRecord
  2
SDSK_PMN
 70
     0
  0
APPID
  5
22B
330
1B
100
AcDbSymbolTableRecord
100
AcDbRegAppTableRecord
  2
AcAecLayerStandard
 70
     0
  0
APPID
  5
22C
330
1B
100
AcDbSymbolTableRecord
100
AcDbRegAppTableRecord
  2
AECBASE
 70
     0
  0
APPID
  5
22D
330
1B
100
AcDbSymbolTableRecord
100
AcDbRegAppTableRecord
  2
AEC_DWGVARSSETUP_DATA
 70
     0
  0
APPID
  5
22E
330
1B
100
AcDbSymbolTableRecord
100
AcDbRegAppTableRecord
  2
AEC_DISPREPCONFIG_DATA
 70
     0
  0
APPID
  5
22F
330
1B
100
AcDbSymbolTableRecord
100
AcDbRegAppTableRecord
  2
AEC_DISPREPSET_DATA
 70
     0
  0
ENDTAB
  0
TABLE
  2
DIMSTYLE
  5
1D
330
0
100
AcDbSymbolTable
 70
     2
100
AcDbDimStyleTable
 71
     2
340
6E
340
23
  0
DIMSTYLE
105
23
330
1D
100
AcDbSymbolTableRecord
100
AcDbDimStyleTableRecord
  2
Standard
 70
     0
340
12
  0
DIMSTYLE
105
6E
102
{ACAD_REACTORS
330
9F1
330
A11
102
}
330
1D
100
AcDbSymbolTableRecord
100
AcDbDimStyleTableRecord
  2
Cotation-Jacob-Delafon
 70
     0
 41
1.8
 42
0.625
 43
3.799999999999999
 44
1.8
 73
     0
 74
     0
 77
     1
 78
    12
 79
     3
140
3.0
141
0.9
147
0.9
271
     2
272
     2
279
     2
340
6D
341
5C
342
5C
  0
ENDTAB
  0
TABLE
  2
BLOCK_RECORD
  5
1
330
0
100
AcDbSymbolTable
 70
     4
  0
BLOCK_RECORD
  5
2
330
1
100
AcDbSymbolTableRecord
100
AcDbBlockTableRecord
  2
*Model_Space
340
A
  0
BLOCK_RECORD
  5
C
330
1
100
AcDbSymbolTableRecord
100
AcDbBlockTableRecord
  2
*Paper_Space
340
F
  0
BLOCK_RECORD
  5
5C
330
1
100
AcDbSymbolTableRecord
100
AcDbBlockTableRecord
  2
_Oblique
340
0
102
{BLKREFS
331
A5D
331
A5E
331
A66
331
A67
102
}
  0
BLOCK_RECORD
  5
DD
330
1
100
AcDbSymbolTableRecord
100
AcDbBlockTableRecord
  2
ADCADD_ZZ
340
0
102
{BLKREFS
331
E0
102
}
  0
BLOCK_RECORD
  5
9F2
330
1
100
AcDbSymbolTableRecord
100
AcDbBlockTableRecord
  2
*D2
340
0
  0
BLOCK_RECORD
  5
A12
330
1
100
AcDbSymbolTableRecord
100
AcDbBlockTableRecord
  2
*D3
340
0
  0
ENDTAB
  0
ENDSEC
  0
SECTION
  2
BLOCKS
  0
BLOCK
  5
3
330
2
100
AcDbEntity
  8
0
100
AcDbBlockBegin
  2
*Model_Space
 70
     0
 10
0.0
 20
0.0
 30
0.0
  3
*Model_Space
  1

  0
ENDBLK
  5
9
330
2
100
AcDbEntity
  8
0
100
AcDbBlockEnd
  0
BLOCK
  5
D
330
C
100
AcDbEntity
 67
     1
  8
0
100
AcDbBlockBegin
  2
*Paper_Space
 70
     0
 10
0.0
 20
0.0
 30
0.0
  3
*Paper_Space
  1

  0
ENDBLK
  5
E
330
C
100
AcDbEntity
 67
     1
  8
0
100
AcDbBlockEnd
  0
BLOCK
  5
5E
330
5C
100
AcDbEntity
  8
0
100
AcDbBlockBegin
  2
_Oblique
 70
     0
 10
0.0
 20
0.0
 30
0.0
  3
_Oblique
  1

  0
LINE
  5
5D
330
5C
100
AcDbEntity
  8
0
  6
ByBlock
 62
     0
370
    -2
380
     1
100
AcDbLine
 10
-0.5
 20
-0.5
 30
0.0
 11
0.5
 21
0.5
 31
0.0
  0
ENDBLK
  5
5F
330
5C
100
AcDbEntity
  8
0
100
AcDbBlockEnd
  0
BLOCK
  5
DE
330
DD
100
AcDbEntity
  8
0
100
AcDbBlockBegin
  2
ADCADD_ZZ
 70
     0
 10
0.0
 20
0.0
 30
0.0
  3
ADCADD_ZZ
  1

  0
ENDBLK
  5
DF
330
DD
100
AcDbEntity
  8
0
100
AcDbBlockEnd
  0
BLOCK
  5
9FC
330
9F2
100
AcDbEntity
  8
0
100
AcDbBlockBegin
  2
*D2
 70
     1
 10
0.0
 20
0.0
 30
0.0
  3
*D2
  1

  0
LINE
  5
A5A
330
9F2
100
AcDbEntity
  8
Cotation-JacobDelafon
  6
Continuous
 62
     0
370
    -2
100
AcDbLine
 10
17.57162034021464
 20
39.00000000000001
 30
0.0
 11
27.65284426247652
 21
39.00000000000001
 31
0.0
  0
LINE
  5
A5B
330
9F2
100
AcDbEntity
  8
Cotation-JacobDelafon
  6
Continuous
 62
     0
370
    -2
100
AcDbLine
 10
11.01135693339625
 20
-0.0000000000000002
 30
0.0
 11
27.65284426247651
 21
-0.0000000000000049
 31
0.0
  0
LINE
  5
A5C
330
9F2
100
AcDbEntity
  8
Cotation-JacobDelafon
  6
Continuous
 62
     0
370
    -2
100
AcDbLine
 10
25.85284426247652
 20
39.00000000000001
 30
0.0
 11
25.85284426247651
 21
-0.0000000000000044
 31
0.0
  0
INSERT
  5
A5D
330
9F2
100
AcDbEntity
  8
Cotation-JacobDelafon
  6
Continuous
 62
     0
370
    -2
100
AcDbBlockReference
  2
_Oblique
 10
25.85284426247652
 20
39.00000000000001
 30
0.0
 41
1.8
 42
1.8
 43
1.8
 50
90.0
  0
INSERT
  5
A5E
330
9F2
100
AcDbEntity
  8
Cotation-JacobDelafon
  6
Continuous
 62
     0
370
    -2
100
AcDbBlockReference
  2
_Oblique
 10
25.85284426247651
 20
-0.0000000000000044
 30
0.0
 41
1.8
 42
1.8
 43
1.8
 50
270.0
  0
MTEXT
  5
A5F
330
9F2
100
AcDbEntity
  8
Cotation-JacobDelafon
  6
Continuous
 62
     0
100
AcDbMText
 10
23.42010210695127
 20
19.50000000000001
 30
0.0
 40
3.0
 41
0.0
 71
     5
 72
     1
  1
\A1;39
  7
Jacob-Delafon
 11
0.0000000000000001
 21
1.0
 31
0.0
 73
     1
 44
1.0
1001
ACAD
1000
MTEXTBEGIN
1070
    73
1070
     1
1070
    44
1040
1.0
1070
    74
1070
     0
1000
MTEXTEND
  0
POINT
  5
A60
330
9F2
100
AcDbEntity
  8
Defpoints
  6
Continuous
 62
     0
100
AcDbPoint
 10
16.94662034021464
 20
39.00000000000001
 30
0.0
  0
POINT
  5
A61
330
9F2
100
AcDbEntity
  8
Defpoints
  6
Continuous
 62
     0
100
AcDbPoint
 10
10.38635693339625
 20
0.0
 30
0.0
  0
POINT
  5
A62
330
9F2
100
AcDbEntity
  8
Defpoints
  6
Continuous
 62
     0
100
AcDbPoint
 10
25.85284426247651
 20
-0.0000000000000044
 30
0.0
  0
ENDBLK
  5
9FD
330
9F2
100
AcDbEntity
  8
0
100
AcDbBlockEnd
  0
BLOCK
  5
A1C
330
A12
100
AcDbEntity
  8
0
100
AcDbBlockBegin
  2
*D3
 70
     1
 10
0.0
 20
0.0
 30
0.0
  3
*D3
  1

  0
LINE
  5
A63
330
A12
100
AcDbEntity
  8
Cotation-JacobDelafon
  6
Continuous
 62
     0
370
    -2
100
AcDbLine
 10
17.99347299623952
 20
38.55109999999998
 30
0.0
 11
17.99347299623952
 21
49.61088656418191
 31
0.0
  0
LINE
  5
A64
330
A12
100
AcDbEntity
  8
Cotation-JacobDelafon
  6
Continuous
 62
     0
370
    -2
100
AcDbLine
 10
-18.00652700376048
 20
38.55109999999998
 30
0.0
 11
-18.00652700376048
 21
49.61088656418191
 31
0.0
  0
LINE
  5
A65
330
A12
100
AcDbEntity
  8
Cotation-JacobDelafon
  6
Continuous
 62
     0
370
    -2
100
AcDbLine
 10
17.99347299623952
 20
47.8108865641819
 30
0.0
 11
-18.00652700376048
 21
47.8108865641819
 31
0.0
  0
INSERT
  5
A66
330
A12
100
AcDbEntity
  8
Cotation-JacobDelafon
  6
Continuous
 62
     0
370
    -2
100
AcDbBlockReference
  2
_Oblique
 10
17.99347299623952
 20
47.8108865641819
 30
0.0
 41
1.8
 42
1.8
 43
1.8
  0
INSERT
  5
A67
330
A12
100
AcDbEntity
  8
Cotation-JacobDelafon
  6
Continuous
 62
     0
370
    -2
100
AcDbBlockReference
  2
_Oblique
 10
-18.00652700376048
 20
47.8108865641819
 30
0.0
 41
1.8
 42
1.8
 43
1.8
 50
180.0
  0
MTEXT
  5
A68
330
A12
100
AcDbEntity
  8
Cotation-JacobDelafon
  6
Continuous
 62
     0
100
AcDbMText
 10
-0.0065270037604817
 20
50.24362871970715
 30
0.0
 40
3.0
 41
0.0
 71
     5
 72
     1
  1
\A1;36
  7
Jacob-Delafon
 73
     1
 44
1.0
1001
ACAD
1000
MTEXTBEGIN
1070
    73
1070
     1
1070
    44
1040
1.0
1070
    74
1070
     0
1000
MTEXTEND
  0
POINT
  5
A69
330
A12
100
AcDbEntity
  8
Defpoints
  6
Continuous
 62
     0
100
AcDbPoint
 10
17.99347299623952
 20
37.92609999999998
 30
0.0
  0
POINT
  5
A6A
330
A12
100
AcDbEntity
  8
Defpoints
  6
Continuous
 62
     0
100
AcDbPoint
 10
-18.00652700376048
 20
37.92609999999998
 30
0.0
  0
POINT
  5
A6B
330
A12
100
AcDbEntity
  8
Defpoints
  6
Continuous
 62
     0
100
AcDbPoint
 10
-18.00652700376048
 20
47.8108865641819
 30
0.0
  0
ENDBLK
  5
A1D
330
A12
100
AcDbEntity
  8
0
100
AcDbBlockEnd
  0
ENDSEC
  0
SECTION
  2
ENTITIES
  0
LINE
  5
984
330
2
100
AcDbEntity
  8
0
  6
Continuous
100
AcDbLine
 10
12.73504999999998
 20
20.25379999999998
 30
0.0
 11
12.63424999999999
 21
19.31329999999998
 31
0.0
  0
LINE
  5
985
330
2
100
AcDbEntity
  8
0
  6
Continuous
100
AcDbLine
 10
12.983563956759
 20
22.65856515486156
 30
0.0
 11
12.91775
 21
22.10119999999999
 31
0.0
  0
LINE
  5
986
330
2
100
AcDbEntity
  8
0
  6
Continuous
100
AcDbLine
 10
12.91775
 20
22.10119999999999
 30
0.0
 11
12.86164999999998
 21
21.65009999999998
 31
0.0
  0
LINE
  5
987
330
2
100
AcDbEntity
  8
0
  6
Continuous
100
AcDbLine
 10
12.86164999999998
 20
21.65009999999998
 30
0.0
 11
12.80005
 21
21.01129999999998
 31
0.0
  0
LINE
  5
988
330
2
100
AcDbEntity
  8
0
  6
Continuous
100
AcDbLine
 10
12.80005
 20
21.01129999999998
 30
0.0
 11
12.73504999999998
 21
20.25379999999998
 31
0.0
  0
LINE
  5
989
330
2
100
AcDbEntity
  8
0
  6
Continuous
100
AcDbLine
 10
14.26694999999999
 20
24.25679999999998
 30
0.0
 11
16.00364999999999
 21
27.90949999999999
 31
0.0
  0
LINE
  5
98A
330
2
100
AcDbEntity
  8
0
  6
Continuous
100
AcDbLine
 10
16.00364999999999
 20
27.90949999999999
 30
0.0
 11
17.11434999999999
 21
31.79789999999999
 31
0.0
  0
LINE
  5
98B
330
2
100
AcDbEntity
  8
0
  6
Continuous
100
AcDbLine
 10
17.11434999999999
 20
31.79789999999999
 30
0.0
 11
17.80087700376047
 21
36.63690000000001
 31
0.0
  0
LINE
  5
98C
330
2
100
AcDbEntity
  8
0
  6
Continuous
100
AcDbLine
 10
17.80087700376047
 20
36.63690000000001
 30
0.0
 11
17.9404655479696
 21
37.88922228101957
 31
0.0
  0
LINE
  5
98D
330
2
100
AcDbEntity
  8
0
  6
Continuous
100
AcDbLine
 10
10.38635693339625
 20
0.0
 30
0.0
 11
10.90085
 21
19.29759999999999
 31
0.0
  0
LINE
  5
991
330
2
100
AcDbEntity
  8
0
  6
Continuous
100
AcDbLine
 10
11.14324999999999
 20
20.23809999999999
 30
0.0
 11
11.18714206666062
 21
20.33171828017109
 31
0.0
  0
LINE
  5
992
330
2
100
AcDbEntity
  8
0
  6
Continuous
100
AcDbLine
 10
11.18714206666062
 20
20.33171828017109
 30
0.0
 11
11.49834999999999
 21
20.99549999999998
 31
0.0
  0
LINE
  5
993
330
2
100
AcDbEntity
  8
0
  6
Continuous
100
AcDbLine
 10
11.49834999999999
 20
20.99549999999998
 30
0.0
 11
11.69256788001328
 21
21.22499103669408
 31
0.0
  0
LINE
  5
994
330
2
100
AcDbEntity
  8
0
  6
Continuous
100
AcDbLine
 10
11.69256788001328
 20
21.22499103669408
 30
0.0
 11
12.03905
 21
21.63439999999999
 31
0.0
  0
LINE
  5
995
330
2
100
AcDbEntity
  8
0
  6
Continuous
100
AcDbLine
 10
12.03905
 20
21.63439999999999
 30
0.0
 11
12.34740179937232
 21
21.94854028666685
 31
0.0
  0
LINE
  5
996
330
2
100
AcDbEntity
  8
0
  6
Continuous
100
AcDbLine
 10
12.34740179937232
 20
21.94854028666685
 30
0.0
 11
12.71024999999999
 21
22.31819999999999
 31
0.0
  0
LINE
  5
997
330
2
100
AcDbEntity
  8
0
  6
Continuous
100
AcDbLine
 10
12.71024999999999
 20
22.31819999999999
 30
0.0
 11
12.983563956759
 21
22.65856515486156
 31
0.0
  0
LINE
  5
998
330
2
100
AcDbEntity
  8
0
  6
Continuous
100
AcDbLine
 10
12.983563956759
 20
22.65856515486156
 30
0.0
 11
14.26694999999999
 21
24.25679999999998
 31
0.0
  0
LINE
  5
999
330
2
100
AcDbEntity
  8
0
  6
Continuous
100
AcDbLine
 10
12.63424999999999
 20
19.31329999999998
 30
0.0
 11
10.38636878765079
 21
0.0004446292420597
 31
0.0
  0
LINE
  5
99D
330
2
100
AcDbEntity
  8
0
  6
Continuous
100
AcDbLine
 10
11.14324999999999
 20
20.23809999999999
 30
0.0
 11
10.90085
 21
19.29759999999999
 31
0.0
  0
LINE
  5
9A0
330
2
100
AcDbEntity
  8
0
  6
Continuous
100
AcDbLine
 10
-11.14325000000001
 20
20.23809999999999
 30
0.0
 11
-10.90085000000002
 21
19.29759999999999
 31
0.0
  0
LINE
  5
9A4
330
2
100
AcDbEntity
  8
0
  6
Continuous
100
AcDbLine
 10
-12.63425000000001
 20
19.31329999999999
 30
0.0
 11
-10.3863569333963
 21
0.0000000000000012
 31
0.0
  0
LINE
  5
9A5
330
2
100
AcDbEntity
  8
0
  6
Continuous
100
AcDbLine
 10
-12.98356395675901
 20
22.65856515486156
 30
0.0
 11
-14.26694999999999
 21
24.25679999999999
 31
0.0
  0
LINE
  5
9A6
330
2
100
AcDbEntity
  8
0
  6
Continuous
100
AcDbLine
 10
-12.71025
 20
22.31819999999999
 30
0.0
 11
-12.98356395675901
 21
22.65856515486156
 31
0.0
  0
LINE
  5
9A7
330
2
100
AcDbEntity
  8
0
  6
Continuous
100
AcDbLine
 10
-12.34740179937233
 20
21.94854028666685
 30
0.0
 11
-12.71025
 21
22.31819999999999
 31
0.0
  0
LINE
  5
9A8
330
2
100
AcDbEntity
  8
0
  6
Continuous
100
AcDbLine
 10
-12.03905000000002
 20
21.63439999999999
 30
0.0
 11
-12.34740179937233
 21
21.94854028666685
 31
0.0
  0
LINE
  5
9A9
330
2
100
AcDbEntity
  8
0
  6
Continuous
100
AcDbLine
 10
-11.6925678800133
 20
21.22499103669408
 30
0.0
 11
-12.03905000000002
 21
21.63439999999999
 31
0.0
  0
LINE
  5
9AA
330
2
100
AcDbEntity
  8
0
  6
Continuous
100
AcDbLine
 10
-11.49835
 20
20.99549999999998
 30
0.0
 11
-11.6925678800133
 21
21.22499103669408
 31
0.0
  0
LINE
  5
9AB
330
2
100
AcDbEntity
  8
0
  6
Continuous
100
AcDbLine
 10
-11.18714206666062
 20
20.33171828017109
 30
0.0
 11
-11.49835
 21
20.99549999999998
 31
0.0
  0
LINE
  5
9AC
330
2
100
AcDbEntity
  8
0
  6
Continuous
100
AcDbLine
 10
-11.14325000000001
 20
20.23809999999999
 30
0.0
 11
-11.18714206666062
 21
20.33171828017109
 31
0.0
  0
LINE
  5
9B0
330
2
100
AcDbEntity
  8
0
  6
Continuous
100
AcDbLine
 10
-10.3863569333963
 20
0.0000000000000012
 30
0.0
 11
-10.90085000000002
 21
19.29759999999999
 31
0.0
  0
LINE
  5
9B1
330
2
100
AcDbEntity
  8
0
  6
Continuous
100
AcDbLine
 10
-17.78782299623953
 20
36.63690000000001
 30
0.0
 11
-17.92741154044864
 21
37.88922228101956
 31
0.0
  0
LINE
  5
9B2
330
2
100
AcDbEntity
  8
0
  6
Continuous
100
AcDbLine
 10
-17.11435
 20
31.79789999999999
 30
0.0
 11
-17.78782299623953
 21
36.63690000000001
 31
0.0
  0
LINE
  5
9B3
330
2
100
AcDbEntity
  8
0
  6
Continuous
100
AcDbLine
 10
-16.00365000000001
 20
27.90949999999999
 30
0.0
 11
-17.11435
 21
31.79789999999999
 31
0.0
  0
LINE
  5
9B4
330
2
100
AcDbEntity
  8
0
  6
Continuous
100
AcDbLine
 10
-14.26694999999999
 20
24.25679999999999
 30
0.0
 11
-16.00365000000001
 21
27.90949999999999
 31
0.0
  0
LINE
  5
9B5
330
2
100
AcDbEntity
  8
0
  6
Continuous
100
AcDbLine
 10
-12.80005000000001
 20
21.01129999999999
 30
0.0
 11
-12.73505000000001
 21
20.25379999999998
 31
0.0
  0
LINE
  5
9B6
330
2
100
AcDbEntity
  8
0
  6
Continuous
100
AcDbLine
 10
-12.86165
 20
21.65009999999998
 30
0.0
 11
-12.80005000000001
 21
21.01129999999999
 31
0.0
  0
LINE
  5
9B7
330
2
100
AcDbEntity
  8
0
  6
Continuous
100
AcDbLine
 10
-12.91775
 20
22.10119999999999
 30
0.0
 11
-12.86165
 21
21.65009999999998
 31
0.0
  0
LINE
  5
9B8
330
2
100
AcDbEntity
  8
0
  6
Continuous
100
AcDbLine
 10
-12.98356395675901
 20
22.65856515486156
 30
0.0
 11
-12.91775
 21
22.10119999999999
 31
0.0
  0
LINE
  5
9B9
330
2
100
AcDbEntity
  8
0
  6
Continuous
100
AcDbLine
 10
-12.73505000000001
 20
20.25379999999998
 30
0.0
 11
-12.63425000000001
 21
19.31329999999999
 31
0.0
  0
LINE
  5
9D6
330
2
100
AcDbEntity
  8
0
  6
Continuous
100
AcDbLine
 10
0.0
 20
0.0
 30
0.0
 11
10.38635693339628
 21
0.0
 31
0.0
  0
LINE
  5
9D7
330
2
100
AcDbEntity
  8
0
  6
Continuous
100
AcDbLine
 10
0.0
 20
0.0
 30
0.0
 11
-10.38635693339628
 21
0.0000000000000012
 31
0.0
  0
LINE
  5
9DC
330
2
100
AcDbEntity
  8
0
  6
Continuous
100
AcDbLine
 10
-13.9802371750092
 20
40.5252499606142
 30
0.0
 11
-13.99949496053697
 21
39.0
 31
0.0
  0
ARC
  5
9ED
330
2
100
AcDbEntity
  8
0
  6
Continuous
100
AcDbCircle
 10
-11.98039657148877
 20
40.49999999999999
 30
0.0
 40
2.0
100
AcDbArc
 50
90.0
 51
179.2766226945659
  0
ARC
  5
9EE
330
2
100
AcDbEntity
  8
0
  6
Continuous
100
AcDbCircle
 10
11.98039657148873
 20
40.49999999999999
 30
0.0
 40
2.0
100
AcDbArc
 50
0.7233773054340685
 51
89.99999999999996
  0
DIMENSION
  5
9F1
330
2
100
AcDbEntity
  8
Cotation-JacobDelafon
  6
Continuous
100
AcDbDimension
  2
*D2
 10
25.85284426247651
 20
-0.0000000000000044
 30
0.0
 11
23.42010210695127
 21
19.50000000000001
 31
0.0
 70
    32
 71
     5
 42
39.00000000000002
  3
Cotation-Jacob-Delafon
100
AcDbAlignedDimension
 13
16.94662034021464
 23
39.00000000000001
 33
0.0
 14
10.38635693339625
 24
0.0
 34
0.0
 50
90.0
100
AcDbRotatedDimension
  0
LINE
  5
A0F
330
2
100
AcDbEntity
  8
0
  6
Continuous
100
AcDbLine
 10
-16.93356633269368
 20
39.0
 30
0.0
 11
16.94662034021464
 21
39.00000000000001
 31
0.0
  0
LINE
  5
A10
330
2
100
AcDbEntity
  8
0
  6
Continuous
100
AcDbLine
 10
-14.00652700376047
 20
39.0
 30
0.0
 11
14.00652700376047
 21
39.0
 31
0.0
  0
DIMENSION
  5
A11
330
2
100
AcDbEntity
  8
Cotation-JacobDelafon
  6
Continuous
100
AcDbDimension
  2
*D3
 10
-18.00652700376048
 20
47.8108865641819
 30
0.0
 11
-0.0065270037604817
 21
50.24362871970715
 31
0.0
 70
    32
 71
     5
 42
36.0
  3
Cotation-Jacob-Delafon
100
AcDbAlignedDimension
 13
17.99347299623952
 23
37.92609999999998
 33
0.0
 14
-18.00652700376048
 24
37.92609999999998
 34
0.0
100
AcDbRotatedDimension
  0
ARC
  5
A1E
330
2
100
AcDbEntity
  8
0
  6
Continuous
100
AcDbCircle
 10
-16.93356633269368
 20
37.99999999999999
 30
0.0
 40
1.0
100
AcDbArc
 50
90.0
 51
186.3601495900238
  0
ARC
  5
A1F
330
2
100
AcDbEntity
  8
0
  6
Continuous
100
AcDbCircle
 10
16.94662034021464
 20
38.00000000000001
 30
0.0
 40
1.0
100
AcDbArc
 50
353.6398504099758
 51
90.0
  0
LINE
  5
A20
330
2
100
AcDbEntity
  8
0
  6
Continuous
100
AcDbLine
 10
-11.98039657148877
 20
42.5
 30
0.0
 11
11.98039657148874
 21
42.5
 31
0.0
  0
LINE
  5
A21
330
2
100
AcDbEntity
  8
0
  6
Continuous
100
AcDbLine
 10
13.98023717500917
 20
40.5252499606142
 30
0.0
 11
13.99183452356375
 21
39.00000000000001
 31
0.0
  0
INSERT
  5
E0
330
C
100
AcDbEntity
 67
     1
  8
0
  6
Continuous
 60
     1
100
AcDbBlockReference
  2
ADCADD_ZZ
 10
0.0
 20
0.0
 30
0.0
1001
ADCADD_ZZ
1070
   205
1070
    14
1070
   209
1070
     1
1070
   231
1070
     0
1070
   235
1070
     0
1070
   236
1070
     4
1070
   237
1070
     2
1070
   238
1070
     4
1070
   239
1070
     2
1070
   240
1070
     0
1070
   241
1070
  4096
1070
   242
1070
     2
1070
   244
1070
     0
1070
   245
1070
     1
1070
   303
1040
0.1
1070
   304
1040
4.0
1070
   305
1040
96.0
1070
   306
1040
0.125
1070
   337
1040
0.0
1070
   338
1040
0.3048
1070
   339
1040
0.0625
1070
   340
1040
96.0
1070
   341
1040
4.0
1070
   342
1040
96.0
1070
   530
1010
0.0
1020
0.0
1030
0.0
1070
   531
1010
0.0
1020
0.0
1030
0.0
1070
   107
1000

1070
   108
1000
Architectural Desktop
1070
   135
1000
L120
1070
   136
1000
'
1070
   137
1000
m
1001
SDSK_PMN
1070
   100
1000
ACADARCH
1070
   300
1040
2453074.724095255
  0
ENDSEC
  0
SECTION
  2
OBJECTS
  0
DICTIONARY
  5
7
330
0
100
AcDbDictionary
281
     1
  3
ACAD_COLOR
350
23C
  3
ACAD_GROUP
350
1F
  3
ACAD_IMAGE_DICT
350
240
  3
ACAD_IMAGE_VARS
350
241
  3
ACAD_LAYOUT
350
B
  3
ACAD_MATERIAL
350
23B
  3
ACAD_MLINESTYLE
350
20
  3
ACAD_PLOTSETTINGS
350
21
  3
ACAD_PLOTSTYLENAME
350
6
  3
ACAD_TABLESTYLE
350
A53
  3
AcAec
350
234
  3
ACDBHEADERROUNDTRIPXREC
350
A77
  3
AcDbVariableDictionary
350
38
  3
AEC_DISP_REP_CONFIGURATIONS
350
230
  3
AEC_DISP_REP_SETS
350
221
  3
AEC_DISP_REPS
350
C9
  3
AEC_DISPLAY_PROPS_DEFAULTS
350
CB
  3
AEC_LAYERKEY_STYLES
350
229
  3
AEC_PROPERTY_SET_DEFS
350
73
  3
AEC_VARS
350
DC
  3
ASE_INDEX_DICTIONARY
350
C1
  0
DICTIONARY
  5
23C
102
{ACAD_REACTORS
330
7
102
}
330
7
100
AcDbDictionary
281
     1
  0
DICTIONARY
  5
1F
102
{ACAD_REACTORS
330
7
102
}
330
7
100
AcDbDictionary
281
     1
  0
DICTIONARY
  5
240
102
{ACAD_REACTORS
330
7
102
}
330
7
100
AcDbDictionary
281
     1
  3
E1524
350
3F9
  3
E1525
350
468
  3
E1540
350
4B8
  3
E1563
350
5AE
  3
E1564-1
350
67F
  3
E1565
350
79A
  3
E1566
350
7EC
  3
E1567
350
84B
  3
E1584
350
8A3
  3
PP141221-02a
350
242
  0
RASTERVARIABLES
  5
241
102
{ACAD_REACTORS
330
7
102
}
330
7
100
AcDbRasterVariables
 90
        0
 70
     1
 71
     1
 72
     2
  0
DICTIONARY
  5
B
102
{ACAD_REACTORS
330
7
102
}
330
7
100
AcDbDictionary
281
     1
  3
Model
350
A
  3
Présentation1
350
F
  0
DICTIONARY
  5
23B
102
{ACAD_REACTORS
330
7
102
}
330
7
100
AcDbDictionary
281
     1
  0
DICTIONARY
  5
20
102
{ACAD_REACTORS
330
7
102
}
330
7
100
AcDbDictionary
281
     1
  3
Standard
350
22
  0
DICTIONARY
  5
21
102
{ACAD_REACTORS
330
7
102
}
330
7
100
AcDbDictionary
281
     1
  0
ACDBDICTIONARYWDFLT
  5
6
102
{ACAD_REACTORS
330
7
102
}
330
7
100
AcDbDictionary
281
     1
  3
Normal
350
5
100
AcDbDictionaryWithDefault
340
5
  0
DICTIONARY
  5
A53
102
{ACAD_REACTORS
330
7
102
}
330
7
100
AcDbDictionary
281
     1
  3
Standard
350
A54
  0
DICTIONARY
  5
234
102
{ACAD_REACTORS
330
7
102
}
330
7
100
AcDbDictionary
281
     1
  3
AcAecLayerManager
350
235
  0
DICTIONARY
  5
A77
102
{ACAD_REACTORS
330
7
102
}
330
7
100
AcDbDictionary
281
     1
  0
DICTIONARY
  5
38
102
{ACAD_REACTORS
330
7
102
}
330
7
100
AcDbDictionary
281
     1
  3
CTABLESTYLE
350
A74
  3
DIMASSOC
350
3A
  3
HIDETEXT
350
39
  3
PROJECTNAME
350
A75
  0
DICTIONARY
  5
230
102
{ACAD_REACTORS
330
7
102
}
330
7
100
AcDbDictionary
281
     1
  3
Standard
350
231
1001
AECBASE
1070
 10000
1005
231
  0
DICTIONARY
  5
221
102
{ACAD_REACTORS
330
7
102
}
330
7
100
AcDbDictionary
281
     1
  3
Live Section
350
222
  3
Model
350
223
  3
Plan
350
224
  3
Plan 1-100
350
225
  3
Plan 1-50
350
226
  3
Reflected
350
227
  3
Section_Elev
350
228
  0
DICTIONARY
  5
C9
102
{ACAD_REACTORS
330
7
102
}
330
7
100
AcDbDictionary
281
     1
  3
AecDbDispRep2dSection
350
CA
  3
AecDbDispRepAnchor
350
CD
  3
AecDbDispRepAnchorBubToGrid
350
FB
  3
AecDbDispRepAnchorBubToGridMdl
350
FD
  3
AecDbDispRepAnchorBubToGridRcp
350
FF
  3
AecDbDispRepAnchorEntToNode
350
CE
  3
AecDbDispRepAnchorTagToEnt
350
17D
  3
AecDbDispRepArea
350
191
  3
AecDbDispRepArea100
350
197
  3
AecDbDispRepArea50
350
1B8
  3
AecDbDispRepAreaDecomposed
350
193
  3
AecDbDispRepAreaGroup
350
195
  3
AecDbDispRepAreaGroup100
350
199
  3
AecDbDispRepAreaGroup50
350
1BA
  3
AecDbDispRepBdgElevLineModel
350
101
  3
AecDbDispRepBdgElevLinePlan
350
103
  3
AecDbDispRepBdgElevLinePlan100
350
19B
  3
AecDbDispRepBdgElevLinePlan50
350
1BC
  3
AecDbDispRepBdgElevLineRcp
350
105
  3
AecDbDispRepBdgSectionLineModel
350
107
  3
AecDbDispRepBdgSectionLinePlan
350
109
  3
AecDbDispRepBdgSectionLinePlan100
350
19D
  3
AecDbDispRepBdgSectionLinePlan50
350
1BE
  3
AecDbDispRepBdgSectionLineRcp
350
10B
  3
AecDbDispRepBdgSectionModel
350
10D
  3
AecDbDispRepBdgSectionSubDiv
350
10E
  3
AecDbDispRepCamera
350
D0
  3
AecDbDispRepCeilingGrid
350
110
  3
AecDbDispRepCeilingGridModel
350
112
  3
AecDbDispRepCeilingGridPlan100
350
19F
  3
AecDbDispRepCeilingGridPlan50
350
1C0
  3
AecDbDispRepCeilingGridRcp
350
114
  3
AecDbDispRepClipVolModel
350
D2
  3
AecDbDispRepClipVolPlan
350
D4
  3
AecDbDispRepClipVolResSubDiv
350
D7
  3
AecDbDispRepClipVolResult
350
D6
  3
AecDbDispRepColumnGrid
350
116
  3
AecDbDispRepColumnGridModel
350
118
  3
AecDbDispRepColumnGridPlan100
350
1A1
  3
AecDbDispRepColumnGridPlan50
350
1C2
  3
AecDbDispRepColumnGridRcp
350
11A
  3
AecDbDispRepCurtainWallLayoutModel
350
11C
  3
AecDbDispRepCurtainWallLayoutPlan
350
11E
  3
AecDbDispRepCurtainWallLayoutPlan100
350
1A3
  3
AecDbDispRepCurtainWallLayoutPlan50
350
1C4
  3
AecDbDispRepCurtainWallLayoutXSection
350
1D9
  3
AecDbDispRepCurtainWallUnitModel
350
120
  3
AecDbDispRepCurtainWallUnitPlan
350
122
  3
AecDbDispRepCurtainWallUnitPlan100
350
1A5
  3
AecDbDispRepCurtainWallUnitPlan50
350
1C6
  3
AecDbDispRepCurtainWallUnitXSection
350
1DB
  3
AecDbDispRepDimGroupPlan
350
1F5
  3
AecDbDispRepDimGroupPlan100
350
1F1
  3
AecDbDispRepDimGroupPlan50
350
1F3
  3
AecDbDispRepDoorElev
350
126
  3
AecDbDispRepDoorModel
350
124
  3
AecDbDispRepDoorNominal
350
12A
  3
AecDbDispRepDoorPlan
350
128
  3
AecDbDispRepDoorPlan50
350
1F7
  3
AecDbDispRepDoorPlanHekto
350
1F9
  3
AecDbDispRepDoorRcp
350
12C
  3
AecDbDispRepDoorThresholdPlan
350
12E
  3
AecDbDispRepDoorThresholdSymbolPlan
350
1FB
  3
AecDbDispRepDoorXSection
350
1DD
  3
AecDbDispRepEntRef
350
D9
  3
AecDbDispRepLayoutCurve
350
DB
  3
AecDbDispRepLayoutGrid2d
350
E5
  3
AecDbDispRepLayoutGrid3d
350
E7
  3
AecDbDispRepMaskBlockRef
350
E9
  3
AecDbDispRepMaskBlockRefRcp
350
130
  3
AecDbDispRepMassElemModel
350
EB
  3
AecDbDispRepMassElemPlan100
350
1FD
  3
AecDbDispRepMassElemPlan50
350
1FF
  3
AecDbDispRepMassElemRcp
350
132
  3
AecDbDispRepMassElemSchem
350
ED
  3
AecDbDispRepMassElemXSection
350
1DF
  3
AecDbDispRepMassGroupModel
350
EF
  3
AecDbDispRepMassGroupPlan
350
F1
  3
AecDbDispRepMassGroupPlan100
350
201
  3
AecDbDispRepMassGroupPlan50
350
203
  3
AecDbDispRepMassGroupRcp
350
134
  3
AecDbDispRepMassGroupXSection
350
205
  3
AecDbDispRepMemberXSection
350
1EF
  3
AecDbDispRepMvBlockRef
350
F3
  3
AecDbDispRepMvBlockRefModel
350
F4
  3
AecDbDispRepMvBlockRefPlan100
350
1A7
  3
AecDbDispRepMvBlockRefPlan50
350
1C8
  3
AecDbDispRepMvBlockRefRcp
350
136
  3
AecDbDispRepOpening
350
137
  3
AecDbDispRepOpeningModel
350
139
  3
AecDbDispRepOpeningPlan100
350
207
  3
AecDbDispRepOpeningPlan50
350
209
  3
AecDbDispRepOpeningPlanReflected
350
20B
  3
AecDbDispRepOpeningSillPlan
350
20D
  3
AecDbDispRepPolygonModel
350
F5
  3
AecDbDispRepPolygonTrueColour
350
F7
  3
AecDbDispRepRailingModel
350
13B
  3
AecDbDispRepRailingPlan
350
13D
  3
AecDbDispRepRailingPlan100
350
20F
  3
AecDbDispRepRailingPlan50
350
211
  3
AecDbDispRepRailingXSection
350
213
  3
AecDbDispRepRoofModel
350
13F
  3
AecDbDispRepRoofPlan
350
141
  3
AecDbDispRepRoofPlan100
350
1A8
  3
AecDbDispRepRoofPlan50
350
1C9
  3
AecDbDispRepRoofRcp
350
143
  3
AecDbDispRepRoofSlabModel
350
147
  3
AecDbDispRepRoofSlabPlan
350
14B
  3
AecDbDispRepRoofSlabPlan100
350
1AA
  3
AecDbDispRepRoofSlabPlan50
350
1CB
  3
AecDbDispRepRoofSlabXSection
350
1E3
  3
AecDbDispRepRoofXSection
350
1E1
  3
AecDbDispRepScheduleTable
350
18F
  3
AecDbDispRepSlabModel
350
145
  3
AecDbDispRepSlabPlan
350
149
  3
AecDbDispRepSlabPlan100
350
1AC
  3
AecDbDispRepSlabPlan50
350
1CD
  3
AecDbDispRepSlabXSection
350
1E5
  3
AecDbDispRepSlice
350
F9
  3
AecDbDispRepSpaceBoundaryDgrm
350
14D
  3
AecDbDispRepSpaceBoundaryModel
350
14F
  3
AecDbDispRepSpaceBoundaryPlan
350
151
  3
AecDbDispRepSpaceBoundaryPlan100
350
1AE
  3
AecDbDispRepSpaceBoundaryPlan50
350
1CF
  3
AecDbDispRepSpaceBoundarySketch
350
153
  3
AecDbDispRepSpaceBoundaryXSection
350
1E9
  3
AecDbDispRepSpaceModel
350
155
  3
AecDbDispRepSpacePlan
350
157
  3
AecDbDispRepSpacePlan100
350
1B0
  3
AecDbDispRepSpacePlan50
350
1D1
  3
AecDbDispRepSpaceRcp
350
159
  3
AecDbDispRepSpaceVolume
350
15B
  3
AecDbDispRepSpaceXSection
350
1E7
  3
AecDbDispRepStairModel
350
15D
  3
AecDbDispRepStairPlan
350
15F
  3
AecDbDispRepStairPlan100
350
215
  3
AecDbDispRepStairPlan50
350
217
  3
AecDbDispRepStairRcp
350
161
  3
AecDbDispRepStairXSection
350
219
  3
AecDbDispRepWallGraph
350
163
  3
AecDbDispRepWallModel
350
165
  3
AecDbDispRepWallPlan
350
167
  3
AecDbDispRepWallPlan100
350
1B2
  3
AecDbDispRepWallPlan50
350
1D3
  3
AecDbDispRepWallRcp
350
169
  3
AecDbDispRepWallSchem
350
16B
  3
AecDbDispRepWallXSection
350
21B
  3
AecDbDispRepWindowAssemblyModel
350
16D
  3
AecDbDispRepWindowAssemblyPlan
350
16F
  3
AecDbDispRepWindowAssemblyPlan100
350
1B4
  3
AecDbDispRepWindowAssemblyPlan50
350
1D5
  3
AecDbDispRepWindowAssemblyXSection
350
1ED
  3
AecDbDispRepWindowElev
350
173
  3
AecDbDispRepWindowModel
350
171
  3
AecDbDispRepWindowNominal
350
177
  3
AecDbDispRepWindowPlan
350
175
  3
AecDbDispRepWindowPlan100
350
21D
  3
AecDbDispRepWindowPlan50
350
21F
  3
AecDbDispRepWindowRcp
350
179
  3
AecDbDispRepWindowSillPlan
350
17B
  3
AecDbDispRepWindowXSection
350
1EB
  3
AecsDbDispRepMemberElevationDesign
350
17F
  3
AecsDbDispRepMemberElevationDetail
350
181
  3
AecsDbDispRepMemberLogical
350
183
  3
AecsDbDispRepMemberModelDesign
350
185
  3
AecsDbDispRepMemberModelDetail
350
187
  3
AecsDbDispRepMemberPlanDesign
350
189
  3
AecsDbDispRepMemberPlanDesign$Plan 1_100 (3.3)
350
A32
  3
AecsDbDispRepMemberPlanDesign$Plan 1_50 (3.3)
350
A34
  3
AecsDbDispRepMemberPlanDetail
350
18B
  3
AecsDbDispRepMemberPlanSketch
350
18D
  0
DICTIONARY
  5
CB
102
{ACAD_REACTORS
330
7
102
}
330
7
100
AcDbDictionary
281
     1
  3
*A1
350
CC
  3
*A10
350
115
  3
*A100
350
DA
  3
*A101
350
E6
  3
*A102
350
100
  3
*A103
350
13E
  3
*A104
350
19E
  3
*A105
350
E4
  3
*A106
350
17A
  3
*A107
350
1E2
  3
*A108
350
10A
  3
*A109
350
172
  3
*A11
350
F6
  3
*A110
350
108
  3
*A111
350
10F
  3
*A112
350
1D6
  3
*A113
350
1B9
  3
*A114
350
198
  3
*A115
350
1A6
  3
*A116
350
216
  3
*A117
350
1E8
  3
*A118
350
13C
  3
*A119
350
1A4
  3
*A12
350
21A
  3
*A120
350
1E4
  3
*A121
350
184
  3
*A122
350
117
  3
*A123
350
EE
  3
*A124
350
E8
  3
*A125
350
1FE
  3
*A126
350
1BF
  3
*A127
350
1A2
  3
*A128
350
18E
  3
*A129
350
102
  3
*A13
350
160
  3
*A130
350
158
  3
*A131
350
1BD
  3
*A132
350
196
  3
*A133
350
D1
  3
*A134
350
1CE
  3
*A135
350
131
  3
*A136
350
135
  3
*A137
350
14A
  3
*A138
350
1E6
  3
*A139
350
133
  3
*A14
350
D8
  3
*A140
350
EC
  3
*A141
350
21C
  3
*A142
350
1C1
  3
*A143
350
214
  3
*A144
350
1FC
  3
*A145
350
1EE
  3
*A146
350
11F
  3
*A147
350
F8
  3
*A148
350
178
  3
*A149
350
1EC
  3
*A15
350
15C
  3
*A150
350
21E
  3
*A151
350
1D2
  3
*A152
350
1B1
  3
*A153
350
138
  3
*A154
350
188
  3
*A155
350
202
  3
*A156
350
1EA
  3
*A157
350
1DA
  3
*A158
350
14C
  3
*A159
350
190
  3
*A16
350
129
  3
*A160
350
200
  3
*A161
350
1E0
  3
*A162
350
20C
  3
*A163
350
174
  3
*A164
350
1B7
  3
*A165
350
220
  3
*A17
350
1B5
  3
*A18
350
D5
  3
*A19
350
125
  3
*A2
350
18A
  3
*A20
350
204
  3
*A21
350
18C
  3
*A22
350
11D
  3
*A23
350
CF
  3
*A24
350
162
  3
*A25
350
142
  3
*A26
350
1C7
  3
*A27
350
FC
  3
*A28
350
D3
  3
*A29
350
210
  3
*A3
350
1F6
  3
*A30
350
176
  3
*A31
350
1D4
  3
*A32
350
FA
  3
*A33
350
218
  3
*A34
350
186
  3
*A35
350
1DC
  3
*A36
350
10C
  3
*A37
350
1A9
  3
*A38
350
1AD
  3
*A39
350
1C3
  3
*A4
350
1FA
  3
*A40
350
127
  3
*A41
350
1AB
  3
*A42
350
106
  3
*A43
350
164
  3
*A44
350
1CC
  3
*A45
350
FE
  3
*A46
350
1CA
  3
*A47
350
15A
  3
*A48
350
140
  3
*A49
350
12F
  3
*A5
350
123
  3
*A50
350
194
  3
*A51
350
16A
  3
*A52
350
1F8
  3
*A53
350
12D
  3
*A54
350
166
  3
*A55
350
111
  3
*A56
350
1D8
  3
*A57
350
EA
  3
*A58
350
208
  3
*A59
350
146
  3
*A6
350
17E
  3
*A60
350
12B
  3
*A61
350
119
  3
*A62
350
1C5
  3
*A63
350
212
  3
*A64
350
144
  3
*A65
350
121
  3
*A66
350
1A0
  3
*A67
350
1F2
  3
*A68
350
F2
  3
*A69
350
168
  3
*A7
350
1F0
  3
*A70
350
A36
  3
*A71
350
A37
  3
*A72
350
A38
  3
*A73
350
A39
  3
*A74
350
F0
  3
*A75
350
A3A
  3
*A76
350
A3B
  3
*A77
350
A3C
  3
*A78
350
A3D
  3
*A79
350
1B3
  3
*A8
350
17C
  3
*A80
350
19A
  3
*A81
350
20A
  3
*A82
350
148
  3
*A83
350
20E
  3
*A84
350
192
  3
*A85
350
170
  3
*A86
350
1DE
  3
*A87
350
1BB
  3
*A88
350
104
  3
*A89
350
16E
  3
*A9
350
182
  3
*A90
350
19C
  3
*A91
350
156
  3
*A92
350
13A
  3
*A93
350
1F4
  3
*A94
350
113
  3
*A95
350
16C
  3
*A96
350
15E
  3
*A97
350
206
  3
*A98
350
11B
  3
*A99
350
180
  0
DICTIONARY
  5
229
102
{ACAD_REACTORS
330
7
102
}
330
7
100
AcDbDictionary
281
     1
  3
Architectural Desktop
350
232
  3
Standard
350
22A
  0
DICTIONARY
  5
73
102
{ACAD_REACTORS
330
7
102
}
330
7
100
AcDbDictionary
281
     1
  0
DICTIONARY
  5
DC
102
{ACAD_REACTORS
330
7
102
}
330
7
100
AcDbDictionary
281
     1
  3
AEC_VARS_ARCHBASE
350
233
  3
AEC_VARS_DWG_SETUP
350
E1
  0
DICTIONARY
  5
C1
102
{ACAD_REACTORS
330
7
102
}
330
7
100
AcDbDictionary
281
     1
  3
ASEBlockHierarchyIndexRecord
350
C3
1001
DCO15
1040
1492258657.83
  0
IMAGEDEF
  5
3F9
102
{ACAD_REACTORS
330
240
102
}
330
240
100
AcDbRasterImageDef
 90
        0
  1
I:\Documents and Settings\Tina\My Documents\CAOplus-anushfar\jpg\E1524.jpg
 10
557.0
 20
804.0
 11
0.3527777777777778
 21
0.3527777777777778
280
     1
281
     5
  0
IMAGEDEF
  5
468
102
{ACAD_REACTORS
330
240
102
}
330
240
100
AcDbRasterImageDef
 90
        0
  1
I:\Documents and Settings\Tina\My Documents\CAOplus-anushfar\jpg\E1525.jpg
 10
557.0
 20
804.0
 11
0.3527777777777778
 21
0.3527777777777778
280
     1
281
     5
  0
IMAGEDEF
  5
4B8
102
{ACAD_REACTORS
330
240
102
}
330
240
100
AcDbRasterImageDef
 90
        0
  1
I:\Documents and Settings\Tina\My Documents\CAOplus-anushfar\jpg\E1540.jpg
 10
557.0
 20
804.0
 11
0.3527777777777778
 21
0.3527777777777778
280
     1
281
     5
  0
IMAGEDEF
  5
5AE
102
{ACAD_REACTORS
330
240
102
}
330
240
100
AcDbRasterImageDef
 90
        0
  1
I:\Documents and Settings\Tina\My Documents\CAOplus-anushfar\jpg\E1563.jpg
 10
557.0
 20
804.0
 11
0.3527777777777778
 21
0.3527777777777778
280
     1
281
     5
  0
IMAGEDEF
  5
67F
102
{ACAD_REACTORS
330
240
102
}
330
240
100
AcDbRasterImageDef
 90
        0
  1
I:\Documents and Settings\Tina\My Documents\CAOplus-anushfar\jpg\E1564-1.jpg
 10
557.0
 20
804.0
 11
0.3527777777777778
 21
0.3527777777777778
280
     1
281
     5
  0
IMAGEDEF
  5
79A
102
{ACAD_REACTORS
330
240
102
}
330
240
100
AcDbRasterImageDef
 90
        0
  1
I:\Documents and Settings\Tina\My Documents\CAOplus-anushfar\jpg\E1565.jpg
 10
557.0
 20
804.0
 11
0.3527777777777778
 21
0.3527777777777778
280
     1
281
     5
  0
IMAGEDEF
  5
7EC
102
{ACAD_REACTORS
330
240
102
}
330
240
100
AcDbRasterImageDef
 90
        0
  1
I:\Documents and Settings\Tina\My Documents\CAOplus-anushfar\jpg\E1566.jpg
 10
557.0
 20
804.0
 11
0.3527777777777778
 21
0.3527777777777778
280
     1
281
     5
  0
IMAGEDEF
  5
84B
102
{ACAD_REACTORS
330
240
102
}
330
240
100
AcDbRasterImageDef
 90
        0
  1
I:\Documents and Settings\Tina\My Documents\CAOplus-anushfar\jpg\E1567.jpg
 10
557.0
 20
804.0
 11
0.3527777777777778
 21
0.3527777777777778
280
     1
281
     5
  0
IMAGEDEF
  5
8A3
102
{ACAD_REACTORS
330
240
102
}
330
240
100
AcDbRasterImageDef
 90
        0
  1
I:\Documents and Settings\Tina\My Documents\CAOplus-anushfar\jpg\E1584.jpg
 10
557.0
 20
804.0
 11
0.3527777777777778
 21
0.3527777777777778
280
     1
281
     5
  0
IMAGEDEF
  5
242
102
{ACAD_REACTORS
330
240
102
}
330
240
100
AcDbRasterImageDef
 90
        0
  1
E:\Documents and Settings\Tina\My Documents\CAOplus-anushfar\jpg\PP141221-02a.jpg
 10
557.0
 20
812.0
 11
0.3527777777777778
 21
0.3527777777777778
280
     1
281
     5
  0
LAYOUT
  5
A
102
{ACAD_XDICTIONARY
360
A78
102
}
102
{ACAD_REACTORS
330
B
102
}
330
B
100
AcDbPlotSettings
  1

  2
\\persepolis\HP LaserJet 6P
  4

  6

 40
0.0
 41
0.0
 42
0.0
 43
0.0
 44
0.0
 45
0.0
 46
0.0
 47
0.0
 48
0.0
 49
0.0
140
0.0
141
0.0
142
1.0
143
1.0
 70
  1712
 72
     0
 73
     0
 74
     0
  7

 75
     0
147
1.0
148
0.0
149
0.0
100
AcDbLayout
  1
Model
 70
     1
 71
     0
 10
0.0
 20
0.0
 11
12.0
 21
9.0
 12
0.0
 22
0.0
 32
0.0
 14
0.0
 24
0.0
 34
0.0
 15
0.0
 25
0.0
 35
0.0
146
0.0
 13
0.0
 23
0.0
 33
0.0
 16
1.0
 26
0.0
 36
0.0
 17
0.0
 27
1.0
 37
0.0
 76
     0
330
2
  0
LAYOUT
  5
F
102
{ACAD_XDICTIONARY
360
A7A
102
}
102
{ACAD_REACTORS
330
B
102
}
330
B
100
AcDbPlotSettings
  1

  2
\\persepolis\HP LaserJet 6P
  4
A4
  6

 40
6.805083274841308
 41
5.069413185119628
 42
6.805084228515625
 43
5.027069091796875
 44
209.9733276367187
 45
296.9683227539062
 46
0.0
 47
0.0
 48
0.0
 49
0.0
140
0.0
141
0.0
142
1.0
143
1.0
 70
   688
 72
     0
 73
     1
 74
     1
  7

 75
     0
147
1.0
148
0.0
149
0.0
100
AcDbLayout
  1
Présentation1
 70
     1
 71
     1
 10
-0.1979161059762549
 20
-0.2679166643638311
 11
11.49375014417753
 21
7.99874977802667
 12
0.0
 22
0.0
 32
0.0
 14
-1.585300379204397
 24
-1.639098515165159
 34
0.0
 15
295.4146996207956
 25
511.9015371446048
 35
0.0
146
0.0
 13
0.0
 23
0.0
 33
0.0
 16
1.0
 26
0.0
 36
0.0
 17
0.0
 27
1.0
 37
0.0
 76
     0
330
C
  0
MLINESTYLE
  5
22
102
{ACAD_REACTORS
330
20
102
}
330
20
100
AcDbMlineStyle
  2
STANDARD
 70
     0
  3

 62
   256
 51
90.0
 52
90.0
 71
     2
 49
0.5
 62
   256
  6
BYLAYER
 49
-0.5
 62
   256
  6
BYLAYER
  0
ACDBPLACEHOLDER
  5
5
102
{ACAD_REACTORS
330
6
102
}
330
6
  0
TABLESTYLE
  5
A54
102
{ACAD_REACTORS
330
A53
102
}
330
A53
100
AcDbTableStyle
  3
Standard
 70
     0
 71
     0
 40
0.06
 41
0.06
280
     0
281
     0
  7
Standard
140
0.18
170
     2
 62
     0
 63
     7
283
     0
274
    -2
284
     1
 64
     0
275
    -2
285
     1
 65
     0
276
    -2
286
     1
 66
     0
277
    -2
287
     1
 67
     0
278
    -2
288
     1
 68
     0
279
    -2
289
     1
 69
     0
  7
Standard
140
0.25
170
     5
 62
     0
 63
     7
283
     0
274
    -2
284
     1
 64
     0
275
    -2
285
     1
 65
     0
276
    -2
286
     1
 66
     0
277
    -2
287
     1
 67
     0
278
    -2
288
     1
 68
     0
279
    -2
289
     1
 69
     0
  7
Standard
140
0.18
170
     5
 62
     0
 63
     7
283
     0
274
    -2
284
     1
 64
     0
275
    -2
285
     1
 65
     0
276
    -2
286
     1
 66
     0
277
    -2
287
     1
 67
     0
278
    -2
288
     1
 68
     0
279
    -2
289
     1
 69
     0
  0
DICTIONARY
  5
235
102
{ACAD_REACTORS
330
234
102
}
330
234
100
AcDbDictionary
280
     1
281
     1
  3
DefaultStandard
360
238
  3
Standards
360
236
  0
DICTIONARYVAR
  5
A74
102
{ACAD_REACTORS
330
38
102
}
330
38
100
DictionaryVariables
280
     0
  1
STANDARD
  0
DICTIONARYVAR
  5
3A
102
{ACAD_REACTORS
330
38
102
}
330
38
100
DictionaryVariables
280
     0
  1
1
  0
DICTIONARYVAR
  5
39
102
{ACAD_REACTORS
330
38
102
}
330
38
100
DictionaryVariables
280
     0
  1
1
  0
DICTIONARYVAR
  5
A75
102
{ACAD_REACTORS
330
38
102
}
330
38
100
DictionaryVariables
280
     0
  1

  0
XRECORD
  5
C3
102
{ACAD_REACTORS
330
C1
102
}
330
C1
100
AcDbXrecord
280
     1
330
E0
330
0
330
0
330
0
330
0
  0
DICTIONARY
  5
A78
330
A
100
AcDbDictionary
280
     1
281
     1
  3
ACAD_XREC_ROUNDTRIP
360
A79
  0
DICTIONARY
  5
A7A
330
F
100
AcDbDictionary
280
     1
281
     1
  3
ACAD_XREC_ROUNDTRIP
360
A7B
  0
XRECORD
  5
238
102
{ACAD_REACTORS
330
235
102
}
330
235
100
AcDbXrecord
280
     1
1000
Architectural Desktop Format
  0
BINRECORD
  5
236
102
{ACAD_REACTORS
330
235
102
}
330
235
100
AcAecBinRecord
 90
        0
 91
     6610
 70
     0
310
01001C4172636869746563747572616C204465736B746F7020466F726D61740300FFFF01001C004163416563556B4C6179657244657363726970746976654669656C640B526573706F6E7361626C65010000000000000000000A00000050000000810000002C036302ECEC2B042C0300140001550200000009557262616E69
310
736D650000000000000156020000000B56656E74696C6174696F6E0000000000000145020000000B456C6563747269636974E90000000000000157020000000E496E66726173747275637475726500000000000001460200000007466C75696465730000000000000158020000000C457863657074696F6E6E656C00000000
310
00000147020000000C476F757665726E656D656E740000000000000159020000000C457863657074696F6E6E656C000000000000015A020000000C457863657074696F6E6E656C0000000000000149020000000853E96375726974E9000000000000014B020000000D436C696D617469736174696F6E000000000000014C02
310
0000000B546F706F67726170686965000000000000014D02000000094DE963616E69717565000000000000014F02000000104D61EE7472652064274F7576726167650000000000000150020000000A506179736167697374650000000000000152020000000E436F6D6D756E69636174696F6E730000000000000141020000
310
000A417263686974656374650000000000000153020000000953747275637475726500000000000001540200000009546865726D6971756500000000000001430200000005436976696C000000000000018009436F6E74656E7520310200000000000000002C03630200000000110000000000000000000000910000009D00
310
0D5F436F746174696F6E414341440200000019436F746174696F6E2028706F696E7473204175746F43414429000000000000085F4561755573E9650200000008456175205573E965000000000000055F53697465020000000453697465000000000000075F54697373757302000000065469737375730000000000000A5F45
310
636C616972616765020000000945636C616972616765000000000000085F50617261706574020000000F204D75722064652070617261706574000000000000135F456C6563747269636974E95365636F757273020000001D53797374E86D6520456C6563747269717565206465207365636F757273000000000000095F506C
310
616E4C6F676F02000000044C6F676F0000000000000F5F506F7574726552656D6F6E74E9650200000011506F7574726520E02072656D6F6E74E965000000000000055F4D75727302000000044D7572730000000000000F5F457469717565747465734169726502000000114574697175657474657320642761697265000000
310
000000065F436F7570650200000005436F7570650000000000000D5F546578746545737061636573020000000D546578746520657370616365730000000000000A5F4368617566666167650200000009436861756666616765000000000000045F47617A020000000347617A0000000000000A5F436172627572616E740200
310
000009436172627572616E740000000000000B5F56E967E9746174696F6E020000000A56E967E9746174696F6E0000000000000A5F436172746F756368650200000009436172746F756368650000000000000C5F4D75727352696465617578020000000C4D7572732D72696465617578000000000000115F4D617271756573
310
456CE9766174696F6E02000000134D617271756573206427E96CE9766174696F6E0000000000000F5F4C696D697465735465727261696E020000001E4C696D69746573206475207465727261696E206F752070617263656C6C65000000000000085F4CE967656E646502000000074CE967656E64650000000000000C5F5465
310
787465526173746572020000000C546578746520726173746572000000000000075F44697665727302000000064469766572730000000000000D5F47726F757065734169726573020000000F47726F757065732064276169726573000000000000075F4772696C6C6502000000064772696C6C650000000000000A5F457874
310
E972696575720200000009457874E972696575720000000000000C5F506572736F6E6E61676573020000000B506572736F6E6E61676573000000000000135F456CE96D656E747350726F74656374696F6E0200000016456CE96D656E74732064652070726F74656374696F6E000000000000125F457370616365496E666F72
310
6D6174696F6E0200000013496E666F726D6174696F6E2045737061636573000000000000125F45746971756574746573506F757472657302000000154574697175657474657320646520706F75747265730000000000000D5F506F6C79676F6E6573414543020000000D506F6C79676F6E657320414543000000000000095F
310
536169676EE965730200000008536169676EE96573000000000000095F42E274696D656E74020000000842E274696D656E74000000000000085F52E97365727665020000000752E973657276650000000000000C5F50617261746F6E6E657265020000000B50617261746F6E6E6572650000000000000C5F46617578506C61
310
666F6E64020000000C466175782D706C61666F6E64000000000000095F447261696E6167650200000008447261696E616765000000000000115F506C616E496D706C616E746174696F6E0200000013506C616E206427696D706C616E746174696F6E000000000000085F4C756D69E8726502000000074C756D69E872650000
310
00000000095F537570706F7274730200000008537570706F727473000000000000085F506F75747265730200000007506F7574726573000000000000095F53796D626F6C6573020000000853796D626F6C6573000000000000115F436F746174696F6E48617574657572730200000015436F746174696F6E20646573206861
310
7574657572730000000000000E5F416972507265737375726973E9020000001141697220736F7573207072657373696F6E0000000000000B5F466F6E646174696F6E73020000000A466F6E646174696F6E73000000000000135F436F6D6D756E69636174696F6E526164696F020000001E53797374E86D6520646520636F6D
310
6D756E69636174696F6E20726164696F0000000000000A5F49736F6C6174696F6E020000000949736F6C6174696F6E0000000000000B5F50617973616769736D65020000000A50617973616769736D650000000000000A5F5465787465506C616E020000001254657874652064616E73206C6520706C616E0000000000000F
310
5F456C656D656E74506F7274657572020000000F456CE96D656E7420706F72746575720000000000000C5F4C6162656C506F7465617502000000154C6162656C73206772696C6C6520706F7465617578000000000000095F436F746174696F6E0200000008436F746174696F6E0000000000000C5F456C6563747269636974
310
E9020000000B456C6563747269636974E90000000000000E5F44E976656C6F7070656D656E74020000000D44E976656C6F7070656D656E740000000000000A5F56E9686963756C6573020000000956E9686963756C65730000000000000F5F4573706163655061797361676572020000001C45737061636520706179736167
310
657220284F70656E205350616365290000000000000D5F53656374696F6E4574616765020000000F53656374696F6E2064274574616765000000000000095F537572666163657302000000085375726661636573000000000000125F45746971756574746573506F7465617578020000001545746971756574746573206465
310
20706F7465617578000000000000075F44616C6C6573020000000644616C6C6573000000000000175F4574697175657474657347726F757065734169726573020000001D457469717565747465732064652067726F7570657320642761697265730000000000000E5F546578746552E9766973696F6E020000001354657874
310
65206465732072E9766973696F6E73000000000000085F5370E96369616C020000000F4D6F6E74616765205370E96369616C000000000000085F4F6D627261676502000000074F6D6272616765000000000000065F416363E8730200000005416363E873000000000000065F506F7274650200000005506F72746500000000
310
0000085F436F75706532440200000009436F757065732032440000000000000B5F44616C6C6573546F6974020000000E44616C6C657320646520746F6974000000000000105F556E6974E9734D75725269646561750200000014556E6974E973206465206D75722D726964656175000000000000085F47E96EE972616C0200
310
00000747E96EE972616C0000000000001E5F496E666F726D6174696F6E50726F74656374696F6E496E63656E646965020000001E496E666F726D6174696F6E7320636F6E747265206C27696E63656E646965000000000000105F446973706F73697469665465727265020000001D446973706F7369746966206465206D6973
310
6520E0206C612074657272650000000000000C5F4368656D696E4361626C6502000000104368656D696E206465206361626C65200000000000000D5F436F6E64656E736174696F6E020000000C436F6E64656E736174696F6E000000000000085F4D6575626C657302000000074D6575626C65730000000000000D5F4F7267
310
616E69736174696F6E020000000C4F7267616E69736174696F6E0000000000000C5F436F7572616E74466F727402000000174369726375697420646520636F7572616E7420666F7274000000000000085F506F74656175780200000007506F7465617578000000000000055F52756573020000000452756573000000000000
310
085F506C61666F6E640200000007506C61666F6E640000000000000F5F4C69676E657342E274696D656E7402000000124C69676E65732064752062E274696D656E74000000000000145F5461626C65734E6F6D656E636C61747572657302000000165461626C6573206465206E6F6D656E636C61747572650000000000000E
310
5F53796D626F6C6544E97461696C020000001153796D626F6C652064652064E97461696C0000000000000C5F546F706F67726170686965020000000B546F706F67726170686965000000000000125F456C656D656E744E6F6E506F72746575720200000013456CE96D656E74206E6F6E20706F727465757200000000000008
310
5F45737061636573020000000745737061636573000000000000075F5265746F757202000000065265746F7572000000000000095F457363616C6965720200000008457363616C696572000000000000065F4169726573020000000541697265730000000000000E5F4772696C6C65506C61666F6E6402000000114772696C
310
6C6520646520706C61666F6E64000000000000075F52617374657202000000065261737465720000000000000C5F56656E74696C6174696F6E020000000B56656E74696C6174696F6E000000000000065F546578746502000000055465787465000000000000095F4D616368696E657302000000084D616368696E65730000
310
000000000B5F4F757665727475726573020000000A4F7576657274757265730000000000000D5F457370616365735665727473020000000D457370616365732076657274730000000000000B5F53616E697461697265730200000014417070617265696C732073616E69746169726573000000000000105F4D6575626C6553
310
616E69746169726502000000174D6575626C657320706F75722073616E697461697265730000000000000C5F436F757065566F6C756D65020000000F566F6C756D6520646520636F7570650000000000000F5F45636C6169726167654D7572616C020000000F45636C616972616765206D7572616C000000000000085F4368
310
656D696E7302000000074368656D696E730000000000000E5F426C6F637346656EEA74726573020000000E426C6F63732D66656EEA747265730000000000000D5F456CE9766174696F6E733244020000000D456CE9766174696F6E732032440000000000000A5F506C6F6D62657269650200000009506C6F6D626572696500
310
00000000000B5F417363656E7365757273020000000A417363656E7365757273000000000000055F417865730200000004417865730000000000000B5F54E96CE9766973696F6E020000000A54E96CE9766973696F6E000000000000085F4E6F757665617502000000074E6F7576656175000000000000095F456D65747465
310
75720200000008456D657474657572000000000000115F5374756374757265416363726F6368650200000016537472756374757265206427616363726F6368616765000000000000045F4561750200000003456175000000000000085F4361766974E97302000000074361766974E973000000000000075F4661E761646502
310
000000064661E7616465000000000000085F46656EEA747265020000000746656EEA7472650000000000000E5F436F6D6D756E69636174696F6E020000000D436F6D6D756E69636174696F6E000000000000125F5369676E616C69736174696F6E50617263020000001B5369676E616C69736174696F6E2045737061636573
310
2076657274730000000000000B5F54757961757465726965020000000A547579617574657269650000000000000E5F436F7572616E74466169626C6502000000194369726375697420646520636F7572616E7420666169626C65000000000000065F526F7574650200000005526F7574650000000000000B5F456175506F74
310
61626C65020000001252E9736561752065617520706F7461626C65000000000000095F43656E7472616C65020000000843656E7472616C65000000000000085F506C616E7465730200000007506C616E7465730000000000000E5F537472756374757265546F6974020000001153747275637475726520647520746F697400
310
00000000000C5F46656EEA747265546F6974020000000F46656EEA74726520646520746F69740000000000000E5F416C61726D654963656E6469650200000017416C61726D6520636F6E747265206C276963656E646965000000000000095F5472616E6368E96502000000085472616E6368E965000000000000075F52616D
310
706573020000000652616D706573000000000000065F436164726502000000054361647265000000000000165F457469717565747465734A616D626573466F726365020000001D45746971756574746573206465206A616D62657320646520666F726365000000000000115F436F6E746F75727342E274696D656E74020000
310
0014436F6E746F7572732064752062E274696D656E740000000000000B5F45746971756574746573020000000A457469717565747465730000000000000D5F486175746554656E73696F6E020000001452E9736561752068617574652074656E73696F6E0000000000000A5F496E74E972696575720200000009496E74E972
310
69657572000000000000115F4D61737365456CE96D656E746169726502000000114D6173736520E96CE96D656E74616972650000000000000D5F47726F7570654D6173736573020000001047726F757065206465204D61737365730000000000000C5F5175616E74697461746966020000000B5175616E7469746174696600
310
00000000000C5F53796D626F6C65506C616E020000001453796D626F6C652064616E73206C6520706C616E000000000000095F5061726B696E677302000000085061726B696E67730000000000000C5F4571756970656D656E7473020000000B4571756970656D656E74730000000000000E5F436F6E66696775726174696F
310
6E020000000D436F6E66696775726174696F6E000000000000085F526570E87265730200000007526570E8726573000000000000075F43616DE97261020000000643616DE97261000000000000065F5472616D6502000000055472616D650000000000000C5F526570E87265436F757065020000000F526570E87265206465
310
20636F7570650000000000000A5F54E96CE970686F6E65020000000954E96CE970686F6E650000000000000C5F4A616D626573466F726365020000000F4A616D62657320646520666F726365000000000000085F44E96D6F6C6972020000000744E96D6F6C69720000000000000A5F46696E6974696F6E7302000000094669
310
6E6974696F6E730000000000001D5F446973706F73697469667350726F74656374696F6E4963656E646965020000001B50726F74656374696F6E20636F6E747265206C276963656E646965000000000000065F546F6974730200000005546F6974730000000000000D5F52E973656175446F6E6EE965020000001052E97365
310
617520646520646F6E6EE9650000000000000B5F436F7576657274757265020000000A436F75766572747572650000000000000A5F4DE963616E69736D6502000000094DE963616E69736D650000000000000E5F45617550756C76E9726973E965020000000E4561752070756C76E9726973E965000000000000105F537973
310
74E86D65436F6E7472F46C65020000001353797374E86D6520646520636F6E7472F46C65000000000000095F436F6E746F7572730200000008436F6E746F757273000000000000018009436F6E74656E75203203000000004164642062656C6F77207468652073656C6563746564206974656D000400075F44697665727302
310
00000006446976657273000000000000085F47E96EE972616C020000000747E96EE972616C000000000000075F41757472657302000000064175747265730000000000000C5F416E6E6F746174696F6E73020000000B416E6E6F746174696F6E730000000000000300FFFF04001A004163416563556B4C61796572436F6D70
310
6F6E656E744669656C640B526573706F6E7361626C6501000000012A000000000100000000014100000000058009436F6E74656E75203120000000025F2A00000000000000005F055F4D75727300000000058009436F6E74656E75203220000000025F2A01000000000000005F025F2000000000020000010200064144543A
310
2020012F0028
  0
XRECORD
  5
A79
102
{ACAD_REACTORS
330
A78
102
}
330
A78
100
AcDbXrecord
280
     1
102
SHADEPLOT
 70
     0
102
SHADEPLOTRESLEVEL
 70
     2
102
SHADEPLOTCUSTOMDPI
 70
   300
  0
XRECORD
  5
A7B
102
{ACAD_REACTORS
330
A7A
102
}
330
A7A
100
AcDbXrecord
280
     1
102
SHADEPLOT
 70
     0
102
SHADEPLOTRESLEVEL
 70
     2
102
SHADEPLOTCUSTOMDPI
 70
   300
  0
ENDSEC
  0
EOF
