  0
SECTION
  2
HEADER
  9
$ACADVER
  1
AC1014
  9
$ACADMAINTVER
 70
     9
  9
$DWGCODEPAGE
  3
ANSI_1252
  9
$INSBASE
 10
0.0
 20
0.0
 30
0.0
  9
$EXTMIN
 10
-0.8999999999999984
 20
-23.42714090963542
 30
0.0
  9
$EXTMAX
 10
73.83938085098748
 20
38.75303785645971
 30
0.0
  9
$LIMMIN
 10
0.0
 20
0.0
  9
$LIMMAX
 10
420.0
 20
297.0
  9
$ORTHOMODE
 70
     1
  9
$REGENMODE
 70
     1
  9
$FILLMODE
 70
     1
  9
$QTEXTMODE
 70
     0
  9
$MIRRTEXT
 70
     1
  9
$DRAGMODE
 70
     2
  9
$LTSCALE
 40
1.0
  9
$OSMODE
 70
   167
  9
$ATTMODE
 70
     1
  9
$TEXTSIZE
 40
2.5
  9
$TRACEWID
 40
1.0
  9
$TEXTSTYLE
  7
STANDARD
  9
$CLAYER
  8
0
  9
$CELTYPE
  6
BYLAYER
  9
$CECOLOR
 62
   256
  9
$CELTSCALE
 40
1.0
  9
$DELOBJ
 70
     1
  9
$DISPSILH
 70
     0
  9
$DIMSCALE
 40
1.0
  9
$DIMASZ
 40
2.5
  9
$DIMEXO
 40
0.625
  9
$DIMDLI
 40
3.75
  9
$DIMRND
 40
0.0
  9
$DIMDLE
 40
0.0
  9
$DIMEXE
 40
1.25
  9
$DIMTP
 40
0.0
  9
$DIMTM
 40
0.0
  9
$DIMTXT
 40
2.5
  9
$DIMCEN
 40
2.5
  9
$DIMTSZ
 40
0.0
  9
$DIMTOL
 70
     0
  9
$DIMLIM
 70
     0
  9
$DIMTIH
 70
     0
  9
$DIMTOH
 70
     0
  9
$DIMSE1
 70
     0
  9
$DIMSE2
 70
     0
  9
$DIMTAD
 70
     1
  9
$DIMZIN
 70
     8
  9
$DIMBLK
  1

  9
$DIMASO
 70
     1
  9
$DIMSHO
 70
     1
  9
$DIMPOST
  1

  9
$DIMAPOST
  1

  9
$DIMALT
 70
     0
  9
$DIMALTD
 70
     4
  9
$DIMALTF
 40
0.0394
  9
$DIMLFAC
 40
1.0
  9
$DIMTOFL
 70
     1
  9
$DIMTVP
 40
0.0
  9
$DIMTIX
 70
     0
  9
$DIMSOXD
 70
     0
  9
$DIMSAH
 70
     0
  9
$DIMBLK1
  1

  9
$DIMBLK2
  1

  9
$DIMSTYLE
  2
STANDARD
  9
$DIMCLRD
 70
     0
  9
$DIMCLRE
 70
     0
  9
$DIMCLRT
 70
     0
  9
$DIMTFAC
 40
1.0
  9
$DIMGAP
 40
0.625
  9
$DIMJUST
 70
     0
  9
$DIMSD1
 70
     0
  9
$DIMSD2
 70
     0
  9
$DIMTOLJ
 70
     1
  9
$DIMTZIN
 70
     0
  9
$DIMALTZ
 70
     0
  9
$DIMALTTZ
 70
     0
  9
$DIMFIT
 70
     3
  9
$DIMUPT
 70
     0
  9
$DIMUNIT
 70
     8
  9
$DIMDEC
 70
     4
  9
$DIMTDEC
 70
     4
  9
$DIMALTU
 70
     8
  9
$DIMALTTD
 70
     4
  9
$DIMTXSTY
  7
STANDARD
  9
$DIMAUNIT
 70
     0
  9
$LUNITS
 70
     2
  9
$LUPREC
 70
     4
  9
$SKETCHINC
 40
1.0
  9
$FILLETRAD
 40
0.0
  9
$AUNITS
 70
     0
  9
$AUPREC
 70
     0
  9
$MENU
  1
.
  9
$ELEVATION
 40
0.0
  9
$PELEVATION
 40
0.0
  9
$THICKNESS
 40
0.0
  9
$LIMCHECK
 70
     0
  9
$BLIPMODE
 70
     0
  9
$CHAMFERA
 40
10.0
  9
$CHAMFERB
 40
10.0
  9
$CHAMFERC
 40
20.0
  9
$CHAMFERD
 40
0.0
  9
$SKPOLY
 70
     0
  9
$TDCREATE
 40
2451245.818575404
  9
$TDUPDATE
 40
2452284.467223090
  9
$TDINDWG
 40
0.0479648727
  9
$TDUSRTIMER
 40
0.0479648727
  9
$USRTIMER
 70
     1
  9
$ANGBASE
 50
0.0
  9
$ANGDIR
 70
     0
  9
$PDMODE
 70
     0
  9
$PDSIZE
 40
0.0
  9
$PLINEWID
 40
0.0
  9
$COORDS
 70
     0
  9
$SPLFRAME
 70
     0
  9
$SPLINETYPE
 70
     6
  9
$SPLINESEGS
 70
     8
  9
$ATTDIA
 70
     0
  9
$ATTREQ
 70
     1
  9
$HANDLING
 70
 22529
  9
$HANDSEED
  5
B5C
  9
$SURFTAB1
 70
     6
  9
$SURFTAB2
 70
     6
  9
$SURFTYPE
 70
     6
  9
$SURFU
 70
     6
  9
$SURFV
 70
     6
  9
$UCSNAME
  2

  9
$UCSORG
 10
0.0
 20
0.0
 30
0.0
  9
$UCSXDIR
 10
1.0
 20
0.0
 30
0.0
  9
$UCSYDIR
 10
0.0
 20
1.0
 30
0.0
  9
$PUCSNAME
  2

  9
$PUCSORG
 10
0.0
 20
0.0
 30
0.0
  9
$PUCSXDIR
 10
1.0
 20
0.0
 30
0.0
  9
$PUCSYDIR
 10
0.0
 20
1.0
 30
0.0
  9
$USERI1
 70
     0
  9
$USERI2
 70
     0
  9
$USERI3
 70
     0
  9
$USERI4
 70
     0
  9
$USERI5
 70
     0
  9
$USERR1
 40
0.0
  9
$USERR2
 40
0.0
  9
$USERR3
 40
0.0
  9
$USERR4
 40
0.0
  9
$USERR5
 40
0.0
  9
$WORLDVIEW
 70
     1
  9
$SHADEDGE
 70
     3
  9
$SHADEDIF
 70
    70
  9
$TILEMODE
 70
     1
  9
$MAXACTVP
 70
    48
  9
$PINSBASE
 10
0.0
 20
0.0
 30
0.0
  9
$PLIMCHECK
 70
     0
  9
$PEXTMIN
 10
1.000000000000000E+20
 20
1.000000000000000E+20
 30
1.000000000000000E+20
  9
$PEXTMAX
 10
-1.000000000000000E+20
 20
-1.000000000000000E+20
 30
-1.000000000000000E+20
  9
$PLIMMIN
 10
0.0
 20
0.0
  9
$PLIMMAX
 10
420.0
 20
297.0
  9
$UNITMODE
 70
     0
  9
$VISRETAIN
 70
     1
  9
$PLINEGEN
 70
     0
  9
$PSLTSCALE
 70
     1
  9
$TREEDEPTH
 70
  3020
  9
$PICKSTYLE
 70
     1
  9
$CMLSTYLE
  2
STANDARD
  9
$CMLJUST
 70
     0
  9
$CMLSCALE
 40
20.0
  9
$PROXYGRAPHICS
 70
     1
  9
$MEASUREMENT
 70
     1
  0
ENDSEC
  0
SECTION
  2
CLASSES
  0
CLASS
  1
LWPOLYLINE
  2
AcDbPolyline
  3
AutoCAD 2000
 90
        0
280
     0
281
     1
  0
CLASS
  1
ACDBDICTIONARYWDFLT
  2
AcDbDictionaryWithDefault
  3
AutoCAD 2000
 90
        0
280
     0
281
     0
  0
CLASS
  1
ACDBPLACEHOLDER
  2
AcDbPlaceHolder
  3
AutoCAD 2000
 90
        0
280
     0
281
     0
  0
CLASS
  1
LAYOUT
  2
AcDbLayout
  3
AutoCAD 2000
 90
        0
280
     0
281
     0
  0
CLASS
  1
DICTIONARYVAR
  2
AcDbDictionaryVar
  3
AutoCAD 2000
 90
        0
280
     0
281
     0
  0
CLASS
  1
LONG_TRANSACTION
  2
AcDbLongTransaction
  3
AutoCAD 2000
 90
        0
280
     0
281
     0
  0
CLASS
  1
LWPOLYLINE
  2
AcDbPolyline
  3
AutoCAD 2000
 90
        0
280
     0
281
     1
  0
CLASS
  1
HATCH
  2
AcDbHatch
  3
AutoCAD 2000
 90
        0
280
     0
281
     1
  0
CLASS
  1
XRECORD
  2
AcDbXrecord
  3
AutoCAD 2000
 90
        0
280
     0
281
     0
  0
ENDSEC
  0
SECTION
  2
TABLES
  0
TABLE
  2
VPORT
  5
8
330
0
100
AcDbSymbolTable
 70
     3
  0
VPORT
  5
B36
330
8
100
AcDbSymbolTableRecord
100
AcDbViewportTableRecord
  2
*ACTIVE
 70
     0
 10
0.0
 20
0.0
 11
1.0
 21
1.0
 12
34.33771437642126
 22
7.670356501892243
 13
0.0
 23
0.0
 14
10.0
 24
10.0
 15
10.0
 25
10.0
 16
0.0
 26
0.0
 36
1.0
 17
0.0
 27
0.0
 37
0.0
 40
76.72137586107877
 41
1.828516377649325
 42
50.0
 43
0.0
 44
0.0
 50
0.0
 51
0.0
 71
     0
 72
   100
 73
     1
 74
     1
 75
     0
 76
     0
 77
     0
 78
     0
  0
ENDTAB
  0
TABLE
  2
LTYPE
  5
5
330
0
100
AcDbSymbolTable
 70
     1
  0
LTYPE
  5
12
330
5
100
AcDbSymbolTableRecord
100
AcDbLinetypeTableRecord
  2
BYBLOCK
 70
     0
  3

 72
    65
 73
     0
 40
0.0
  0
LTYPE
  5
13
330
5
100
AcDbSymbolTableRecord
100
AcDbLinetypeTableRecord
  2
BYLAYER
 70
     0
  3

 72
    65
 73
     0
 40
0.0
  0
LTYPE
  5
14
330
5
100
AcDbSymbolTableRecord
100
AcDbLinetypeTableRecord
  2
CONTINUOUS
 70
     0
  3
Solid line
 72
    65
 73
     0
 40
0.0
  0
ENDTAB
  0
TABLE
  2
LAYER
  5
2
330
0
100
AcDbSymbolTable
 70
     5
  0
LAYER
  5
E
330
2
100
AcDbSymbolTableRecord
100
AcDbLayerTableRecord
  2
0
 70
     0
 62
     7
  6
CONTINUOUS
  0
LAYER
  5
FA
330
2
100
AcDbSymbolTableRecord
100
AcDbLayerTableRecord
  2
DEFPOINTS
 70
     0
 62
     7
  6
CONTINUOUS
  0
LAYER
  5
202
330
2
100
AcDbSymbolTableRecord
100
AcDbLayerTableRecord
  2
COTATION-JACOBDELAFON
 70
     0
 62
     8
  6
CONTINUOUS
  0
LAYER
  5
714
330
2
100
AcDbSymbolTableRecord
100
AcDbLayerTableRecord
  2
DIBUJO
 70
     0
 62
     9
  6
CONTINUOUS
  0
LAYER
  5
715
330
2
100
AcDbSymbolTableRecord
100
AcDbLayerTableRecord
  2
COTAS
 70
     0
 62
     3
  6
CONTINUOUS
  0
ENDTAB
  0
TABLE
  2
STYLE
  5
3
330
0
100
AcDbSymbolTable
 70
     2
  0
STYLE
  5
F
330
3
100
AcDbSymbolTableRecord
100
AcDbTextStyleTableRecord
  2
STANDARD
 70
     0
 40
0.0
 41
1.0
 50
0.0
 71
     0
 42
2.5
  3
txt
  4

  0
STYLE
  5
203
330
3
100
AcDbSymbolTableRecord
100
AcDbTextStyleTableRecord
  2
JACOB-DELAFON
 70
     0
 40
0.0
 41
1.0
 50
0.0
 71
     0
 42
2.5
  3
ARIAL.TTF
  4

1001
ACAD
1000
Arial
1071
       34
  0
ENDTAB
  0
TABLE
  2
VIEW
  5
6
330
0
100
AcDbSymbolTable
 70
     0
  0
ENDTAB
  0
TABLE
  2
UCS
  5
7
330
0
100
AcDbSymbolTable
 70
     0
  0
ENDTAB
  0
TABLE
  2
APPID
  5
9
330
0
100
AcDbSymbolTable
 70
     1
  0
APPID
  5
10
330
9
100
AcDbSymbolTableRecord
100
AcDbRegAppTableRecord
  2
ACAD
 70
     0
  0
ENDTAB
  0
TABLE
  2
DIMSTYLE
  5
A
330
0
100
AcDbSymbolTable
 70
     2
  0
DIMSTYLE
105
1D
330
A
100
AcDbSymbolTableRecord
100
AcDbDimStyleTableRecord
  2
STANDARD
 70
     0
  3

  4

  5

  6

  7

 40
1.0
 41
0.18
 42
0.0625
 43
0.38
 44
0.18
 45
0.0
 46
0.0
 47
0.0
 48
0.0
140
0.18
141
0.09
142
0.0
143
25.4
144
1.0
145
0.0
146
1.0
147
0.09
 71
     0
 72
     0
 73
     1
 74
     1
 75
     0
 76
     0
 77
     0
 78
     0
170
     0
171
     2
172
     0
173
     0
174
     0
175
     0
176
     0
177
     0
178
     0
270
     2
271
     4
272
     4
273
     2
274
     2
340
F
275
     0
280
     0
281
     0
282
     0
283
     1
284
     0
285
     0
286
     0
287
     3
288
     0
  0
DIMSTYLE
105
204
102
{ACAD_REACTORS
330
535
330
4FF
102
}
330
A
100
AcDbSymbolTableRecord
100
AcDbDimStyleTableRecord
  2
COTATION-JACOB-DELAFON
 70
     0
  3

  4

  5
OBLIQUE
  6

  7

 40
1.0
 41
1.8
 42
0.625
 43
3.799999999999999
 44
1.8
 45
0.0
 46
0.0
 47
0.0
 48
0.0
140
3.0
141
0.9
142
0.0
143
25.4
144
1.0
145
0.0
146
1.0
147
0.9
 71
     0
 72
     0
 73
     0
 74
     0
 75
     0
 76
     0
 77
     1
 78
    12
170
     0
171
     2
172
     0
173
     0
174
     0
175
     0
176
     0
177
     0
178
     0
270
     2
271
     2
272
     2
273
     2
274
     2
340
203
275
     0
280
     0
281
     0
282
     0
283
     1
284
     0
285
     0
286
     0
287
     5
288
     0
  0
ENDTAB
  0
TABLE
  2
BLOCK_RECORD
  5
1
330
0
100
AcDbSymbolTable
 70
     5
  0
BLOCK_RECORD
  5
18
102
{ACAD_XDICTIONARY
360
B5A
102
}
330
1
100
AcDbSymbolTableRecord
100
AcDbBlockTableRecord
  2
*MODEL_SPACE
  0
BLOCK_RECORD
  5
15
102
{ACAD_XDICTIONARY
360
B58
102
}
330
1
100
AcDbSymbolTableRecord
100
AcDbBlockTableRecord
  2
*PAPER_SPACE
  0
BLOCK_RECORD
  5
1F2
330
1
100
AcDbSymbolTableRecord
100
AcDbBlockTableRecord
  2
_OBLIQUE
  0
BLOCK_RECORD
  5
500
330
1
100
AcDbSymbolTableRecord
100
AcDbBlockTableRecord
  2
*D1
  0
BLOCK_RECORD
  5
536
330
1
100
AcDbSymbolTableRecord
100
AcDbBlockTableRecord
  2
*D2
  0
ENDTAB
  0
ENDSEC
  0
SECTION
  2
BLOCKS
  0
BLOCK
  5
19
330
18
100
AcDbEntity
  8
0
100
AcDbBlockBegin
  2
*MODEL_SPACE
 70
     0
 10
0.0
 20
0.0
 30
0.0
  3
*MODEL_SPACE
  1

  0
ENDBLK
  5
1A
330
18
100
AcDbEntity
  8
0
100
AcDbBlockEnd
  0
BLOCK
  5
16
330
15
100
AcDbEntity
 67
     1
  8
0
100
AcDbBlockBegin
  2
*PAPER_SPACE
 70
     0
 10
0.0
 20
0.0
 30
0.0
  3
*PAPER_SPACE
  1

  0
ENDBLK
  5
17
330
15
100
AcDbEntity
 67
     1
  8
0
100
AcDbBlockEnd
  0
BLOCK
  5
1F4
330
1F2
100
AcDbEntity
  8
0
100
AcDbBlockBegin
  2
_OBLIQUE
 70
     0
 10
0.0
 20
0.0
 30
0.0
  3
_OBLIQUE
  1

  0
LINE
  5
1F3
330
1F2
100
AcDbEntity
  8
0
  6
BYBLOCK
 62
     0
100
AcDbLine
 10
-0.5
 20
-0.5
 30
0.0
 11
0.5
 21
0.5
 31
0.0
  0
ENDBLK
  5
1F5
330
1F2
100
AcDbEntity
  8
0
100
AcDbBlockEnd
  0
BLOCK
  5
50A
330
500
100
AcDbEntity
  8
0
100
AcDbBlockBegin
  2
*D1
 70
     1
 10
0.0
 20
0.0
 30
0.0
  3
*D1
  1

  0
LINE
  5
AF2
330
500
100
AcDbEntity
  8
COTATION-JACOBDELAFON
 62
     0
100
AcDbLine
 10
0.0000000000000013
 20
21.96401163478421
 30
0.0
 11
0.0000000000000019
 21
30.68185353143368
 31
0.0
  0
LINE
  5
AF3
330
500
100
AcDbEntity
  8
COTATION-JACOBDELAFON
 62
     0
100
AcDbLine
 10
33.5
 20
21.96401163478418
 30
0.0
 11
33.5
 21
30.68185353143368
 31
0.0
  0
LINE
  5
AF4
330
500
100
AcDbEntity
  8
COTATION-JACOBDELAFON
 62
     0
100
AcDbLine
 10
0.0000000000000018
 20
28.88185353143368
 30
0.0
 11
33.5
 21
28.88185353143368
 31
0.0
  0
INSERT
  5
AF5
330
500
100
AcDbEntity
  8
COTATION-JACOBDELAFON
 62
     0
100
AcDbBlockReference
  2
_OBLIQUE
 10
0.0000000000000018
 20
28.88185353143368
 30
0.0
 41
1.8
 42
1.8
 43
1.8
 50
180.0
  0
INSERT
  5
AF6
330
500
100
AcDbEntity
  8
COTATION-JACOBDELAFON
 62
     0
100
AcDbBlockReference
  2
_OBLIQUE
 10
33.5
 20
28.88185353143368
 30
0.0
 41
1.8
 42
1.8
 43
1.8
  0
MTEXT
  5
AF7
330
500
100
AcDbEntity
  8
COTATION-JACOBDELAFON
 62
     0
100
AcDbMText
 10
16.75
 20
31.31459568695892
 30
0.0
 40
3.0
 41
0.0
 71
     5
 72
     1
  1
\A1;33.5
  7
JACOB-DELAFON
1001
ACAD
1000
MTEXTBEGIN
1070
    73
1070
     1
1070
    44
1040
1.0
1070
    74
1070
     0
1000
MTEXTEND
  0
POINT
  5
AF8
330
500
100
AcDbEntity
  8
DEFPOINTS
 62
     0
100
AcDbPoint
 10
0.0000000000000013
 20
21.33901163478421
 30
0.0
  0
POINT
  5
AF9
330
500
100
AcDbEntity
  8
DEFPOINTS
 62
     0
100
AcDbPoint
 10
33.5
 20
21.33901163478418
 30
0.0
  0
POINT
  5
AFA
330
500
100
AcDbEntity
  8
DEFPOINTS
 62
     0
100
AcDbPoint
 10
33.5
 20
28.88185353143368
 30
0.0
  0
ENDBLK
  5
50B
330
500
100
AcDbEntity
  8
0
100
AcDbBlockEnd
  0
BLOCK
  5
540
330
536
100
AcDbEntity
  8
0
100
AcDbBlockBegin
  2
*D2
 70
     1
 10
0.0
 20
0.0
 30
0.0
  3
*D2
  1

  0
LINE
  5
ADB
330
536
100
AcDbEntity
  8
COTATION-JACOBDELAFON
 62
     0
100
AcDbLine
 10
34.125
 20
22.47285909036457
 30
0.0
 11
44.65178443169595
 21
22.47285909036457
 31
0.0
  0
LINE
  5
ADC
330
536
100
AcDbEntity
  8
COTATION-JACOBDELAFON
 62
     0
100
AcDbLine
 10
34.125
 20
-22.52714090963542
 30
0.0
 11
44.65178443169594
 21
-22.52714090963542
 31
0.0
  0
LINE
  5
ADD
330
536
100
AcDbEntity
  8
COTATION-JACOBDELAFON
 62
     0
100
AcDbLine
 10
42.85178443169594
 20
22.47285909036457
 30
0.0
 11
42.85178443169593
 21
-22.52714090963542
 31
0.0
  0
INSERT
  5
ADE
330
536
100
AcDbEntity
  8
COTATION-JACOBDELAFON
 62
     0
100
AcDbBlockReference
  2
_OBLIQUE
 10
42.85178443169594
 20
22.47285909036457
 30
0.0
 41
1.8
 42
1.8
 43
1.8
 50
90.0
  0
INSERT
  5
ADF
330
536
100
AcDbEntity
  8
COTATION-JACOBDELAFON
 62
     0
100
AcDbBlockReference
  2
_OBLIQUE
 10
42.85178443169593
 20
-22.52714090963542
 30
0.0
 41
1.8
 42
1.8
 43
1.8
 50
270.0
  0
MTEXT
  5
AE0
330
536
100
AcDbEntity
  8
COTATION-JACOBDELAFON
 62
     0
100
AcDbMText
 10
40.42620462269185
 20
-0.0271409096354157
 30
0.0
 40
3.0
 41
0.0
 71
     5
 72
     1
  1
\A1;45
  7
JACOB-DELAFON
 11
0.0000000000000001
 21
1.0
 31
0.0
1001
ACAD
1000
MTEXTBEGIN
1070
    73
1070
     1
1070
    44
1040
1.0
1070
    74
1070
     0
1000
MTEXTEND
  0
POINT
  5
AE1
330
536
100
AcDbEntity
  8
DEFPOINTS
 62
     0
100
AcDbPoint
 10
33.5
 20
22.47285909036457
 30
0.0
  0
POINT
  5
AE2
330
536
100
AcDbEntity
  8
DEFPOINTS
 62
     0
100
AcDbPoint
 10
33.5
 20
-22.52714090963542
 30
0.0
  0
POINT
  5
AE3
330
536
100
AcDbEntity
  8
DEFPOINTS
 62
     0
100
AcDbPoint
 10
42.85178443169593
 20
-22.52714090963542
 30
0.0
  0
ENDBLK
  5
541
330
536
100
AcDbEntity
  8
0
100
AcDbBlockEnd
  0
ENDSEC
  0
SECTION
  2
ENTITIES
  0
ELLIPSE
  5
227
330
18
100
AcDbEntity
  8
0
100
AcDbEllipse
 10
17.58762057955813
 20
-0.0271409096354205
 30
0.0
 11
-0.0000000000000014
 21
-22.5
 31
0.0
210
0.0
220
0.0
230
1.0
 40
0.7072168631307494
 41
0.0
 42
6.283185307179586
  0
CIRCLE
  5
231
330
18
100
AcDbEntity
  8
0
100
AcDbCircle
 10
10.28146533679443
 20
0.0
 30
0.0
 40
2.25
  0
CIRCLE
  5
236
330
18
100
AcDbEntity
  8
0
100
AcDbCircle
 10
8.5
 20
-12.99999999999997
 30
0.0
 40
1.75
  0
DIMENSION
  5
4FF
330
18
100
AcDbEntity
  8
COTATION-JACOBDELAFON
100
AcDbDimension
  2
*D1
 10
33.5
 20
28.88185353143368
 30
0.0
 11
16.75
 21
31.31459568695892
 31
0.0
 70
    32
  3
COTATION-JACOB-DELAFON
100
AcDbAlignedDimension
 13
0.0000000000000013
 23
21.33901163478421
 33
0.0
 14
33.5
 24
21.33901163478418
 34
0.0
 50
180.0
100
AcDbRotatedDimension
  0
CIRCLE
  5
523
330
18
100
AcDbEntity
  8
0
100
AcDbCircle
 10
10.28146533679443
 20
0.0
 30
0.0
 40
2.75
  0
LINE
  5
525
330
18
100
AcDbEntity
  8
0
100
AcDbLine
 10
10.26067298800337
 20
-19.99999999999997
 30
0.0
 11
-0.0000000000000012
 21
-19.99999999999997
 31
0.0
  0
LINE
  5
526
330
18
100
AcDbEntity
  8
0
100
AcDbLine
 10
-0.0000000000000012
 20
-19.99999999999997
 30
0.0
 11
0.0000000000000012
 21
19.99999999999997
 31
0.0
  0
LINE
  5
529
330
18
100
AcDbEntity
  8
0
100
AcDbLine
 10
10.26067298800338
 20
20.00000000000003
 30
0.0
 11
0.0000000000000012
 21
19.99999999999997
 31
0.0
  0
DIMENSION
  5
535
330
18
100
AcDbEntity
  8
COTATION-JACOBDELAFON
100
AcDbDimension
  2
*D2
 10
42.85178443169593
 20
-22.52714090963542
 30
0.0
 11
40.42620462269185
 21
-0.0271409096354157
 31
0.0
 70
    32
  3
COTATION-JACOB-DELAFON
100
AcDbAlignedDimension
 13
33.5
 23
22.47285909036457
 33
0.0
 14
33.5
 24
-22.52714090963542
 34
0.0
 50
90.0
100
AcDbRotatedDimension
  0
ARC
  5
54B
330
18
100
AcDbEntity
  8
0
100
AcDbCircle
 10
17.65915793599977
 20
11.01900233483499
 30
0.0
 40
9.67676666805411
100
AcDbArc
 50
47.39712323309832
 51
128.8188539284167
  0
ARC
  5
553
330
18
100
AcDbEntity
  8
0
100
AcDbCircle
 10
24.88532159057912
 20
5.185904891572988
 30
0.0
 40
19.38532203957975
100
AcDbArc
 50
159.4433229899351
 51
218.2414119039723
  0
ARC
  5
554
330
18
100
AcDbEntity
  8
0
100
AcDbCircle
 10
21.68696800739926
 20
6.008095668898704
 30
0.0
 40
16.10579726219824
100
AcDbArc
 50
128.808382649406
 51
158.1866839117917
  0
ARC
  5
55D
330
18
100
AcDbEntity
  8
0
100
AcDbCircle
 10
15.31161423893505
 20
5.908611497039146
 30
0.0
 40
15.12682737632588
100
AcDbArc
 50
40.73173165667693
 51
53.96934617999595
  0
ARC
  5
56C
330
18
100
AcDbEntity
  8
0
100
AcDbCircle
 10
9.79862414723955
 20
4.347370688328737
 30
0.0
 40
20.6963880610705
100
AcDbArc
 50
324.675354617281
 51
24.12190789452187
  0
ARC
  5
56D
330
18
100
AcDbEntity
  8
0
100
AcDbCircle
 10
15.87616684198803
 20
6.663958510628418
 30
0.0
 40
14.20761161412289
100
AcDbArc
 50
25.61204969111962
 51
39.9090186994614
  0
ARC
  5
56E
330
18
100
AcDbEntity
  8
0
100
AcDbCircle
 10
18.56350445550317
 20
-3.633019672802589
 30
0.0
 40
8.671208732680639
100
AcDbArc
 50
236.7452901399424
 51
309.250062210494
  0
ARC
  5
56F
330
18
100
AcDbEntity
  8
0
100
AcDbCircle
 10
11.39699226666512
 20
4.506615685058051
 30
0.0
 40
19.51286733705842
100
AcDbArc
 50
310.4237626128778
 51
321.5786370226833
  0
ARC
  5
570
330
18
100
AcDbEntity
  8
0
100
AcDbCircle
 10
21.11549294356422
 20
0.7112794975141413
 30
0.0
 40
13.705750618621
100
AcDbArc
 50
213.298291185734
 51
237.7828049536435
  0
ENDSEC
  0
SECTION
  2
OBJECTS
  0
DICTIONARY
  5
C
330
0
100
AcDbDictionary
  3
ACAD_GROUP
350
D
  3
ACAD_LAYOUT
350
1EC
  3
ACAD_MLINESTYLE
350
1B
  3
ACAD_PLOTSETTINGS
350
1ED
  3
ACAD_PLOTSTYLENAME
350
1EA
  3
ACDBHEADERROUNDTRIPXREC
350
B37
  3
ACDBVARIABLEDICTIONARY
350
B34
  3
AEC_PROPERTY_SET_DEFS
350
209
  0
DICTIONARY
  5
B5A
330
18
100
AcDbDictionary
280
     1
  3
ACAD_LAYOUTSELFREF
360
B5B
  0
DICTIONARY
  5
B58
330
15
100
AcDbDictionary
280
     1
  3
ACAD_LAYOUTSELFREF
360
B59
  0
DICTIONARY
  5
D
102
{ACAD_REACTORS
330
C
102
}
330
C
100
AcDbDictionary
  0
DICTIONARY
  5
1EC
102
{ACAD_REACTORS
330
C
102
}
330
C
100
AcDbDictionary
  0
DICTIONARY
  5
1B
102
{ACAD_REACTORS
330
C
102
}
330
C
100
AcDbDictionary
  3
STANDARD
350
1C
  0
DICTIONARY
  5
1ED
102
{ACAD_REACTORS
330
C
102
}
330
C
100
AcDbDictionary
  0
ACDBDICTIONARYWDFLT
  5
1EA
102
{ACAD_REACTORS
330
C
102
}
330
C
100
AcDbDictionary
281
     1
  3
Normal
350
1EB
100
AcDbDictionaryWithDefault
340
1EB
  0
DICTIONARY
  5
B37
102
{ACAD_REACTORS
330
C
102
}
330
C
100
AcDbDictionary
  3
CEPSNTYPE
350
B41
  3
DIMSTYLEDATA
350
B45
  3
FINGERPRINTGUID
350
B42
  3
HYPERLINKBASE
350
B3A
  3
INSUNITS
350
B40
  3
LAYOUTDICT
350
B3C
  3
LWETCUNION
350
B3F
  3
PLOTSETDICT
350
B3D
  3
PLOTSTYLNAMDICT
350
B3E
  3
PSVPSCALE
350
B44
  3
PUCSBASE
350
B48
  3
PUCSORGBACK
350
B4E
  3
PUCSORGBOTTOM
350
B4A
  3
PUCSORGFRONT
350
B4D
  3
PUCSORGLEFT
350
B4B
  3
PUCSORGRIGHT
350
B4C
  3
PUCSORGTOP
350
B49
  3
PUCSORTHOREF
350
B46
  3
PUCSORTHOVIEW
350
B47
  3
STYLESHEET
350
B3B
  3
TSTACKALIGN
350
B38
  3
TSTACKSIZE
350
B39
  3
UCSBASE
350
B51
  3
UCSORGBACK
350
B57
  3
UCSORGBOTTOM
350
B53
  3
UCSORGFRONT
350
B56
  3
UCSORGLEFT
350
B54
  3
UCSORGRIGHT
350
B55
  3
UCSORGTOP
350
B52
  3
UCSORTHOREF
350
B4F
  3
UCSORTHOVIEW
350
B50
  3
VERSIONGUID
350
B43
  0
DICTIONARY
  5
B34
102
{ACAD_REACTORS
330
C
102
}
330
C
100
AcDbDictionary
  3
DIMASSOC
350
B35
  0
DICTIONARY
  5
209
102
{ACAD_REACTORS
330
C
102
}
330
C
100
AcDbDictionary
  0
XRECORD
  5
B5B
102
{ACAD_REACTORS
330
B5A
102
}
330
B5A
100
AcDbXrecord
340
18
  0
XRECORD
  5
B59
102
{ACAD_REACTORS
330
B58
102
}
330
B58
100
AcDbXrecord
340
15
  0
MLINESTYLE
  5
1C
102
{ACAD_REACTORS
330
1B
102
}
330
1B
100
AcDbMlineStyle
  2
STANDARD
 70
     0
  3

 62
   256
 51
90.0
 52
90.0
 71
     2
 49
0.5
 62
   256
  6
BYLAYER
 49
-0.5
 62
   256
  6
BYLAYER
  0
ACDBPLACEHOLDER
  5
1EB
102
{ACAD_REACTORS
330
1EA
102
}
330
1EA
100
AcDbPlaceHolder
280
     0
  0
XRECORD
  5
B41
102
{ACAD_REACTORS
330
B37
102
}
330
B37
100
AcDbXrecord
 90
        0
  0
XRECORD
  5
B45
102
{ACAD_REACTORS
330
B37
102
}
330
B37
100
AcDbXrecord
1000
DSTYLE
1002
{
1070
   277
 70
     6
1002
}
  0
XRECORD
  5
B42
102
{ACAD_REACTORS
330
B37
102
}
330
B37
100
AcDbXrecord
  1
{D4232AA8-4221-4DCB-B1C7-A2797C77A966}
  0
XRECORD
  5
B3A
102
{ACAD_REACTORS
330
B37
102
}
330
B37
100
AcDbXrecord
  1

  0
XRECORD
  5
B40
102
{ACAD_REACTORS
330
B37
102
}
330
B37
100
AcDbXrecord
 90
        0
  0
XRECORD
  5
B3C
102
{ACAD_REACTORS
330
B37
102
}
330
B37
100
AcDbXrecord
340
1EC
  0
XRECORD
  5
B3F
102
{ACAD_REACTORS
330
B37
102
}
330
B37
100
AcDbXrecord
 90
    14877
  0
XRECORD
  5
B3D
102
{ACAD_REACTORS
330
B37
102
}
330
B37
100
AcDbXrecord
340
1ED
  0
XRECORD
  5
B3E
102
{ACAD_REACTORS
330
B37
102
}
330
B37
100
AcDbXrecord
340
1EA
  0
XRECORD
  5
B44
102
{ACAD_REACTORS
330
B37
102
}
330
B37
100
AcDbXrecord
 40
0.0
  0
XRECORD
  5
B48
102
{ACAD_REACTORS
330
B37
102
}
330
B37
100
AcDbXrecord
340
0
  0
XRECORD
  5
B4E
102
{ACAD_REACTORS
330
B37
102
}
330
B37
100
AcDbXrecord
 10
0.0
 20
0.0
 30
0.0
  0
XRECORD
  5
B4A
102
{ACAD_REACTORS
330
B37
102
}
330
B37
100
AcDbXrecord
 10
0.0
 20
0.0
 30
0.0
  0
XRECORD
  5
B4D
102
{ACAD_REACTORS
330
B37
102
}
330
B37
100
AcDbXrecord
 10
0.0
 20
0.0
 30
0.0
  0
XRECORD
  5
B4B
102
{ACAD_REACTORS
330
B37
102
}
330
B37
100
AcDbXrecord
 10
0.0
 20
0.0
 30
0.0
  0
XRECORD
  5
B4C
102
{ACAD_REACTORS
330
B37
102
}
330
B37
100
AcDbXrecord
 10
0.0
 20
0.0
 30
0.0
  0
XRECORD
  5
B49
102
{ACAD_REACTORS
330
B37
102
}
330
B37
100
AcDbXrecord
 10
0.0
 20
0.0
 30
0.0
  0
XRECORD
  5
B46
102
{ACAD_REACTORS
330
B37
102
}
330
B37
100
AcDbXrecord
340
0
  0
XRECORD
  5
B47
102
{ACAD_REACTORS
330
B37
102
}
330
B37
100
AcDbXrecord
 70
     0
  0
XRECORD
  5
B3B
102
{ACAD_REACTORS
330
B37
102
}
330
B37
100
AcDbXrecord
  1

  0
XRECORD
  5
B38
102
{ACAD_REACTORS
330
B37
102
}
330
B37
100
AcDbXrecord
 90
        1
  0
XRECORD
  5
B39
102
{ACAD_REACTORS
330
B37
102
}
330
B37
100
AcDbXrecord
 90
       70
  0
XRECORD
  5
B51
102
{ACAD_REACTORS
330
B37
102
}
330
B37
100
AcDbXrecord
340
0
  0
XRECORD
  5
B57
102
{ACAD_REACTORS
330
B37
102
}
330
B37
100
AcDbXrecord
 10
0.0
 20
0.0
 30
0.0
  0
XRECORD
  5
B53
102
{ACAD_REACTORS
330
B37
102
}
330
B37
100
AcDbXrecord
 10
0.0
 20
0.0
 30
0.0
  0
XRECORD
  5
B56
102
{ACAD_REACTORS
330
B37
102
}
330
B37
100
AcDbXrecord
 10
0.0
 20
0.0
 30
0.0
  0
XRECORD
  5
B54
102
{ACAD_REACTORS
330
B37
102
}
330
B37
100
AcDbXrecord
 10
0.0
 20
0.0
 30
0.0
  0
XRECORD
  5
B55
102
{ACAD_REACTORS
330
B37
102
}
330
B37
100
AcDbXrecord
 10
0.0
 20
0.0
 30
0.0
  0
XRECORD
  5
B52
102
{ACAD_REACTORS
330
B37
102
}
330
B37
100
AcDbXrecord
 10
0.0
 20
0.0
 30
0.0
  0
XRECORD
  5
B4F
102
{ACAD_REACTORS
330
B37
102
}
330
B37
100
AcDbXrecord
340
0
  0
XRECORD
  5
B50
102
{ACAD_REACTORS
330
B37
102
}
330
B37
100
AcDbXrecord
 70
     0
  0
XRECORD
  5
B43
102
{ACAD_REACTORS
330
B37
102
}
330
B37
100
AcDbXrecord
  1
{70EEF2D1-9C40-4D01-BF50-2677657FE3C3}
  0
DICTIONARYVAR
  5
B35
102
{ACAD_REACTORS
330
B34
102
}
330
B34
100
DictionaryVariables
280
     0
  1
1
  0
ENDSEC
  0
EOF
