  0
SECTION
  2
HEADER
  9
$ACADVER
  1
AC1021
  9
$ACADMAINTVER
 70
    50
  9
$DWGCODEPAGE
  3
ANSI_1252
  9
$LASTSAVEDBY
  1
François
  9
$INSBASE
 10
125.934949
 20
82.583417
 30
0.0
  9
$EXTMIN
 10
95.86416105962312
 20
81.68341699999999
 30
0.0
  9
$EXTMAX
 10
184.8191041831628
 20
143.8446250131222
 30
0.0
  9
$LIMMIN
 10
108.966648
 20
81.372466
  9
$LIMMAX
 10
185.133919
 20
131.879806
  9
$ORTHOMODE
 70
     0
  9
$REGENMODE
 70
     1
  9
$FILLMODE
 70
     1
  9
$QTEXTMODE
 70
     0
  9
$MIRRTEXT
 70
     1
  9
$LTSCALE
 40
1.0
  9
$ATTMODE
 70
     1
  9
$TEXTSIZE
 40
0.0
  9
$TRACEWID
 40
0.05
  9
$TEXTSTYLE
  7
Standard
  9
$CLAYER
  8
Cotation-JacobDelafon
  9
$CELTYPE
  6
Continuous
  9
$CECOLOR
 62
   256
  9
$CELTSCALE
 40
1.0
  9
$DISPSILH
 70
     0
  9
$DIMSCALE
 40
1.0
  9
$DIMASZ
 40
1.8
  9
$DIMEXO
 40
0.625
  9
$DIMDLI
 40
3.799999999999999
  9
$DIMRND
 40
0.0
  9
$DIMDLE
 40
0.0
  9
$DIMEXE
 40
1.8
  9
$DIMTP
 40
0.0
  9
$DIMTM
 40
0.0
  9
$DIMTXT
 40
3.0
  9
$DIMCEN
 40
0.9
  9
$DIMTSZ
 40
0.0
  9
$DIMTOL
 70
     0
  9
$DIMLIM
 70
     0
  9
$DIMTIH
 70
     0
  9
$DIMTOH
 70
     0
  9
$DIMSE1
 70
     0
  9
$DIMSE2
 70
     0
  9
$DIMTAD
 70
     1
  9
$DIMZIN
 70
    12
  9
$DIMBLK
  1
Oblique
  9
$DIMASO
 70
     1
  9
$DIMSHO
 70
     1
  9
$DIMPOST
  1

  9
$DIMAPOST
  1

  9
$DIMALT
 70
     0
  9
$DIMALTD
 70
     2
  9
$DIMALTF
 40
25.4
  9
$DIMLFAC
 40
1.0
  9
$DIMTOFL
 70
     0
  9
$DIMTVP
 40
0.0
  9
$DIMTIX
 70
     0
  9
$DIMSOXD
 70
     0
  9
$DIMSAH
 70
     0
  9
$DIMBLK1
  1

  9
$DIMBLK2
  1

  9
$DIMSTYLE
  2
Cotation-Jacob-Delafon
  9
$DIMCLRD
 70
     0
  9
$DIMCLRE
 70
     0
  9
$DIMCLRT
 70
     0
  9
$DIMTFAC
 40
1.0
  9
$DIMGAP
 40
0.9
  9
$DIMJUST
 70
     0
  9
$DIMSD1
 70
     0
  9
$DIMSD2
 70
     0
  9
$DIMTOLJ
 70
     1
  9
$DIMTZIN
 70
     0
  9
$DIMALTZ
 70
     0
  9
$DIMALTTZ
 70
     0
  9
$DIMUPT
 70
     0
  9
$DIMDEC
 70
     2
  9
$DIMTDEC
 70
     2
  9
$DIMALTU
 70
     2
  9
$DIMALTTD
 70
     2
  9
$DIMTXSTY
  7
Jacob-Delafon
  9
$DIMAUNIT
 70
     0
  9
$DIMADEC
 70
     0
  9
$DIMALTRND
 40
0.0
  9
$DIMAZIN
 70
     3
  9
$DIMDSEP
 70
    46
  9
$DIMATFIT
 70
     3
  9
$DIMFRAC
 70
     0
  9
$DIMLDRBLK
  1
Oblique
  9
$DIMLUNIT
 70
     2
  9
$DIMLWD
 70
    -2
  9
$DIMLWE
 70
    -2
  9
$DIMTMOVE
 70
     2
  9
$DIMFXL
 40
1.0
  9
$DIMFXLON
 70
     0
  9
$DIMJOGANG
 40
0.7853981633974483
  9
$DIMTFILL
 70
     0
  9
$DIMTFILLCLR
 70
     0
  9
$DIMARCSYM
 70
     0
  9
$DIMLTYPE
  6

  9
$DIMLTEX1
  6

  9
$DIMLTEX2
  6

  9
$LUNITS
 70
     2
  9
$LUPREC
 70
     4
  9
$SKETCHINC
 40
0.1
  9
$FILLETRAD
 40
0.0
  9
$AUNITS
 70
     0
  9
$AUPREC
 70
     0
  9
$MENU
  1
acad
  9
$ELEVATION
 40
0.0
  9
$PELEVATION
 40
0.0
  9
$THICKNESS
 40
0.0
  9
$LIMCHECK
 70
     0
  9
$CHAMFERA
 40
0.0
  9
$CHAMFERB
 40
0.0
  9
$CHAMFERC
 40
0.0
  9
$CHAMFERD
 40
0.0
  9
$SKPOLY
 70
     0
  9
$TDCREATE
 40
2454948.670027303
  9
$TDUCREATE
 40
2454948.586693970
  9
$TDUPDATE
 40
2455006.632249340
  9
$TDUUPDATE
 40
2455006.548916007
  9
$TDINDWG
 40
0.1558586458
  9
$TDUSRTIMER
 40
0.1558586458
  9
$USRTIMER
 70
     1
  9
$ANGBASE
 50
0.0
  9
$ANGDIR
 70
     0
  9
$PDMODE
 70
     0
  9
$PDSIZE
 40
0.0
  9
$PLINEWID
 40
0.0
  9
$SPLFRAME
 70
     0
  9
$SPLINETYPE
 70
     6
  9
$SPLINESEGS
 70
     8
  9
$HANDSEED
  5
39F
  9
$SURFTAB1
 70
     6
  9
$SURFTAB2
 70
     6
  9
$SURFTYPE
 70
     6
  9
$SURFU
 70
     6
  9
$SURFV
 70
     6
  9
$UCSBASE
  2

  9
$UCSNAME
  2

  9
$UCSORG
 10
0.0
 20
0.0
 30
0.0
  9
$UCSXDIR
 10
1.0
 20
0.0
 30
0.0
  9
$UCSYDIR
 10
0.0
 20
1.0
 30
0.0
  9
$UCSORTHOREF
  2

  9
$UCSORTHOVIEW
 70
     0
  9
$UCSORGTOP
 10
0.0
 20
0.0
 30
0.0
  9
$UCSORGBOTTOM
 10
0.0
 20
0.0
 30
0.0
  9
$UCSORGLEFT
 10
0.0
 20
0.0
 30
0.0
  9
$UCSORGRIGHT
 10
0.0
 20
0.0
 30
0.0
  9
$UCSORGFRONT
 10
0.0
 20
0.0
 30
0.0
  9
$UCSORGBACK
 10
0.0
 20
0.0
 30
0.0
  9
$PUCSBASE
  2

  9
$PUCSNAME
  2

  9
$PUCSORG
 10
0.0
 20
0.0
 30
0.0
  9
$PUCSXDIR
 10
1.0
 20
0.0
 30
0.0
  9
$PUCSYDIR
 10
0.0
 20
1.0
 30
0.0
  9
$PUCSORTHOREF
  2

  9
$PUCSORTHOVIEW
 70
     0
  9
$PUCSORGTOP
 10
0.0
 20
0.0
 30
0.0
  9
$PUCSORGBOTTOM
 10
0.0
 20
0.0
 30
0.0
  9
$PUCSORGLEFT
 10
0.0
 20
0.0
 30
0.0
  9
$PUCSORGRIGHT
 10
0.0
 20
0.0
 30
0.0
  9
$PUCSORGFRONT
 10
0.0
 20
0.0
 30
0.0
  9
$PUCSORGBACK
 10
0.0
 20
0.0
 30
0.0
  9
$USERI1
 70
     0
  9
$USERI2
 70
     0
  9
$USERI3
 70
     0
  9
$USERI4
 70
     0
  9
$USERI5
 70
     0
  9
$USERR1
 40
0.0
  9
$USERR2
 40
0.0
  9
$USERR3
 40
0.0
  9
$USERR4
 40
0.0
  9
$USERR5
 40
0.0
  9
$WORLDVIEW
 70
     1
  9
$SHADEDGE
 70
     3
  9
$SHADEDIF
 70
    70
  9
$TILEMODE
 70
     1
  9
$MAXACTVP
 70
    16
  9
$PINSBASE
 10
0.0
 20
0.0
 30
0.0
  9
$PLIMCHECK
 70
     0
  9
$PEXTMIN
 10
1.000000000000000E+20
 20
1.000000000000000E+20
 30
1.000000000000000E+20
  9
$PEXTMAX
 10
-1.000000000000000E+20
 20
-1.000000000000000E+20
 30
-1.000000000000000E+20
  9
$PLIMMIN
 10
0.0
 20
0.0
  9
$PLIMMAX
 10
12.0
 20
9.0
  9
$UNITMODE
 70
     0
  9
$VISRETAIN
 70
     0
  9
$PLINEGEN
 70
     1
  9
$PSLTSCALE
 70
     0
  9
$TREEDEPTH
 70
  3020
  9
$CMLSTYLE
  2
Standard
  9
$CMLJUST
 70
     0
  9
$CMLSCALE
 40
1.0
  9
$PROXYGRAPHICS
 70
     0
  9
$MEASUREMENT
 70
     1
  9
$CELWEIGHT
370
     0
  9
$ENDCAPS
280
     0
  9
$JOINSTYLE
280
     0
  9
$LWDISPLAY
290
     0
  9
$INSUNITS
 70
     0
  9
$HYPERLINKBASE
  1

  9
$STYLESHEET
  1

  9
$XEDIT
290
     1
  9
$CEPSNTYPE
380
     0
  9
$PSTYLEMODE
290
     1
  9
$FINGERPRINTGUID
  2

  9
$VERSIONGUID
  2
{F15E2B1D-C6A2-448C-A2E4-C9AD6356694D}
  9
$EXTNAMES
290
     1
  9
$PSVPSCALE
 40
0.0
  9
$OLESTARTUP
290
     0
  9
$SORTENTS
280
   127
  9
$INDEXCTL
280
     0
  9
$HIDETEXT
280
     0
  9
$XCLIPFRAME
290
     0
  9
$HALOGAP
280
     0
  9
$OBSCOLOR
 70
   257
  9
$OBSLTYPE
280
     0
  9
$INTERSECTIONDISPLAY
280
     0
  9
$INTERSECTIONCOLOR
 70
   257
  9
$DIMASSOC
280
     1
  9
$PROJECTNAME
  1

  9
$CAMERADISPLAY
290
     0
  9
$LENSLENGTH
 40
50.0
  9
$CAMERAHEIGHT
 40
0.0
  9
$STEPSPERSEC
 40
2.0
  9
$STEPSIZE
 40
6.0
  9
$3DDWFPREC
 40
2.0
  9
$PSOLWIDTH
 40
0.25
  9
$PSOLHEIGHT
 40
4.0
  9
$LOFTANG1
 40
1.570796326794896
  9
$LOFTANG2
 40
1.570796326794896
  9
$LOFTMAG1
 40
0.0
  9
$LOFTMAG2
 40
0.0
  9
$LOFTPARAM
 70
     7
  9
$LOFTNORMALS
280
     1
  9
$LATITUDE
 40
37.795
  9
$LONGITUDE
 40
-122.394
  9
$NORTHDIRECTION
 40
0.0
  9
$TIMEZONE
 70
 -8000
  9
$LIGHTGLYPHDISPLAY
280
     1
  9
$TILEMODELIGHTSYNCH
280
     1
  9
$CMATERIAL
347
10D
  9
$SOLIDHIST
280
     1
  9
$SHOWHIST
280
     1
  9
$DWFFRAME
280
     2
  9
$DGNFRAME
280
     0
  9
$REALWORLDSCALE
290
     1
  9
$INTERFERECOLOR
 62
     1
  9
$INTERFEREOBJVS
345
12F
  9
$INTERFEREVPVS
346
12C
  9
$CSHADOW
280
     0
  9
$SHADOWPLANELOCATION
 40
0.0
  0
ENDSEC
  0
SECTION
  2
CLASSES
  0
CLASS
  1
IMAGE
  2
AcDbRasterImage
  3
ISM
 90
     2175
 91
        0
280
     0
281
     1
  0
CLASS
  1
DICTIONARYVAR
  2
AcDbDictionaryVar
  3
ObjectDBX Classes
 90
        0
 91
        7
280
     0
281
     0
  0
CLASS
  1
RASTERVARIABLES
  2
AcDbRasterVariables
  3
ISM
 90
        0
 91
        0
280
     0
281
     0
  0
CLASS
  1
IMAGEDEF
  2
AcDbRasterImageDef
  3
ISM
 90
        0
 91
        0
280
     0
281
     0
  0
CLASS
  1
IMAGEDEF_REACTOR
  2
AcDbRasterImageDefReactor
  3
ISM
 90
        1
 91
        0
280
     0
281
     0
  0
CLASS
  1
IDBUFFER
  2
AcDbIdBuffer
  3
ObjectDBX Classes
 90
        0
 91
        0
280
     0
281
     0
  0
CLASS
  1
SPATIAL_FILTER
  2
AcDbSpatialFilter
  3
ObjectDBX Classes
 90
        0
 91
        0
280
     0
281
     0
  0
CLASS
  1
SORTENTSTABLE
  2
AcDbSortentsTable
  3
ObjectDBX Classes
 90
        0
 91
        1
280
     0
281
     0
  0
CLASS
  1
LAYER_INDEX
  2
AcDbLayerIndex
  3
ObjectDBX Classes
 90
        0
 91
        0
280
     0
281
     0
  0
CLASS
  1
SPATIAL_INDEX
  2
AcDbSpatialIndex
  3
ObjectDBX Classes
 90
        0
 91
        0
280
     0
281
     0
  0
CLASS
  1
OBJECT_PTR
  2
CAseDLPNTableRecord
  3
"ASE-LPNTableRecord"
 90
        1
 91
        0
280
     0
281
     0
  0
CLASS
  1
PLOTSETTINGS
  2
AcDbPlotSettings
  3
ObjectDBX Classes
 90
        0
 91
        0
280
     0
281
     0
  0
CLASS
  1
ACDBDICTIONARYWDFLT
  2
AcDbDictionaryWithDefault
  3
ObjectDBX Classes
 90
        0
 91
        1
280
     0
281
     0
  0
CLASS
  1
WIPEOUT
  2
AcDbWipeout
  3
"WipeOut|Product Desc: Object Enabler for WipeOut entity                        |Company: Autodesk, Inc.                        |WEB Address: www.autodesk.com"
 90
     2175
 91
        0
280
     0
281
     1
  0
CLASS
  1
WIPEOUTVARIABLES
  2
AcDbWipeoutVariables
  3
"WipeOut|Product Desc:     WipeOut Dbx Application|Company:          Autodesk, Inc.|WEB Address:      www.autodesk.com"
 90
        0
 91
        1
280
     0
281
     0
  0
CLASS
  1
RTEXT
  2
RText
  3
RText|AutoCAD Express Tool|expresstools@autodesk.com
 90
        0
 91
        0
280
     0
281
     1
  0
CLASS
  1
ARCALIGNEDTEXT
  2
AcDbArcAlignedText
  3
ATEXT|AutoCAD Express Tool|expresstools@autodesk.com
 90
        0
 91
        0
280
     0
281
     1
  0
CLASS
  1
MATERIAL
  2
AcDbMaterial
  3
ObjectDBX Classes
 90
     1153
 91
        3
280
     0
281
     0
  0
CLASS
  1
VISUALSTYLE
  2
AcDbVisualStyle
  3
ObjectDBX Classes
 90
     4095
 91
       16
280
     0
281
     0
  0
CLASS
  1
TABLESTYLE
  2
AcDbTableStyle
  3
ObjectDBX Classes
 90
     4095
 91
        1
280
     0
281
     0
  0
CLASS
  1
SCALE
  2
AcDbScale
  3
ObjectDBX Classes
 90
     1153
 91
       17
280
     0
281
     0
  0
CLASS
  1
MLEADERSTYLE
  2
AcDbMLeaderStyle
  3
ACDB_MLEADERSTYLE_CLASS
 90
     4095
 91
        1
280
     0
281
     0
  0
CLASS
  1
AEC_REFEDIT_STATUS_TRACKER
  2
AecDbRefEditStatusTracker
  3
AecArchBase50|Product Desc: Autodesk Architectural Desktop 2007 |Company: Autodesk,Inc. |WEB Address: www.autodesk.com
 90
      129
 91
        0
280
     0
281
     0
  0
CLASS
  1
NPOCOLLECTION
  2
AcDbImpNonPersistentObjectsCollection
  3
ObjectDBX Classes
 90
     1153
 91
        0
280
     0
281
     0
  0
CLASS
  1
CELLSTYLEMAP
  2
AcDbCellStyleMap
  3
ObjectDBX Classes
 90
     1152
 91
        2
280
     0
281
     0
  0
ENDSEC
  0
SECTION
  2
TABLES
  0
TABLE
  2
VPORT
  5
7
330
0
100
AcDbSymbolTable
 70
     1
  0
VPORT
  5
15
330
7
100
AcDbSymbolTableRecord
100
AcDbViewportTableRecord
  2
*ACTIVE
 70
     0
 10
0.0
 20
0.0
 11
1.0
 21
1.0
 12
133.2411309171906
 22
116.2240802258832
 13
0.0
 23
0.0
 14
1.0
 24
1.0
 15
0.0
 25
0.0
 16
0.0
 26
0.0
 36
1.0
 17
0.0
 27
0.0
 37
0.0
 40
104.2043209840725
 41
1.226824457593688
 42
50.0
 43
0.0
 44
0.0
 50
0.0
 51
0.0
 71
     0
 72
   100
 73
     1
 74
     1
 75
     0
 76
     0
 77
     0
 78
     0
281
     0
 65
     0
110
0.0
120
0.0
130
0.0
111
1.0
121
0.0
131
0.0
112
0.0
122
1.0
132
0.0
 79
     0
146
0.0
348
12B
 60
     3
 61
     5
292
     1
282
     1
141
0.0
142
0.0
 63
   250
421
  3355443
  0
ENDTAB
  0
TABLE
  2
LTYPE
  5
4
330
0
100
AcDbSymbolTable
 70
     1
  0
LTYPE
  5
11
330
4
100
AcDbSymbolTableRecord
100
AcDbLinetypeTableRecord
  2
ByBlock
 70
     0
  3

 72
    65
 73
     0
 40
0.0
  0
LTYPE
  5
12
330
4
100
AcDbSymbolTableRecord
100
AcDbLinetypeTableRecord
  2
ByLayer
 70
     0
  3

 72
    65
 73
     0
 40
0.0
  0
LTYPE
  5
13
330
4
100
AcDbSymbolTableRecord
100
AcDbLinetypeTableRecord
  2
Continuous
 70
     0
  3
Solid line
 72
    65
 73
     0
 40
0.0
  0
ENDTAB
  0
TABLE
  2
LAYER
  5
2
330
0
100
AcDbSymbolTable
 70
     3
  0
LAYER
  5
14
102
{ACAD_XDICTIONARY
360
236
102
}
330
2
100
AcDbSymbolTableRecord
100
AcDbLayerTableRecord
  2
0
 70
     0
 62
     7
  6
Continuous
370
    -3
390
1D
347
11D
  0
LAYER
  5
345
330
2
100
AcDbSymbolTableRecord
100
AcDbLayerTableRecord
  2
Defpoints
 70
     0
 62
     7
  6
Continuous
290
     0
370
    -3
390
1D
347
11D
  0
LAYER
  5
346
102
{ACAD_XDICTIONARY
360
347
102
}
330
2
100
AcDbSymbolTableRecord
100
AcDbLayerTableRecord
  2
Cotation-JacobDelafon
 70
     0
 62
     8
  6
Continuous
370
    -3
390
1D
347
11D
  0
ENDTAB
  0
TABLE
  2
STYLE
  5
3
330
0
100
AcDbSymbolTable
 70
     4
  0
STYLE
  5
17
330
3
100
AcDbSymbolTableRecord
100
AcDbTextStyleTableRecord
  2
Standard
 70
     0
 40
0.0
 41
1.0
 50
0.0
 71
     0
 42
0.0
  3
txt
  4

  0
STYLE
  5
24
330
3
100
AcDbSymbolTableRecord
100
AcDbTextStyleTableRecord
  2
STD
 70
     0
 40
0.0
 41
1.0
 50
0.0
 71
     0
 42
0.0
  3
txt
  4

  0
STYLE
  5
348
330
3
100
AcDbSymbolTableRecord
100
AcDbTextStyleTableRecord
  2
Annotative
 70
     0
 40
0.0
 41
1.0
 50
0.0
 71
     0
 42
0.2
  3
txt
  4

1001
AcadAnnotative
1000
AnnotativeData
1002
{
1070
     1
1070
     1
1002
}
  0
STYLE
  5
354
330
3
100
AcDbSymbolTableRecord
100
AcDbTextStyleTableRecord
  2
Jacob-Delafon
 70
     0
 40
0.0
 41
1.0
 50
0.0
 71
     0
 42
2.5
  3
ARIAL.TTF
  4

1001
ACAD
1000
Arial
1071
       34
  0
ENDTAB
  0
TABLE
  2
VIEW
  5
5
330
0
100
AcDbSymbolTable
 70
     0
  0
ENDTAB
  0
TABLE
  2
UCS
  5
6
330
0
100
AcDbSymbolTable
 70
     0
  0
ENDTAB
  0
TABLE
  2
APPID
  5
8
330
0
100
AcDbSymbolTable
 70
     3
  0
APPID
  5
16
330
8
100
AcDbSymbolTableRecord
100
AcDbRegAppTableRecord
  2
ACAD
 70
     0
  0
APPID
  5
14D
330
8
100
AcDbSymbolTableRecord
100
AcDbRegAppTableRecord
  2
ACAD_MLEADERVER
 70
     0
  0
APPID
  5
34A
330
8
100
AcDbSymbolTableRecord
100
AcDbRegAppTableRecord
  2
AcadAnnotative
 70
     0
  0
ENDTAB
  0
TABLE
  2
DIMSTYLE
  5
9
330
0
100
AcDbSymbolTable
 70
     3
100
AcDbDimStyleTable
 71
     1
340
355
  0
DIMSTYLE
105
18
330
9
100
AcDbSymbolTableRecord
100
AcDbDimStyleTableRecord
  2
Standard
 70
     0
340
17
  0
DIMSTYLE
105
349
330
9
100
AcDbSymbolTableRecord
100
AcDbDimStyleTableRecord
  2
Annotative
 70
     0
340
17
1001
AcadAnnotative
1000
AnnotativeData
1002
{
1070
     1
1070
     1
1002
}
  0
DIMSTYLE
105
355
102
{ACAD_REACTORS
330
35C
330
369
102
}
330
9
100
AcDbSymbolTableRecord
100
AcDbDimStyleTableRecord
  2
Cotation-Jacob-Delafon
 70
     0
 41
1.8
 42
0.625
 43
3.799999999999999
 44
1.8
 73
     0
 74
     0
 77
     1
 78
    12
 79
     3
140
3.0
141
0.9
147
0.9
271
     2
272
     2
279
     2
340
354
341
350
342
350
  0
ENDTAB
  0
TABLE
  2
BLOCK_RECORD
  5
1
330
0
100
AcDbSymbolTable
 70
     3
  0
BLOCK_RECORD
  5
A
102
{ACAD_XDICTIONARY
360
343
102
}
330
1
100
AcDbSymbolTableRecord
100
AcDbBlockTableRecord
  2
*MODEL_SPACE
340
20
 70
     0
280
     1
281
     0
  0
BLOCK_RECORD
  5
B
330
1
100
AcDbSymbolTableRecord
100
AcDbBlockTableRecord
  2
*PAPER_SPACE
340
21
 70
     0
280
     1
281
     0
  0
BLOCK_RECORD
  5
350
330
1
100
AcDbSymbolTableRecord
100
AcDbBlockTableRecord
  2
_Oblique
340
0
102
{BLKREFS
331
379
331
37A
331
382
331
383
102
}
 70
     0
280
     1
281
     0
  0
BLOCK_RECORD
  5
35D
330
1
100
AcDbSymbolTableRecord
100
AcDbBlockTableRecord
  2
*D1
340
0
 70
     0
280
     1
281
     0
  0
BLOCK_RECORD
  5
36A
330
1
100
AcDbSymbolTableRecord
100
AcDbBlockTableRecord
  2
*D2
340
0
 70
     0
280
     1
281
     0
  0
ENDTAB
  0
ENDSEC
  0
SECTION
  2
BLOCKS
  0
BLOCK
  5
D
330
A
100
AcDbEntity
  8
0
100
AcDbBlockBegin
  2
*MODEL_SPACE
 70
     0
 10
0.0
 20
0.0
 30
0.0
  3
*MODEL_SPACE
  1

  0
ENDBLK
  5
E
330
A
100
AcDbEntity
  8
0
100
AcDbBlockEnd
  0
BLOCK
  5
F
330
B
100
AcDbEntity
 67
     1
  8
0
100
AcDbBlockBegin
  2
*PAPER_SPACE
 70
     0
 10
0.0
 20
0.0
 30
0.0
  3
*PAPER_SPACE
  1

  0
ENDBLK
  5
10
330
B
100
AcDbEntity
 67
     1
  8
0
100
AcDbBlockEnd
  0
BLOCK
  5
351
330
350
100
AcDbEntity
  8
0
100
AcDbBlockBegin
  2
_Oblique
 70
     0
 10
0.0
 20
0.0
 30
0.0
  3
_Oblique
  1

  0
LINE
  5
352
330
350
100
AcDbEntity
  8
0
  6
ByBlock
 62
     0
370
    -2
380
     1
100
AcDbLine
 10
-0.5
 20
-0.5
 30
0.0
 11
0.5
 21
0.5
 31
0.0
  0
ENDBLK
  5
353
330
350
100
AcDbEntity
  8
0
100
AcDbBlockEnd
  0
BLOCK
  5
35E
330
35D
100
AcDbEntity
  8
0
370
     0
100
AcDbBlockBegin
  2
*D1
 70
     1
 10
0.0
 20
0.0
 30
0.0
  3
*D1
  1

  0
LINE
  5
37F
330
35D
100
AcDbEntity
  8
Cotation-JacobDelafon
  6
Continuous
 62
     0
370
    -2
100
AcDbLine
 10
125.933398
 20
112.204925
 30
0.0
 11
125.933398
 21
140.893328969466
 31
0.0
  0
LINE
  5
380
330
35D
100
AcDbEntity
  8
Cotation-JacobDelafon
  6
Continuous
 62
     0
370
    -2
100
AcDbLine
 10
183.9191041831627
 20
113.0617936826594
 30
0.0
 11
183.9191041831627
 21
140.893328969466
 31
0.0
  0
LINE
  5
381
330
35D
100
AcDbEntity
  8
Cotation-JacobDelafon
  6
Continuous
 62
     0
370
    -2
100
AcDbLine
 10
125.933398
 20
139.093328969466
 30
0.0
 11
183.9191041831627
 21
139.093328969466
 31
0.0
  0
INSERT
  5
382
330
35D
100
AcDbEntity
  8
Cotation-JacobDelafon
  6
Continuous
 62
     0
370
    -2
100
AcDbBlockReference
  2
_Oblique
 10
125.933398
 20
139.093328969466
 30
0.0
 41
1.8
 42
1.8
 43
1.8
 50
180.0
  0
INSERT
  5
383
330
35D
100
AcDbEntity
  8
Cotation-JacobDelafon
  6
Continuous
 62
     0
370
    -2
100
AcDbBlockReference
  2
_Oblique
 10
183.9191041831627
 20
139.093328969466
 30
0.0
 41
1.8
 42
1.8
 43
1.8
  0
MTEXT
  5
384
330
35D
100
AcDbEntity
  8
Cotation-JacobDelafon
  6
Continuous
 62
     0
370
     0
100
AcDbMText
 10
154.9262510915814
 20
141.5250479326311
 30
0.0
 40
3.0
 41
0.0
 46
0.0
 71
     5
 72
     1
  1
\A1;58.5
  7
Jacob-Delafon
 73
     1
 44
1.0
  0
POINT
  5
385
330
35D
100
AcDbEntity
  8
Defpoints
  6
Continuous
 62
     0
370
     0
100
AcDbPoint
 10
125.933398
 20
111.579925
 30
0.0
  0
POINT
  5
386
330
35D
100
AcDbEntity
  8
Defpoints
  6
Continuous
 62
     0
370
     0
100
AcDbPoint
 10
183.9191041831627
 20
112.4367936826594
 30
0.0
  0
POINT
  5
387
330
35D
100
AcDbEntity
  8
Defpoints
  6
Continuous
 62
     0
370
     0
100
AcDbPoint
 10
183.9191041831627
 20
139.093328969466
 30
0.0
  0
ENDBLK
  5
35F
330
35D
100
AcDbEntity
  8
0
370
     0
100
AcDbBlockEnd
  0
BLOCK
  5
36B
330
36A
100
AcDbEntity
  8
0
370
     0
100
AcDbBlockBegin
  2
*D2
 70
     1
 10
0.0
 20
0.0
 30
0.0
  3
*D2
  1

  0
LINE
  5
376
330
36A
100
AcDbEntity
  8
Cotation-JacobDelafon
  6
Continuous
 62
     0
370
    -2
100
AcDbLine
 10
138.401484
 20
114.364079
 30
0.0
 11
98.81750348799968
 21
114.364079
 31
0.0
  0
LINE
  5
377
330
36A
100
AcDbEntity
  8
Cotation-JacobDelafon
  6
Continuous
 62
     0
370
    -2
100
AcDbLine
 10
125.309949
 20
82.583417
 30
0.0
 11
98.81750348799968
 21
82.583417
 31
0.0
  0
LINE
  5
378
330
36A
100
AcDbEntity
  8
Cotation-JacobDelafon
  6
Continuous
 62
     0
370
    -2
100
AcDbLine
 10
100.6175034879997
 20
114.364079
 30
0.0
 11
100.6175034879996
 21
82.583417
 31
0.0
  0
INSERT
  5
379
330
36A
100
AcDbEntity
  8
Cotation-JacobDelafon
  6
Continuous
 62
     0
370
    -2
100
AcDbBlockReference
  2
_Oblique
 10
100.6175034879997
 20
114.364079
 30
0.0
 41
1.8
 42
1.8
 43
1.8
 50
90.0
  0
INSERT
  5
37A
330
36A
100
AcDbEntity
  8
Cotation-JacobDelafon
  6
Continuous
 62
     0
370
    -2
100
AcDbBlockReference
  2
_Oblique
 10
100.6175034879996
 20
82.583417
 30
0.0
 41
1.8
 42
1.8
 43
1.8
 50
270.0
  0
MTEXT
  5
37B
330
36A
100
AcDbEntity
  8
Cotation-JacobDelafon
  6
Continuous
 62
     0
370
     0
100
AcDbMText
 10
98.18476133247443
 20
98.47374800000004
 30
0.0
 40
3.0
 41
0.0
 46
0.0
 71
     5
 72
     1
  1
\A1;32
  7
Jacob-Delafon
 11
0.0000000000000001
 21
1.0
 31
0.0
 73
     1
 44
1.0
  0
POINT
  5
37C
330
36A
100
AcDbEntity
  8
Defpoints
  6
Continuous
 62
     0
370
     0
100
AcDbPoint
 10
139.026484
 20
114.364079
 30
0.0
  0
POINT
  5
37D
330
36A
100
AcDbEntity
  8
Defpoints
  6
Continuous
 62
     0
370
     0
100
AcDbPoint
 10
125.934949
 20
82.583417
 30
0.0
  0
POINT
  5
37E
330
36A
100
AcDbEntity
  8
Defpoints
  6
Continuous
 62
     0
370
     0
100
AcDbPoint
 10
100.6175034879996
 20
82.583417
 30
0.0
  0
ENDBLK
  5
36C
330
36A
100
AcDbEntity
  8
0
370
     0
100
AcDbBlockEnd
  0
ENDSEC
  0
SECTION
  2
ENTITIES
  0
LINE
  5
262
330
A
100
AcDbEntity
  8
0
 62
     7
100
AcDbLine
 10
179.231782
 20
111.548402
 30
0.0
 11
178.997171
 21
111.567006
 31
0.0
  0
LINE
  5
263
330
A
100
AcDbEntity
  8
0
 62
     7
100
AcDbLine
 10
179.231782
 20
111.548402
 30
0.0
 11
178.997171
 21
111.567006
 31
0.0
  0
LINE
  5
264
330
A
100
AcDbEntity
  8
0
 62
     7
100
AcDbLine
 10
180.719718
 20
111.254363
 30
0.0
 11
180.541951
 21
111.298633
 31
0.0
  0
LINE
  5
265
330
A
100
AcDbEntity
  8
0
 62
     7
100
AcDbLine
 10
180.719718
 20
111.254363
 30
0.0
 11
180.541951
 21
111.298633
 31
0.0
  0
LINE
  5
266
330
A
100
AcDbEntity
  8
0
 62
     7
100
AcDbLine
 10
180.724886
 20
111.253158
 30
0.0
 11
180.719718
 21
111.254363
 31
0.0
  0
LINE
  5
267
330
A
100
AcDbEntity
  8
0
 62
     7
100
AcDbLine
 10
180.724886
 20
111.253158
 30
0.0
 11
180.719718
 21
111.254363
 31
0.0
  0
LINE
  5
268
330
A
100
AcDbEntity
  8
0
 62
     7
100
AcDbLine
 10
181.397369
 20
111.022164
 30
0.0
 11
180.797233
 21
111.230764
 31
0.0
  0
LINE
  5
269
330
A
100
AcDbEntity
  8
0
 62
     7
100
AcDbLine
 10
181.397369
 20
111.022164
 30
0.0
 11
180.797233
 21
111.230764
 31
0.0
  0
LINE
  5
26A
330
A
100
AcDbEntity
  8
0
 62
     7
100
AcDbLine
 10
181.409082
 20
111.01803
 30
0.0
 11
181.397369
 21
111.022164
 31
0.0
  0
LINE
  5
26B
330
A
100
AcDbEntity
  8
0
 62
     7
100
AcDbLine
 10
181.409082
 20
111.01803
 30
0.0
 11
181.397369
 21
111.022164
 31
0.0
  0
LINE
  5
26C
330
A
100
AcDbEntity
  8
0
 62
     7
100
AcDbLine
 10
180.797233
 20
111.230764
 30
0.0
 11
180.733843
 21
111.250401
 31
0.0
  0
LINE
  5
26D
330
A
100
AcDbEntity
  8
0
 62
     7
100
AcDbLine
 10
180.797233
 20
111.230764
 30
0.0
 11
180.733843
 21
111.250401
 31
0.0
  0
LINE
  5
26E
330
A
100
AcDbEntity
  8
0
 62
     7
100
AcDbLine
 10
180.733843
 20
111.250401
 30
0.0
 11
180.724886
 21
111.253158
 31
0.0
  0
LINE
  5
26F
330
A
100
AcDbEntity
  8
0
 62
     7
100
AcDbLine
 10
180.733843
 20
111.250401
 30
0.0
 11
180.724886
 21
111.253158
 31
0.0
  0
LINE
  5
270
330
A
100
AcDbEntity
  8
0
 62
     7
100
AcDbLine
 10
181.840408
 20
110.816147
 30
0.0
 11
181.817326
 21
110.825793
 31
0.0
  0
LINE
  5
271
330
A
100
AcDbEntity
  8
0
 62
     7
100
AcDbLine
 10
181.840408
 20
110.816147
 30
0.0
 11
181.817326
 21
110.825793
 31
0.0
  0
LINE
  5
272
330
A
100
AcDbEntity
  8
0
 62
     7
100
AcDbLine
 10
181.45249
 20
110.997531
 30
0.0
 11
181.409082
 21
111.01803
 31
0.0
  0
LINE
  5
273
330
A
100
AcDbEntity
  8
0
 62
     7
100
AcDbLine
 10
181.45249
 20
110.997531
 30
0.0
 11
181.409082
 21
111.01803
 31
0.0
  0
LINE
  5
274
330
A
100
AcDbEntity
  8
0
 62
     7
100
AcDbLine
 10
181.809402
 20
110.829239
 30
0.0
 11
181.45249
 21
110.997531
 31
0.0
  0
LINE
  5
275
330
A
100
AcDbEntity
  8
0
 62
     7
100
AcDbLine
 10
181.809402
 20
110.829239
 30
0.0
 11
181.45249
 21
110.997531
 31
0.0
  0
LINE
  5
276
330
A
100
AcDbEntity
  8
0
 62
     7
100
AcDbLine
 10
181.817326
 20
110.825793
 30
0.0
 11
181.809402
 21
110.829239
 31
0.0
  0
LINE
  5
277
330
A
100
AcDbEntity
  8
0
 62
     7
100
AcDbLine
 10
181.817326
 20
110.825793
 30
0.0
 11
181.809402
 21
110.829239
 31
0.0
  0
LINE
  5
278
330
A
100
AcDbEntity
  8
0
 62
     7
100
AcDbLine
 10
178.920345
 20
111.570451
 30
0.0
 11
178.978223
 21
111.568039
 31
0.0
  0
LINE
  5
279
330
A
100
AcDbEntity
  8
0
 62
     7
100
AcDbLine
 10
178.920345
 20
111.570451
 30
0.0
 11
178.978223
 21
111.568039
 31
0.0
  0
LINE
  5
27A
330
A
100
AcDbEntity
  8
0
 62
     7
100
AcDbLine
 10
153.932723
 20
114.51084
 30
0.0
 11
152.379329
 21
114.469499
 31
0.0
  0
LINE
  5
27B
330
A
100
AcDbEntity
  8
0
 62
     7
100
AcDbLine
 10
152.379329
 20
114.469499
 30
0.0
 11
150.181014
 21
114.451929
 31
0.0
  0
LINE
  5
27C
330
A
100
AcDbEntity
  8
0
 62
     7
100
AcDbLine
 10
150.181014
 20
114.451929
 30
0.0
 11
139.238529
 21
114.452101
 31
0.0
  0
LINE
  5
27D
330
A
100
AcDbEntity
  8
0
 62
     7
100
AcDbLine
 10
139.238529
 20
114.452101
 30
0.0
 11
139.026484
 21
114.364079
 31
0.0
  0
LINE
  5
27E
330
A
100
AcDbEntity
  8
0
 62
     7
100
AcDbLine
 10
139.026484
 20
114.364079
 30
0.0
 11
139.026484
 21
114.235404
 31
0.0
  0
LINE
  5
27F
330
A
100
AcDbEntity
  8
0
 62
     7
100
AcDbLine
 10
139.026484
 20
114.364079
 30
0.0
 11
138.938634
 21
114.151861
 31
0.0
  0
LINE
  5
280
330
A
100
AcDbEntity
  8
0
 62
     7
100
AcDbLine
 10
138.938634
 20
114.151861
 30
0.0
 11
138.938634
 21
114.023359
 31
0.0
  0
LINE
  5
281
330
A
100
AcDbEntity
  8
0
 62
     7
100
AcDbLine
 10
138.938634
 20
111.881887
 30
0.0
 11
138.938634
 21
113.302128
 31
0.0
  0
LINE
  5
282
330
A
100
AcDbEntity
  8
0
 62
     7
100
AcDbLine
 10
138.938634
 20
113.302128
 30
0.0
 11
138.938634
 21
113.711233
 31
0.0
  0
LINE
  5
283
330
A
100
AcDbEntity
  8
0
 62
     7
100
AcDbLine
 10
138.938634
 20
113.711233
 30
0.0
 11
138.938634
 21
114.023359
 31
0.0
  0
LINE
  5
284
330
A
100
AcDbEntity
  8
0
 62
     7
100
AcDbLine
 10
138.938634
 20
111.881715
 30
0.0
 11
139.026484
 21
111.66967
 31
0.0
  0
LINE
  5
285
330
A
100
AcDbEntity
  8
0
 62
     7
100
AcDbLine
 10
139.026484
 20
111.66967
 30
0.0
 11
139.238529
 21
111.58182
 31
0.0
  0
LINE
  5
286
330
A
100
AcDbEntity
  8
0
 62
     7
100
AcDbLine
 10
178.820782
 20
111.581475
 30
0.0
 11
139.238529
 21
111.58182
 31
0.0
  0
LINE
  5
287
330
A
100
AcDbEntity
  8
0
 62
     7
100
AcDbLine
 10
177.65944
 20
114.573368
 30
0.0
 11
155.829248
 21
114.573368
 31
0.0
  0
LINE
  5
288
330
A
100
AcDbEntity
  8
0
 62
     7
100
AcDbLine
 10
155.829248
 20
114.573368
 30
0.0
 11
155.829248
 21
114.565272
 31
0.0
  0
LINE
  5
289
330
A
100
AcDbEntity
  8
0
 62
     7
100
AcDbLine
 10
155.829248
 20
114.565272
 30
0.0
 11
155.385175
 21
114.536506
 31
0.0
  0
LINE
  5
28A
330
A
100
AcDbEntity
  8
0
 62
     7
100
AcDbLine
 10
155.385175
 20
114.536506
 30
0.0
 11
154.1749129999999
 21
114.512907
 31
0.0
  0
LINE
  5
28B
330
A
100
AcDbEntity
  8
0
 62
     7
100
AcDbLine
 10
154.1749129999999
 20
114.512907
 30
0.0
 11
153.932723
 21
114.51084
 31
0.0
  0
LINE
  5
28C
330
A
100
AcDbEntity
  8
0
 62
     7
100
AcDbLine
 10
178.891062
 20
111.571657
 30
0.0
 11
178.748435
 21
111.581475
 31
0.0
  0
LINE
  5
28D
330
A
100
AcDbEntity
  8
0
 62
     7
100
AcDbLine
 10
182.94525
 20
110.795993
 30
0.0
 11
182.887373
 21
110.79651
 31
0.0
  0
LINE
  5
28E
330
A
100
AcDbEntity
  8
0
 62
     7
100
AcDbLine
 10
182.887373
 20
110.79651
 30
0.0
 11
182.71374
 21
110.797888
 31
0.0
  0
LINE
  5
28F
330
A
100
AcDbEntity
  8
0
 62
     7
100
AcDbLine
 10
182.71374
 20
110.797888
 30
0.0
 11
182.426763
 21
110.8003
 31
0.0
  0
LINE
  5
290
330
A
100
AcDbEntity
  8
0
 62
     7
100
AcDbLine
 10
139.026484
 20
111.86225
 30
0.0
 11
139.026484
 21
113.282663
 31
0.0
  0
LINE
  5
291
330
A
100
AcDbEntity
  8
0
 62
     7
100
AcDbLine
 10
139.026484
 20
111.66967
 30
0.0
 11
139.070409
 21
111.698264
 31
0.0
  0
LINE
  5
292
330
A
100
AcDbEntity
  8
0
 62
     7
100
AcDbLine
 10
139.070409
 20
111.698264
 30
0.0
 11
139.026484
 21
111.86225
 31
0.0
  0
LINE
  5
293
330
A
100
AcDbEntity
  8
0
 62
     7
100
AcDbLine
 10
139.070409
 20
111.698264
 30
0.0
 11
139.238529
 21
111.660196
 31
0.0
  0
LINE
  5
294
330
A
100
AcDbEntity
  8
0
 62
     7
100
AcDbLine
 10
139.238529
 20
111.660196
 30
0.0
 11
178.826638
 21
111.667258
 31
0.0
  0
LINE
  5
295
330
A
100
AcDbEntity
  8
0
 62
     7
100
AcDbLine
 10
178.921034
 20
113.275084
 30
0.0
 11
139.238529
 21
113.274567
 31
0.0
  0
LINE
  5
296
330
A
100
AcDbEntity
  8
0
 62
     7
100
AcDbLine
 10
139.238529
 20
113.274567
 30
0.0
 11
139.238529
 21
111.854327
 31
0.0
  0
LINE
  5
297
330
A
100
AcDbEntity
  8
0
 62
     7
100
AcDbLine
 10
179.680333
 20
113.205665
 30
0.0
 11
178.921034
 21
113.275084
 31
0.0
  0
LINE
  5
298
330
A
100
AcDbEntity
  8
0
 62
     7
100
AcDbLine
 10
180.423785
 20
113.076474
 30
0.0
 11
179.680333
 21
113.205665
 31
0.0
  0
LINE
  5
299
330
A
100
AcDbEntity
  8
0
 62
     7
100
AcDbLine
 10
181.277824
 20
112.850993
 30
0.0
 11
180.423785
 21
113.076474
 31
0.0
  0
LINE
  5
29A
330
A
100
AcDbEntity
  8
0
 62
     7
100
AcDbLine
 10
182.071229
 20
112.56126
 30
0.0
 11
181.277824
 21
112.850993
 31
0.0
  0
LINE
  5
29B
330
A
100
AcDbEntity
  8
0
 62
     7
100
AcDbLine
 10
182.55561
 20
112.325099
 30
0.0
 11
182.071229
 21
112.56126
 31
0.0
  0
LINE
  5
29C
330
A
100
AcDbEntity
  8
0
 62
     7
100
AcDbLine
 10
182.111882
 20
110.986679
 30
0.0
 11
182.738889
 21
112.237249
 31
0.0
  0
LINE
  5
29D
330
A
100
AcDbEntity
  8
0
 62
     7
100
AcDbLine
 10
181.837307
 20
110.88815
 30
0.0
 11
182.006806
 21
110.853354
 31
0.0
  0
LINE
  5
29E
330
A
100
AcDbEntity
  8
0
 62
     7
100
AcDbLine
 10
182.006806
 20
110.853354
 30
0.0
 11
182.111882
 21
110.986679
 31
0.0
  0
LINE
  5
29F
330
A
100
AcDbEntity
  8
0
 62
     7
100
AcDbLine
 10
182.006806
 20
110.853354
 30
0.0
 11
182.030233
 21
110.802022
 31
0.0
  0
LINE
  5
2A0
330
A
100
AcDbEntity
  8
0
 62
     7
100
AcDbLine
 10
182.030233
 20
110.802022
 30
0.0
 11
182.426763
 21
110.8003
 31
0.0
  0
LINE
  5
2A1
330
A
100
AcDbEntity
  8
0
 62
     7
100
AcDbLine
 10
183.125429
 20
110.951195
 30
0.0
 11
183.797222
 21
112.208655
 31
0.0
  0
LINE
  5
2A2
330
A
100
AcDbEntity
  8
0
 62
     7
100
AcDbLine
 10
183.125429
 20
110.951195
 30
0.0
 11
182.94525
 21
110.795993
 31
0.0
  0
LINE
  5
2A3
330
A
100
AcDbEntity
  8
0
 62
     7
100
AcDbLine
 10
183.822027
 20
112.439993
 30
0.0
 11
183.797222
 21
112.208655
 31
0.0
  0
LINE
  5
2A4
330
A
100
AcDbEntity
  8
0
 62
     7
100
AcDbLine
 10
183.678711
 20
112.623444
 30
0.0
 11
183.822027
 21
112.439993
 31
0.0
  0
LINE
  5
2A5
330
A
100
AcDbEntity
  8
0
 62
     7
100
AcDbLine
 10
183.758982
 20
112.439132
 30
0.0
 11
183.822027
 21
112.439993
 31
0.0
  0
LINE
  5
2A6
330
A
100
AcDbEntity
  8
0
 62
     7
100
AcDbLine
 10
183.57019
 20
112.436892
 30
0.0
 11
183.758982
 21
112.439132
 31
0.0
  0
LINE
  5
2A7
330
A
100
AcDbEntity
  8
0
 62
     7
100
AcDbLine
 10
183.257376
 20
112.434309
 30
0.0
 11
183.57019
 21
112.436892
 31
0.0
  0
LINE
  5
2A8
330
A
100
AcDbEntity
  8
0
 62
     7
100
AcDbLine
 10
182.844309
 20
112.432758
 30
0.0
 11
183.257376
 21
112.434309
 31
0.0
  0
LINE
  5
2A9
330
A
100
AcDbEntity
  8
0
 62
     7
100
AcDbLine
 10
182.650005
 20
112.519402
 30
0.0
 11
182.782642
 21
112.406403
 31
0.0
  0
LINE
  5
2AA
330
A
100
AcDbEntity
  8
0
 62
     7
100
AcDbLine
 10
182.782642
 20
112.406403
 30
0.0
 11
182.844309
 21
112.432758
 31
0.0
  0
LINE
  5
2AB
330
A
100
AcDbEntity
  8
0
 62
     7
100
AcDbLine
 10
182.782642
 20
112.406403
 30
0.0
 11
182.738889
 21
112.237249
 31
0.0
  0
LINE
  5
2AC
330
A
100
AcDbEntity
  8
0
 62
     7
100
AcDbLine
 10
182.165625
 20
112.755047
 30
0.0
 11
182.650005
 21
112.519402
 31
0.0
  0
LINE
  5
2AD
330
A
100
AcDbEntity
  8
0
 62
     7
100
AcDbLine
 10
181.352238
 20
113.053392
 30
0.0
 11
182.165625
 21
112.755047
 31
0.0
  0
LINE
  5
2AE
330
A
100
AcDbEntity
  8
0
 62
     7
100
AcDbLine
 10
180.47615
 20
113.286281
 30
0.0
 11
181.352238
 21
113.053392
 31
0.0
  0
LINE
  5
2AF
330
A
100
AcDbEntity
  8
0
 62
     7
100
AcDbLine
 10
179.707894
 20
113.421501
 30
0.0
 11
180.47615
 21
113.286281
 31
0.0
  0
LINE
  5
2B0
330
A
100
AcDbEntity
  8
0
 62
     7
100
AcDbLine
 10
178.923101
 20
113.49402
 30
0.0
 11
179.707894
 21
113.421501
 31
0.0
  0
LINE
  5
2B1
330
A
100
AcDbEntity
  8
0
 62
     7
100
AcDbLine
 10
139.238529
 20
113.493848
 30
0.0
 11
178.923101
 21
113.49402
 31
0.0
  0
LINE
  5
2B2
330
A
100
AcDbEntity
  8
0
 62
     7
100
AcDbLine
 10
139.026484
 20
113.513485
 30
0.0
 11
139.0654129999999
 21
113.458708
 31
0.0
  0
LINE
  5
2B3
330
A
100
AcDbEntity
  8
0
 62
     7
100
AcDbLine
 10
139.0654129999999
 20
113.458708
 30
0.0
 11
139.238529
 21
113.493848
 31
0.0
  0
LINE
  5
2B4
330
A
100
AcDbEntity
  8
0
 62
     7
100
AcDbLine
 10
139.0654129999999
 20
113.458708
 30
0.0
 11
139.026484
 21
113.282663
 31
0.0
  0
LINE
  5
2B5
330
A
100
AcDbEntity
  8
0
 62
     7
100
AcDbLine
 10
139.026484
 20
113.922934
 30
0.0
 11
139.026484
 21
113.513485
 31
0.0
  0
LINE
  5
2B6
330
A
100
AcDbEntity
  8
0
 62
     7
100
AcDbLine
 10
139.026484
 20
114.235404
 30
0.0
 11
139.026484
 21
113.922934
 31
0.0
  0
LINE
  5
2B7
330
A
100
AcDbEntity
  8
0
 62
     7
100
AcDbLine
 10
183.041713
 20
112.991553
 30
0.0
 11
181.852121
 21
113.631651
 31
0.0
  0
LINE
  5
2B8
330
A
100
AcDbEntity
  8
0
 62
     7
100
AcDbLine
 10
181.852121
 20
113.631651
 30
0.0
 11
180.356261
 21
114.155306
 31
0.0
  0
LINE
  5
2B9
330
A
100
AcDbEntity
  8
0
 62
     7
100
AcDbLine
 10
180.356261
 20
114.155306
 30
0.0
 11
178.905187
 21
114.452273
 31
0.0
  0
LINE
  5
2BA
330
A
100
AcDbEntity
  8
0
 62
     7
100
AcDbLine
 10
178.905187
 20
114.452273
 30
0.0
 11
177.65944
 21
114.573368
 31
0.0
  0
LINE
  5
2BB
330
A
100
AcDbEntity
  8
0
 62
     7
100
AcDbLine
 10
183.678711
 20
112.623444
 30
0.0
 11
183.041713
 21
112.991553
 31
0.0
  0
LINE
  5
2BC
330
A
100
AcDbEntity
  8
0
 62
     7
100
AcDbLine
 10
181.843164
 20
110.81408
 30
0.0
 11
182.030233
 21
110.802022
 31
0.0
  0
LINE
  5
2BD
330
A
100
AcDbEntity
  8
0
 62
     7
100
AcDbLine
 10
181.837307
 20
110.88815
 30
0.0
 11
181.414594
 21
111.09365
 31
0.0
  0
LINE
  5
2BE
330
A
100
AcDbEntity
  8
0
 62
     7
100
AcDbLine
 10
181.414594
 20
111.09365
 30
0.0
 11
180.7372879999999
 21
111.335668
 31
0.0
  0
LINE
  5
2BF
330
A
100
AcDbEntity
  8
0
 62
     7
100
AcDbLine
 10
180.7372879999999
 20
111.335668
 30
0.0
 11
180.003828
 21
111.523253
 31
0.0
  0
LINE
  5
2C0
330
A
100
AcDbEntity
  8
0
 62
     7
100
AcDbLine
 10
180.062394
 20
111.420417
 30
0.0
 11
180.541951
 21
111.298633
 31
0.0
  0
LINE
  5
2C1
330
A
100
AcDbEntity
  8
0
 62
     7
100
AcDbLine
 10
179.986947
 20
111.439537
 30
0.0
 11
180.062394
 21
111.420417
 31
0.0
  0
LINE
  5
2C2
330
A
100
AcDbEntity
  8
0
 62
     7
100
AcDbLine
 10
180.003828
 20
111.523253
 30
0.0
 11
179.406793
 21
111.620921
 31
0.0
  0
LINE
  5
2C3
330
A
100
AcDbEntity
  8
0
 62
     7
100
AcDbLine
 10
179.393012
 20
111.536
 30
0.0
 11
179.986947
 21
111.439537
 31
0.0
  0
LINE
  5
2C4
330
A
100
AcDbEntity
  8
0
 62
     7
100
AcDbLine
 10
179.406793
 20
111.620921
 30
0.0
 11
178.826638
 21
111.667258
 31
0.0
  0
LINE
  5
2C5
330
A
100
AcDbEntity
  8
0
 62
     7
100
AcDbLine
 10
177.038289
 20
111.57958
 30
0.0
 11
177.693547
 21
111.57958
 31
0.0
  0
LINE
  5
2C6
330
A
100
AcDbEntity
  8
0
 62
     7
100
AcDbLine
 10
141.431505
 20
111.57803
 30
0.0
 11
125.933398
 21
111.579925
 31
0.0
  0
LINE
  5
2C7
330
A
100
AcDbEntity
  8
0
 62
     7
100
AcDbLine
 10
125.933398
 20
111.579925
 30
0.0
 11
152.904017
 21
111.576652
 31
0.0
  0
LINE
  5
2C8
330
A
100
AcDbEntity
  8
0
 62
     7
100
AcDbLine
 10
152.904017
 20
111.576652
 30
0.0
 11
165.523747
 21
111.576652
 31
0.0
  0
LINE
  5
2C9
330
A
100
AcDbEntity
  8
0
 62
     7
100
AcDbLine
 10
165.523747
 20
111.576652
 30
0.0
 11
178.778407
 21
111.576652
 31
0.0
  0
LINE
  5
2CA
330
A
100
AcDbEntity
  8
0
 62
     7
100
AcDbLine
 10
178.758081
 20
111.576652
 30
0.0
 11
176.021986
 21
111.57958
 31
0.0
  0
LINE
  5
2CB
330
A
100
AcDbEntity
  8
0
 62
     7
100
AcDbLine
 10
141.425821
 20
111.57958
 30
0.0
 11
141.661637
 21
111.57958
 31
0.0
  0
LINE
  5
2CC
330
A
100
AcDbEntity
  8
0
 62
     7
100
AcDbLine
 10
141.661637
 20
111.57958
 30
0.0
 11
142.304492
 21
111.57958
 31
0.0
  0
LINE
  5
2CD
330
A
100
AcDbEntity
  8
0
 62
     7
100
AcDbLine
 10
142.304492
 20
111.57958
 30
0.0
 11
143.258095
 21
111.57958
 31
0.0
  0
LINE
  5
2CE
330
A
100
AcDbEntity
  8
0
 62
     7
100
AcDbLine
 10
143.258095
 20
111.57958
 30
0.0
 11
144.42581
 21
111.57958
 31
0.0
  0
LINE
  5
2CF
330
A
100
AcDbEntity
  8
0
 62
     7
100
AcDbLine
 10
144.42581
 20
111.57958
 30
0.0
 11
171.425884
 21
111.57958
 31
0.0
  0
LINE
  5
2D0
330
A
100
AcDbEntity
  8
0
 62
     7
100
AcDbLine
 10
171.425884
 20
111.57958
 30
0.0
 11
173.153944
 21
111.57958
 31
0.0
  0
LINE
  5
2D1
330
A
100
AcDbEntity
  8
0
 62
     7
100
AcDbLine
 10
173.153944
 20
111.57958
 30
0.0
 11
174.706649
 21
111.57958
 31
0.0
  0
LINE
  5
2D2
330
A
100
AcDbEntity
  8
0
 62
     7
100
AcDbLine
 10
174.706649
 20
111.57958
 30
0.0
 11
176.021986
 21
111.57958
 31
0.0
  0
LINE
  5
2D3
330
A
100
AcDbEntity
  8
0
 62
     7
100
AcDbLine
 10
176.021986
 20
111.57958
 30
0.0
 11
177.038289
 21
111.57958
 31
0.0
  0
LINE
  5
2D4
330
A
100
AcDbEntity
  8
0
 62
     7
100
AcDbLine
 10
177.693547
 20
111.57958
 30
0.0
 11
178.758081
 21
111.576652
 31
0.0
  0
LINE
  5
2D5
330
A
100
AcDbEntity
  8
0
 62
     7
100
AcDbLine
 10
177.693547
 20
111.57958
 30
0.0
 11
177.038289
 21
111.57958
 31
0.0
  0
LINE
  5
2D6
330
A
100
AcDbEntity
  8
0
 62
     7
100
AcDbLine
 10
177.038289
 20
111.57958
 30
0.0
 11
176.021986
 21
111.57958
 31
0.0
  0
LINE
  5
2D7
330
A
100
AcDbEntity
  8
0
 62
     7
100
AcDbLine
 10
125.933398
 20
104.570017
 30
0.0
 11
125.933398
 21
105.503293
 31
0.0
  0
LINE
  5
2D8
330
A
100
AcDbEntity
  8
0
 62
     7
100
AcDbLine
 10
125.933398
 20
105.503293
 30
0.0
 11
125.933398
 21
106.394195
 31
0.0
  0
LINE
  5
2D9
330
A
100
AcDbEntity
  8
0
 62
     7
100
AcDbLine
 10
125.933398
 20
106.394195
 30
0.0
 11
125.933398
 21
107.223774
 31
0.0
  0
LINE
  5
2DA
330
A
100
AcDbEntity
  8
0
 62
     7
100
AcDbLine
 10
125.933398
 20
107.223774
 30
0.0
 11
125.933398
 21
107.598428
 31
0.0
  0
LINE
  5
2DB
330
A
100
AcDbEntity
  8
0
 62
     7
100
AcDbLine
 10
125.933398
 20
107.598428
 30
0.0
 11
125.933398
 21
107.973254
 31
0.0
  0
LINE
  5
2DC
330
A
100
AcDbEntity
  8
0
 62
     7
100
AcDbLine
 10
125.933398
 20
107.973254
 30
0.0
 11
125.933398
 21
108.561332
 31
0.0
  0
LINE
  5
2DD
330
A
100
AcDbEntity
  8
0
 62
     7
100
AcDbLine
 10
125.933398
 20
108.561332
 30
0.0
 11
125.933398
 21
109.03021
 31
0.0
  0
LINE
  5
2DE
330
A
100
AcDbEntity
  8
0
 62
     7
100
AcDbLine
 10
125.933398
 20
109.03021
 30
0.0
 11
125.933398
 21
109.37093
 31
0.0
  0
LINE
  5
2DF
330
A
100
AcDbEntity
  8
0
 62
     7
100
AcDbLine
 10
125.933398
 20
109.37093
 30
0.0
 11
125.933398
 21
109.509767
 31
0.0
  0
LINE
  5
2E0
330
A
100
AcDbEntity
  8
0
 62
     7
100
AcDbLine
 10
125.933398
 20
109.509767
 30
0.0
 11
125.933398
 21
109.63379
 31
0.0
  0
LINE
  5
2E1
330
A
100
AcDbEntity
  8
0
 62
     7
100
AcDbLine
 10
125.933398
 20
109.63379
 30
0.0
 11
125.933398
 21
109.850315
 31
0.0
  0
LINE
  5
2E2
330
A
100
AcDbEntity
  8
0
 62
     7
100
AcDbLine
 10
125.933398
 20
109.850315
 30
0.0
 11
125.933398
 21
111.26022
 31
0.0
  0
LINE
  5
2E3
330
A
100
AcDbEntity
  8
0
 62
     7
100
AcDbLine
 10
125.933398
 20
111.26022
 30
0.0
 11
125.933398
 21
111.477433
 31
0.0
  0
LINE
  5
2E4
330
A
100
AcDbEntity
  8
0
 62
     7
100
AcDbLine
 10
125.933398
 20
111.477433
 30
0.0
 11
125.933398
 21
111.579925
 31
0.0
  0
LINE
  5
2E5
330
A
100
AcDbEntity
  8
0
 62
     7
100
AcDbLine
 10
182.723386
 20
110.783074
 30
0.0
 11
182.847409
 21
110.686095
 31
0.0
  0
LINE
  5
2E6
330
A
100
AcDbEntity
  8
0
 62
     7
100
AcDbLine
 10
182.847409
 20
110.686095
 30
0.0
 11
182.9235459999999
 21
110.547947
 31
0.0
  0
LINE
  5
2E7
330
A
100
AcDbEntity
  8
0
 62
     7
100
AcDbLine
 10
182.9235459999999
 20
110.547947
 30
0.0
 11
182.941116
 21
110.366218
 31
0.0
  0
LINE
  5
2E8
330
A
100
AcDbEntity
  8
0
 62
     7
100
AcDbLine
 10
182.686868
 20
110.79806
 30
0.0
 11
182.723386
 21
110.783074
 31
0.0
  0
LINE
  5
2E9
330
A
100
AcDbEntity
  8
0
 62
     7
100
AcDbLine
 10
182.941116
 20
110.366218
 30
0.0
 11
182.700304
 21
109.519069
 31
0.0
  0
LINE
  5
2EA
330
A
100
AcDbEntity
  8
0
 62
     7
100
AcDbLine
 10
182.262088
 20
108.888444
 30
0.0
 11
181.77254
 21
108.830739
 31
0.0
  0
LINE
  5
2EB
330
A
100
AcDbEntity
  8
0
 62
     7
100
AcDbLine
 10
181.77254
 20
108.830739
 30
0.0
 11
181.051826
 21
108.681566
 31
0.0
  0
LINE
  5
2EC
330
A
100
AcDbEntity
  8
0
 62
     7
100
AcDbLine
 10
181.051826
 20
108.681566
 30
0.0
 11
180.427919
 21
108.416121
 31
0.0
  0
LINE
  5
2ED
330
A
100
AcDbEntity
  8
0
 62
     7
100
AcDbLine
 10
180.427919
 20
108.416121
 30
0.0
 11
179.943883
 21
107.983245
 31
0.0
  0
LINE
  5
2EE
330
A
100
AcDbEntity
  8
0
 62
     7
100
AcDbLine
 10
179.943883
 20
107.983245
 30
0.0
 11
179.5731909999999
 21
107.30749
 31
0.0
  0
LINE
  5
2EF
330
A
100
AcDbEntity
  8
0
 62
     7
100
AcDbLine
 10
179.5731909999999
 20
107.30749
 30
0.0
 11
179.307229
 21
106.468953
 31
0.0
  0
LINE
  5
2F0
330
A
100
AcDbEntity
  8
0
 62
     7
100
AcDbLine
 10
179.307229
 20
106.468953
 30
0.0
 11
179.08571
 21
105.543429
 31
0.0
  0
LINE
  5
2F1
330
A
100
AcDbEntity
  8
0
 62
     7
100
AcDbLine
 10
179.08571
 20
105.543429
 30
0.0
 11
178.891406
 21
104.589998
 31
0.0
  0
LINE
  5
2F2
330
A
100
AcDbEntity
  8
0
 62
     7
100
AcDbLine
 10
182.769895
 20
110.367596
 30
0.0
 11
182.92458
 21
110.366734
 31
0.0
  0
LINE
  5
2F3
330
A
100
AcDbEntity
  8
0
 62
     7
100
AcDbLine
 10
182.472583
 20
110.370869
 30
0.0
 11
182.769895
 21
110.367596
 31
0.0
  0
LINE
  5
2F4
330
A
100
AcDbEntity
  8
0
 62
     7
100
AcDbLine
 10
182.050903
 20
110.376898
 30
0.0
 11
182.472583
 21
110.370869
 31
0.0
  0
LINE
  5
2F5
330
A
100
AcDbEntity
  8
0
 62
     7
100
AcDbLine
 10
179.454679
 20
111.264871
 30
0.0
 11
178.780474
 21
111.257119
 31
0.0
  0
LINE
  5
2F6
330
A
100
AcDbEntity
  8
0
 62
     7
100
AcDbLine
 10
179.392323
 20
111.447978
 30
0.0
 11
178.778407
 21
111.47416
 31
0.0
  0
LINE
  5
2F7
330
A
100
AcDbEntity
  8
0
 62
     7
100
AcDbLine
 10
180.036211
 20
111.165997
 30
0.0
 11
179.454679
 21
111.264871
 31
0.0
  0
LINE
  5
2F8
330
A
100
AcDbEntity
  8
0
 62
     7
100
AcDbLine
 10
179.992114
 20
111.357199
 30
0.0
 11
179.392323
 21
111.447978
 31
0.0
  0
LINE
  5
2F9
330
A
100
AcDbEntity
  8
0
 62
     7
100
AcDbLine
 10
180.72592
 20
110.976172
 30
0.0
 11
180.036211
 21
111.165997
 31
0.0
  0
LINE
  5
2FA
330
A
100
AcDbEntity
  8
0
 62
     7
100
AcDbLine
 10
180.71524
 20
111.181155
 30
0.0
 11
179.992114
 21
111.357199
 31
0.0
  0
LINE
  5
2FB
330
A
100
AcDbEntity
  8
0
 62
     7
100
AcDbLine
 10
181.391512
 20
110.851115
 30
0.0
 11
180.72592
 21
110.976172
 31
0.0
  0
LINE
  5
2FC
330
A
100
AcDbEntity
  8
0
 62
     7
100
AcDbLine
 10
181.384966
 20
110.982545
 30
0.0
 11
180.71524
 21
111.181155
 31
0.0
  0
LINE
  5
2FD
330
A
100
AcDbEntity
  8
0
 62
     7
100
AcDbLine
 10
181.681245
 20
110.749657
 30
0.0
 11
181.391512
 21
110.851115
 31
0.0
  0
LINE
  5
2FE
330
A
100
AcDbEntity
  8
0
 62
     7
100
AcDbLine
 10
181.62819
 20
110.869718
 30
0.0
 11
181.384966
 21
110.982545
 31
0.0
  0
LINE
  5
2FF
330
A
100
AcDbEntity
  8
0
 62
     7
100
AcDbLine
 10
181.9131
 20
110.408765
 30
0.0
 11
181.896219
 21
110.614781
 31
0.0
  0
LINE
  5
300
330
A
100
AcDbEntity
  8
0
 62
     7
100
AcDbLine
 10
181.896219
 20
110.614781
 30
0.0
 11
181.681245
 21
110.749657
 31
0.0
  0
LINE
  5
301
330
A
100
AcDbEntity
  8
0
 62
     7
100
AcDbLine
 10
152.904362
 20
111.47416
 30
0.0
 11
165.524091
 21
111.47416
 31
0.0
  0
LINE
  5
302
330
A
100
AcDbEntity
  8
0
 62
     7
100
AcDbLine
 10
125.933398
 20
111.477433
 30
0.0
 11
152.904362
 21
111.47416
 31
0.0
  0
LINE
  5
303
330
A
100
AcDbEntity
  8
0
 62
     7
100
AcDbLine
 10
178.778407
 20
111.576652
 30
0.0
 11
178.997171
 21
111.567006
 31
0.0
  0
LINE
  5
304
330
A
100
AcDbEntity
  8
0
 62
     7
100
AcDbLine
 10
125.933398
 20
111.26022
 30
0.0
 11
152.906429
 21
111.257119
 31
0.0
  0
LINE
  5
305
330
A
100
AcDbEntity
  8
0
 62
     7
100
AcDbLine
 10
125.933398
 20
109.63379
 30
0.0
 11
176.32171
 21
109.633274
 31
0.0
  0
LINE
  5
306
330
A
100
AcDbEntity
  8
0
 62
     7
100
AcDbLine
 10
125.933398
 20
104.570017
 30
0.0
 11
159.89136
 21
104.589998
 31
0.0
  0
LINE
  5
307
330
A
100
AcDbEntity
  8
0
 62
     7
100
AcDbLine
 10
152.906429
 20
111.257119
 30
0.0
 11
165.526158
 21
111.257119
 31
0.0
  0
LINE
  5
308
330
A
100
AcDbEntity
  8
0
 62
     7
100
AcDbLine
 10
159.89136
 20
104.589998
 30
0.0
 11
162.595416
 21
104.589998
 31
0.0
  0
LINE
  5
309
330
A
100
AcDbEntity
  8
0
 62
     7
100
AcDbLine
 10
162.595416
 20
104.589998
 30
0.0
 11
165.24435
 21
104.589998
 31
0.0
  0
LINE
  5
30A
330
A
100
AcDbEntity
  8
0
 62
     7
100
AcDbLine
 10
165.24435
 20
104.589998
 30
0.0
 11
167.784418
 21
104.589998
 31
0.0
  0
LINE
  5
30B
330
A
100
AcDbEntity
  8
0
 62
     7
100
AcDbLine
 10
176.318953
 20
109.631896
 30
0.0
 11
178.570668
 21
109.438109
 31
0.0
  0
LINE
  5
30C
330
A
100
AcDbEntity
  8
0
 62
     7
100
AcDbLine
 10
167.784418
 20
104.589998
 30
0.0
 11
170.163601
 21
104.589998
 31
0.0
  0
LINE
  5
30D
330
A
100
AcDbEntity
  8
0
 62
     7
100
AcDbLine
 10
178.570668
 20
109.441554
 30
0.0
 11
179.815036
 21
109.279462
 31
0.0
  0
LINE
  5
30E
330
A
100
AcDbEntity
  8
0
 62
     7
100
AcDbLine
 10
170.163601
 20
104.589998
 30
0.0
 11
172.333667
 21
104.589998
 31
0.0
  0
LINE
  5
30F
330
A
100
AcDbEntity
  8
0
 62
     7
100
AcDbLine
 10
179.815036
 20
109.279462
 30
0.0
 11
180.720407
 21
109.102901
 31
0.0
  0
LINE
  5
310
330
A
100
AcDbEntity
  8
0
 62
     7
100
AcDbLine
 10
172.333667
 20
104.589998
 30
0.0
 11
173.321376
 21
104.589998
 31
0.0
  0
LINE
  5
311
330
A
100
AcDbEntity
  8
0
 62
     7
100
AcDbLine
 10
180.720407
 20
109.102901
 30
0.0
 11
181.209611
 21
109.027281
 31
0.0
  0
LINE
  5
312
330
A
100
AcDbEntity
  8
0
 62
     7
100
AcDbLine
 10
173.321376
 20
104.589998
 30
0.0
 11
174.250518
 21
104.589998
 31
0.0
  0
LINE
  5
313
330
A
100
AcDbEntity
  8
0
 62
     7
100
AcDbLine
 10
181.657818
 20
109.13873
 30
0.0
 11
181.9131
 21
110.408765
 31
0.0
  0
LINE
  5
314
330
A
100
AcDbEntity
  8
0
 62
     7
100
AcDbLine
 10
181.209611
 20
109.027281
 30
0.0
 11
181.573413
 21
108.971299
 31
0.0
  0
LINE
  5
315
330
A
100
AcDbEntity
  8
0
 62
     7
100
AcDbLine
 10
181.573413
 20
108.971299
 30
0.0
 11
181.657818
 21
109.13873
 31
0.0
  0
LINE
  5
316
330
A
100
AcDbEntity
  8
0
 62
     7
100
AcDbLine
 10
174.250518
 20
104.589998
 30
0.0
 11
175.093877
 21
104.589998
 31
0.0
  0
LINE
  5
317
330
A
100
AcDbEntity
  8
0
 62
     7
100
AcDbLine
 10
181.573413
 20
108.971299
 30
0.0
 11
181.760482
 21
108.94391
 31
0.0
  0
LINE
  5
318
330
A
100
AcDbEntity
  8
0
 62
     7
100
AcDbLine
 10
175.093877
 20
104.589998
 30
0.0
 11
175.875225
 21
104.589998
 31
0.0
  0
LINE
  5
319
330
A
100
AcDbEntity
  8
0
 62
     7
100
AcDbLine
 10
181.760482
 20
108.94391
 30
0.0
 11
182.181472
 21
108.93702
 31
0.0
  0
LINE
  5
31A
330
A
100
AcDbEntity
  8
0
 62
     7
100
AcDbLine
 10
175.875225
 20
104.589998
 30
0.0
 11
177.174371
 21
104.589998
 31
0.0
  0
LINE
  5
31B
330
A
100
AcDbEntity
  8
0
 62
     7
100
AcDbLine
 10
182.181472
 20
108.93702
 30
0.0
 11
182.40816
 21
108.932197
 31
0.0
  0
LINE
  5
31C
330
A
100
AcDbEntity
  8
0
 62
     7
100
AcDbLine
 10
177.174371
 20
104.589998
 30
0.0
 11
178.121772
 21
104.589998
 31
0.0
  0
LINE
  5
31D
330
A
100
AcDbEntity
  8
0
 62
     7
100
AcDbLine
 10
182.588338
 20
109.096872
 30
0.0
 11
182.92458
 21
110.366734
 31
0.0
  0
LINE
  5
31E
330
A
100
AcDbEntity
  8
0
 62
     7
100
AcDbLine
 10
182.40816
 20
108.932197
 30
0.0
 11
182.480851
 21
108.929785
 31
0.0
  0
LINE
  5
31F
330
A
100
AcDbEntity
  8
0
 62
     7
100
AcDbLine
 10
182.480851
 20
108.929785
 30
0.0
 11
182.588338
 21
109.096872
 31
0.0
  0
LINE
  5
320
330
A
100
AcDbEntity
  8
0
 62
     7
100
AcDbLine
 10
182.262088
 20
108.888444
 30
0.0
 11
182.480851
 21
108.929785
 31
0.0
  0
LINE
  5
321
330
A
100
AcDbEntity
  8
0
 62
     7
100
AcDbLine
 10
178.121772
 20
104.589998
 30
0.0
 11
178.698136
 21
104.589998
 31
0.0
  0
LINE
  5
322
330
A
100
AcDbEntity
  8
0
 62
     7
100
AcDbLine
 10
178.698136
 20
104.589998
 30
0.0
 11
178.891406
 21
104.589998
 31
0.0
  0
LINE
  5
323
330
A
100
AcDbEntity
  8
0
 62
     7
100
AcDbLine
 10
165.526158
 20
111.257119
 30
0.0
 11
178.780474
 21
111.257119
 31
0.0
  0
LINE
  5
324
330
A
100
AcDbEntity
  8
0
 62
     7
100
AcDbLine
 10
178.778407
 20
111.47416
 30
0.0
 11
165.524091
 21
111.47416
 31
0.0
  0
LINE
  5
325
330
A
100
AcDbEntity
  8
0
 62
     7
100
AcDbLine
 10
173.832628
 20
82.59788699999999
 30
0.0
 11
173.675187
 21
82.59788699999999
 31
0.0
  0
LINE
  5
326
330
A
100
AcDbEntity
  8
0
 62
     7
100
AcDbLine
 10
173.675187
 20
82.59788699999999
 30
0.0
 11
173.20631
 21
82.59788699999999
 31
0.0
  0
LINE
  5
327
330
A
100
AcDbEntity
  8
0
 62
     7
100
AcDbLine
 10
173.20631
 20
82.59788699999999
 30
0.0
 11
172.435642
 21
82.59788699999999
 31
0.0
  0
LINE
  5
328
330
A
100
AcDbEntity
  8
0
 62
     7
100
AcDbLine
 10
172.435642
 20
82.59788699999999
 30
0.0
 11
171.378342
 21
82.59788699999999
 31
0.0
  0
LINE
  5
329
330
A
100
AcDbEntity
  8
0
 62
     7
100
AcDbLine
 10
171.378342
 20
82.59788699999999
 30
0.0
 11
170.742722
 21
82.59788699999999
 31
0.0
  0
LINE
  5
32A
330
A
100
AcDbEntity
  8
0
 62
     7
100
AcDbLine
 10
170.742722
 20
82.59788699999999
 30
0.0
 11
170.056803
 21
82.59788699999999
 31
0.0
  0
LINE
  5
32B
330
A
100
AcDbEntity
  8
0
 62
     7
100
AcDbLine
 10
170.056803
 20
82.59788699999999
 30
0.0
 11
169.300605
 21
82.59788699999999
 31
0.0
  0
LINE
  5
32C
330
A
100
AcDbEntity
  8
0
 62
     7
100
AcDbLine
 10
169.300605
 20
82.59788699999999
 30
0.0
 11
168.497209
 21
82.59788699999999
 31
0.0
  0
LINE
  5
32D
330
A
100
AcDbEntity
  8
0
 62
     7
100
AcDbLine
 10
168.497209
 20
82.59788699999999
 30
0.0
 11
166.731253
 21
82.59788699999999
 31
0.0
  0
LINE
  5
32E
330
A
100
AcDbEntity
  8
0
 62
     7
100
AcDbLine
 10
166.731253
 20
82.59788699999999
 30
0.0
 11
164.795454
 21
82.59788699999999
 31
0.0
  0
LINE
  5
32F
330
A
100
AcDbEntity
  8
0
 62
     7
100
AcDbLine
 10
164.795454
 20
82.59788699999999
 30
0.0
 11
162.729085
 21
82.59788699999999
 31
0.0
  0
LINE
  5
330
330
A
100
AcDbEntity
  8
0
 62
     7
100
AcDbLine
 10
162.729085
 20
82.59788699999999
 30
0.0
 11
160.573834
 21
82.59788699999999
 31
0.0
  0
LINE
  5
331
330
A
100
AcDbEntity
  8
0
 62
     7
100
AcDbLine
 10
160.573834
 20
82.59788699999999
 30
0.0
 11
158.373796
 21
82.59788699999999
 31
0.0
  0
LINE
  5
332
330
A
100
AcDbEntity
  8
0
 62
     7
100
AcDbLine
 10
158.373796
 20
82.59788699999999
 30
0.0
 11
125.934949
 21
82.583417
 31
0.0
  0
LINE
  5
333
330
A
100
AcDbEntity
  8
0
 62
     7
100
AcDbLine
 10
178.634402
 20
104.589998
 30
0.0
 11
173.832628
 21
82.59788699999999
 31
0.0
  0
LINE
  5
334
330
A
100
AcDbEntity
  8
0
 62
     7
100
AcDbLine
 10
125.934949
 20
104.570017
 30
0.0
 11
125.934949
 21
82.583417
 31
0.0
  0
DIMENSION
  5
35C
330
A
100
AcDbEntity
  8
Cotation-JacobDelafon
  6
Continuous
370
     0
100
AcDbDimension
  2
*D1
 10
183.9191041831627
 20
139.093328969466
 30
0.0
 11
154.9262510915814
 21
141.5250479326311
 31
0.0
 70
    32
  1
58.5
 71
     5
 42
57.98570618316277
 73
     0
 74
     0
 75
     0
  3
Cotation-Jacob-Delafon
100
AcDbAlignedDimension
 13
125.933398
 23
111.579925
 33
0.0
 14
183.9191041831627
 24
112.4367936826594
 34
0.0
100
AcDbRotatedDimension
  0
DIMENSION
  5
369
330
A
100
AcDbEntity
  8
Cotation-JacobDelafon
  6
Continuous
370
     0
100
AcDbDimension
  2
*D2
 10
100.6175034879996
 20
82.583417
 30
0.0
 11
98.18476133247443
 21
98.47374800000004
 31
0.0
 70
    32
  1
32
 71
     5
 42
31.78066200000001
 73
     0
 74
     0
 75
     0
  3
Cotation-Jacob-Delafon
100
AcDbAlignedDimension
 13
139.026484
 23
114.364079
 33
0.0
 14
125.934949
 24
82.583417
 34
0.0
 50
90.0
100
AcDbRotatedDimension
  0
ENDSEC
  0
SECTION
  2
OBJECTS
  0
DICTIONARY
  5
19
330
0
100
AcDbDictionary
281
     1
  3
ACAD_COLOR
350
136
  3
ACAD_GROUP
350
1A
  3
ACAD_LAYOUT
350
1E
  3
ACAD_MATERIAL
350
10C
  3
ACAD_MLEADERSTYLE
350
14B
  3
ACAD_MLINESTYLE
350
1B
  3
ACAD_PLOTSETTINGS
350
22
  3
ACAD_PLOTSTYLENAME
350
1F
  3
ACAD_SCALELIST
350
139
  3
ACAD_TABLESTYLE
350
137
  3
ACAD_VISUALSTYLE
350
125
  3
ACAD_WIPEOUT_VARS
350
23
  3
ACDB_RECOMPOSE_DATA
350
254
  3
AcDbVariableDictionary
350
255
  3
AEC_PROPERTY_SET_DEFS
350
34E
  0
DICTIONARY
  5
236
330
14
100
AcDbDictionary
280
     1
281
     1
  3
ADSK_XREC_LAYER_RECONCILED
360
237
  0
DICTIONARY
  5
347
330
346
100
AcDbDictionary
280
     1
281
     1
  0
DICTIONARY
  5
343
330
A
100
AcDbDictionary
280
     1
281
     1
  3
ACAD_SORTENTS
360
344
  0
DICTIONARY
  5
136
102
{ACAD_REACTORS
330
19
102
}
330
19
100
AcDbDictionary
281
     1
  0
DICTIONARY
  5
1A
102
{ACAD_REACTORS
330
19
102
}
330
19
100
AcDbDictionary
281
     1
  0
DICTIONARY
  5
1E
102
{ACAD_REACTORS
330
19
102
}
330
19
100
AcDbDictionary
281
     1
  3
Layout1
350
21
  3
Model
350
20
  0
DICTIONARY
  5
10C
102
{ACAD_REACTORS
330
19
102
}
330
19
100
AcDbDictionary
281
     1
  3
ByBlock
350
115
  3
ByLayer
350
10D
  3
Global
350
11D
  0
DICTIONARY
  5
14B
102
{ACAD_REACTORS
330
19
102
}
330
19
100
AcDbDictionary
281
     1
  3
Standard
350
14C
  0
DICTIONARY
  5
1B
102
{ACAD_REACTORS
330
19
102
}
330
19
100
AcDbDictionary
281
     1
  3
Standard
350
1C
  0
DICTIONARY
  5
22
102
{ACAD_REACTORS
330
19
102
}
330
19
100
AcDbDictionary
281
     1
  0
ACDBDICTIONARYWDFLT
  5
1F
102
{ACAD_REACTORS
330
19
102
}
330
19
100
AcDbDictionary
281
     1
  3
Normal
350
1D
100
AcDbDictionaryWithDefault
340
1D
  0
DICTIONARY
  5
139
102
{ACAD_REACTORS
330
19
102
}
330
19
100
AcDbDictionary
281
     1
  3
A0
350
13A
  3
A1
350
13B
  3
A2
350
13C
  3
A3
350
13D
  3
A4
350
13E
  3
A5
350
13F
  3
A6
350
140
  3
A7
350
141
  3
A8
350
142
  3
A9
350
143
  3
B0
350
144
  3
B1
350
145
  3
B2
350
146
  3
B3
350
147
  3
B4
350
148
  3
B5
350
149
  3
B6
350
14A
  0
DICTIONARY
  5
137
102
{ACAD_REACTORS
330
19
102
}
330
19
100
AcDbDictionary
281
     1
  3
Standard
350
138
  0
DICTIONARY
  5
125
102
{ACAD_REACTORS
330
19
102
}
330
19
100
AcDbDictionary
281
     1
  3
2dWireframe
350
12B
  3
3D Hidden
350
12D
  3
3dWireframe
350
12C
  3
Basic
350
12A
  3
Brighten
350
131
  3
ColorChange
350
135
  3
Conceptual
350
12E
  3
Dim
350
130
  3
Facepattern
350
134
  3
Flat
350
126
  3
FlatWithEdges
350
127
  3
Gouraud
350
128
  3
GouraudWithEdges
350
129
  3
Linepattern
350
133
  3
Realistic
350
12F
  3
Thicken
350
132
  0
WIPEOUTVARIABLES
  5
23
330
19
100
AcDbWipeoutVariables
 70
     1
  0
XRECORD
  5
254
102
{ACAD_REACTORS
330
19
102
}
330
19
100
AcDbXrecord
280
     1
 90
        1
330
138
  0
DICTIONARY
  5
255
102
{ACAD_REACTORS
330
19
102
}
330
19
100
AcDbDictionary
281
     1
  3
CANNOSCALE
350
259
  3
CMLEADERSTYLE
350
257
  3
CTABLESTYLE
350
256
  3
LAYEREVAL
350
25B
  3
LAYERNOTIFY
350
25C
  3
LIGHTINGUNITS
350
25A
  3
MSLTSCALE
350
258
  0
DICTIONARY
  5
34E
102
{ACAD_REACTORS
330
19
102
}
330
19
100
AcDbDictionary
281
     1
  0
XRECORD
  5
237
102
{ACAD_REACTORS
330
236
102
}
330
236
100
AcDbXrecord
280
     1
290
     1
  0
SORTENTSTABLE
  5
344
102
{ACAD_REACTORS
330
343
102
}
330
343
100
AcDbSortentsTable
330
A
331
2B5
  5
2B5
331
2EC
  5
2EC
331
276
  5
276
331
32B
  5
32B
331
2BD
  5
2BD
331
2F4
  5
2F4
331
27E
  5
27E
331
333
  5
333
331
286
  5
286
331
2C5
  5
2C5
331
2FC
  5
2FC
331
304
  5
304
331
28E
  5
28E
331
30C
  5
30C
331
296
  5
296
331
2CD
  5
2CD
331
2D5
  5
2D5
331
314
  5
314
331
29E
  5
29E
331
2A6
  5
2A6
331
2DD
  5
2DD
331
267
  5
267
331
31C
  5
31C
331
324
  5
324
331
2AE
  5
2AE
331
2E5
  5
2E5
331
26F
  5
26F
331
32C
  5
32C
331
277
  5
277
331
2B6
  5
2B6
331
2ED
  5
2ED
331
2F5
  5
2F5
331
334
  5
334
331
27F
  5
27F
331
2BE
  5
2BE
331
2C6
  5
2C6
331
2FD
  5
2FD
331
287
  5
287
331
305
  5
305
331
28F
  5
28F
331
297
  5
297
331
2CE
  5
2CE
331
30D
  5
30D
331
315
  5
315
331
29F
  5
29F
331
2D6
  5
2D6
331
31D
  5
31D
331
268
  5
268
331
2A7
  5
2A7
331
2DE
  5
2DE
331
2E6
  5
2E6
331
325
  5
325
331
2AF
  5
2AF
331
270
  5
270
331
2B7
  5
2B7
331
2EE
  5
2EE
331
278
  5
278
331
32D
  5
32D
331
2BF
  5
2BF
331
2F6
  5
2F6
331
280
  5
280
331
288
  5
288
331
2C7
  5
2C7
331
2FE
  5
2FE
331
306
  5
306
331
290
  5
290
331
2CF
  5
2CF
331
30E
  5
30E
331
298
  5
298
331
2D7
  5
2D7
331
316
  5
316
331
2A0
  5
2A0
331
2A8
  5
2A8
331
2DF
  5
2DF
331
269
  5
269
331
31E
  5
31E
331
326
  5
326
331
2E7
  5
2E7
331
271
  5
271
331
2B0
  5
2B0
331
32E
  5
32E
331
279
  5
279
331
2B8
  5
2B8
331
2EF
  5
2EF
331
2C0
  5
2C0
331
2F7
  5
2F7
331
281
  5
281
331
2FF
  5
2FF
331
289
  5
289
331
307
  5
307
331
2C8
  5
2C8
331
291
  5
291
331
299
  5
299
331
2D0
  5
2D0
331
30F
  5
30F
331
317
  5
317
331
262
  5
262
331
2A1
  5
2A1
331
2D8
  5
2D8
331
2E0
  5
2E0
331
31F
  5
31F
331
26A
  5
26A
331
2A9
  5
2A9
331
327
  5
327
331
2E8
  5
2E8
331
272
  5
272
331
2B1
  5
2B1
331
2B9
  5
2B9
331
2F0
  5
2F0
331
27A
  5
27A
331
32F
  5
32F
331
282
  5
282
331
2C1
  5
2C1
331
2F8
  5
2F8
331
28A
  5
28A
331
300
  5
300
331
308
  5
308
331
292
  5
292
331
2C9
  5
2C9
331
2D1
  5
2D1
331
310
  5
310
331
29A
  5
29A
331
2D9
  5
2D9
331
318
  5
318
331
263
  5
263
331
2A2
  5
2A2
331
2AA
  5
2AA
331
2E1
  5
2E1
331
26B
  5
26B
331
320
  5
320
331
328
  5
328
331
273
  5
273
331
2B2
  5
2B2
331
2E9
  5
2E9
331
2F1
  5
2F1
331
330
  5
330
331
27B
  5
27B
331
2BA
  5
2BA
331
2C2
  5
2C2
331
2F9
  5
2F9
331
283
  5
283
331
301
  5
301
331
28B
  5
28B
331
293
  5
293
331
2CA
  5
2CA
331
309
  5
309
331
29B
  5
29B
331
2D2
  5
2D2
331
311
  5
311
331
319
  5
319
331
264
  5
264
331
2A3
  5
2A3
331
2DA
  5
2DA
331
2E2
  5
2E2
331
321
  5
321
331
26C
  5
26C
331
2AB
  5
2AB
331
2EA
  5
2EA
331
329
  5
329
331
274
  5
274
331
2B3
  5
2B3
331
2BB
  5
2BB
331
2F2
  5
2F2
331
27C
  5
27C
331
331
  5
331
331
284
  5
284
331
2C3
  5
2C3
331
2FA
  5
2FA
331
302
  5
302
331
28C
  5
28C
331
30A
  5
30A
331
294
  5
294
331
2CB
  5
2CB
331
2D3
  5
2D3
331
312
  5
312
331
29C
  5
29C
331
2A4
  5
2A4
331
2DB
  5
2DB
331
265
  5
265
331
31A
  5
31A
331
2AC
  5
2AC
331
2E3
  5
2E3
331
26D
  5
26D
331
322
  5
322
331
32A
  5
32A
331
275
  5
275
331
2B4
  5
2B4
331
2EB
  5
2EB
331
2F3
  5
2F3
331
332
  5
332
331
27D
  5
27D
331
2BC
  5
2BC
331
2C4
  5
2C4
331
2FB
  5
2FB
331
285
  5
285
331
303
  5
303
331
28D
  5
28D
331
295
  5
295
331
2CC
  5
2CC
331
30B
  5
30B
331
313
  5
313
331
29D
  5
29D
331
2D4
  5
2D4
331
31B
  5
31B
331
266
  5
266
331
2A5
  5
2A5
331
2DC
  5
2DC
331
2E4
  5
2E4
331
323
  5
323
331
26E
  5
26E
331
2AD
  5
2AD
  0
LAYOUT
  5
21
102
{ACAD_REACTORS
330
1E
102
}
330
1E
100
AcDbPlotSettings
  1

  2

  4

  6

 40
0.0
 41
0.0
 42
0.0
 43
0.0
 44
0.0
 45
0.0
 46
0.0
 47
0.0
 48
0.0
 49
0.0
140
0.0
141
0.0
142
1.0
143
1.0
 70
     0
 72
     0
 73
     0
 74
     0
  7

 75
     0
147
1.0
 76
     0
 77
     2
 78
   300
148
0.0
149
0.0
100
AcDbLayout
  1
Layout1
 70
     0
 71
     1
 10
0.0
 20
0.0
 11
12.0
 21
9.0
 12
0.0
 22
0.0
 32
0.0
 14
1.000000000000000E+20
 24
1.000000000000000E+20
 34
1.000000000000000E+20
 15
-1.000000000000000E+20
 25
-1.000000000000000E+20
 35
-1.000000000000000E+20
146
0.0
 13
0.0
 23
0.0
 33
0.0
 16
1.0
 26
0.0
 36
0.0
 17
0.0
 27
1.0
 37
0.0
 76
     0
330
B
  0
LAYOUT
  5
20
102
{ACAD_REACTORS
330
1E
102
}
330
1E
100
AcDbPlotSettings
  1

  2

  4

  6

 40
0.0
 41
0.0
 42
0.0
 43
0.0
 44
0.0
 45
0.0
 46
0.0
 47
0.0
 48
0.0
 49
0.0
140
0.0
141
0.0
142
1.0
143
1.0
 70
  1024
 72
     0
 73
     0
 74
     0
  7

 75
     0
147
1.0
 76
     0
 77
     2
 78
   300
148
0.0
149
0.0
100
AcDbLayout
  1
Model
 70
     0
 71
     0
 10
0.0
 20
0.0
 11
0.0
 21
0.0
 12
0.0
 22
0.0
 32
0.0
 14
0.0
 24
0.0
 34
0.0
 15
0.0
 25
0.0
 35
0.0
146
0.0
 13
0.0
 23
0.0
 33
0.0
 16
0.0
 26
0.0
 36
0.0
 17
0.0
 27
0.0
 37
0.0
 76
     0
330
A
331
15
  0
MATERIAL
  5
115
102
{ACAD_XDICTIONARY
360
116
102
}
102
{ACAD_REACTORS
330
10C
102
}
330
10C
100
AcDbMaterial
  1
ByBlock
 72
     0
 43
0.0208333333333333
 43
0.0
 43
0.0
 43
0.0
 43
0.0
 43
0.0208333333333333
 43
0.0
 43
0.0
 43
0.0
 43
0.0
 43
1.0
 43
0.0
 43
0.0
 43
0.0
 43
0.0
 43
1.0
 77
     0
 47
0.0208333333333333
 47
0.0
 47
0.0
 47
0.0
 47
0.0
 47
0.0208333333333333
 47
0.0
 47
0.0
 47
0.0
 47
0.0
 47
1.0
 47
0.0
 47
0.0
 47
0.0
 47
0.0
 47
1.0
171
     0
 49
0.0208333333333333
 49
0.0
 49
0.0
 49
0.0
 49
0.0
 49
0.0208333333333333
 49
0.0
 49
0.0
 49
0.0
 49
0.0
 49
1.0
 49
0.0
 49
0.0
 49
0.0
 49
0.0
 49
1.0
175
     0
142
0.0208333333333333
142
0.0
142
0.0
142
0.0
142
0.0
142
0.0208333333333333
142
0.0
142
0.0
142
0.0
142
0.0
142
1.0
142
0.0
142
0.0
142
0.0
142
0.0
142
1.0
179
     0
144
0.0208333333333333
144
0.0
144
0.0
144
0.0
144
0.0
144
0.0208333333333333
144
0.0
144
0.0
144
0.0
144
0.0
144
1.0
144
0.0
144
0.0
144
0.0
144
0.0
144
1.0
147
0.0208333333333333
147
0.0
147
0.0
147
0.0
147
0.0
147
0.0208333333333333
147
0.0
147
0.0
147
0.0
147
0.0
147
1.0
147
0.0
147
0.0
147
0.0
147
0.0
147
1.0
  0
MATERIAL
  5
10D
102
{ACAD_XDICTIONARY
360
10E
102
}
102
{ACAD_REACTORS
330
10C
102
}
330
10C
100
AcDbMaterial
  1
ByLayer
 72
     0
 43
0.0208333333333333
 43
0.0
 43
0.0
 43
0.0
 43
0.0
 43
0.0208333333333333
 43
0.0
 43
0.0
 43
0.0
 43
0.0
 43
1.0
 43
0.0
 43
0.0
 43
0.0
 43
0.0
 43
1.0
 77
     0
 47
0.0208333333333333
 47
0.0
 47
0.0
 47
0.0
 47
0.0
 47
0.0208333333333333
 47
0.0
 47
0.0
 47
0.0
 47
0.0
 47
1.0
 47
0.0
 47
0.0
 47
0.0
 47
0.0
 47
1.0
171
     0
 49
0.0208333333333333
 49
0.0
 49
0.0
 49
0.0
 49
0.0
 49
0.0208333333333333
 49
0.0
 49
0.0
 49
0.0
 49
0.0
 49
1.0
 49
0.0
 49
0.0
 49
0.0
 49
0.0
 49
1.0
175
     0
142
0.0208333333333333
142
0.0
142
0.0
142
0.0
142
0.0
142
0.0208333333333333
142
0.0
142
0.0
142
0.0
142
0.0
142
1.0
142
0.0
142
0.0
142
0.0
142
0.0
142
1.0
179
     0
144
0.0208333333333333
144
0.0
144
0.0
144
0.0
144
0.0
144
0.0208333333333333
144
0.0
144
0.0
144
0.0
144
0.0
144
1.0
144
0.0
144
0.0
144
0.0
144
0.0
144
1.0
147
0.0208333333333333
147
0.0
147
0.0
147
0.0
147
0.0
147
0.0208333333333333
147
0.0
147
0.0
147
0.0
147
0.0
147
1.0
147
0.0
147
0.0
147
0.0
147
0.0
147
1.0
  0
MATERIAL
  5
11D
102
{ACAD_XDICTIONARY
360
11E
102
}
102
{ACAD_REACTORS
330
10C
102
}
330
10C
100
AcDbMaterial
  1
Global
 72
     0
 43
0.0208333333333333
 43
0.0
 43
0.0
 43
0.0
 43
0.0
 43
0.0208333333333333
 43
0.0
 43
0.0
 43
0.0
 43
0.0
 43
1.0
 43
0.0
 43
0.0
 43
0.0
 43
0.0
 43
1.0
 77
     0
 47
0.0208333333333333
 47
0.0
 47
0.0
 47
0.0
 47
0.0
 47
0.0208333333333333
 47
0.0
 47
0.0
 47
0.0
 47
0.0
 47
1.0
 47
0.0
 47
0.0
 47
0.0
 47
0.0
 47
1.0
171
     0
 49
0.0208333333333333
 49
0.0
 49
0.0
 49
0.0
 49
0.0
 49
0.0208333333333333
 49
0.0
 49
0.0
 49
0.0
 49
0.0
 49
1.0
 49
0.0
 49
0.0
 49
0.0
 49
0.0
 49
1.0
175
     0
142
0.0208333333333333
142
0.0
142
0.0
142
0.0
142
0.0
142
0.0208333333333333
142
0.0
142
0.0
142
0.0
142
0.0
142
1.0
142
0.0
142
0.0
142
0.0
142
0.0
142
1.0
179
     0
144
0.0208333333333333
144
0.0
144
0.0
144
0.0
144
0.0
144
0.0208333333333333
144
0.0
144
0.0
144
0.0
144
0.0
144
1.0
144
0.0
144
0.0
144
0.0
144
0.0
144
1.0
147
0.0208333333333333
147
0.0
147
0.0
147
0.0
147
0.0
147
0.0208333333333333
147
0.0
147
0.0
147
0.0
147
0.0
147
1.0
147
0.0
147
0.0
147
0.0
147
0.0
147
1.0
  0
MLEADERSTYLE
  5
14C
102
{ACAD_REACTORS
330
14B
102
}
330
14B
100
AcDbMLeaderStyle
170
     2
171
     1
172
     0
 90
        2
 40
0.0
 41
0.0
173
     1
 91
-1056964608
340
11
 92
       -2
290
     1
 42
2.0
291
     1
 43
0.36
  3
Standard
 44
4.0
300

342
17
174
     1
178
     6
175
     1
176
     0
 93
-1056964608
 45
4.0
292
     0
297
     0
 46
4.0
 94
-1056964608
 47
1.0
 49
1.0
140
1.0
293
     1
141
0.0
294
     1
177
     0
142
1.0
295
     0
296
     0
143
0.125
1001
ACAD_MLEADERVER
1070
     2
  0
MLINESTYLE
  5
1C
102
{ACAD_REACTORS
330
1B
102
}
330
1B
100
AcDbMlineStyle
  2
STANDARD
 70
     0
  3

 62
     0
 51
90.0
 52
90.0
 71
     2
 49
0.5
 62
   256
  6
BYLAYER
 49
-0.5
 62
   256
  6
BYLAYER
  0
ACDBPLACEHOLDER
  5
1D
102
{ACAD_REACTORS
330
1F
102
}
330
1F
  0
SCALE
  5
13A
102
{ACAD_REACTORS
330
139
102
}
330
139
100
AcDbScale
 70
     0
300
1:1
140
1.0
141
1.0
290
     1
  0
SCALE
  5
13B
102
{ACAD_REACTORS
330
139
102
}
330
139
100
AcDbScale
 70
     0
300
1:2
140
1.0
141
2.0
290
     0
  0
SCALE
  5
13C
102
{ACAD_REACTORS
330
139
102
}
330
139
100
AcDbScale
 70
     0
300
1:4
140
1.0
141
4.0
290
     0
  0
SCALE
  5
13D
102
{ACAD_REACTORS
330
139
102
}
330
139
100
AcDbScale
 70
     0
300
1:5
140
1.0
141
5.0
290
     0
  0
SCALE
  5
13E
102
{ACAD_REACTORS
330
139
102
}
330
139
100
AcDbScale
 70
     0
300
1:8
140
1.0
141
8.0
290
     0
  0
SCALE
  5
13F
102
{ACAD_REACTORS
330
139
102
}
330
139
100
AcDbScale
 70
     0
300
1:10
140
1.0
141
10.0
290
     0
  0
SCALE
  5
140
102
{ACAD_REACTORS
330
139
102
}
330
139
100
AcDbScale
 70
     0
300
1:16
140
1.0
141
16.0
290
     0
  0
SCALE
  5
141
102
{ACAD_REACTORS
330
139
102
}
330
139
100
AcDbScale
 70
     0
300
1:20
140
1.0
141
20.0
290
     0
  0
SCALE
  5
142
102
{ACAD_REACTORS
330
139
102
}
330
139
100
AcDbScale
 70
     0
300
1:30
140
1.0
141
30.0
290
     0
  0
SCALE
  5
143
102
{ACAD_REACTORS
330
139
102
}
330
139
100
AcDbScale
 70
     0
300
1:40
140
1.0
141
40.0
290
     0
  0
SCALE
  5
144
102
{ACAD_REACTORS
330
139
102
}
330
139
100
AcDbScale
 70
     0
300
1:50
140
1.0
141
50.0
290
     0
  0
SCALE
  5
145
102
{ACAD_REACTORS
330
139
102
}
330
139
100
AcDbScale
 70
     0
300
1:100
140
1.0
141
100.0
290
     0
  0
SCALE
  5
146
102
{ACAD_REACTORS
330
139
102
}
330
139
100
AcDbScale
 70
     0
300
2:1
140
2.0
141
1.0
290
     0
  0
SCALE
  5
147
102
{ACAD_REACTORS
330
139
102
}
330
139
100
AcDbScale
 70
     0
300
4:1
140
4.0
141
1.0
290
     0
  0
SCALE
  5
148
102
{ACAD_REACTORS
330
139
102
}
330
139
100
AcDbScale
 70
     0
300
8:1
140
8.0
141
1.0
290
     0
  0
SCALE
  5
149
102
{ACAD_REACTORS
330
139
102
}
330
139
100
AcDbScale
 70
     0
300
10:1
140
10.0
141
1.0
290
     0
  0
SCALE
  5
14A
102
{ACAD_REACTORS
330
139
102
}
330
139
100
AcDbScale
 70
     0
300
100:1
140
100.0
141
1.0
290
     0
  0
TABLESTYLE
  5
138
102
{ACAD_XDICTIONARY
360
252
102
}
102
{ACAD_REACTORS
330
137
102
}
330
137
100
AcDbTableStyle
  3
Standard
 70
     0
 71
     0
 40
1.5
 41
1.5
280
     0
281
     0
  7
Standard
140
4.5
170
     2
 62
     0
 63
     7
283
     0
 90
      512
 91
        0
  1

274
    -2
284
     1
 64
     0
275
    -2
285
     1
 65
     0
276
    -2
286
     1
 66
     0
277
    -2
287
     1
 67
     0
278
    -2
288
     1
 68
     0
279
    -2
289
     1
 69
     0
  7
Standard
140
6.0
170
     5
 62
     0
 63
     7
283
     0
 90
      512
 91
        0
  1

274
    -2
284
     1
 64
     0
275
    -2
285
     1
 65
     0
276
    -2
286
     1
 66
     0
277
    -2
287
     1
 67
     0
278
    -2
288
     1
 68
     0
279
    -2
289
     1
 69
     0
  7
Standard
140
4.5
170
     5
 62
     0
 63
     7
283
     0
 90
      512
 91
        0
  1

274
    -2
284
     1
 64
     0
275
    -2
285
     1
 65
     0
276
    -2
286
     1
 66
     0
277
    -2
287
     1
 67
     0
278
    -2
288
     1
 68
     0
279
    -2
289
     1
 69
     0
  0
VISUALSTYLE
  5
12B
102
{ACAD_REACTORS
330
125
102
}
330
125
100
AcDbVisualStyle
  2
2dWireframe
 70
     4
 71
     0
 72
     2
 73
     0
 90
        0
 40
-0.6
 41
-30.0
 62
     5
 63
     7
421
 16777215
 74
     1
 91
        4
 64
     7
 65
   257
 75
     1
175
     1
 42
1.0
 92
        0
 66
   257
 43
1.0
 76
     1
 77
     6
 78
     2
 67
     7
 79
     5
170
     0
171
     0
290
     0
174
     0
 93
        1
 44
0.0
173
     0
291
     0
 45
0.0
  0
VISUALSTYLE
  5
12D
102
{ACAD_REACTORS
330
125
102
}
330
125
100
AcDbVisualStyle
  2
3D Hidden
 70
     6
 71
     1
 72
     2
 73
     2
 90
        0
 40
-0.6
 41
-30.0
 62
     5
 63
     7
421
 16777215
 74
     2
 91
        2
 64
     7
 65
   257
 75
     2
175
     1
 42
40.0
 92
        0
 66
   257
 43
1.0
 76
     1
 77
     6
 78
     2
 67
     7
 79
     3
170
     0
171
     0
290
     0
174
     0
 93
        1
 44
0.0
173
     0
291
     0
 45
0.0
  0
VISUALSTYLE
  5
12C
102
{ACAD_REACTORS
330
125
102
}
330
125
100
AcDbVisualStyle
  2
3dWireframe
 70
     5
 71
     0
 72
     2
 73
     0
 90
        0
 40
-0.6
 41
-30.0
 62
     5
 63
     7
421
 16777215
 74
     1
 91
        4
 64
     7
 65
   257
 75
     1
175
     1
 42
1.0
 92
        0
 66
   257
 43
1.0
 76
     1
 77
     6
 78
     2
 67
     7
 79
     5
170
     0
171
     0
290
     0
174
     0
 93
        1
 44
0.0
173
     0
291
     0
 45
0.0
  0
VISUALSTYLE
  5
12A
102
{ACAD_REACTORS
330
125
102
}
330
125
100
AcDbVisualStyle
  2
Basic
 70
     7
 71
     1
 72
     0
 73
     1
 90
        0
 40
-0.6
 41
-30.0
 62
     5
 63
     7
421
 16777215
 74
     0
 91
        4
 64
     7
 65
   257
 75
     1
175
     1
 42
1.0
 92
        8
 66
     7
 43
1.0
 76
     1
 77
     6
 78
     2
 67
     7
 79
     5
170
     0
171
     0
290
     0
174
     0
 93
        1
 44
0.0
173
     0
291
     1
 45
0.0
  0
VISUALSTYLE
  5
131
102
{ACAD_REACTORS
330
125
102
}
330
125
100
AcDbVisualStyle
  2
Brighten
 70
    12
 71
     2
 72
     2
 73
     0
 90
        0
 40
-0.6
 41
-30.0
 62
     5
 63
     7
421
 16777215
 74
     1
 91
        4
 64
     7
 65
   257
 75
     1
175
     1
 42
1.0
 92
        8
 66
     7
 43
1.0
 76
     1
 77
     6
 78
     2
 67
     7
 79
     5
170
     0
171
     0
290
     0
174
     0
 93
        1
 44
50.0
173
     0
291
     1
 45
0.0
  0
VISUALSTYLE
  5
135
102
{ACAD_REACTORS
330
125
102
}
330
125
100
AcDbVisualStyle
  2
ColorChange
 70
    16
 71
     2
 72
     2
 73
     3
 90
        0
 40
-0.6
 41
-30.0
 62
     5
 63
     8
421
  8421504
 74
     1
 91
        4
 64
     7
 65
   257
 75
     1
175
     1
 42
1.0
 92
        8
 66
     8
424
  8421504
 43
1.0
 76
     1
 77
     6
 78
     2
 67
     7
 79
     5
170
     0
171
     0
290
     0
174
     0
 93
        1
 44
0.0
173
     0
291
     1
 45
0.0
  0
VISUALSTYLE
  5
12E
102
{ACAD_REACTORS
330
125
102
}
330
125
100
AcDbVisualStyle
  2
Conceptual
 70
     9
 71
     3
 72
     2
 73
     0
 90
        0
 40
-0.6
 41
-30.0
 62
     5
 63
     7
421
 16777215
 74
     2
 91
        2
 64
     7
 65
   257
 75
     1
175
     1
 42
40.0
 92
        8
 66
     7
 43
1.0
 76
     1
 77
     6
 78
     2
 67
     7
 79
     3
170
     0
171
     0
290
     0
174
     0
 93
        1
 44
0.0
173
     0
291
     0
 45
0.0
  0
VISUALSTYLE
  5
130
102
{ACAD_REACTORS
330
125
102
}
330
125
100
AcDbVisualStyle
  2
Dim
 70
    11
 71
     2
 72
     2
 73
     0
 90
        0
 40
-0.6
 41
-30.0
 62
     5
 63
     7
421
 16777215
 74
     1
 91
        4
 64
     7
 65
   257
 75
     1
175
     1
 42
1.0
 92
        8
 66
     7
 43
1.0
 76
     1
 77
     6
 78
     2
 67
     7
 79
     5
170
     0
171
     0
290
     0
174
     0
 93
        1
 44
-50.0
173
     0
291
     1
 45
0.0
  0
VISUALSTYLE
  5
134
102
{ACAD_REACTORS
330
125
102
}
330
125
100
AcDbVisualStyle
  2
Facepattern
 70
    15
 71
     2
 72
     2
 73
     0
 90
        0
 40
-0.6
 41
-30.0
 62
     5
 63
     7
421
 16777215
 74
     1
 91
        4
 64
     7
 65
   257
 75
     1
175
     1
 42
1.0
 92
        8
 66
     7
 43
1.0
 76
     1
 77
     6
 78
     2
 67
     7
 79
     5
170
     0
171
     0
290
     0
174
     0
 93
        1
 44
0.0
173
     0
291
     1
 45
0.0
  0
VISUALSTYLE
  5
126
102
{ACAD_REACTORS
330
125
102
}
330
125
100
AcDbVisualStyle
  2
Flat
 70
     0
 71
     2
 72
     1
 73
     1
 90
        2
 40
-0.6
 41
30.0
 62
     5
 63
     7
421
 16777215
 74
     0
 91
        4
 64
     7
 65
   257
 75
     1
175
     1
 42
1.0
 92
        8
 66
     7
 43
1.0
 76
     1
 77
     6
 78
     2
 67
     7
 79
     5
170
     0
171
     0
290
     0
174
     0
 93
       13
 44
0.0
173
     0
291
     1
 45
0.0
  0
VISUALSTYLE
  5
127
102
{ACAD_REACTORS
330
125
102
}
330
125
100
AcDbVisualStyle
  2
FlatWithEdges
 70
     1
 71
     2
 72
     1
 73
     1
 90
        2
 40
-0.6
 41
30.0
 62
     5
 63
     7
421
 16777215
 74
     1
 91
        4
 64
     7
 65
   257
 75
     1
175
     1
 42
1.0
 92
        0
 66
   257
 43
1.0
 76
     1
 77
     6
 78
     2
 67
     7
 79
     5
170
     0
171
     0
290
     0
174
     0
 93
       13
 44
0.0
173
     0
291
     1
 45
0.0
  0
VISUALSTYLE
  5
128
102
{ACAD_REACTORS
330
125
102
}
330
125
100
AcDbVisualStyle
  2
Gouraud
 70
     2
 71
     2
 72
     2
 73
     1
 90
        2
 40
-0.6
 41
30.0
 62
     5
 63
     7
421
 16777215
 74
     0
 91
        4
 64
     7
 65
   257
 75
     1
175
     1
 42
1.0
 92
        0
 66
     7
 43
1.0
 76
     1
 77
     6
 78
     2
 67
     7
 79
     5
170
     0
171
     0
290
     0
174
     0
 93
       13
 44
0.0
173
     0
291
     1
 45
0.0
  0
VISUALSTYLE
  5
129
102
{ACAD_REACTORS
330
125
102
}
330
125
100
AcDbVisualStyle
  2
GouraudWithEdges
 70
     3
 71
     2
 72
     2
 73
     1
 90
        2
 40
-0.6
 41
30.0
 62
     5
 63
     7
421
 16777215
 74
     1
 91
        4
 64
     7
 65
   257
 75
     1
175
     1
 42
1.0
 92
        0
 66
   257
 43
1.0
 76
     1
 77
     6
 78
     2
 67
     7
 79
     5
170
     0
171
     0
290
     0
174
     0
 93
       13
 44
0.0
173
     0
291
     1
 45
0.0
  0
VISUALSTYLE
  5
133
102
{ACAD_REACTORS
330
125
102
}
330
125
100
AcDbVisualStyle
  2
Linepattern
 70
    14
 71
     2
 72
     2
 73
     0
 90
        0
 40
-0.6
 41
-30.0
 62
     5
 63
     7
421
 16777215
 74
     1
 91
        4
 64
     7
 65
   257
 75
     7
175
     7
 42
1.0
 92
        8
 66
     7
 43
1.0
 76
     1
 77
     6
 78
     2
 67
     7
 79
     5
170
     0
171
     0
290
     0
174
     0
 93
        1
 44
0.0
173
     0
291
     1
 45
0.0
  0
VISUALSTYLE
  5
12F
102
{ACAD_REACTORS
330
125
102
}
330
125
100
AcDbVisualStyle
  2
Realistic
 70
     8
 71
     2
 72
     2
 73
     0
 90
        0
 40
-0.6
 41
-30.0
 62
     5
 63
     7
421
 16777215
 74
     1
 91
        0
 64
     7
 65
   257
 75
     1
175
     1
 42
1.0
 92
        8
 66
     8
424
  7895160
 43
1.0
 76
     1
 77
     6
 78
     2
 67
     7
 79
     5
170
     0
171
     0
290
     0
174
     0
 93
       13
 44
0.0
173
     0
291
     0
 45
0.0
  0
VISUALSTYLE
  5
132
102
{ACAD_REACTORS
330
125
102
}
330
125
100
AcDbVisualStyle
  2
Thicken
 70
    13
 71
     2
 72
     2
 73
     0
 90
        0
 40
-0.6
 41
-30.0
 62
     5
 63
     7
421
 16777215
 74
     1
 91
        4
 64
     7
 65
   257
 75
     1
175
     1
 42
1.0
 92
       12
 66
     7
 43
1.0
 76
     1
 77
     6
 78
     2
 67
     7
 79
     5
170
     0
171
     0
290
     0
174
     0
 93
        1
 44
0.0
173
     0
291
     1
 45
0.0
  0
DICTIONARYVAR
  5
259
102
{ACAD_REACTORS
330
255
102
}
330
255
100
DictionaryVariables
280
     0
  1
1:1
  0
DICTIONARYVAR
  5
257
102
{ACAD_REACTORS
330
255
102
}
330
255
100
DictionaryVariables
280
     0
  1
STANDARD
  0
DICTIONARYVAR
  5
256
102
{ACAD_REACTORS
330
255
102
}
330
255
100
DictionaryVariables
280
     0
  1
STANDARD
  0
DICTIONARYVAR
  5
25B
102
{ACAD_REACTORS
330
255
102
}
330
255
100
DictionaryVariables
280
     0
  1
1
  0
DICTIONARYVAR
  5
25C
102
{ACAD_REACTORS
330
255
102
}
330
255
100
DictionaryVariables
280
     0
  1
15
  0
DICTIONARYVAR
  5
25A
102
{ACAD_REACTORS
330
255
102
}
330
255
100
DictionaryVariables
280
     0
  1
0
  0
DICTIONARYVAR
  5
258
102
{ACAD_REACTORS
330
255
102
}
330
255
100
DictionaryVariables
280
     0
  1
0
  0
DICTIONARY
  5
116
330
115
100
AcDbDictionary
280
     1
281
     1
  3
BUMPTILE
360
118
  3
DIFFUSETILE
360
117
  3
OPACITYTILE
360
11B
  3
REFLECTIONTILE
360
11A
  3
REFRACTIONTILE
360
11C
  3
SPECULARTILE
360
119
  0
DICTIONARY
  5
10E
330
10D
100
AcDbDictionary
280
     1
281
     1
  3
BUMPTILE
360
110
  3
DIFFUSETILE
360
10F
  3
OPACITYTILE
360
113
  3
REFLECTIONTILE
360
112
  3
REFRACTIONTILE
360
114
  3
SPECULARTILE
360
111
  0
DICTIONARY
  5
11E
330
11D
100
AcDbDictionary
280
     1
281
     1
  3
BUMPTILE
360
120
  3
DIFFUSETILE
360
11F
  3
OPACITYTILE
360
123
  3
REFLECTIONTILE
360
122
  3
REFRACTIONTILE
360
124
  3
SPECULARTILE
360
121
  0
DICTIONARY
  5
252
330
138
100
AcDbDictionary
280
     1
281
     1
  3
ACAD_ROUNDTRIP_2008_TABLESTYLE_CELLSTYLEMAP
360
39E
  0
XRECORD
  5
118
102
{ACAD_REACTORS
330
116
102
}
330
116
100
AcDbXrecord
280
     1
270
     1
271
     1
  0
XRECORD
  5
117
102
{ACAD_REACTORS
330
116
102
}
330
116
100
AcDbXrecord
280
     1
270
     1
271
     1
  0
XRECORD
  5
11B
102
{ACAD_REACTORS
330
116
102
}
330
116
100
AcDbXrecord
280
     1
270
     1
271
     1
  0
XRECORD
  5
11A
102
{ACAD_REACTORS
330
116
102
}
330
116
100
AcDbXrecord
280
     1
270
     1
271
     1
  0
XRECORD
  5
11C
102
{ACAD_REACTORS
330
116
102
}
330
116
100
AcDbXrecord
280
     1
270
     1
271
     1
  0
XRECORD
  5
119
102
{ACAD_REACTORS
330
116
102
}
330
116
100
AcDbXrecord
280
     1
270
     1
271
     1
  0
XRECORD
  5
110
102
{ACAD_REACTORS
330
10E
102
}
330
10E
100
AcDbXrecord
280
     1
270
     1
271
     1
  0
XRECORD
  5
10F
102
{ACAD_REACTORS
330
10E
102
}
330
10E
100
AcDbXrecord
280
     1
270
     1
271
     1
  0
XRECORD
  5
113
102
{ACAD_REACTORS
330
10E
102
}
330
10E
100
AcDbXrecord
280
     1
270
     1
271
     1
  0
XRECORD
  5
112
102
{ACAD_REACTORS
330
10E
102
}
330
10E
100
AcDbXrecord
280
     1
270
     1
271
     1
  0
XRECORD
  5
114
102
{ACAD_REACTORS
330
10E
102
}
330
10E
100
AcDbXrecord
280
     1
270
     1
271
     1
  0
XRECORD
  5
111
102
{ACAD_REACTORS
330
10E
102
}
330
10E
100
AcDbXrecord
280
     1
270
     1
271
     1
  0
XRECORD
  5
120
102
{ACAD_REACTORS
330
11E
102
}
330
11E
100
AcDbXrecord
280
     1
270
     1
271
     1
  0
XRECORD
  5
11F
102
{ACAD_REACTORS
330
11E
102
}
330
11E
100
AcDbXrecord
280
     1
270
     1
271
     1
  0
XRECORD
  5
123
102
{ACAD_REACTORS
330
11E
102
}
330
11E
100
AcDbXrecord
280
     1
270
     1
271
     1
  0
XRECORD
  5
122
102
{ACAD_REACTORS
330
11E
102
}
330
11E
100
AcDbXrecord
280
     1
270
     1
271
     1
  0
XRECORD
  5
124
102
{ACAD_REACTORS
330
11E
102
}
330
11E
100
AcDbXrecord
280
     1
270
     1
271
     1
  0
XRECORD
  5
121
102
{ACAD_REACTORS
330
11E
102
}
330
11E
100
AcDbXrecord
280
     1
270
     1
271
     1
  0
CELLSTYLEMAP
  5
39E
102
{ACAD_REACTORS
330
252
102
}
330
252
100
AcDbCellStyleMap
 90
        3
300
CELLSTYLE
  1
TABLEFORMAT_BEGIN
 90
        5
170
     1
 91
        0
 92
    32768
 62
   257
 93
        1
300
CONTENTFORMAT
  1
CONTENTFORMAT_BEGIN
 90
        0
 91
        0
 92
      512
 93
        0
300

 40
0.0
140
1.0
 94
        5
 62
     0
340
17
144
6.0
309
CONTENTFORMAT_END
171
     1
301
MARGIN
  1
CELLMARGIN_BEGIN
 40
1.5
 40
1.5
 40
1.5
 40
1.5
 40
4.5
 40
4.5
309
CELLMARGIN_END
 94
        6
 95
        1
302
GRIDFORMAT
  1
GRIDFORMAT_BEGIN
 90
        0
 91
        1
 62
     0
 92
       -2
340
0
 93
        0
 40
1.125
309
GRIDFORMAT_END
 95
        2
302
GRIDFORMAT
  1
GRIDFORMAT_BEGIN
 90
        0
 91
        1
 62
     0
 92
       -2
340
0
 93
        0
 40
1.125
309
GRIDFORMAT_END
 95
        4
302
GRIDFORMAT
  1
GRIDFORMAT_BEGIN
 90
        0
 91
        1
 62
     0
 92
       -2
340
0
 93
        0
 40
1.125
309
GRIDFORMAT_END
 95
        8
302
GRIDFORMAT
  1
GRIDFORMAT_BEGIN
 90
        0
 91
        1
 62
     0
 92
       -2
340
0
 93
        0
 40
1.125
309
GRIDFORMAT_END
 95
       16
302
GRIDFORMAT
  1
GRIDFORMAT_BEGIN
 90
        0
 91
        1
 62
     0
 92
       -2
340
0
 93
        0
 40
1.125
309
GRIDFORMAT_END
 95
       32
302
GRIDFORMAT
  1
GRIDFORMAT_BEGIN
 90
        0
 91
        1
 62
     0
 92
       -2
340
0
 93
        0
 40
1.125
309
GRIDFORMAT_END
309
TABLEFORMAT_END
  1
CELLSTYLE_BEGIN
 90
        1
 91
        1
300
_TITLE
309
CELLSTYLE_END
300
CELLSTYLE
  1
TABLEFORMAT_BEGIN
 90
        5
170
     1
 91
        0
 92
        0
 62
   257
 93
        1
300
CONTENTFORMAT
  1
CONTENTFORMAT_BEGIN
 90
        0
 91
        0
 92
      512
 93
        0
300

 40
0.0
140
1.0
 94
        5
 62
     0
340
17
144
4.5
309
CONTENTFORMAT_END
171
     1
301
MARGIN
  1
CELLMARGIN_BEGIN
 40
1.5
 40
1.5
 40
1.5
 40
1.5
 40
4.5
 40
4.5
309
CELLMARGIN_END
 94
        6
 95
        1
302
GRIDFORMAT
  1
GRIDFORMAT_BEGIN
 90
        0
 91
        1
 62
     0
 92
       -2
340
0
 93
        0
 40
1.125
309
GRIDFORMAT_END
 95
        2
302
GRIDFORMAT
  1
GRIDFORMAT_BEGIN
 90
        0
 91
        1
 62
     0
 92
       -2
340
0
 93
        0
 40
1.125
309
GRIDFORMAT_END
 95
        4
302
GRIDFORMAT
  1
GRIDFORMAT_BEGIN
 90
        0
 91
        1
 62
     0
 92
       -2
340
0
 93
        0
 40
1.125
309
GRIDFORMAT_END
 95
        8
302
GRIDFORMAT
  1
GRIDFORMAT_BEGIN
 90
        0
 91
        1
 62
     0
 92
       -2
340
0
 93
        0
 40
1.125
309
GRIDFORMAT_END
 95
       16
302
GRIDFORMAT
  1
GRIDFORMAT_BEGIN
 90
        0
 91
        1
 62
     0
 92
       -2
340
0
 93
        0
 40
1.125
309
GRIDFORMAT_END
 95
       32
302
GRIDFORMAT
  1
GRIDFORMAT_BEGIN
 90
        0
 91
        1
 62
     0
 92
       -2
340
0
 93
        0
 40
1.125
309
GRIDFORMAT_END
309
TABLEFORMAT_END
  1
CELLSTYLE_BEGIN
 90
        2
 91
        1
300
_HEADER
309
CELLSTYLE_END
300
CELLSTYLE
  1
TABLEFORMAT_BEGIN
 90
        5
170
     1
 91
        0
 92
        0
 62
   257
 93
        1
300
CONTENTFORMAT
  1
CONTENTFORMAT_BEGIN
 90
        0
 91
        0
 92
      512
 93
        0
300

 40
0.0
140
1.0
 94
        2
 62
     0
340
17
144
4.5
309
CONTENTFORMAT_END
171
     1
301
MARGIN
  1
CELLMARGIN_BEGIN
 40
1.5
 40
1.5
 40
1.5
 40
1.5
 40
4.5
 40
4.5
309
CELLMARGIN_END
 94
        6
 95
        1
302
GRIDFORMAT
  1
GRIDFORMAT_BEGIN
 90
        0
 91
        1
 62
     0
 92
       -2
340
0
 93
        0
 40
1.125
309
GRIDFORMAT_END
 95
        2
302
GRIDFORMAT
  1
GRIDFORMAT_BEGIN
 90
        0
 91
        1
 62
     0
 92
       -2
340
0
 93
        0
 40
1.125
309
GRIDFORMAT_END
 95
        4
302
GRIDFORMAT
  1
GRIDFORMAT_BEGIN
 90
        0
 91
        1
 62
     0
 92
       -2
340
0
 93
        0
 40
1.125
309
GRIDFORMAT_END
 95
        8
302
GRIDFORMAT
  1
GRIDFORMAT_BEGIN
 90
        0
 91
        1
 62
     0
 92
       -2
340
0
 93
        0
 40
1.125
309
GRIDFORMAT_END
 95
       16
302
GRIDFORMAT
  1
GRIDFORMAT_BEGIN
 90
        0
 91
        1
 62
     0
 92
       -2
340
0
 93
        0
 40
1.125
309
GRIDFORMAT_END
 95
       32
302
GRIDFORMAT
  1
GRIDFORMAT_BEGIN
 90
        0
 91
        1
 62
     0
 92
       -2
340
0
 93
        0
 40
1.125
309
GRIDFORMAT_END
309
TABLEFORMAT_END
  1
CELLSTYLE_BEGIN
 90
        3
 91
        2
300
_DATA
309
CELLSTYLE_END
  0
ENDSEC
  0
EOF
