  0
SECTION
  2
HEADER
  9
$ACADVER
  1
AC1021
  9
$ACADMAINTVER
 70
    50
  9
$DWGCODEPAGE
  3
ANSI_1252
  9
$LASTSAVEDBY
  1
François
  9
$INSBASE
 10
128.011308
 20
79.837676
 30
0.0
  9
$EXTMIN
 10
102.159820560495
 20
78.937676
 30
0.0
  9
$EXTMAX
 10
186.9149486390466
 20
141.6541756279887
 30
0.0
  9
$LIMMIN
 10
107.734337
 20
78.62672499999999
  9
$LIMMAX
 10
187.071785
 20
134.173206
  9
$ORTHOMODE
 70
     0
  9
$REGENMODE
 70
     1
  9
$FILLMODE
 70
     1
  9
$QTEXTMODE
 70
     0
  9
$MIRRTEXT
 70
     1
  9
$LTSCALE
 40
1.0
  9
$ATTMODE
 70
     1
  9
$TEXTSIZE
 40
0.0
  9
$TRACEWID
 40
0.05
  9
$TEXTSTYLE
  7
Standard
  9
$CLAYER
  8
Cotation-JacobDelafon
  9
$CELTYPE
  6
Continuous
  9
$CECOLOR
 62
   256
  9
$CELTSCALE
 40
1.0
  9
$DISPSILH
 70
     0
  9
$DIMSCALE
 40
1.0
  9
$DIMASZ
 40
1.8
  9
$DIMEXO
 40
0.625
  9
$DIMDLI
 40
3.799999999999999
  9
$DIMRND
 40
0.0
  9
$DIMDLE
 40
0.0
  9
$DIMEXE
 40
1.8
  9
$DIMTP
 40
0.0
  9
$DIMTM
 40
0.0
  9
$DIMTXT
 40
3.0
  9
$DIMCEN
 40
0.9
  9
$DIMTSZ
 40
0.0
  9
$DIMTOL
 70
     0
  9
$DIMLIM
 70
     0
  9
$DIMTIH
 70
     0
  9
$DIMTOH
 70
     0
  9
$DIMSE1
 70
     0
  9
$DIMSE2
 70
     0
  9
$DIMTAD
 70
     1
  9
$DIMZIN
 70
    12
  9
$DIMBLK
  1
Oblique
  9
$DIMASO
 70
     1
  9
$DIMSHO
 70
     1
  9
$DIMPOST
  1

  9
$DIMAPOST
  1

  9
$DIMALT
 70
     0
  9
$DIMALTD
 70
     2
  9
$DIMALTF
 40
25.4
  9
$DIMLFAC
 40
1.0
  9
$DIMTOFL
 70
     0
  9
$DIMTVP
 40
0.0
  9
$DIMTIX
 70
     0
  9
$DIMSOXD
 70
     0
  9
$DIMSAH
 70
     0
  9
$DIMBLK1
  1

  9
$DIMBLK2
  1

  9
$DIMSTYLE
  2
Cotation-Jacob-Delafon
  9
$DIMCLRD
 70
     0
  9
$DIMCLRE
 70
     0
  9
$DIMCLRT
 70
     0
  9
$DIMTFAC
 40
1.0
  9
$DIMGAP
 40
0.9
  9
$DIMJUST
 70
     0
  9
$DIMSD1
 70
     0
  9
$DIMSD2
 70
     0
  9
$DIMTOLJ
 70
     1
  9
$DIMTZIN
 70
     0
  9
$DIMALTZ
 70
     0
  9
$DIMALTTZ
 70
     0
  9
$DIMUPT
 70
     0
  9
$DIMDEC
 70
     2
  9
$DIMTDEC
 70
     2
  9
$DIMALTU
 70
     2
  9
$DIMALTTD
 70
     2
  9
$DIMTXSTY
  7
Jacob-Delafon
  9
$DIMAUNIT
 70
     0
  9
$DIMADEC
 70
     0
  9
$DIMALTRND
 40
0.0
  9
$DIMAZIN
 70
     3
  9
$DIMDSEP
 70
    46
  9
$DIMATFIT
 70
     3
  9
$DIMFRAC
 70
     0
  9
$DIMLDRBLK
  1
Oblique
  9
$DIMLUNIT
 70
     2
  9
$DIMLWD
 70
    -2
  9
$DIMLWE
 70
    -2
  9
$DIMTMOVE
 70
     2
  9
$DIMFXL
 40
1.0
  9
$DIMFXLON
 70
     0
  9
$DIMJOGANG
 40
0.7853981633974483
  9
$DIMTFILL
 70
     0
  9
$DIMTFILLCLR
 70
     0
  9
$DIMARCSYM
 70
     0
  9
$DIMLTYPE
  6

  9
$DIMLTEX1
  6

  9
$DIMLTEX2
  6

  9
$LUNITS
 70
     2
  9
$LUPREC
 70
     4
  9
$SKETCHINC
 40
0.1
  9
$FILLETRAD
 40
0.0
  9
$AUNITS
 70
     0
  9
$AUPREC
 70
     0
  9
$MENU
  1
acad
  9
$ELEVATION
 40
0.0
  9
$PELEVATION
 40
0.0
  9
$THICKNESS
 40
0.0
  9
$LIMCHECK
 70
     0
  9
$CHAMFERA
 40
0.0
  9
$CHAMFERB
 40
0.0
  9
$CHAMFERC
 40
0.0
  9
$CHAMFERD
 40
0.0
  9
$SKPOLY
 70
     0
  9
$TDCREATE
 40
2454949.728939525
  9
$TDUCREATE
 40
2454949.645606192
  9
$TDUPDATE
 40
2455006.636163913
  9
$TDUUPDATE
 40
2455006.552830579
  9
$TDINDWG
 40
0.0132693287
  9
$TDUSRTIMER
 40
0.0132691435
  9
$USRTIMER
 70
     1
  9
$ANGBASE
 50
0.0
  9
$ANGDIR
 70
     0
  9
$PDMODE
 70
     0
  9
$PDSIZE
 40
0.0
  9
$PLINEWID
 40
0.0
  9
$SPLFRAME
 70
     0
  9
$SPLINETYPE
 70
     6
  9
$SPLINESEGS
 70
     8
  9
$HANDSEED
  5
34D
  9
$SURFTAB1
 70
     6
  9
$SURFTAB2
 70
     6
  9
$SURFTYPE
 70
     6
  9
$SURFU
 70
     6
  9
$SURFV
 70
     6
  9
$UCSBASE
  2

  9
$UCSNAME
  2

  9
$UCSORG
 10
0.0
 20
0.0
 30
0.0
  9
$UCSXDIR
 10
1.0
 20
0.0
 30
0.0
  9
$UCSYDIR
 10
0.0
 20
1.0
 30
0.0
  9
$UCSORTHOREF
  2

  9
$UCSORTHOVIEW
 70
     0
  9
$UCSORGTOP
 10
0.0
 20
0.0
 30
0.0
  9
$UCSORGBOTTOM
 10
0.0
 20
0.0
 30
0.0
  9
$UCSORGLEFT
 10
0.0
 20
0.0
 30
0.0
  9
$UCSORGRIGHT
 10
0.0
 20
0.0
 30
0.0
  9
$UCSORGFRONT
 10
0.0
 20
0.0
 30
0.0
  9
$UCSORGBACK
 10
0.0
 20
0.0
 30
0.0
  9
$PUCSBASE
  2

  9
$PUCSNAME
  2

  9
$PUCSORG
 10
0.0
 20
0.0
 30
0.0
  9
$PUCSXDIR
 10
1.0
 20
0.0
 30
0.0
  9
$PUCSYDIR
 10
0.0
 20
1.0
 30
0.0
  9
$PUCSORTHOREF
  2

  9
$PUCSORTHOVIEW
 70
     0
  9
$PUCSORGTOP
 10
0.0
 20
0.0
 30
0.0
  9
$PUCSORGBOTTOM
 10
0.0
 20
0.0
 30
0.0
  9
$PUCSORGLEFT
 10
0.0
 20
0.0
 30
0.0
  9
$PUCSORGRIGHT
 10
0.0
 20
0.0
 30
0.0
  9
$PUCSORGFRONT
 10
0.0
 20
0.0
 30
0.0
  9
$PUCSORGBACK
 10
0.0
 20
0.0
 30
0.0
  9
$USERI1
 70
     0
  9
$USERI2
 70
     0
  9
$USERI3
 70
     0
  9
$USERI4
 70
     0
  9
$USERI5
 70
     0
  9
$USERR1
 40
0.0
  9
$USERR2
 40
0.0
  9
$USERR3
 40
0.0
  9
$USERR4
 40
0.0
  9
$USERR5
 40
0.0
  9
$WORLDVIEW
 70
     1
  9
$SHADEDGE
 70
     3
  9
$SHADEDIF
 70
    70
  9
$TILEMODE
 70
     1
  9
$MAXACTVP
 70
    16
  9
$PINSBASE
 10
0.0
 20
0.0
 30
0.0
  9
$PLIMCHECK
 70
     0
  9
$PEXTMIN
 10
1.000000000000000E+20
 20
1.000000000000000E+20
 30
1.000000000000000E+20
  9
$PEXTMAX
 10
-1.000000000000000E+20
 20
-1.000000000000000E+20
 30
-1.000000000000000E+20
  9
$PLIMMIN
 10
0.0
 20
0.0
  9
$PLIMMAX
 10
12.0
 20
9.0
  9
$UNITMODE
 70
     0
  9
$VISRETAIN
 70
     0
  9
$PLINEGEN
 70
     1
  9
$PSLTSCALE
 70
     0
  9
$TREEDEPTH
 70
  3020
  9
$CMLSTYLE
  2
Standard
  9
$CMLJUST
 70
     0
  9
$CMLSCALE
 40
1.0
  9
$PROXYGRAPHICS
 70
     0
  9
$MEASUREMENT
 70
     1
  9
$CELWEIGHT
370
     0
  9
$ENDCAPS
280
     0
  9
$JOINSTYLE
280
     0
  9
$LWDISPLAY
290
     0
  9
$INSUNITS
 70
     0
  9
$HYPERLINKBASE
  1

  9
$STYLESHEET
  1

  9
$XEDIT
290
     1
  9
$CEPSNTYPE
380
     0
  9
$PSTYLEMODE
290
     1
  9
$FINGERPRINTGUID
  2

  9
$VERSIONGUID
  2
{2BCC0AA4-7DD1-40AA-B34C-72F90241FA34}
  9
$EXTNAMES
290
     1
  9
$PSVPSCALE
 40
0.0
  9
$OLESTARTUP
290
     0
  9
$SORTENTS
280
   127
  9
$INDEXCTL
280
     0
  9
$HIDETEXT
280
     0
  9
$XCLIPFRAME
290
     0
  9
$HALOGAP
280
     0
  9
$OBSCOLOR
 70
   257
  9
$OBSLTYPE
280
     0
  9
$INTERSECTIONDISPLAY
280
     0
  9
$INTERSECTIONCOLOR
 70
   257
  9
$DIMASSOC
280
     1
  9
$PROJECTNAME
  1

  9
$CAMERADISPLAY
290
     0
  9
$LENSLENGTH
 40
50.0
  9
$CAMERAHEIGHT
 40
0.0
  9
$STEPSPERSEC
 40
2.0
  9
$STEPSIZE
 40
6.0
  9
$3DDWFPREC
 40
2.0
  9
$PSOLWIDTH
 40
0.25
  9
$PSOLHEIGHT
 40
4.0
  9
$LOFTANG1
 40
1.570796326794896
  9
$LOFTANG2
 40
1.570796326794896
  9
$LOFTMAG1
 40
0.0
  9
$LOFTMAG2
 40
0.0
  9
$LOFTPARAM
 70
     7
  9
$LOFTNORMALS
280
     1
  9
$LATITUDE
 40
37.795
  9
$LONGITUDE
 40
-122.394
  9
$NORTHDIRECTION
 40
0.0
  9
$TIMEZONE
 70
 -8000
  9
$LIGHTGLYPHDISPLAY
280
     1
  9
$TILEMODELIGHTSYNCH
280
     1
  9
$CMATERIAL
347
F8
  9
$SOLIDHIST
280
     1
  9
$SHOWHIST
280
     1
  9
$DWFFRAME
280
     2
  9
$DGNFRAME
280
     0
  9
$REALWORLDSCALE
290
     1
  9
$INTERFERECOLOR
 62
     1
  9
$INTERFEREOBJVS
345
11A
  9
$INTERFEREVPVS
346
117
  9
$CSHADOW
280
     0
  9
$SHADOWPLANELOCATION
 40
0.0
  0
ENDSEC
  0
SECTION
  2
CLASSES
  0
CLASS
  1
IMAGE
  2
AcDbRasterImage
  3
ISM
 90
     2175
 91
        0
280
     0
281
     1
  0
CLASS
  1
DICTIONARYVAR
  2
AcDbDictionaryVar
  3
ObjectDBX Classes
 90
        0
 91
       10
280
     0
281
     0
  0
CLASS
  1
RASTERVARIABLES
  2
AcDbRasterVariables
  3
ISM
 90
        0
 91
        0
280
     0
281
     0
  0
CLASS
  1
IMAGEDEF
  2
AcDbRasterImageDef
  3
ISM
 90
        0
 91
        0
280
     0
281
     0
  0
CLASS
  1
IMAGEDEF_REACTOR
  2
AcDbRasterImageDefReactor
  3
ISM
 90
        1
 91
        0
280
     0
281
     0
  0
CLASS
  1
IDBUFFER
  2
AcDbIdBuffer
  3
ObjectDBX Classes
 90
        0
 91
        0
280
     0
281
     0
  0
CLASS
  1
SPATIAL_FILTER
  2
AcDbSpatialFilter
  3
ObjectDBX Classes
 90
        0
 91
        0
280
     0
281
     0
  0
CLASS
  1
SORTENTSTABLE
  2
AcDbSortentsTable
  3
ObjectDBX Classes
 90
        0
 91
        1
280
     0
281
     0
  0
CLASS
  1
LAYER_INDEX
  2
AcDbLayerIndex
  3
ObjectDBX Classes
 90
        0
 91
        0
280
     0
281
     0
  0
CLASS
  1
SPATIAL_INDEX
  2
AcDbSpatialIndex
  3
ObjectDBX Classes
 90
        0
 91
        0
280
     0
281
     0
  0
CLASS
  1
OBJECT_PTR
  2
CAseDLPNTableRecord
  3
"ASE-LPNTableRecord"
 90
        1
 91
        0
280
     0
281
     0
  0
CLASS
  1
PLOTSETTINGS
  2
AcDbPlotSettings
  3
ObjectDBX Classes
 90
        0
 91
        0
280
     0
281
     0
  0
CLASS
  1
ACDBDICTIONARYWDFLT
  2
AcDbDictionaryWithDefault
  3
ObjectDBX Classes
 90
        0
 91
        1
280
     0
281
     0
  0
CLASS
  1
WIPEOUT
  2
AcDbWipeout
  3
"WipeOut|Product Desc: Object Enabler for WipeOut entity                        |Company: Autodesk, Inc.                        |WEB Address: www.autodesk.com"
 90
     2175
 91
        0
280
     0
281
     1
  0
CLASS
  1
WIPEOUTVARIABLES
  2
AcDbWipeoutVariables
  3
"WipeOut|Product Desc:     WipeOut Dbx Application|Company:          Autodesk, Inc.|WEB Address:      www.autodesk.com"
 90
        0
 91
        1
280
     0
281
     0
  0
CLASS
  1
RTEXT
  2
RText
  3
RText|AutoCAD Express Tool|expresstools@autodesk.com
 90
        0
 91
        0
280
     0
281
     1
  0
CLASS
  1
ARCALIGNEDTEXT
  2
AcDbArcAlignedText
  3
ATEXT|AutoCAD Express Tool|expresstools@autodesk.com
 90
        0
 91
        0
280
     0
281
     1
  0
CLASS
  1
MATERIAL
  2
AcDbMaterial
  3
ObjectDBX Classes
 90
     1153
 91
        3
280
     0
281
     0
  0
CLASS
  1
VISUALSTYLE
  2
AcDbVisualStyle
  3
ObjectDBX Classes
 90
     4095
 91
       16
280
     0
281
     0
  0
CLASS
  1
TABLESTYLE
  2
AcDbTableStyle
  3
ObjectDBX Classes
 90
     4095
 91
        1
280
     0
281
     0
  0
CLASS
  1
SCALE
  2
AcDbScale
  3
ObjectDBX Classes
 90
     1153
 91
       17
280
     0
281
     0
  0
CLASS
  1
MLEADERSTYLE
  2
AcDbMLeaderStyle
  3
ACDB_MLEADERSTYLE_CLASS
 90
     4095
 91
        1
280
     0
281
     0
  0
CLASS
  1
CELLSTYLEMAP
  2
AcDbCellStyleMap
  3
ObjectDBX Classes
 90
     1152
 91
        2
280
     0
281
     0
  0
CLASS
  1
AEC_REFEDIT_STATUS_TRACKER
  2
AecDbRefEditStatusTracker
  3
AecArchBase50|Product Desc: Autodesk Architectural Desktop 2007 |Company: Autodesk,Inc. |WEB Address: www.autodesk.com
 90
      129
 91
        0
280
     0
281
     0
  0
CLASS
  1
NPOCOLLECTION
  2
AcDbImpNonPersistentObjectsCollection
  3
ObjectDBX Classes
 90
     1153
 91
        0
280
     0
281
     0
  0
ENDSEC
  0
SECTION
  2
TABLES
  0
TABLE
  2
VPORT
  5
7
102
{ACAD_XDICTIONARY
360
214
102
}
330
0
100
AcDbSymbolTable
 70
     1
  0
VPORT
  5
15
330
7
100
AcDbSymbolTableRecord
100
AcDbViewportTableRecord
  2
*ACTIVE
 70
     0
 10
0.0
 20
0.0
 11
1.0
 21
1.0
 12
129.1678933863206
 22
123.2932047359516
 13
0.0
 23
0.0
 14
1.0
 24
1.0
 15
0.0
 25
0.0
 16
0.0
 26
0.0
 36
1.0
 17
0.0
 27
0.0
 37
0.0
 40
108.7159112937258
 41
1.226824457593688
 42
50.0
 43
0.0
 44
0.0
 50
0.0
 51
0.0
 71
     0
 72
   100
 73
     1
 74
     1
 75
     0
 76
     0
 77
     0
 78
     0
281
     0
 65
     0
110
0.0
120
0.0
130
0.0
111
1.0
121
0.0
131
0.0
112
0.0
122
1.0
132
0.0
 79
     0
146
0.0
348
116
 60
     3
 61
     5
292
     1
282
     1
141
0.0
142
0.0
 63
   250
421
  3355443
  0
ENDTAB
  0
TABLE
  2
LTYPE
  5
4
330
0
100
AcDbSymbolTable
 70
     1
  0
LTYPE
  5
11
330
4
100
AcDbSymbolTableRecord
100
AcDbLinetypeTableRecord
  2
ByBlock
 70
     0
  3

 72
    65
 73
     0
 40
0.0
  0
LTYPE
  5
12
330
4
100
AcDbSymbolTableRecord
100
AcDbLinetypeTableRecord
  2
ByLayer
 70
     0
  3

 72
    65
 73
     0
 40
0.0
  0
LTYPE
  5
13
330
4
100
AcDbSymbolTableRecord
100
AcDbLinetypeTableRecord
  2
Continuous
 70
     0
  3
Solid line
 72
    65
 73
     0
 40
0.0
  0
ENDTAB
  0
TABLE
  2
LAYER
  5
2
330
0
100
AcDbSymbolTable
 70
     3
  0
LAYER
  5
14
102
{ACAD_XDICTIONARY
360
20A
102
}
330
2
100
AcDbSymbolTableRecord
100
AcDbLayerTableRecord
  2
0
 70
     0
 62
     7
  6
Continuous
370
    -3
390
1D
347
108
  0
LAYER
  5
305
330
2
100
AcDbSymbolTableRecord
100
AcDbLayerTableRecord
  2
Defpoints
 70
     0
 62
     7
  6
Continuous
290
     0
370
    -3
390
1D
347
108
  0
LAYER
  5
311
102
{ACAD_XDICTIONARY
360
312
102
}
330
2
100
AcDbSymbolTableRecord
100
AcDbLayerTableRecord
  2
Cotation-JacobDelafon
 70
     0
 62
     8
  6
Continuous
370
    -3
390
1D
347
108
  0
ENDTAB
  0
TABLE
  2
STYLE
  5
3
330
0
100
AcDbSymbolTable
 70
     4
  0
STYLE
  5
17
330
3
100
AcDbSymbolTableRecord
100
AcDbTextStyleTableRecord
  2
Standard
 70
     0
 40
0.0
 41
1.0
 50
0.0
 71
     0
 42
0.0
  3
txt
  4

  0
STYLE
  5
24
330
3
100
AcDbSymbolTableRecord
100
AcDbTextStyleTableRecord
  2
STD
 70
     0
 40
0.0
 41
1.0
 50
0.0
 71
     0
 42
0.0
  3
txt
  4

  0
STYLE
  5
306
330
3
100
AcDbSymbolTableRecord
100
AcDbTextStyleTableRecord
  2
Annotative
 70
     0
 40
0.0
 41
1.0
 50
0.0
 71
     0
 42
0.2
  3
txt
  4

1001
AcadAnnotative
1000
AnnotativeData
1002
{
1070
     1
1070
     1
1002
}
  0
STYLE
  5
307
330
3
100
AcDbSymbolTableRecord
100
AcDbTextStyleTableRecord
  2
Jacob-Delafon
 70
     0
 40
0.0
 41
1.0
 50
0.0
 71
     0
 42
2.5
  3
ARIAL.TTF
  4

1001
ACAD
1000
Arial
1071
       34
  0
ENDTAB
  0
TABLE
  2
VIEW
  5
5
330
0
100
AcDbSymbolTable
 70
     0
  0
ENDTAB
  0
TABLE
  2
UCS
  5
6
330
0
100
AcDbSymbolTable
 70
     0
  0
ENDTAB
  0
TABLE
  2
APPID
  5
8
330
0
100
AcDbSymbolTable
 70
     3
  0
APPID
  5
16
330
8
100
AcDbSymbolTableRecord
100
AcDbRegAppTableRecord
  2
ACAD
 70
     0
  0
APPID
  5
138
330
8
100
AcDbSymbolTableRecord
100
AcDbRegAppTableRecord
  2
ACAD_MLEADERVER
 70
     0
  0
APPID
  5
30A
330
8
100
AcDbSymbolTableRecord
100
AcDbRegAppTableRecord
  2
AcadAnnotative
 70
     0
  0
ENDTAB
  0
TABLE
  2
DIMSTYLE
  5
9
330
0
100
AcDbSymbolTable
 70
     3
100
AcDbDimStyleTable
 71
     1
340
309
  0
DIMSTYLE
105
18
330
9
100
AcDbSymbolTableRecord
100
AcDbDimStyleTableRecord
  2
Standard
 70
     0
340
17
  0
DIMSTYLE
105
308
330
9
100
AcDbSymbolTableRecord
100
AcDbDimStyleTableRecord
  2
Annotative
 70
     0
340
17
1001
AcadAnnotative
1000
AnnotativeData
1002
{
1070
     1
1070
     1
1002
}
  0
DIMSTYLE
105
309
102
{ACAD_REACTORS
330
318
330
325
102
}
330
9
100
AcDbSymbolTableRecord
100
AcDbDimStyleTableRecord
  2
Cotation-Jacob-Delafon
 70
     0
 41
1.8
 42
0.625
 43
3.799999999999999
 44
1.8
 73
     0
 74
     0
 77
     1
 78
    12
 79
     3
140
3.0
141
0.9
147
0.9
271
     2
272
     2
279
     2
340
307
341
301
342
301
  0
ENDTAB
  0
TABLE
  2
BLOCK_RECORD
  5
1
330
0
100
AcDbSymbolTable
 70
     3
  0
BLOCK_RECORD
  5
A
102
{ACAD_XDICTIONARY
360
2FF
102
}
330
1
100
AcDbSymbolTableRecord
100
AcDbBlockTableRecord
  2
*MODEL_SPACE
340
20
 70
     0
280
     1
281
     0
  0
BLOCK_RECORD
  5
B
330
1
100
AcDbSymbolTableRecord
100
AcDbBlockTableRecord
  2
*PAPER_SPACE
340
21
 70
     0
280
     1
281
     0
  0
BLOCK_RECORD
  5
301
330
1
100
AcDbSymbolTableRecord
100
AcDbBlockTableRecord
  2
_Oblique
340
0
102
{BLKREFS
331
335
331
336
331
33E
331
33F
102
}
 70
     0
280
     1
281
     0
  0
BLOCK_RECORD
  5
319
330
1
100
AcDbSymbolTableRecord
100
AcDbBlockTableRecord
  2
*D1
340
0
 70
     0
280
     1
281
     0
  0
BLOCK_RECORD
  5
326
330
1
100
AcDbSymbolTableRecord
100
AcDbBlockTableRecord
  2
*D2
340
0
 70
     0
280
     1
281
     0
  0
ENDTAB
  0
ENDSEC
  0
SECTION
  2
BLOCKS
  0
BLOCK
  5
D
330
A
100
AcDbEntity
  8
0
100
AcDbBlockBegin
  2
*MODEL_SPACE
 70
     0
 10
0.0
 20
0.0
 30
0.0
  3
*MODEL_SPACE
  1

  0
ENDBLK
  5
E
330
A
100
AcDbEntity
  8
0
100
AcDbBlockEnd
  0
BLOCK
  5
F
330
B
100
AcDbEntity
 67
     1
  8
0
100
AcDbBlockBegin
  2
*PAPER_SPACE
 70
     0
 10
0.0
 20
0.0
 30
0.0
  3
*PAPER_SPACE
  1

  0
ENDBLK
  5
10
330
B
100
AcDbEntity
 67
     1
  8
0
100
AcDbBlockEnd
  0
BLOCK
  5
302
330
301
100
AcDbEntity
  8
0
100
AcDbBlockBegin
  2
_Oblique
 70
     0
 10
0.0
 20
0.0
 30
0.0
  3
_Oblique
  1

  0
LINE
  5
303
330
301
100
AcDbEntity
  8
0
  6
ByBlock
 62
     0
370
    -2
380
     1
100
AcDbLine
 10
-0.5
 20
-0.5
 30
0.0
 11
0.5
 21
0.5
 31
0.0
  0
ENDBLK
  5
304
330
301
100
AcDbEntity
  8
0
100
AcDbBlockEnd
  0
BLOCK
  5
31A
330
319
100
AcDbEntity
  8
0
370
     0
100
AcDbBlockBegin
  2
*D1
 70
     1
 10
0.0
 20
0.0
 30
0.0
  3
*D1
  1

  0
LINE
  5
332
330
319
100
AcDbEntity
  8
Cotation-JacobDelafon
  6
Continuous
 62
     0
370
    -2
100
AcDbLine
 10
128.009757
 20
109.459184
 30
0.0
 11
128.009757
 21
138.7028795843325
 31
0.0
  0
LINE
  5
333
330
319
100
AcDbEntity
  8
Cotation-JacobDelafon
  6
Continuous
 62
     0
370
    -2
100
AcDbLine
 10
186.0149486390465
 20
110.3528694969872
 30
0.0
 11
186.0149486390465
 21
138.7028795843325
 31
0.0
  0
LINE
  5
334
330
319
100
AcDbEntity
  8
Cotation-JacobDelafon
  6
Continuous
 62
     0
370
    -2
100
AcDbLine
 10
128.009757
 20
136.9028795843325
 30
0.0
 11
186.0149486390465
 21
136.9028795843325
 31
0.0
  0
INSERT
  5
335
330
319
100
AcDbEntity
  8
Cotation-JacobDelafon
  6
Continuous
 62
     0
370
    -2
100
AcDbBlockReference
  2
_Oblique
 10
128.009757
 20
136.9028795843325
 30
0.0
 41
1.8
 42
1.8
 43
1.8
 50
180.0
  0
INSERT
  5
336
330
319
100
AcDbEntity
  8
Cotation-JacobDelafon
  6
Continuous
 62
     0
370
    -2
100
AcDbBlockReference
  2
_Oblique
 10
186.0149486390465
 20
136.9028795843325
 30
0.0
 41
1.8
 42
1.8
 43
1.8
  0
MTEXT
  5
337
330
319
100
AcDbEntity
  8
Cotation-JacobDelafon
  6
Continuous
 62
     0
370
     0
100
AcDbMText
 10
157.0123528195233
 20
139.3345985474976
 30
0.0
 40
3.0
 41
0.0
 46
0.0
 71
     5
 72
     1
  1
\A1;58.5
  7
Jacob-Delafon
 73
     1
 44
1.0
  0
POINT
  5
338
330
319
100
AcDbEntity
  8
Defpoints
  6
Continuous
 62
     0
370
     0
100
AcDbPoint
 10
128.009757
 20
108.834184
 30
0.0
  0
POINT
  5
339
330
319
100
AcDbEntity
  8
Defpoints
  6
Continuous
 62
     0
370
     0
100
AcDbPoint
 10
186.0149486390465
 20
109.7278694969872
 30
0.0
  0
POINT
  5
33A
330
319
100
AcDbEntity
  8
Defpoints
  6
Continuous
 62
     0
370
     0
100
AcDbPoint
 10
186.0149486390465
 20
136.9028795843325
 30
0.0
  0
ENDBLK
  5
31B
330
319
100
AcDbEntity
  8
0
370
     0
100
AcDbBlockEnd
  0
BLOCK
  5
327
330
326
100
AcDbEntity
  8
0
370
     0
100
AcDbBlockBegin
  2
*D2
 70
     1
 10
0.0
 20
0.0
 30
0.0
  3
*D2
  1

  0
LINE
  5
33B
330
326
100
AcDbEntity
  8
Cotation-JacobDelafon
  6
Continuous
 62
     0
370
    -2
100
AcDbLine
 10
140.389821
 20
111.527904
 30
0.0
 11
105.1131629888715
 21
111.527904
 31
0.0
  0
LINE
  5
33C
330
326
100
AcDbEntity
  8
Cotation-JacobDelafon
  6
Continuous
 62
     0
370
    -2
100
AcDbLine
 10
127.386308
 20
79.837676
 30
0.0
 11
105.1131629888715
 21
79.837676
 31
0.0
  0
LINE
  5
33D
330
326
100
AcDbEntity
  8
Cotation-JacobDelafon
  6
Continuous
 62
     0
370
    -2
100
AcDbLine
 10
106.9131629888715
 20
111.527904
 30
0.0
 11
106.9131629888715
 21
79.837676
 31
0.0
  0
INSERT
  5
33E
330
326
100
AcDbEntity
  8
Cotation-JacobDelafon
  6
Continuous
 62
     0
370
    -2
100
AcDbBlockReference
  2
_Oblique
 10
106.9131629888715
 20
111.527904
 30
0.0
 41
1.8
 42
1.8
 43
1.8
 50
90.0
  0
INSERT
  5
33F
330
326
100
AcDbEntity
  8
Cotation-JacobDelafon
  6
Continuous
 62
     0
370
    -2
100
AcDbBlockReference
  2
_Oblique
 10
106.9131629888715
 20
79.837676
 30
0.0
 41
1.8
 42
1.8
 43
1.8
 50
270.0
  0
MTEXT
  5
340
330
326
100
AcDbEntity
  8
Cotation-JacobDelafon
  6
Continuous
 62
     0
370
     0
100
AcDbMText
 10
104.4804208333463
 20
95.68279000000003
 30
0.0
 40
3.0
 41
0.0
 46
0.0
 71
     5
 72
     1
  1
\A1;32
  7
Jacob-Delafon
 11
0.0000000000000001
 21
1.0
 31
0.0
 73
     1
 44
1.0
  0
POINT
  5
341
330
326
100
AcDbEntity
  8
Defpoints
  6
Continuous
 62
     0
370
     0
100
AcDbPoint
 10
141.014821
 20
111.527904
 30
0.0
  0
POINT
  5
342
330
326
100
AcDbEntity
  8
Defpoints
  6
Continuous
 62
     0
370
     0
100
AcDbPoint
 10
128.011308
 20
79.837676
 30
0.0
  0
POINT
  5
343
330
326
100
AcDbEntity
  8
Defpoints
  6
Continuous
 62
     0
370
     0
100
AcDbPoint
 10
106.9131629888715
 20
79.837676
 30
0.0
  0
ENDBLK
  5
328
330
326
100
AcDbEntity
  8
0
370
     0
100
AcDbBlockEnd
  0
ENDSEC
  0
SECTION
  2
ENTITIES
  0
LINE
  5
233
330
A
100
AcDbEntity
  8
0
 62
     7
100
AcDbLine
 10
182.796077
 20
108.508622
 30
0.0
 11
182.696514
 21
108.533427
 31
0.0
  0
LINE
  5
234
330
A
100
AcDbEntity
  8
0
 62
     7
100
AcDbLine
 10
182.796077
 20
108.508622
 30
0.0
 11
182.696514
 21
108.533427
 31
0.0
  0
LINE
  5
235
330
A
100
AcDbEntity
  8
0
 62
     7
100
AcDbLine
 10
182.805724
 20
108.506038
 30
0.0
 11
182.801245
 21
108.507244
 31
0.0
  0
LINE
  5
236
330
A
100
AcDbEntity
  8
0
 62
     7
100
AcDbLine
 10
182.805724
 20
108.506038
 30
0.0
 11
182.801245
 21
108.507244
 31
0.0
  0
LINE
  5
237
330
A
100
AcDbEntity
  8
0
 62
     7
100
AcDbLine
 10
182.801245
 20
108.507244
 30
0.0
 11
182.796077
 21
108.508622
 31
0.0
  0
LINE
  5
238
330
A
100
AcDbEntity
  8
0
 62
     7
100
AcDbLine
 10
182.801245
 20
108.507244
 30
0.0
 11
182.796077
 21
108.508622
 31
0.0
  0
LINE
  5
239
330
A
100
AcDbEntity
  8
0
 62
     7
100
AcDbLine
 10
182.873592
 20
108.485023
 30
0.0
 11
182.805724
 21
108.506038
 31
0.0
  0
LINE
  5
23A
330
A
100
AcDbEntity
  8
0
 62
     7
100
AcDbLine
 10
182.873592
 20
108.485023
 30
0.0
 11
182.805724
 21
108.506038
 31
0.0
  0
LINE
  5
23B
330
A
100
AcDbEntity
  8
0
 62
     7
100
AcDbLine
 10
183.473728
 20
108.276423
 30
0.0
 11
182.873592
 21
108.485023
 31
0.0
  0
LINE
  5
23C
330
A
100
AcDbEntity
  8
0
 62
     7
100
AcDbLine
 10
183.473728
 20
108.276423
 30
0.0
 11
182.873592
 21
108.485023
 31
0.0
  0
LINE
  5
23D
330
A
100
AcDbEntity
  8
0
 62
     7
100
AcDbLine
 10
183.885417
 20
108.083497
 30
0.0
 11
183.526782
 21
108.252652
 31
0.0
  0
LINE
  5
23E
330
A
100
AcDbEntity
  8
0
 62
     7
100
AcDbLine
 10
183.885417
 20
108.083497
 30
0.0
 11
183.526782
 21
108.252652
 31
0.0
  0
LINE
  5
23F
330
A
100
AcDbEntity
  8
0
 62
     7
100
AcDbLine
 10
183.526782
 20
108.252652
 30
0.0
 11
183.485441
 21
108.272289
 31
0.0
  0
LINE
  5
240
330
A
100
AcDbEntity
  8
0
 62
     7
100
AcDbLine
 10
183.526782
 20
108.252652
 30
0.0
 11
183.485441
 21
108.272289
 31
0.0
  0
LINE
  5
241
330
A
100
AcDbEntity
  8
0
 62
     7
100
AcDbLine
 10
183.485441
 20
108.272289
 30
0.0
 11
183.473728
 21
108.276423
 31
0.0
  0
LINE
  5
242
330
A
100
AcDbEntity
  8
0
 62
     7
100
AcDbLine
 10
183.485441
 20
108.272289
 30
0.0
 11
183.473728
 21
108.276423
 31
0.0
  0
LINE
  5
243
330
A
100
AcDbEntity
  8
0
 62
     7
100
AcDbLine
 10
183.89334
 20
108.080052
 30
0.0
 11
183.885417
 21
108.083497
 31
0.0
  0
LINE
  5
244
330
A
100
AcDbEntity
  8
0
 62
     7
100
AcDbLine
 10
183.89334
 20
108.080052
 30
0.0
 11
183.885417
 21
108.083497
 31
0.0
  0
LINE
  5
245
330
A
100
AcDbEntity
  8
0
 62
     7
100
AcDbLine
 10
183.916767
 20
108.070234
 30
0.0
 11
183.89334
 21
108.080052
 31
0.0
  0
LINE
  5
246
330
A
100
AcDbEntity
  8
0
 62
     7
100
AcDbLine
 10
183.916767
 20
108.070234
 30
0.0
 11
183.89334
 21
108.080052
 31
0.0
  0
LINE
  5
247
330
A
100
AcDbEntity
  8
0
 62
     7
100
AcDbLine
 10
180.854422
 20
108.830911
 30
0.0
 11
181.469371
 21
108.790603
 31
0.0
  0
LINE
  5
248
330
A
100
AcDbEntity
  8
0
 62
     7
100
AcDbLine
 10
185.201788
 20
108.205798
 30
0.0
 11
185.873581
 21
109.463258
 31
0.0
  0
LINE
  5
249
330
A
100
AcDbEntity
  8
0
 62
     7
100
AcDbLine
 10
141.014821
 20
109.136319
 30
0.0
 11
141.014821
 21
110.556731
 31
0.0
  0
LINE
  5
24A
330
A
100
AcDbEntity
  8
0
 62
     7
100
AcDbLine
 10
141.014821
 20
110.556731
 30
0.0
 11
141.014821
 21
110.965837
 31
0.0
  0
LINE
  5
24B
330
A
100
AcDbEntity
  8
0
 62
     7
100
AcDbLine
 10
141.014821
 20
110.965837
 30
0.0
 11
141.014821
 21
111.277962
 31
0.0
  0
LINE
  5
24C
330
A
100
AcDbEntity
  8
0
 62
     7
100
AcDbLine
 10
141.014821
 20
111.277962
 30
0.0
 11
141.014821
 21
111.465375
 31
0.0
  0
LINE
  5
24D
330
A
100
AcDbEntity
  8
0
 62
     7
100
AcDbLine
 10
141.014821
 20
111.465375
 30
0.0
 11
141.014821
 21
111.527904
 31
0.0
  0
LINE
  5
24E
330
A
100
AcDbEntity
  8
0
 62
     7
100
AcDbLine
 10
182.063306
 20
108.694141
 30
0.0
 11
181.469371
 21
108.790603
 31
0.0
  0
LINE
  5
24F
330
A
100
AcDbEntity
  8
0
 62
     7
100
AcDbLine
 10
182.696514
 20
108.533427
 30
0.0
 11
182.063306
 21
108.694141
 31
0.0
  0
LINE
  5
250
330
A
100
AcDbEntity
  8
0
 62
     7
100
AcDbLine
 10
179.735799
 20
111.827972
 30
0.0
 11
141.314889
 21
111.827972
 31
0.0
  0
LINE
  5
251
330
A
100
AcDbEntity
  8
0
 62
     7
100
AcDbLine
 10
180.981546
 20
111.706877
 30
0.0
 11
179.735799
 21
111.827972
 31
0.0
  0
LINE
  5
252
330
A
100
AcDbEntity
  8
0
 62
     7
100
AcDbLine
 10
182.4326199999999
 20
111.409909
 30
0.0
 11
180.981546
 21
111.706877
 31
0.0
  0
LINE
  5
253
330
A
100
AcDbEntity
  8
0
 62
     7
100
AcDbLine
 10
183.92848
 20
110.886255
 30
0.0
 11
182.4326199999999
 21
111.409909
 31
0.0
  0
LINE
  5
254
330
A
100
AcDbEntity
  8
0
 62
     7
100
AcDbLine
 10
185.118072
 20
110.246156
 30
0.0
 11
183.92848
 21
110.886255
 31
0.0
  0
LINE
  5
255
330
A
100
AcDbEntity
  8
0
 62
     7
100
AcDbLine
 10
185.75507
 20
109.878048
 30
0.0
 11
185.118072
 21
110.246156
 31
0.0
  0
LINE
  5
256
330
A
100
AcDbEntity
  8
0
 62
     7
100
AcDbLine
 10
141.102843
 20
108.924273
 30
0.0
 11
141.014821
 21
109.136319
 31
0.0
  0
LINE
  5
257
330
A
100
AcDbEntity
  8
0
 62
     7
100
AcDbLine
 10
141.314889
 20
108.836423
 30
0.0
 11
141.102843
 21
108.924273
 31
0.0
  0
LINE
  5
258
330
A
100
AcDbEntity
  8
0
 62
     7
100
AcDbLine
 10
185.201788
 20
108.205798
 30
0.0
 11
185.021609
 21
108.050597
 31
0.0
  0
LINE
  5
259
330
A
100
AcDbEntity
  8
0
 62
     7
100
AcDbLine
 10
185.021609
 20
108.050597
 30
0.0
 11
184.963387
 21
108.051114
 31
0.0
  0
LINE
  5
25A
330
A
100
AcDbEntity
  8
0
 62
     7
100
AcDbLine
 10
184.963387
 20
108.051114
 30
0.0
 11
184.790099
 21
108.052492
 31
0.0
  0
LINE
  5
25B
330
A
100
AcDbEntity
  8
0
 62
     7
100
AcDbLine
 10
184.790099
 20
108.052492
 30
0.0
 11
184.503122
 21
108.054731
 31
0.0
  0
LINE
  5
25C
330
A
100
AcDbEntity
  8
0
 62
     7
100
AcDbLine
 10
184.503122
 20
108.054731
 30
0.0
 11
184.106247
 21
108.056626
 31
0.0
  0
LINE
  5
25D
330
A
100
AcDbEntity
  8
0
 62
     7
100
AcDbLine
 10
184.106247
 20
108.056626
 30
0.0
 11
183.918834
 21
108.068684
 31
0.0
  0
LINE
  5
25E
330
A
100
AcDbEntity
  8
0
 62
     7
100
AcDbLine
 10
141.314889
 20
108.914799
 30
0.0
 11
180.902998
 21
108.921861
 31
0.0
  0
LINE
  5
25F
330
A
100
AcDbEntity
  8
0
 62
     7
100
AcDbLine
 10
141.1026709999999
 20
109.116854
 30
0.0
 11
141.1026709999999
 21
110.537267
 31
0.0
  0
LINE
  5
260
330
A
100
AcDbEntity
  8
0
 62
     7
100
AcDbLine
 10
180.902998
 20
108.921861
 30
0.0
 11
181.483152
 21
108.875525
 31
0.0
  0
LINE
  5
261
330
A
100
AcDbEntity
  8
0
 62
     7
100
AcDbLine
 10
181.483152
 20
108.875525
 30
0.0
 11
182.080187
 21
108.777684
 31
0.0
  0
LINE
  5
262
330
A
100
AcDbEntity
  8
0
 62
     7
100
AcDbLine
 10
182.080187
 20
108.777684
 30
0.0
 11
182.813647
 21
108.590271
 31
0.0
  0
LINE
  5
263
330
A
100
AcDbEntity
  8
0
 62
     7
100
AcDbLine
 10
182.813647
 20
108.590271
 30
0.0
 11
183.490953
 21
108.348081
 31
0.0
  0
LINE
  5
264
330
A
100
AcDbEntity
  8
0
 62
     7
100
AcDbLine
 10
183.913666
 20
108.142753
 30
0.0
 11
183.490953
 21
108.348081
 31
0.0
  0
LINE
  5
265
330
A
100
AcDbEntity
  8
0
 62
     7
100
AcDbLine
 10
184.188241
 20
108.241283
 30
0.0
 11
184.814903
 21
109.491852
 31
0.0
  0
LINE
  5
266
330
A
100
AcDbEntity
  8
0
 62
     7
100
AcDbLine
 10
141.102843
 20
111.740122
 30
0.0
 11
141.314889
 21
111.827972
 31
0.0
  0
LINE
  5
267
330
A
100
AcDbEntity
  8
0
 62
     7
100
AcDbLine
 10
141.014821
 20
111.527904
 30
0.0
 11
141.102843
 21
111.740122
 31
0.0
  0
LINE
  5
268
330
A
100
AcDbEntity
  8
0
 62
     7
100
AcDbLine
 10
185.898386
 20
109.694596
 30
0.0
 11
185.873581
 21
109.463258
 31
0.0
  0
LINE
  5
269
330
A
100
AcDbEntity
  8
0
 62
     7
100
AcDbLine
 10
185.75507
 20
109.878048
 30
0.0
 11
185.898386
 21
109.694596
 31
0.0
  0
LINE
  5
26A
330
A
100
AcDbEntity
  8
0
 62
     7
100
AcDbLine
 10
141.102843
 20
111.740122
 30
0.0
 11
141.1026709999999
 21
111.677593
 31
0.0
  0
LINE
  5
26B
330
A
100
AcDbEntity
  8
0
 62
     7
100
AcDbLine
 10
185.898386
 20
109.694596
 30
0.0
 11
185.834996
 21
109.693735
 31
0.0
  0
LINE
  5
26C
330
A
100
AcDbEntity
  8
0
 62
     7
100
AcDbLine
 10
141.1026709999999
 20
111.677593
 30
0.0
 11
141.1026709999999
 21
111.490008
 31
0.0
  0
LINE
  5
26D
330
A
100
AcDbEntity
  8
0
 62
     7
100
AcDbLine
 10
185.834996
 20
109.693735
 30
0.0
 11
185.646549
 21
109.691496
 31
0.0
  0
LINE
  5
26E
330
A
100
AcDbEntity
  8
0
 62
     7
100
AcDbLine
 10
141.1026709999999
 20
111.490008
 30
0.0
 11
141.1026709999999
 21
111.177538
 31
0.0
  0
LINE
  5
26F
330
A
100
AcDbEntity
  8
0
 62
     7
100
AcDbLine
 10
185.646549
 20
109.691496
 30
0.0
 11
185.333735
 21
109.688912
 31
0.0
  0
LINE
  5
270
330
A
100
AcDbEntity
  8
0
 62
     7
100
AcDbLine
 10
141.1026709999999
 20
111.177538
 30
0.0
 11
141.1026709999999
 21
110.7679159999999
 31
0.0
  0
LINE
  5
271
330
A
100
AcDbEntity
  8
0
 62
     7
100
AcDbLine
 10
185.333735
 20
109.688912
 30
0.0
 11
184.920668
 21
109.687362
 31
0.0
  0
LINE
  5
272
330
A
100
AcDbEntity
  8
0
 62
     7
100
AcDbLine
 10
141.314889
 20
110.748451
 30
0.0
 11
180.99946
 21
110.748451
 31
0.0
  0
LINE
  5
273
330
A
100
AcDbEntity
  8
0
 62
     7
100
AcDbLine
 10
180.99946
 20
110.748451
 30
0.0
 11
181.784253
 21
110.676104
 31
0.0
  0
LINE
  5
274
330
A
100
AcDbEntity
  8
0
 62
     7
100
AcDbLine
 10
181.784253
 20
110.676104
 30
0.0
 11
182.552165
 21
110.540884
 31
0.0
  0
LINE
  5
275
330
A
100
AcDbEntity
  8
0
 62
     7
100
AcDbLine
 10
182.552165
 20
110.540884
 30
0.0
 11
183.428252
 21
110.307996
 31
0.0
  0
LINE
  5
276
330
A
100
AcDbEntity
  8
0
 62
     7
100
AcDbLine
 10
183.428252
 20
110.307996
 30
0.0
 11
184.241984
 21
110.009478
 31
0.0
  0
LINE
  5
277
330
A
100
AcDbEntity
  8
0
 62
     7
100
AcDbLine
 10
184.726364
 20
109.774006
 30
0.0
 11
184.241984
 21
110.009478
 31
0.0
  0
LINE
  5
278
330
A
100
AcDbEntity
  8
0
 62
     7
100
AcDbLine
 10
141.314889
 20
108.914799
 30
0.0
 11
141.146768
 21
108.952867
 31
0.0
  0
LINE
  5
279
330
A
100
AcDbEntity
  8
0
 62
     7
100
AcDbLine
 10
141.146768
 20
108.952867
 30
0.0
 11
141.102843
 21
108.924273
 31
0.0
  0
LINE
  5
27A
330
A
100
AcDbEntity
  8
0
 62
     7
100
AcDbLine
 10
141.146768
 20
108.952867
 30
0.0
 11
141.1026709999999
 21
109.116854
 31
0.0
  0
LINE
  5
27B
330
A
100
AcDbEntity
  8
0
 62
     7
100
AcDbLine
 10
184.106247
 20
108.056626
 30
0.0
 11
184.083165
 21
108.107958
 31
0.0
  0
LINE
  5
27C
330
A
100
AcDbEntity
  8
0
 62
     7
100
AcDbLine
 10
184.083165
 20
108.107958
 30
0.0
 11
183.913666
 21
108.142753
 31
0.0
  0
LINE
  5
27D
330
A
100
AcDbEntity
  8
0
 62
     7
100
AcDbLine
 10
184.083165
 20
108.107958
 30
0.0
 11
184.188241
 21
108.241283
 31
0.0
  0
LINE
  5
27E
330
A
100
AcDbEntity
  8
0
 62
     7
100
AcDbLine
 10
141.1026709999999
 20
110.7679159999999
 30
0.0
 11
141.1416
 21
110.713311
 31
0.0
  0
LINE
  5
27F
330
A
100
AcDbEntity
  8
0
 62
     7
100
AcDbLine
 10
141.1416
 20
110.713311
 30
0.0
 11
141.314889
 21
110.748451
 31
0.0
  0
LINE
  5
280
330
A
100
AcDbEntity
  8
0
 62
     7
100
AcDbLine
 10
141.1416
 20
110.713311
 30
0.0
 11
141.1026709999999
 21
110.537267
 31
0.0
  0
LINE
  5
281
330
A
100
AcDbEntity
  8
0
 62
     7
100
AcDbLine
 10
184.726364
 20
109.774006
 30
0.0
 11
184.859001
 21
109.660834
 31
0.0
  0
LINE
  5
282
330
A
100
AcDbEntity
  8
0
 62
     7
100
AcDbLine
 10
184.859001
 20
109.660834
 30
0.0
 11
184.920668
 21
109.687362
 31
0.0
  0
LINE
  5
283
330
A
100
AcDbEntity
  8
0
 62
     7
100
AcDbLine
 10
184.859001
 20
109.660834
 30
0.0
 11
184.814903
 21
109.491852
 31
0.0
  0
LINE
  5
284
330
A
100
AcDbEntity
  8
0
 62
     7
100
AcDbLine
 10
176.181494
 20
79.85214599999999
 30
0.0
 11
176.023364
 21
79.85214599999999
 31
0.0
  0
LINE
  5
285
330
A
100
AcDbEntity
  8
0
 62
     7
100
AcDbLine
 10
176.023364
 20
79.85214599999999
 30
0.0
 11
175.551731
 21
79.85214599999999
 31
0.0
  0
LINE
  5
286
330
A
100
AcDbEntity
  8
0
 62
     7
100
AcDbLine
 10
175.551731
 20
79.85214599999999
 30
0.0
 11
174.776584
 21
79.85214599999999
 31
0.0
  0
LINE
  5
287
330
A
100
AcDbEntity
  8
0
 62
     7
100
AcDbLine
 10
174.776584
 20
79.85214599999999
 30
0.0
 11
173.713428
 21
79.85214599999999
 31
0.0
  0
LINE
  5
288
330
A
100
AcDbEntity
  8
0
 62
     7
100
AcDbLine
 10
173.713428
 20
79.85214599999999
 30
0.0
 11
173.074018
 21
79.85214599999999
 31
0.0
  0
LINE
  5
289
330
A
100
AcDbEntity
  8
0
 62
     7
100
AcDbLine
 10
173.074018
 20
79.85214599999999
 30
0.0
 11
172.38431
 21
79.85214599999999
 31
0.0
  0
LINE
  5
28A
330
A
100
AcDbEntity
  8
0
 62
     7
100
AcDbLine
 10
172.38431
 20
79.85214599999999
 30
0.0
 11
171.623633
 21
79.85214599999999
 31
0.0
  0
LINE
  5
28B
330
A
100
AcDbEntity
  8
0
 62
     7
100
AcDbLine
 10
171.623633
 20
79.85214599999999
 30
0.0
 11
170.815758
 21
79.85214599999999
 31
0.0
  0
LINE
  5
28C
330
A
100
AcDbEntity
  8
0
 62
     7
100
AcDbLine
 10
170.815758
 20
79.85214599999999
 30
0.0
 11
169.039811
 21
79.85214599999999
 31
0.0
  0
LINE
  5
28D
330
A
100
AcDbEntity
  8
0
 62
     7
100
AcDbLine
 10
169.039811
 20
79.85214599999999
 30
0.0
 11
167.092988
 21
79.85214599999999
 31
0.0
  0
LINE
  5
28E
330
A
100
AcDbEntity
  8
0
 62
     7
100
AcDbLine
 10
167.092988
 20
79.85214599999999
 30
0.0
 11
165.014562
 21
79.85214599999999
 31
0.0
  0
LINE
  5
28F
330
A
100
AcDbEntity
  8
0
 62
     7
100
AcDbLine
 10
165.014562
 20
79.85214599999999
 30
0.0
 11
162.847252
 21
79.85214599999999
 31
0.0
  0
LINE
  5
290
330
A
100
AcDbEntity
  8
0
 62
     7
100
AcDbLine
 10
162.847252
 20
79.85214599999999
 30
0.0
 11
160.634812
 21
79.85214599999999
 31
0.0
  0
LINE
  5
291
330
A
100
AcDbEntity
  8
0
 62
     7
100
AcDbLine
 10
160.634812
 20
79.85214599999999
 30
0.0
 11
128.011308
 21
79.837676
 31
0.0
  0
LINE
  5
292
330
A
100
AcDbEntity
  8
0
 62
     7
100
AcDbLine
 10
181.011174
 20
101.837712
 30
0.0
 11
176.181494
 21
79.85214599999999
 31
0.0
  0
LINE
  5
293
330
A
100
AcDbEntity
  8
0
 62
     7
100
AcDbLine
 10
181.011174
 20
101.837712
 30
0.0
 11
180.817904
 21
101.837712
 31
0.0
  0
LINE
  5
294
330
A
100
AcDbEntity
  8
0
 62
     7
100
AcDbLine
 10
180.817904
 20
101.837712
 30
0.0
 11
180.24085
 21
101.837712
 31
0.0
  0
LINE
  5
295
330
A
100
AcDbEntity
  8
0
 62
     7
100
AcDbLine
 10
180.24085
 20
101.837712
 30
0.0
 11
179.29276
 21
101.837712
 31
0.0
  0
LINE
  5
296
330
A
100
AcDbEntity
  8
0
 62
     7
100
AcDbLine
 10
179.29276
 20
101.837712
 30
0.0
 11
177.992581
 21
101.837712
 31
0.0
  0
LINE
  5
297
330
A
100
AcDbEntity
  8
0
 62
     7
100
AcDbLine
 10
177.992581
 20
101.837712
 30
0.0
 11
177.210544
 21
101.837712
 31
0.0
  0
LINE
  5
298
330
A
100
AcDbEntity
  8
0
 62
     7
100
AcDbLine
 10
177.210544
 20
101.837712
 30
0.0
 11
176.366496
 21
101.837712
 31
0.0
  0
LINE
  5
299
330
A
100
AcDbEntity
  8
0
 62
     7
100
AcDbLine
 10
176.366496
 20
101.837712
 30
0.0
 11
175.435975
 21
101.837712
 31
0.0
  0
LINE
  5
29A
330
A
100
AcDbEntity
  8
0
 62
     7
100
AcDbLine
 10
175.435975
 20
101.837712
 30
0.0
 11
174.447922
 21
101.837712
 31
0.0
  0
LINE
  5
29B
330
A
100
AcDbEntity
  8
0
 62
     7
100
AcDbLine
 10
174.447922
 20
101.837712
 30
0.0
 11
172.275789
 21
101.837712
 31
0.0
  0
LINE
  5
29C
330
A
100
AcDbEntity
  8
0
 62
     7
100
AcDbLine
 10
172.275789
 20
101.837712
 30
0.0
 11
169.894195
 21
101.837712
 31
0.0
  0
LINE
  5
29D
330
A
100
AcDbEntity
  8
0
 62
     7
100
AcDbLine
 10
169.894195
 20
101.837712
 30
0.0
 11
167.352059
 21
101.837712
 31
0.0
  0
LINE
  5
29E
330
A
100
AcDbEntity
  8
0
 62
     7
100
AcDbLine
 10
167.352059
 20
101.837712
 30
0.0
 11
164.7007129999999
 21
101.837712
 31
0.0
  0
LINE
  5
29F
330
A
100
AcDbEntity
  8
0
 62
     7
100
AcDbLine
 10
164.7007129999999
 20
101.837712
 30
0.0
 11
161.994246
 21
101.837712
 31
0.0
  0
LINE
  5
2A0
330
A
100
AcDbEntity
  8
0
 62
     7
100
AcDbLine
 10
161.994246
 20
101.837712
 30
0.0
 11
128.011308
 21
101.820831
 31
0.0
  0
LINE
  5
2A1
330
A
100
AcDbEntity
  8
0
 62
     7
100
AcDbLine
 10
128.011308
 20
101.820831
 30
0.0
 11
128.011308
 21
79.837676
 31
0.0
  0
LINE
  5
2A2
330
A
100
AcDbEntity
  8
0
 62
     7
100
AcDbLine
 10
128.009757
 20
101.824276
 30
0.0
 11
128.009757
 21
102.757552
 31
0.0
  0
LINE
  5
2A3
330
A
100
AcDbEntity
  8
0
 62
     7
100
AcDbLine
 10
128.009757
 20
102.757552
 30
0.0
 11
128.009757
 21
103.648454
 31
0.0
  0
LINE
  5
2A4
330
A
100
AcDbEntity
  8
0
 62
     7
100
AcDbLine
 10
128.009757
 20
103.648454
 30
0.0
 11
128.009757
 21
104.477861
 31
0.0
  0
LINE
  5
2A5
330
A
100
AcDbEntity
  8
0
 62
     7
100
AcDbLine
 10
128.009757
 20
104.477861
 30
0.0
 11
128.009757
 21
104.852687
 31
0.0
  0
LINE
  5
2A6
330
A
100
AcDbEntity
  8
0
 62
     7
100
AcDbLine
 10
128.009757
 20
104.852687
 30
0.0
 11
128.009757
 21
105.227513
 31
0.0
  0
LINE
  5
2A7
330
A
100
AcDbEntity
  8
0
 62
     7
100
AcDbLine
 10
128.009757
 20
105.227513
 30
0.0
 11
128.009757
 21
105.815591
 31
0.0
  0
LINE
  5
2A8
330
A
100
AcDbEntity
  8
0
 62
     7
100
AcDbLine
 10
128.009757
 20
105.815591
 30
0.0
 11
128.009757
 21
106.284469
 31
0.0
  0
LINE
  5
2A9
330
A
100
AcDbEntity
  8
0
 62
     7
100
AcDbLine
 10
128.009757
 20
106.284469
 30
0.0
 11
128.009757
 21
106.625189
 31
0.0
  0
LINE
  5
2AA
330
A
100
AcDbEntity
  8
0
 62
     7
100
AcDbLine
 10
128.009757
 20
106.625189
 30
0.0
 11
128.009757
 21
106.764026
 31
0.0
  0
LINE
  5
2AB
330
A
100
AcDbEntity
  8
0
 62
     7
100
AcDbLine
 10
128.009757
 20
106.764026
 30
0.0
 11
128.009757
 21
106.887877
 31
0.0
  0
LINE
  5
2AC
330
A
100
AcDbEntity
  8
0
 62
     7
100
AcDbLine
 10
128.009757
 20
106.887877
 30
0.0
 11
128.009757
 21
107.104574
 31
0.0
  0
LINE
  5
2AD
330
A
100
AcDbEntity
  8
0
 62
     7
100
AcDbLine
 10
128.009757
 20
107.104574
 30
0.0
 11
128.009757
 21
108.514307
 31
0.0
  0
LINE
  5
2AE
330
A
100
AcDbEntity
  8
0
 62
     7
100
AcDbLine
 10
128.009757
 20
108.514307
 30
0.0
 11
128.009757
 21
108.731692
 31
0.0
  0
LINE
  5
2AF
330
A
100
AcDbEntity
  8
0
 62
     7
100
AcDbLine
 10
128.009757
 20
108.731692
 30
0.0
 11
128.009757
 21
108.834184
 31
0.0
  0
LINE
  5
2B0
330
A
100
AcDbEntity
  8
0
 62
     7
100
AcDbLine
 10
158.280089
 20
108.829188
 30
0.0
 11
162.486551
 21
108.829188
 31
0.0
  0
LINE
  5
2B1
330
A
100
AcDbEntity
  8
0
 62
     7
100
AcDbLine
 10
162.486551
 20
108.829188
 30
0.0
 11
168.569556
 21
108.829188
 31
0.0
  0
LINE
  5
2B2
330
A
100
AcDbEntity
  8
0
 62
     7
100
AcDbLine
 10
128.009757
 20
108.834184
 30
0.0
 11
154.980377
 21
108.830911
 31
0.0
  0
LINE
  5
2B3
330
A
100
AcDbEntity
  8
0
 62
     7
100
AcDbLine
 10
154.980377
 20
108.830911
 30
0.0
 11
167.600106
 21
108.830911
 31
0.0
  0
LINE
  5
2B4
330
A
100
AcDbEntity
  8
0
 62
     7
100
AcDbLine
 10
167.600106
 20
108.830911
 30
0.0
 11
180.854422
 21
108.830911
 31
0.0
  0
LINE
  5
2B5
330
A
100
AcDbEntity
  8
0
 62
     7
100
AcDbLine
 10
146.644451
 20
108.829188
 30
0.0
 11
147.214098
 21
108.829188
 31
0.0
  0
LINE
  5
2B6
330
A
100
AcDbEntity
  8
0
 62
     7
100
AcDbLine
 10
147.214098
 20
108.829188
 30
0.0
 11
148.796086
 21
108.829188
 31
0.0
  0
LINE
  5
2B7
330
A
100
AcDbEntity
  8
0
 62
     7
100
AcDbLine
 10
184.799745
 20
108.037333
 30
0.0
 11
184.923768
 21
107.940354
 31
0.0
  0
LINE
  5
2B8
330
A
100
AcDbEntity
  8
0
 62
     7
100
AcDbLine
 10
184.923768
 20
107.940354
 30
0.0
 11
184.999561
 21
107.802033
 31
0.0
  0
LINE
  5
2B9
330
A
100
AcDbEntity
  8
0
 62
     7
100
AcDbLine
 10
184.999561
 20
107.802033
 30
0.0
 11
185.017475
 21
107.620477
 31
0.0
  0
LINE
  5
2BA
330
A
100
AcDbEntity
  8
0
 62
     7
100
AcDbLine
 10
184.762193
 20
108.052664
 30
0.0
 11
184.799745
 21
108.037333
 31
0.0
  0
LINE
  5
2BB
330
A
100
AcDbEntity
  8
0
 62
     7
100
AcDbLine
 10
180.83444
 20
108.830911
 30
0.0
 11
180.854422
 21
108.830911
 31
0.0
  0
LINE
  5
2BC
330
A
100
AcDbEntity
  8
0
 62
     7
100
AcDbLine
 10
180.854422
 20
108.830911
 30
0.0
 11
180.83444
 21
108.830911
 31
0.0
  0
LINE
  5
2BD
330
A
100
AcDbEntity
  8
0
 62
     7
100
AcDbLine
 10
180.854422
 20
108.830911
 30
0.0
 11
180.83444
 21
108.830911
 31
0.0
  0
LINE
  5
2BE
330
A
100
AcDbEntity
  8
0
 62
     7
100
AcDbLine
 10
185.017475
 20
107.620477
 30
0.0
 11
184.664697
 21
106.351131
 31
0.0
  0
LINE
  5
2BF
330
A
100
AcDbEntity
  8
0
 62
     7
100
AcDbLine
 10
184.338102
 20
106.142703
 30
0.0
 11
183.848899
 21
106.084998
 31
0.0
  0
LINE
  5
2C0
330
A
100
AcDbEntity
  8
0
 62
     7
100
AcDbLine
 10
183.848899
 20
106.084998
 30
0.0
 11
183.128185
 21
105.935653
 31
0.0
  0
LINE
  5
2C1
330
A
100
AcDbEntity
  8
0
 62
     7
100
AcDbLine
 10
183.128185
 20
105.935653
 30
0.0
 11
182.503933
 21
105.670208
 31
0.0
  0
LINE
  5
2C2
330
A
100
AcDbEntity
  8
0
 62
     7
100
AcDbLine
 10
182.503933
 20
105.670208
 30
0.0
 11
182.020242
 21
105.237332
 31
0.0
  0
LINE
  5
2C3
330
A
100
AcDbEntity
  8
0
 62
     7
100
AcDbLine
 10
182.020242
 20
105.237332
 30
0.0
 11
181.64955
 21
104.561576
 31
0.0
  0
LINE
  5
2C4
330
A
100
AcDbEntity
  8
0
 62
     7
100
AcDbLine
 10
181.64955
 20
104.561576
 30
0.0
 11
181.383588
 21
103.723212
 31
0.0
  0
LINE
  5
2C5
330
A
100
AcDbEntity
  8
0
 62
     7
100
AcDbLine
 10
181.383588
 20
103.723212
 30
0.0
 11
181.162069
 21
102.797515
 31
0.0
  0
LINE
  5
2C6
330
A
100
AcDbEntity
  8
0
 62
     7
100
AcDbLine
 10
181.162069
 20
102.797515
 30
0.0
 11
180.967765
 21
101.844257
 31
0.0
  0
LINE
  5
2C7
330
A
100
AcDbEntity
  8
0
 62
     7
100
AcDbLine
 10
183.989459
 20
107.663024
 30
0.0
 11
185.000939
 21
107.620821
 31
0.0
  0
LINE
  5
2C8
330
A
100
AcDbEntity
  8
0
 62
     7
100
AcDbLine
 10
181.530694
 20
108.51913
 30
0.0
 11
180.856833
 21
108.511206
 31
0.0
  0
LINE
  5
2C9
330
A
100
AcDbEntity
  8
0
 62
     7
100
AcDbLine
 10
182.057449
 20
108.456774
 30
0.0
 11
181.530694
 21
108.51913
 31
0.0
  0
LINE
  5
2CA
330
A
100
AcDbEntity
  8
0
 62
     7
100
AcDbLine
 10
183.467871
 20
108.105374
 30
0.0
 11
182.057449
 21
108.456774
 31
0.0
  0
LINE
  5
2CB
330
A
100
AcDbEntity
  8
0
 62
     7
100
AcDbLine
 10
183.757259
 20
108.003916
 30
0.0
 11
183.467871
 21
108.105374
 31
0.0
  0
LINE
  5
2CC
330
A
100
AcDbEntity
  8
0
 62
     7
100
AcDbLine
 10
183.989459
 20
107.663024
 30
0.0
 11
183.972578
 21
107.86904
 31
0.0
  0
LINE
  5
2CD
330
A
100
AcDbEntity
  8
0
 62
     7
100
AcDbLine
 10
183.972578
 20
107.86904
 30
0.0
 11
183.757259
 21
108.003916
 31
0.0
  0
LINE
  5
2CE
330
A
100
AcDbEntity
  8
0
 62
     7
100
AcDbLine
 10
180.83444
 20
108.830911
 30
0.0
 11
180.854422
 21
108.830911
 31
0.0
  0
LINE
  5
2CF
330
A
100
AcDbEntity
  8
0
 62
     7
100
AcDbLine
 10
128.009757
 20
108.514307
 30
0.0
 11
154.982788
 21
108.511206
 31
0.0
  0
LINE
  5
2D0
330
A
100
AcDbEntity
  8
0
 62
     7
100
AcDbLine
 10
128.009757
 20
101.824276
 30
0.0
 11
161.967719
 21
101.844257
 31
0.0
  0
LINE
  5
2D1
330
A
100
AcDbEntity
  8
0
 62
     7
100
AcDbLine
 10
154.982788
 20
108.511206
 30
0.0
 11
167.602517
 21
108.511206
 31
0.0
  0
LINE
  5
2D2
330
A
100
AcDbEntity
  8
0
 62
     7
100
AcDbLine
 10
161.967719
 20
101.844257
 30
0.0
 11
164.671775
 21
101.844257
 31
0.0
  0
LINE
  5
2D3
330
A
100
AcDbEntity
  8
0
 62
     7
100
AcDbLine
 10
128.018887
 20
106.762648
 30
0.0
 11
178.215479
 21
106.766265
 31
0.0
  0
LINE
  5
2D4
330
A
100
AcDbEntity
  8
0
 62
     7
100
AcDbLine
 10
164.671775
 20
101.844257
 30
0.0
 11
167.320709
 21
101.844257
 31
0.0
  0
LINE
  5
2D5
330
A
100
AcDbEntity
  8
0
 62
     7
100
AcDbLine
 10
178.215479
 20
106.766265
 30
0.0
 11
179.443311
 21
106.736293
 31
0.0
  0
LINE
  5
2D6
330
A
100
AcDbEntity
  8
0
 62
     7
100
AcDbLine
 10
167.320709
 20
101.844257
 30
0.0
 11
169.860433
 21
101.844257
 31
0.0
  0
LINE
  5
2D7
330
A
100
AcDbEntity
  8
0
 62
     7
100
AcDbLine
 10
179.443311
 20
106.736293
 30
0.0
 11
180.647027
 21
106.668252
 31
0.0
  0
LINE
  5
2D8
330
A
100
AcDbEntity
  8
0
 62
     7
100
AcDbLine
 10
169.860433
 20
101.844257
 30
0.0
 11
172.23996
 21
101.844257
 31
0.0
  0
LINE
  5
2D9
330
A
100
AcDbEntity
  8
0
 62
     7
100
AcDbLine
 10
180.647027
 20
106.668252
 30
0.0
 11
181.891051
 21
106.533721
 31
0.0
  0
LINE
  5
2DA
330
A
100
AcDbEntity
  8
0
 62
     7
100
AcDbLine
 10
172.23996
 20
101.844257
 30
0.0
 11
174.410026
 21
101.844257
 31
0.0
  0
LINE
  5
2DB
330
A
100
AcDbEntity
  8
0
 62
     7
100
AcDbLine
 10
181.891051
 20
106.533721
 30
0.0
 11
182.796766
 21
106.356988
 31
0.0
  0
LINE
  5
2DC
330
A
100
AcDbEntity
  8
0
 62
     7
100
AcDbLine
 10
174.410026
 20
101.844257
 30
0.0
 11
175.39739
 21
101.844257
 31
0.0
  0
LINE
  5
2DD
330
A
100
AcDbEntity
  8
0
 62
     7
100
AcDbLine
 10
182.796766
 20
106.356988
 30
0.0
 11
183.28597
 21
106.28154
 31
0.0
  0
LINE
  5
2DE
330
A
100
AcDbEntity
  8
0
 62
     7
100
AcDbLine
 10
175.39739
 20
101.844257
 30
0.0
 11
176.326877
 21
101.844257
 31
0.0
  0
LINE
  5
2DF
330
A
100
AcDbEntity
  8
0
 62
     7
100
AcDbLine
 10
183.734177
 20
106.392989
 30
0.0
 11
183.989459
 21
107.663024
 31
0.0
  0
LINE
  5
2E0
330
A
100
AcDbEntity
  8
0
 62
     7
100
AcDbLine
 10
183.28597
 20
106.28154
 30
0.0
 11
183.649428
 21
106.225385
 31
0.0
  0
LINE
  5
2E1
330
A
100
AcDbEntity
  8
0
 62
     7
100
AcDbLine
 10
183.649428
 20
106.225385
 30
0.0
 11
183.734177
 21
106.392989
 31
0.0
  0
LINE
  5
2E2
330
A
100
AcDbEntity
  8
0
 62
     7
100
AcDbLine
 10
176.326877
 20
101.844257
 30
0.0
 11
177.170237
 21
101.844257
 31
0.0
  0
LINE
  5
2E3
330
A
100
AcDbEntity
  8
0
 62
     7
100
AcDbLine
 10
183.649428
 20
106.225385
 30
0.0
 11
183.836841
 21
106.197997
 31
0.0
  0
LINE
  5
2E4
330
A
100
AcDbEntity
  8
0
 62
     7
100
AcDbLine
 10
177.170237
 20
101.844257
 30
0.0
 11
177.951584
 21
101.844257
 31
0.0
  0
LINE
  5
2E5
330
A
100
AcDbEntity
  8
0
 62
     7
100
AcDbLine
 10
183.836841
 20
106.197997
 30
0.0
 11
184.257831
 21
106.191106
 31
0.0
  0
LINE
  5
2E6
330
A
100
AcDbEntity
  8
0
 62
     7
100
AcDbLine
 10
177.951584
 20
101.844257
 30
0.0
 11
179.25073
 21
101.844257
 31
0.0
  0
LINE
  5
2E7
330
A
100
AcDbEntity
  8
0
 62
     7
100
AcDbLine
 10
184.257831
 20
106.191106
 30
0.0
 11
184.484519
 21
106.186456
 31
0.0
  0
LINE
  5
2E8
330
A
100
AcDbEntity
  8
0
 62
     7
100
AcDbLine
 10
179.25073
 20
101.844257
 30
0.0
 11
180.198131
 21
101.844257
 31
0.0
  0
LINE
  5
2E9
330
A
100
AcDbEntity
  8
0
 62
     7
100
AcDbLine
 10
184.484519
 20
106.186456
 30
0.0
 11
184.55721
 21
106.184044
 31
0.0
  0
LINE
  5
2EA
330
A
100
AcDbEntity
  8
0
 62
     7
100
AcDbLine
 10
184.55721
 20
106.184044
 30
0.0
 11
184.664697
 21
106.351131
 31
0.0
  0
LINE
  5
2EB
330
A
100
AcDbEntity
  8
0
 62
     7
100
AcDbLine
 10
184.338102
 20
106.142703
 30
0.0
 11
184.55721
 21
106.184044
 31
0.0
  0
LINE
  5
2EC
330
A
100
AcDbEntity
  8
0
 62
     7
100
AcDbLine
 10
180.198131
 20
101.844257
 30
0.0
 11
180.7741509999999
 21
101.844257
 31
0.0
  0
LINE
  5
2ED
330
A
100
AcDbEntity
  8
0
 62
     7
100
AcDbLine
 10
180.7741509999999
 20
101.844257
 30
0.0
 11
180.967765
 21
101.844257
 31
0.0
  0
LINE
  5
2EE
330
A
100
AcDbEntity
  8
0
 62
     7
100
AcDbLine
 10
167.602517
 20
108.511206
 30
0.0
 11
180.856833
 21
108.511206
 31
0.0
  0
LINE
  5
2EF
330
A
100
AcDbEntity
  8
0
 62
     7
100
AcDbLine
 10
148.416436
 20
101.836334
 30
0.0
 11
148.416781
 21
101.830821
 31
0.0
  0
LINE
  5
2F0
330
A
100
AcDbEntity
  8
0
 62
     7
100
AcDbLine
 10
178.500388
 20
101.837712
 30
0.0
 11
178.502455
 21
101.844257
 31
0.0
  0
DIMENSION
  5
318
330
A
100
AcDbEntity
  8
Cotation-JacobDelafon
  6
Continuous
370
     0
100
AcDbDimension
  2
*D1
 10
186.0149486390465
 20
136.9028795843325
 30
0.0
 11
157.0123528195233
 21
139.3345985474976
 31
0.0
 70
    32
  1
58.5
 71
     5
 42
58.00519163904656
 73
     0
 74
     0
 75
     0
  3
Cotation-Jacob-Delafon
100
AcDbAlignedDimension
 13
128.009757
 23
108.834184
 33
0.0
 14
186.0149486390465
 24
109.7278694969872
 34
0.0
100
AcDbRotatedDimension
  0
DIMENSION
  5
325
330
A
100
AcDbEntity
  8
Cotation-JacobDelafon
  6
Continuous
370
     0
100
AcDbDimension
  2
*D2
 10
106.9131629888715
 20
79.837676
 30
0.0
 11
104.4804208333463
 21
95.68279000000003
 31
0.0
 70
    32
  1
32
 71
     5
 42
31.690228
 73
     0
 74
     0
 75
     0
  3
Cotation-Jacob-Delafon
100
AcDbAlignedDimension
 13
141.014821
 23
111.527904
 33
0.0
 14
128.011308
 24
79.837676
 34
0.0
 50
90.0
100
AcDbRotatedDimension
  0
ENDSEC
  0
SECTION
  2
OBJECTS
  0
DICTIONARY
  5
19
330
0
100
AcDbDictionary
281
     1
  3
ACAD_COLOR
350
121
  3
ACAD_GROUP
350
1A
  3
ACAD_LAYOUT
350
1E
  3
ACAD_MATERIAL
350
F7
  3
ACAD_MLEADERSTYLE
350
136
  3
ACAD_MLINESTYLE
350
1B
  3
ACAD_PLOTSETTINGS
350
22
  3
ACAD_PLOTSTYLENAME
350
1F
  3
ACAD_SCALELIST
350
124
  3
ACAD_TABLESTYLE
350
122
  3
ACAD_VISUALSTYLE
350
110
  3
ACAD_WIPEOUT_VARS
350
23
  3
ACDB_RECOMPOSE_DATA
350
212
  3
AcDbVariableDictionary
350
21E
  3
AEC_PROPERTY_SET_DEFS
350
30E
  0
DICTIONARY
  5
214
330
7
100
AcDbDictionary
280
     1
281
     1
  0
DICTIONARY
  5
20A
330
14
100
AcDbDictionary
280
     1
281
     1
  3
ADSK_XREC_LAYER_RECONCILED
360
20B
  0
DICTIONARY
  5
312
330
311
100
AcDbDictionary
280
     1
281
     1
  0
DICTIONARY
  5
2FF
330
A
100
AcDbDictionary
280
     1
281
     1
  3
ACAD_SORTENTS
360
300
  0
DICTIONARY
  5
121
102
{ACAD_REACTORS
330
19
102
}
330
19
100
AcDbDictionary
281
     1
  0
DICTIONARY
  5
1A
102
{ACAD_REACTORS
330
19
102
}
330
19
100
AcDbDictionary
281
     1
  0
DICTIONARY
  5
1E
102
{ACAD_REACTORS
330
19
102
}
330
19
100
AcDbDictionary
281
     1
  3
Layout1
350
21
  3
Model
350
20
  0
DICTIONARY
  5
F7
102
{ACAD_REACTORS
330
19
102
}
330
19
100
AcDbDictionary
281
     1
  3
ByBlock
350
100
  3
ByLayer
350
F8
  3
Global
350
108
  0
DICTIONARY
  5
136
102
{ACAD_REACTORS
330
19
102
}
330
19
100
AcDbDictionary
281
     1
  3
Standard
350
137
  0
DICTIONARY
  5
1B
102
{ACAD_REACTORS
330
19
102
}
330
19
100
AcDbDictionary
281
     1
  3
Standard
350
1C
  0
DICTIONARY
  5
22
102
{ACAD_REACTORS
330
19
102
}
330
19
100
AcDbDictionary
281
     1
  0
ACDBDICTIONARYWDFLT
  5
1F
102
{ACAD_REACTORS
330
19
102
}
330
19
100
AcDbDictionary
281
     1
  3
Normal
350
1D
100
AcDbDictionaryWithDefault
340
1D
  0
DICTIONARY
  5
124
102
{ACAD_REACTORS
330
19
102
}
330
19
100
AcDbDictionary
281
     1
  3
A0
350
125
  3
A1
350
126
  3
A2
350
127
  3
A3
350
128
  3
A4
350
129
  3
A5
350
12A
  3
A6
350
12B
  3
A7
350
12C
  3
A8
350
12D
  3
A9
350
12E
  3
B0
350
12F
  3
B1
350
130
  3
B2
350
131
  3
B3
350
132
  3
B4
350
133
  3
B5
350
134
  3
B6
350
135
  0
DICTIONARY
  5
122
102
{ACAD_REACTORS
330
19
102
}
330
19
100
AcDbDictionary
281
     1
  3
Standard
350
123
  0
DICTIONARY
  5
110
102
{ACAD_REACTORS
330
19
102
}
330
19
100
AcDbDictionary
281
     1
  3
2dWireframe
350
116
  3
3D Hidden
350
118
  3
3dWireframe
350
117
  3
Basic
350
115
  3
Brighten
350
11C
  3
ColorChange
350
120
  3
Conceptual
350
119
  3
Dim
350
11B
  3
Facepattern
350
11F
  3
Flat
350
111
  3
FlatWithEdges
350
112
  3
Gouraud
350
113
  3
GouraudWithEdges
350
114
  3
Linepattern
350
11E
  3
Realistic
350
11A
  3
Thicken
350
11D
  0
WIPEOUTVARIABLES
  5
23
330
19
100
AcDbWipeoutVariables
 70
     1
  0
XRECORD
  5
212
102
{ACAD_REACTORS
330
19
102
}
330
19
100
AcDbXrecord
280
     1
 90
        1
330
123
  0
DICTIONARY
  5
21E
102
{ACAD_REACTORS
330
19
102
}
330
19
100
AcDbDictionary
281
     1
  3
CANNOSCALE
350
221
  3
CMLEADERSTYLE
350
220
  3
CTABLESTYLE
350
21F
  3
DIMASSOC
350
224
  3
INDEXCTL
350
223
  3
LAYEREVAL
350
22C
  3
LAYERNOTIFY
350
22D
  3
LIGHTINGUNITS
350
22B
  3
MSLTSCALE
350
22A
  3
SORTENTS
350
222
  0
DICTIONARY
  5
30E
102
{ACAD_REACTORS
330
19
102
}
330
19
100
AcDbDictionary
281
     1
  0
XRECORD
  5
20B
102
{ACAD_REACTORS
330
20A
102
}
330
20A
100
AcDbXrecord
280
     1
290
     1
  0
SORTENTSTABLE
  5
300
102
{ACAD_REACTORS
330
2FF
102
}
330
2FF
100
AcDbSortentsTable
330
A
331
26F
  5
26F
331
2A6
  5
2A6
331
2E5
  5
2E5
331
2ED
  5
2ED
331
277
  5
277
331
2AE
  5
2AE
331
238
  5
238
331
240
  5
240
331
27F
  5
27F
331
2B6
  5
2B6
331
2BE
  5
2BE
331
248
  5
248
331
2C6
  5
2C6
331
250
  5
250
331
287
  5
287
331
28F
  5
28F
331
2CE
  5
2CE
331
258
  5
258
331
260
  5
260
331
297
  5
297
331
2D6
  5
2D6
331
2DE
  5
2DE
331
29F
  5
29F
331
268
  5
268
331
2E6
  5
2E6
331
270
  5
270
331
2A7
  5
2A7
331
2AF
  5
2AF
331
2EE
  5
2EE
331
239
  5
239
331
278
  5
278
331
2B7
  5
2B7
331
241
  5
241
331
2BF
  5
2BF
331
280
  5
280
331
249
  5
249
331
251
  5
251
331
288
  5
288
331
2C7
  5
2C7
331
2CF
  5
2CF
331
259
  5
259
331
290
  5
290
331
298
  5
298
331
2D7
  5
2D7
331
261
  5
261
331
2DF
  5
2DF
331
2A0
  5
2A0
331
269
  5
269
331
271
  5
271
331
2A8
  5
2A8
331
2E7
  5
2E7
331
2EF
  5
2EF
331
23A
  5
23A
331
279
  5
279
331
2B0
  5
2B0
331
242
  5
242
331
2B8
  5
2B8
331
2C0
  5
2C0
331
24A
  5
24A
331
281
  5
281
331
2C8
  5
2C8
331
252
  5
252
331
289
  5
289
331
291
  5
291
331
2D0
  5
2D0
331
25A
  5
25A
331
262
  5
262
331
299
  5
299
331
2D8
  5
2D8
331
2E0
  5
2E0
331
26A
  5
26A
331
2A1
  5
2A1
331
2A9
  5
2A9
331
2E8
  5
2E8
331
233
  5
233
331
272
  5
272
331
2B1
  5
2B1
331
2F0
  5
2F0
331
23B
  5
23B
331
27A
  5
27A
331
2B9
  5
2B9
331
243
  5
243
331
24B
  5
24B
331
282
  5
282
331
2C1
  5
2C1
331
253
  5
253
331
28A
  5
28A
331
2C9
  5
2C9
331
2D1
  5
2D1
331
25B
  5
25B
331
292
  5
292
331
29A
  5
29A
331
2D9
  5
2D9
331
263
  5
263
331
2A2
  5
2A2
331
2E1
  5
2E1
331
26B
  5
26B
331
273
  5
273
331
2AA
  5
2AA
331
234
  5
234
331
2E9
  5
2E9
331
23C
  5
23C
331
27B
  5
27B
331
2B2
  5
2B2
331
2BA
  5
2BA
331
244
  5
244
331
2C2
  5
2C2
331
24C
  5
24C
331
283
  5
283
331
2CA
  5
2CA
331
254
  5
254
331
28B
  5
28B
331
25C
  5
25C
331
293
  5
293
331
2D2
  5
2D2
331
264
  5
264
331
29B
  5
29B
331
2DA
  5
2DA
331
2E2
  5
2E2
331
26C
  5
26C
331
2A3
  5
2A3
331
2AB
  5
2AB
331
2EA
  5
2EA
331
235
  5
235
331
274
  5
274
331
2B3
  5
2B3
331
23D
  5
23D
331
27C
  5
27C
331
2BB
  5
2BB
331
245
  5
245
331
24D
  5
24D
331
284
  5
284
331
2C3
  5
2C3
331
2CB
  5
2CB
331
255
  5
255
331
28C
  5
28C
331
2D3
  5
2D3
331
25D
  5
25D
331
294
  5
294
331
29C
  5
29C
331
2DB
  5
2DB
331
265
  5
265
331
26D
  5
26D
331
2A4
  5
2A4
331
2E3
  5
2E3
331
275
  5
275
331
2AC
  5
2AC
331
236
  5
236
331
2EB
  5
2EB
331
23E
  5
23E
331
27D
  5
27D
331
2B4
  5
2B4
331
2BC
  5
2BC
331
246
  5
246
331
2C4
  5
2C4
331
24E
  5
24E
331
285
  5
285
331
2CC
  5
2CC
331
256
  5
256
331
28D
  5
28D
331
25E
  5
25E
331
295
  5
295
331
2D4
  5
2D4
331
2DC
  5
2DC
331
266
  5
266
331
29D
  5
29D
331
2E4
  5
2E4
331
26E
  5
26E
331
2A5
  5
2A5
331
2AD
  5
2AD
331
2EC
  5
2EC
331
237
  5
237
331
276
  5
276
331
27E
  5
27E
331
2B5
  5
2B5
331
23F
  5
23F
331
2BD
  5
2BD
331
247
  5
247
331
24F
  5
24F
331
286
  5
286
331
2C5
  5
2C5
331
2CD
  5
2CD
331
257
  5
257
331
28E
  5
28E
331
2D5
  5
2D5
331
25F
  5
25F
331
296
  5
296
331
29E
  5
29E
331
2DD
  5
2DD
331
267
  5
267
  0
LAYOUT
  5
21
102
{ACAD_REACTORS
330
1E
102
}
330
1E
100
AcDbPlotSettings
  1

  2

  4

  6

 40
0.0
 41
0.0
 42
0.0
 43
0.0
 44
0.0
 45
0.0
 46
0.0
 47
0.0
 48
0.0
 49
0.0
140
0.0
141
0.0
142
1.0
143
1.0
 70
     0
 72
     0
 73
     0
 74
     0
  7

 75
     0
147
1.0
 76
     0
 77
     2
 78
   300
148
0.0
149
0.0
100
AcDbLayout
  1
Layout1
 70
     0
 71
     1
 10
0.0
 20
0.0
 11
12.0
 21
9.0
 12
0.0
 22
0.0
 32
0.0
 14
1.000000000000000E+20
 24
1.000000000000000E+20
 34
1.000000000000000E+20
 15
-1.000000000000000E+20
 25
-1.000000000000000E+20
 35
-1.000000000000000E+20
146
0.0
 13
0.0
 23
0.0
 33
0.0
 16
1.0
 26
0.0
 36
0.0
 17
0.0
 27
1.0
 37
0.0
 76
     0
330
B
  0
LAYOUT
  5
20
102
{ACAD_REACTORS
330
1E
102
}
330
1E
100
AcDbPlotSettings
  1

  2

  4

  6

 40
0.0
 41
0.0
 42
0.0
 43
0.0
 44
0.0
 45
0.0
 46
0.0
 47
0.0
 48
0.0
 49
0.0
140
0.0
141
0.0
142
1.0
143
1.0
 70
  1024
 72
     0
 73
     0
 74
     0
  7

 75
     0
147
1.0
 76
     0
 77
     2
 78
   300
148
0.0
149
0.0
100
AcDbLayout
  1
Model
 70
     0
 71
     0
 10
0.0
 20
0.0
 11
0.0
 21
0.0
 12
0.0
 22
0.0
 32
0.0
 14
0.0
 24
0.0
 34
0.0
 15
0.0
 25
0.0
 35
0.0
146
0.0
 13
0.0
 23
0.0
 33
0.0
 16
0.0
 26
0.0
 36
0.0
 17
0.0
 27
0.0
 37
0.0
 76
     0
330
A
331
15
  0
MATERIAL
  5
100
102
{ACAD_XDICTIONARY
360
101
102
}
102
{ACAD_REACTORS
330
F7
102
}
330
F7
100
AcDbMaterial
  1
ByBlock
 72
     0
 43
0.0208333333333333
 43
0.0
 43
0.0
 43
0.0
 43
0.0
 43
0.0208333333333333
 43
0.0
 43
0.0
 43
0.0
 43
0.0
 43
1.0
 43
0.0
 43
0.0
 43
0.0
 43
0.0
 43
1.0
 77
     0
 47
0.0208333333333333
 47
0.0
 47
0.0
 47
0.0
 47
0.0
 47
0.0208333333333333
 47
0.0
 47
0.0
 47
0.0
 47
0.0
 47
1.0
 47
0.0
 47
0.0
 47
0.0
 47
0.0
 47
1.0
171
     0
 49
0.0208333333333333
 49
0.0
 49
0.0
 49
0.0
 49
0.0
 49
0.0208333333333333
 49
0.0
 49
0.0
 49
0.0
 49
0.0
 49
1.0
 49
0.0
 49
0.0
 49
0.0
 49
0.0
 49
1.0
175
     0
142
0.0208333333333333
142
0.0
142
0.0
142
0.0
142
0.0
142
0.0208333333333333
142
0.0
142
0.0
142
0.0
142
0.0
142
1.0
142
0.0
142
0.0
142
0.0
142
0.0
142
1.0
179
     0
144
0.0208333333333333
144
0.0
144
0.0
144
0.0
144
0.0
144
0.0208333333333333
144
0.0
144
0.0
144
0.0
144
0.0
144
1.0
144
0.0
144
0.0
144
0.0
144
0.0
144
1.0
147
0.0208333333333333
147
0.0
147
0.0
147
0.0
147
0.0
147
0.0208333333333333
147
0.0
147
0.0
147
0.0
147
0.0
147
1.0
147
0.0
147
0.0
147
0.0
147
0.0
147
1.0
  0
MATERIAL
  5
F8
102
{ACAD_XDICTIONARY
360
F9
102
}
102
{ACAD_REACTORS
330
F7
102
}
330
F7
100
AcDbMaterial
  1
ByLayer
 72
     0
 43
0.0208333333333333
 43
0.0
 43
0.0
 43
0.0
 43
0.0
 43
0.0208333333333333
 43
0.0
 43
0.0
 43
0.0
 43
0.0
 43
1.0
 43
0.0
 43
0.0
 43
0.0
 43
0.0
 43
1.0
 77
     0
 47
0.0208333333333333
 47
0.0
 47
0.0
 47
0.0
 47
0.0
 47
0.0208333333333333
 47
0.0
 47
0.0
 47
0.0
 47
0.0
 47
1.0
 47
0.0
 47
0.0
 47
0.0
 47
0.0
 47
1.0
171
     0
 49
0.0208333333333333
 49
0.0
 49
0.0
 49
0.0
 49
0.0
 49
0.0208333333333333
 49
0.0
 49
0.0
 49
0.0
 49
0.0
 49
1.0
 49
0.0
 49
0.0
 49
0.0
 49
0.0
 49
1.0
175
     0
142
0.0208333333333333
142
0.0
142
0.0
142
0.0
142
0.0
142
0.0208333333333333
142
0.0
142
0.0
142
0.0
142
0.0
142
1.0
142
0.0
142
0.0
142
0.0
142
0.0
142
1.0
179
     0
144
0.0208333333333333
144
0.0
144
0.0
144
0.0
144
0.0
144
0.0208333333333333
144
0.0
144
0.0
144
0.0
144
0.0
144
1.0
144
0.0
144
0.0
144
0.0
144
0.0
144
1.0
147
0.0208333333333333
147
0.0
147
0.0
147
0.0
147
0.0
147
0.0208333333333333
147
0.0
147
0.0
147
0.0
147
0.0
147
1.0
147
0.0
147
0.0
147
0.0
147
0.0
147
1.0
  0
MATERIAL
  5
108
102
{ACAD_XDICTIONARY
360
109
102
}
102
{ACAD_REACTORS
330
F7
102
}
330
F7
100
AcDbMaterial
  1
Global
 72
     0
 43
0.0208333333333333
 43
0.0
 43
0.0
 43
0.0
 43
0.0
 43
0.0208333333333333
 43
0.0
 43
0.0
 43
0.0
 43
0.0
 43
1.0
 43
0.0
 43
0.0
 43
0.0
 43
0.0
 43
1.0
 77
     0
 47
0.0208333333333333
 47
0.0
 47
0.0
 47
0.0
 47
0.0
 47
0.0208333333333333
 47
0.0
 47
0.0
 47
0.0
 47
0.0
 47
1.0
 47
0.0
 47
0.0
 47
0.0
 47
0.0
 47
1.0
171
     0
 49
0.0208333333333333
 49
0.0
 49
0.0
 49
0.0
 49
0.0
 49
0.0208333333333333
 49
0.0
 49
0.0
 49
0.0
 49
0.0
 49
1.0
 49
0.0
 49
0.0
 49
0.0
 49
0.0
 49
1.0
175
     0
142
0.0208333333333333
142
0.0
142
0.0
142
0.0
142
0.0
142
0.0208333333333333
142
0.0
142
0.0
142
0.0
142
0.0
142
1.0
142
0.0
142
0.0
142
0.0
142
0.0
142
1.0
179
     0
144
0.0208333333333333
144
0.0
144
0.0
144
0.0
144
0.0
144
0.0208333333333333
144
0.0
144
0.0
144
0.0
144
0.0
144
1.0
144
0.0
144
0.0
144
0.0
144
0.0
144
1.0
147
0.0208333333333333
147
0.0
147
0.0
147
0.0
147
0.0
147
0.0208333333333333
147
0.0
147
0.0
147
0.0
147
0.0
147
1.0
147
0.0
147
0.0
147
0.0
147
0.0
147
1.0
  0
MLEADERSTYLE
  5
137
102
{ACAD_REACTORS
330
136
102
}
330
136
100
AcDbMLeaderStyle
170
     2
171
     1
172
     0
 90
        2
 40
0.0
 41
0.0
173
     1
 91
-1056964608
340
11
 92
       -2
290
     1
 42
2.0
291
     1
 43
0.36
  3
Standard
 44
4.0
300

342
17
174
     1
178
     6
175
     1
176
     0
 93
-1056964608
 45
4.0
292
     0
297
     0
 46
4.0
 94
-1056964608
 47
1.0
 49
1.0
140
1.0
293
     1
141
0.0
294
     1
177
     0
142
1.0
295
     0
296
     0
143
0.125
1001
ACAD_MLEADERVER
1070
     2
  0
MLINESTYLE
  5
1C
102
{ACAD_REACTORS
330
1B
102
}
330
1B
100
AcDbMlineStyle
  2
STANDARD
 70
     0
  3

 62
     0
 51
90.0
 52
90.0
 71
     2
 49
0.5
 62
   256
  6
BYLAYER
 49
-0.5
 62
   256
  6
BYLAYER
  0
ACDBPLACEHOLDER
  5
1D
102
{ACAD_REACTORS
330
1F
102
}
330
1F
  0
SCALE
  5
125
102
{ACAD_REACTORS
330
124
102
}
330
124
100
AcDbScale
 70
     0
300
1:1
140
1.0
141
1.0
290
     1
  0
SCALE
  5
126
102
{ACAD_REACTORS
330
124
102
}
330
124
100
AcDbScale
 70
     0
300
1:2
140
1.0
141
2.0
290
     0
  0
SCALE
  5
127
102
{ACAD_REACTORS
330
124
102
}
330
124
100
AcDbScale
 70
     0
300
1:4
140
1.0
141
4.0
290
     0
  0
SCALE
  5
128
102
{ACAD_REACTORS
330
124
102
}
330
124
100
AcDbScale
 70
     0
300
1:5
140
1.0
141
5.0
290
     0
  0
SCALE
  5
129
102
{ACAD_REACTORS
330
124
102
}
330
124
100
AcDbScale
 70
     0
300
1:8
140
1.0
141
8.0
290
     0
  0
SCALE
  5
12A
102
{ACAD_REACTORS
330
124
102
}
330
124
100
AcDbScale
 70
     0
300
1:10
140
1.0
141
10.0
290
     0
  0
SCALE
  5
12B
102
{ACAD_REACTORS
330
124
102
}
330
124
100
AcDbScale
 70
     0
300
1:16
140
1.0
141
16.0
290
     0
  0
SCALE
  5
12C
102
{ACAD_REACTORS
330
124
102
}
330
124
100
AcDbScale
 70
     0
300
1:20
140
1.0
141
20.0
290
     0
  0
SCALE
  5
12D
102
{ACAD_REACTORS
330
124
102
}
330
124
100
AcDbScale
 70
     0
300
1:30
140
1.0
141
30.0
290
     0
  0
SCALE
  5
12E
102
{ACAD_REACTORS
330
124
102
}
330
124
100
AcDbScale
 70
     0
300
1:40
140
1.0
141
40.0
290
     0
  0
SCALE
  5
12F
102
{ACAD_REACTORS
330
124
102
}
330
124
100
AcDbScale
 70
     0
300
1:50
140
1.0
141
50.0
290
     0
  0
SCALE
  5
130
102
{ACAD_REACTORS
330
124
102
}
330
124
100
AcDbScale
 70
     0
300
1:100
140
1.0
141
100.0
290
     0
  0
SCALE
  5
131
102
{ACAD_REACTORS
330
124
102
}
330
124
100
AcDbScale
 70
     0
300
2:1
140
2.0
141
1.0
290
     0
  0
SCALE
  5
132
102
{ACAD_REACTORS
330
124
102
}
330
124
100
AcDbScale
 70
     0
300
4:1
140
4.0
141
1.0
290
     0
  0
SCALE
  5
133
102
{ACAD_REACTORS
330
124
102
}
330
124
100
AcDbScale
 70
     0
300
8:1
140
8.0
141
1.0
290
     0
  0
SCALE
  5
134
102
{ACAD_REACTORS
330
124
102
}
330
124
100
AcDbScale
 70
     0
300
10:1
140
10.0
141
1.0
290
     0
  0
SCALE
  5
135
102
{ACAD_REACTORS
330
124
102
}
330
124
100
AcDbScale
 70
     0
300
100:1
140
100.0
141
1.0
290
     0
  0
TABLESTYLE
  5
123
102
{ACAD_XDICTIONARY
360
210
102
}
102
{ACAD_REACTORS
330
122
102
}
330
122
100
AcDbTableStyle
  3
Standard
 70
     0
 71
     0
 40
1.5
 41
1.5
280
     0
281
     0
  7
Standard
140
4.5
170
     2
 62
     0
 63
     7
283
     0
 90
      512
 91
        0
  1

274
    -2
284
     1
 64
     0
275
    -2
285
     1
 65
     0
276
    -2
286
     1
 66
     0
277
    -2
287
     1
 67
     0
278
    -2
288
     1
 68
     0
279
    -2
289
     1
 69
     0
  7
Standard
140
6.0
170
     5
 62
     0
 63
     7
283
     0
 90
      512
 91
        0
  1

274
    -2
284
     1
 64
     0
275
    -2
285
     1
 65
     0
276
    -2
286
     1
 66
     0
277
    -2
287
     1
 67
     0
278
    -2
288
     1
 68
     0
279
    -2
289
     1
 69
     0
  7
Standard
140
4.5
170
     5
 62
     0
 63
     7
283
     0
 90
      512
 91
        0
  1

274
    -2
284
     1
 64
     0
275
    -2
285
     1
 65
     0
276
    -2
286
     1
 66
     0
277
    -2
287
     1
 67
     0
278
    -2
288
     1
 68
     0
279
    -2
289
     1
 69
     0
  0
VISUALSTYLE
  5
116
102
{ACAD_REACTORS
330
110
102
}
330
110
100
AcDbVisualStyle
  2
2dWireframe
 70
     4
 71
     0
 72
     2
 73
     0
 90
        0
 40
-0.6
 41
-30.0
 62
     5
 63
     7
 74
     1
 91
        4
 64
     7
 65
   257
 75
     1
175
     1
 42
1.0
 92
        0
 66
   257
 43
1.0
 76
     1
 77
     6
 78
     2
 67
     7
 79
     5
170
     0
171
     0
290
     0
174
     0
 93
        1
 44
0.0
173
     0
291
     0
 45
0.0
  0
VISUALSTYLE
  5
118
102
{ACAD_REACTORS
330
110
102
}
330
110
100
AcDbVisualStyle
  2
3D Hidden
 70
     6
 71
     1
 72
     2
 73
     2
 90
        0
 40
-0.6
 41
-30.0
 62
     5
 63
     7
 74
     2
 91
        2
 64
     7
 65
   257
 75
     2
175
     1
 42
40.0
 92
        0
 66
   257
 43
1.0
 76
     1
 77
     6
 78
     2
 67
     7
 79
     3
170
     0
171
     0
290
     0
174
     0
 93
        1
 44
0.0
173
     0
291
     0
 45
0.0
  0
VISUALSTYLE
  5
117
102
{ACAD_REACTORS
330
110
102
}
330
110
100
AcDbVisualStyle
  2
3dWireframe
 70
     5
 71
     0
 72
     2
 73
     0
 90
        0
 40
-0.6
 41
-30.0
 62
     5
 63
     7
 74
     1
 91
        4
 64
     7
 65
   257
 75
     1
175
     1
 42
1.0
 92
        0
 66
   257
 43
1.0
 76
     1
 77
     6
 78
     2
 67
     7
 79
     5
170
     0
171
     0
290
     0
174
     0
 93
        1
 44
0.0
173
     0
291
     0
 45
0.0
  0
VISUALSTYLE
  5
115
102
{ACAD_REACTORS
330
110
102
}
330
110
100
AcDbVisualStyle
  2
Basic
 70
     7
 71
     1
 72
     0
 73
     1
 90
        0
 40
-0.6
 41
-30.0
 62
     5
 63
     7
 74
     0
 91
        4
 64
     7
 65
   257
 75
     1
175
     1
 42
1.0
 92
        8
 66
     7
 43
1.0
 76
     1
 77
     6
 78
     2
 67
     7
 79
     5
170
     0
171
     0
290
     0
174
     0
 93
        1
 44
0.0
173
     0
291
     1
 45
0.0
  0
VISUALSTYLE
  5
11C
102
{ACAD_REACTORS
330
110
102
}
330
110
100
AcDbVisualStyle
  2
Brighten
 70
    12
 71
     2
 72
     2
 73
     0
 90
        0
 40
-0.6
 41
-30.0
 62
     5
 63
     7
 74
     1
 91
        4
 64
     7
 65
   257
 75
     1
175
     1
 42
1.0
 92
        8
 66
     7
 43
1.0
 76
     1
 77
     6
 78
     2
 67
     7
 79
     5
170
     0
171
     0
290
     0
174
     0
 93
        1
 44
50.0
173
     0
291
     1
 45
0.0
  0
VISUALSTYLE
  5
120
102
{ACAD_REACTORS
330
110
102
}
330
110
100
AcDbVisualStyle
  2
ColorChange
 70
    16
 71
     2
 72
     2
 73
     3
 90
        0
 40
-0.6
 41
-30.0
 62
     5
 63
     8
 74
     1
 91
        4
 64
     7
 65
   257
 75
     1
175
     1
 42
1.0
 92
        8
 66
     8
 43
1.0
 76
     1
 77
     6
 78
     2
 67
     7
 79
     5
170
     0
171
     0
290
     0
174
     0
 93
        1
 44
0.0
173
     0
291
     1
 45
0.0
  0
VISUALSTYLE
  5
119
102
{ACAD_REACTORS
330
110
102
}
330
110
100
AcDbVisualStyle
  2
Conceptual
 70
     9
 71
     3
 72
     2
 73
     0
 90
        0
 40
-0.6
 41
-30.0
 62
     5
 63
     7
 74
     2
 91
        2
 64
     7
 65
   257
 75
     1
175
     1
 42
40.0
 92
        8
 66
     7
 43
1.0
 76
     1
 77
     6
 78
     2
 67
     7
 79
     3
170
     0
171
     0
290
     0
174
     0
 93
        1
 44
0.0
173
     0
291
     0
 45
0.0
  0
VISUALSTYLE
  5
11B
102
{ACAD_REACTORS
330
110
102
}
330
110
100
AcDbVisualStyle
  2
Dim
 70
    11
 71
     2
 72
     2
 73
     0
 90
        0
 40
-0.6
 41
-30.0
 62
     5
 63
     7
 74
     1
 91
        4
 64
     7
 65
   257
 75
     1
175
     1
 42
1.0
 92
        8
 66
     7
 43
1.0
 76
     1
 77
     6
 78
     2
 67
     7
 79
     5
170
     0
171
     0
290
     0
174
     0
 93
        1
 44
-50.0
173
     0
291
     1
 45
0.0
  0
VISUALSTYLE
  5
11F
102
{ACAD_REACTORS
330
110
102
}
330
110
100
AcDbVisualStyle
  2
Facepattern
 70
    15
 71
     2
 72
     2
 73
     0
 90
        0
 40
-0.6
 41
-30.0
 62
     5
 63
     7
 74
     1
 91
        4
 64
     7
 65
   257
 75
     1
175
     1
 42
1.0
 92
        8
 66
     7
 43
1.0
 76
     1
 77
     6
 78
     2
 67
     7
 79
     5
170
     0
171
     0
290
     0
174
     0
 93
        1
 44
0.0
173
     0
291
     1
 45
0.0
  0
VISUALSTYLE
  5
111
102
{ACAD_REACTORS
330
110
102
}
330
110
100
AcDbVisualStyle
  2
Flat
 70
     0
 71
     2
 72
     1
 73
     1
 90
        2
 40
-0.6
 41
30.0
 62
     5
 63
     7
 74
     0
 91
        4
 64
     7
 65
   257
 75
     1
175
     1
 42
1.0
 92
        8
 66
     7
 43
1.0
 76
     1
 77
     6
 78
     2
 67
     7
 79
     5
170
     0
171
     0
290
     0
174
     0
 93
       13
 44
0.0
173
     0
291
     1
 45
0.0
  0
VISUALSTYLE
  5
112
102
{ACAD_REACTORS
330
110
102
}
330
110
100
AcDbVisualStyle
  2
FlatWithEdges
 70
     1
 71
     2
 72
     1
 73
     1
 90
        2
 40
-0.6
 41
30.0
 62
     5
 63
     7
 74
     1
 91
        4
 64
     7
 65
   257
 75
     1
175
     1
 42
1.0
 92
        0
 66
   257
 43
1.0
 76
     1
 77
     6
 78
     2
 67
     7
 79
     5
170
     0
171
     0
290
     0
174
     0
 93
       13
 44
0.0
173
     0
291
     1
 45
0.0
  0
VISUALSTYLE
  5
113
102
{ACAD_REACTORS
330
110
102
}
330
110
100
AcDbVisualStyle
  2
Gouraud
 70
     2
 71
     2
 72
     2
 73
     1
 90
        2
 40
-0.6
 41
30.0
 62
     5
 63
     7
 74
     0
 91
        4
 64
     7
 65
   257
 75
     1
175
     1
 42
1.0
 92
        0
 66
     7
 43
1.0
 76
     1
 77
     6
 78
     2
 67
     7
 79
     5
170
     0
171
     0
290
     0
174
     0
 93
       13
 44
0.0
173
     0
291
     1
 45
0.0
  0
VISUALSTYLE
  5
114
102
{ACAD_REACTORS
330
110
102
}
330
110
100
AcDbVisualStyle
  2
GouraudWithEdges
 70
     3
 71
     2
 72
     2
 73
     1
 90
        2
 40
-0.6
 41
30.0
 62
     5
 63
     7
 74
     1
 91
        4
 64
     7
 65
   257
 75
     1
175
     1
 42
1.0
 92
        0
 66
   257
 43
1.0
 76
     1
 77
     6
 78
     2
 67
     7
 79
     5
170
     0
171
     0
290
     0
174
     0
 93
       13
 44
0.0
173
     0
291
     1
 45
0.0
  0
VISUALSTYLE
  5
11E
102
{ACAD_REACTORS
330
110
102
}
330
110
100
AcDbVisualStyle
  2
Linepattern
 70
    14
 71
     2
 72
     2
 73
     0
 90
        0
 40
-0.6
 41
-30.0
 62
     5
 63
     7
 74
     1
 91
        4
 64
     7
 65
   257
 75
     7
175
     7
 42
1.0
 92
        8
 66
     7
 43
1.0
 76
     1
 77
     6
 78
     2
 67
     7
 79
     5
170
     0
171
     0
290
     0
174
     0
 93
        1
 44
0.0
173
     0
291
     1
 45
0.0
  0
VISUALSTYLE
  5
11A
102
{ACAD_REACTORS
330
110
102
}
330
110
100
AcDbVisualStyle
  2
Realistic
 70
     8
 71
     2
 72
     2
 73
     0
 90
        0
 40
-0.6
 41
-30.0
 62
     5
 63
     7
 74
     1
 91
        0
 64
     7
 65
   257
 75
     1
175
     1
 42
1.0
 92
        8
 66
     8
 43
1.0
 76
     1
 77
     6
 78
     2
 67
     7
 79
     5
170
     0
171
     0
290
     0
174
     0
 93
       13
 44
0.0
173
     0
291
     0
 45
0.0
  0
VISUALSTYLE
  5
11D
102
{ACAD_REACTORS
330
110
102
}
330
110
100
AcDbVisualStyle
  2
Thicken
 70
    13
 71
     2
 72
     2
 73
     0
 90
        0
 40
-0.6
 41
-30.0
 62
     5
 63
     7
 74
     1
 91
        4
 64
     7
 65
   257
 75
     1
175
     1
 42
1.0
 92
       12
 66
     7
 43
1.0
 76
     1
 77
     6
 78
     2
 67
     7
 79
     5
170
     0
171
     0
290
     0
174
     0
 93
        1
 44
0.0
173
     0
291
     1
 45
0.0
  0
DICTIONARYVAR
  5
221
102
{ACAD_REACTORS
330
21E
102
}
330
21E
100
DictionaryVariables
280
     0
  1
1:1
  0
DICTIONARYVAR
  5
220
102
{ACAD_REACTORS
330
21E
102
}
330
21E
100
DictionaryVariables
280
     0
  1
STANDARD
  0
DICTIONARYVAR
  5
21F
102
{ACAD_REACTORS
330
21E
102
}
330
21E
100
DictionaryVariables
280
     0
  1
STANDARD
  0
DICTIONARYVAR
  5
224
102
{ACAD_REACTORS
330
21E
102
}
330
21E
100
DictionaryVariables
280
     0
  1
1
  0
DICTIONARYVAR
  5
223
102
{ACAD_REACTORS
330
21E
102
}
330
21E
100
DictionaryVariables
280
     0
  1
0
  0
DICTIONARYVAR
  5
22C
102
{ACAD_REACTORS
330
21E
102
}
330
21E
100
DictionaryVariables
280
     0
  1
1
  0
DICTIONARYVAR
  5
22D
102
{ACAD_REACTORS
330
21E
102
}
330
21E
100
DictionaryVariables
280
     0
  1
15
  0
DICTIONARYVAR
  5
22B
102
{ACAD_REACTORS
330
21E
102
}
330
21E
100
DictionaryVariables
280
     0
  1
0
  0
DICTIONARYVAR
  5
22A
102
{ACAD_REACTORS
330
21E
102
}
330
21E
100
DictionaryVariables
280
     0
  1
0
  0
DICTIONARYVAR
  5
222
102
{ACAD_REACTORS
330
21E
102
}
330
21E
100
DictionaryVariables
280
     0
  1
127
  0
DICTIONARY
  5
101
330
100
100
AcDbDictionary
280
     1
281
     1
  3
BUMPTILE
360
103
  3
DIFFUSETILE
360
102
  3
OPACITYTILE
360
106
  3
REFLECTIONTILE
360
105
  3
REFRACTIONTILE
360
107
  3
SPECULARTILE
360
104
  0
DICTIONARY
  5
F9
330
F8
100
AcDbDictionary
280
     1
281
     1
  3
BUMPTILE
360
FB
  3
DIFFUSETILE
360
FA
  3
OPACITYTILE
360
FE
  3
REFLECTIONTILE
360
FD
  3
REFRACTIONTILE
360
FF
  3
SPECULARTILE
360
FC
  0
DICTIONARY
  5
109
330
108
100
AcDbDictionary
280
     1
281
     1
  3
BUMPTILE
360
10B
  3
DIFFUSETILE
360
10A
  3
OPACITYTILE
360
10E
  3
REFLECTIONTILE
360
10D
  3
REFRACTIONTILE
360
10F
  3
SPECULARTILE
360
10C
  0
DICTIONARY
  5
210
330
123
100
AcDbDictionary
280
     1
281
     1
  3
ACAD_ROUNDTRIP_2008_TABLESTYLE_CELLSTYLEMAP
360
34C
  0
XRECORD
  5
103
102
{ACAD_REACTORS
330
101
102
}
330
101
100
AcDbXrecord
280
     1
270
     1
271
     1
  0
XRECORD
  5
102
102
{ACAD_REACTORS
330
101
102
}
330
101
100
AcDbXrecord
280
     1
270
     1
271
     1
  0
XRECORD
  5
106
102
{ACAD_REACTORS
330
101
102
}
330
101
100
AcDbXrecord
280
     1
270
     1
271
     1
  0
XRECORD
  5
105
102
{ACAD_REACTORS
330
101
102
}
330
101
100
AcDbXrecord
280
     1
270
     1
271
     1
  0
XRECORD
  5
107
102
{ACAD_REACTORS
330
101
102
}
330
101
100
AcDbXrecord
280
     1
270
     1
271
     1
  0
XRECORD
  5
104
102
{ACAD_REACTORS
330
101
102
}
330
101
100
AcDbXrecord
280
     1
270
     1
271
     1
  0
XRECORD
  5
FB
102
{ACAD_REACTORS
330
F9
102
}
330
F9
100
AcDbXrecord
280
     1
270
     1
271
     1
  0
XRECORD
  5
FA
102
{ACAD_REACTORS
330
F9
102
}
330
F9
100
AcDbXrecord
280
     1
270
     1
271
     1
  0
XRECORD
  5
FE
102
{ACAD_REACTORS
330
F9
102
}
330
F9
100
AcDbXrecord
280
     1
270
     1
271
     1
  0
XRECORD
  5
FD
102
{ACAD_REACTORS
330
F9
102
}
330
F9
100
AcDbXrecord
280
     1
270
     1
271
     1
  0
XRECORD
  5
FF
102
{ACAD_REACTORS
330
F9
102
}
330
F9
100
AcDbXrecord
280
     1
270
     1
271
     1
  0
XRECORD
  5
FC
102
{ACAD_REACTORS
330
F9
102
}
330
F9
100
AcDbXrecord
280
     1
270
     1
271
     1
  0
XRECORD
  5
10B
102
{ACAD_REACTORS
330
109
102
}
330
109
100
AcDbXrecord
280
     1
270
     1
271
     1
  0
XRECORD
  5
10A
102
{ACAD_REACTORS
330
109
102
}
330
109
100
AcDbXrecord
280
     1
270
     1
271
     1
  0
XRECORD
  5
10E
102
{ACAD_REACTORS
330
109
102
}
330
109
100
AcDbXrecord
280
     1
270
     1
271
     1
  0
XRECORD
  5
10D
102
{ACAD_REACTORS
330
109
102
}
330
109
100
AcDbXrecord
280
     1
270
     1
271
     1
  0
XRECORD
  5
10F
102
{ACAD_REACTORS
330
109
102
}
330
109
100
AcDbXrecord
280
     1
270
     1
271
     1
  0
XRECORD
  5
10C
102
{ACAD_REACTORS
330
109
102
}
330
109
100
AcDbXrecord
280
     1
270
     1
271
     1
  0
CELLSTYLEMAP
  5
34C
102
{ACAD_REACTORS
330
210
102
}
330
210
100
AcDbCellStyleMap
 90
        3
300
CELLSTYLE
  1
TABLEFORMAT_BEGIN
 90
        5
170
     1
 91
        0
 92
    32768
 62
   257
 93
        1
300
CONTENTFORMAT
  1
CONTENTFORMAT_BEGIN
 90
        0
 91
        0
 92
      512
 93
        0
300

 40
0.0
140
1.0
 94
        5
 62
     0
340
17
144
6.0
309
CONTENTFORMAT_END
171
     1
301
MARGIN
  1
CELLMARGIN_BEGIN
 40
1.5
 40
1.5
 40
1.5
 40
1.5
 40
4.5
 40
4.5
309
CELLMARGIN_END
 94
        6
 95
        1
302
GRIDFORMAT
  1
GRIDFORMAT_BEGIN
 90
        0
 91
        1
 62
     0
 92
       -2
340
0
 93
        0
 40
1.125
309
GRIDFORMAT_END
 95
        2
302
GRIDFORMAT
  1
GRIDFORMAT_BEGIN
 90
        0
 91
        1
 62
     0
 92
       -2
340
0
 93
        0
 40
1.125
309
GRIDFORMAT_END
 95
        4
302
GRIDFORMAT
  1
GRIDFORMAT_BEGIN
 90
        0
 91
        1
 62
     0
 92
       -2
340
0
 93
        0
 40
1.125
309
GRIDFORMAT_END
 95
        8
302
GRIDFORMAT
  1
GRIDFORMAT_BEGIN
 90
        0
 91
        1
 62
     0
 92
       -2
340
0
 93
        0
 40
1.125
309
GRIDFORMAT_END
 95
       16
302
GRIDFORMAT
  1
GRIDFORMAT_BEGIN
 90
        0
 91
        1
 62
     0
 92
       -2
340
0
 93
        0
 40
1.125
309
GRIDFORMAT_END
 95
       32
302
GRIDFORMAT
  1
GRIDFORMAT_BEGIN
 90
        0
 91
        1
 62
     0
 92
       -2
340
0
 93
        0
 40
1.125
309
GRIDFORMAT_END
309
TABLEFORMAT_END
  1
CELLSTYLE_BEGIN
 90
        1
 91
        1
300
_TITLE
309
CELLSTYLE_END
300
CELLSTYLE
  1
TABLEFORMAT_BEGIN
 90
        5
170
     1
 91
        0
 92
        0
 62
   257
 93
        1
300
CONTENTFORMAT
  1
CONTENTFORMAT_BEGIN
 90
        0
 91
        0
 92
      512
 93
        0
300

 40
0.0
140
1.0
 94
        5
 62
     0
340
17
144
4.5
309
CONTENTFORMAT_END
171
     1
301
MARGIN
  1
CELLMARGIN_BEGIN
 40
1.5
 40
1.5
 40
1.5
 40
1.5
 40
4.5
 40
4.5
309
CELLMARGIN_END
 94
        6
 95
        1
302
GRIDFORMAT
  1
GRIDFORMAT_BEGIN
 90
        0
 91
        1
 62
     0
 92
       -2
340
0
 93
        0
 40
1.125
309
GRIDFORMAT_END
 95
        2
302
GRIDFORMAT
  1
GRIDFORMAT_BEGIN
 90
        0
 91
        1
 62
     0
 92
       -2
340
0
 93
        0
 40
1.125
309
GRIDFORMAT_END
 95
        4
302
GRIDFORMAT
  1
GRIDFORMAT_BEGIN
 90
        0
 91
        1
 62
     0
 92
       -2
340
0
 93
        0
 40
1.125
309
GRIDFORMAT_END
 95
        8
302
GRIDFORMAT
  1
GRIDFORMAT_BEGIN
 90
        0
 91
        1
 62
     0
 92
       -2
340
0
 93
        0
 40
1.125
309
GRIDFORMAT_END
 95
       16
302
GRIDFORMAT
  1
GRIDFORMAT_BEGIN
 90
        0
 91
        1
 62
     0
 92
       -2
340
0
 93
        0
 40
1.125
309
GRIDFORMAT_END
 95
       32
302
GRIDFORMAT
  1
GRIDFORMAT_BEGIN
 90
        0
 91
        1
 62
     0
 92
       -2
340
0
 93
        0
 40
1.125
309
GRIDFORMAT_END
309
TABLEFORMAT_END
  1
CELLSTYLE_BEGIN
 90
        2
 91
        1
300
_HEADER
309
CELLSTYLE_END
300
CELLSTYLE
  1
TABLEFORMAT_BEGIN
 90
        5
170
     1
 91
        0
 92
        0
 62
   257
 93
        1
300
CONTENTFORMAT
  1
CONTENTFORMAT_BEGIN
 90
        0
 91
        0
 92
      512
 93
        0
300

 40
0.0
140
1.0
 94
        2
 62
     0
340
17
144
4.5
309
CONTENTFORMAT_END
171
     1
301
MARGIN
  1
CELLMARGIN_BEGIN
 40
1.5
 40
1.5
 40
1.5
 40
1.5
 40
4.5
 40
4.5
309
CELLMARGIN_END
 94
        6
 95
        1
302
GRIDFORMAT
  1
GRIDFORMAT_BEGIN
 90
        0
 91
        1
 62
     0
 92
       -2
340
0
 93
        0
 40
1.125
309
GRIDFORMAT_END
 95
        2
302
GRIDFORMAT
  1
GRIDFORMAT_BEGIN
 90
        0
 91
        1
 62
     0
 92
       -2
340
0
 93
        0
 40
1.125
309
GRIDFORMAT_END
 95
        4
302
GRIDFORMAT
  1
GRIDFORMAT_BEGIN
 90
        0
 91
        1
 62
     0
 92
       -2
340
0
 93
        0
 40
1.125
309
GRIDFORMAT_END
 95
        8
302
GRIDFORMAT
  1
GRIDFORMAT_BEGIN
 90
        0
 91
        1
 62
     0
 92
       -2
340
0
 93
        0
 40
1.125
309
GRIDFORMAT_END
 95
       16
302
GRIDFORMAT
  1
GRIDFORMAT_BEGIN
 90
        0
 91
        1
 62
     0
 92
       -2
340
0
 93
        0
 40
1.125
309
GRIDFORMAT_END
 95
       32
302
GRIDFORMAT
  1
GRIDFORMAT_BEGIN
 90
        0
 91
        1
 62
     0
 92
       -2
340
0
 93
        0
 40
1.125
309
GRIDFORMAT_END
309
TABLEFORMAT_END
  1
CELLSTYLE_BEGIN
 90
        3
 91
        2
300
_DATA
309
CELLSTYLE_END
  0
ENDSEC
  0
EOF
