999
DXF file: 1161548-7.dxf
999
Pro/ENGINEER 2009220 by Parametric Technology Corporation
  0
SECTION
  2
HEADER
  9
$EXTMAX
 10
34.0
 20
22.0
 30
0.0
  9
$EXTMIN
 10
0.0
 20
0.0
 30
0.0
  9
$LIMMIN
 10
0.0
 20
0.0
  9
$LIMMAX
 10
34.0
 20
22.0
  9
$VIEWCTR
 10
17.0
 20
11.0
  9
$VIEWSIZE
 40
22.0
  9
$CLAYER
  8
0
  9
$LTSCALE
 40
1.87
  9
$CELTYPE
  6
BYLAYER
  9
$DIMSCALE
 40
1.0
  9
$DIMASZ
 40
0.1875
  9
$DIMEXO
 40
0.2125
  9
$DIMDLI
 40
1.292
  9
$DIMEXE
 40
0.612
  9
$DIMCEN
 40
0.306
  9
$DIMLFAC
 40
1.0
  9
$DIMBLK
  1
_FILLED
  9
$DIMTXT
 40
0.15625
  9
$PDMODE
 70
3
  9
$PDSIZE
 40
0.3125
  9
$TILEMODE
 70
1
  0
ENDSEC
  0
SECTION
  2
TABLES
  0
TABLE
  2
LTYPE
 70
6
  0
LTYPE
  2
BYBLOCK
 70
0
  3

 72
65
 73
0
 40
0.0
  0
LTYPE
  2
BYLAYER
 70
0
  3

 72
65
 73
0
 40
0.0
  0
LTYPE
  2
CONTINUOUS
 70
64
  3
Solid line
 72
65
 73
0
 40
0.0
  0
LTYPE
  2
CENTER
 70
64
  3
____ _ ____ _ ____ _ ____ _ ____ _ ____ _ ____
 72
65
 73
4
 40
0.6
 49
0.375
 49
-0.075
 49
0.075
 49
-0.075
  0
LTYPE
  2
HIDDEN
 70
64
  3
- - - - - - - - - - - - - - - - - - - -
 72
65
 73
2
 40
0.2
 49
0.1
 49
-0.1
  0
LTYPE
  2
PHANTOM
 70
64
  3
_____ _ _ _____ _ _ _____ _ _ _____
 72
65
 73
6
 40
0.8
 49
0.45
 49
-0.05
 49
0.1
 49
-0.05
 49
0.1
 49
-0.05
  0
LTYPE
  2
DOT
 70
64
  3
. . . . . . . . . . . . . . . . . . . .
 72
65
 73
2
 40
0.2
 49
0.1
 49
-0.1
  0
LTYPE
  2
DASHED
 70
64
  3
- - - - - - - - - - - - - - - - - - - -
 72
65
 73
2
 40
0.2
 49
0.1
 49
-0.1
  0
ENDTAB
  0
TABLE
  2
LAYER
 70
36
  0
LAYER
  2
0
 70
0
 62
7
  6
CONTINUOUS
  0
LAYER
  2
DEFAULT_1
 70
0
 62
7
  6
CENTER
  0
LAYER
  2
DEFAULT_2
 70
0
 62
8
  6
HIDDEN
  0
LAYER
  2
DEFAULT_3
 70
0
 62
7
  6
PHANTOM
  0
LAYER
  2
DATUMS
 70
0
 62
7
  6
CONTINUOUS
  0
LAYER
  2
DATUM_AXIS
 70
0
 62
7
  6
CONTINUOUS
  0
LAYER
  2
DATUM_CSYS
 70
0
 62
7
  6
CONTINUOUS
  0
LAYER
  2
DATUM_PLANE
 70
0
 62
7
  6
CONTINUOUS
  0
LAYER
  2
DATUM_POINT
 70
0
 62
7
  6
CONTINUOUS
  0
LAYER
  2
_CURVE
 70
0
 62
7
  6
CONTINUOUS
  0
LAYER
  2
_SURFACE
 70
0
 62
7
  6
CONTINUOUS
  0
LAYER
  2
__REF_CURVE
 70
0
 62
7
  6
CONTINUOUS
  0
LAYER
  2
__REF_SURFACE
 70
0
 62
7
  6
CONTINUOUS
  0
LAYER
  2
___NOTE
 70
0
 62
7
  6
CONTINUOUS
  0
LAYER
  2
___SYMBOL
 70
0
 62
7
  6
CONTINUOUS
  0
ENDTAB
  0
TABLE
  2
STYLE
 70
1
  0
STYLE
  2
STANDARD
 70
0
 40
0.0
 41
0.8
 50
0.0
 71
0
 42
0.2
  3
txt
  4

  0
STYLE
  2
TEXTSTYLE_1
 70
0
 40
0.0
 41
0.8
 50
0.0
 71
0
 42
0.2
  3
gdt
  4

  0
STYLE
  2
TEXTSTYLE_2
 70
0
 40
0.0
 41
1.0
 50
0.0
 71
0
 42
0.2
  3
txt
  4

  0
ENDTAB
  0
ENDSEC
  0
SECTION
  2
BLOCKS
  0
BLOCK
  8
___SYMBOL
 62
2
  6
CONTINUOUS
  2
COPYRIGHT_YEAR_BL1
 70
64
 10
18.8694741802
 20
4.2173669143
  0
CIRCLE
  8
___SYMBOL
 62
7
  6
CONTINUOUS
 10
18.4299918054
 20
4.2198145395
 40
0.0328259996
  0
TEXT
  8
___SYMBOL
 62
2
  6
CONTINUOUS
 10
18.4957825546
 20
4.1820932895
  7
STANDARD
 40
0.0705
  1
2010
 41
0.8
 72
0
  0
TEXT
  8
___SYMBOL
 62
2
  6
CONTINUOUS
 10
18.7213825546
 20
4.1820932895
  7
STANDARD
 40
0.0705
  1
 KOHLER CO.
 41
0.8
 72
0
  0
TEXT
  8
___SYMBOL
 62
2
  6
CONTINUOUS
 10
18.4157568056
 20
4.1985782897
  7
TEXTSTYLE_2
 40
0.0421874995
  1
C
 41
1.0
 72
0
  0
ENDBLK
  8
0
  6
BYBLOCK
 62
0
  0
BLOCK
  8
___SYMBOL
 62
2
  6
CONTINUOUS
  2
SKU_SINK_KOHLER_BL0
 70
64
 10
10.992288686
 20
12.6151537853
  0
LINE
  8
___SYMBOL
 62
2
  6
CONTINUOUS
 10
7.5184670564
 20
14.4508534144
 11
7.3051636045
 21
14.1972051415
  0
LINE
  8
___SYMBOL
 62
2
  6
CONTINUOUS
 10
7.3264052443
 20
14.4508534144
 11
7.5184670564
 21
14.4508534144
  0
LINE
  8
___SYMBOL
 62
2
  6
CONTINUOUS
 10
7.3264052443
 20
14.4508534144
 11
7.1886410776
 21
14.2870322247
  0
LINE
  8
___SYMBOL
 62
2
  6
CONTINUOUS
 10
7.1886410776
 20
14.4508534144
 11
7.1886410776
 21
14.2870322247
  0
LINE
  8
___SYMBOL
 62
2
  6
CONTINUOUS
 10
7.0141408506
 20
14.4508534144
 11
7.1886410776
 21
14.4508534144
  0
LINE
  8
___SYMBOL
 62
2
  6
CONTINUOUS
 10
7.0141408506
 20
14.4508534144
 11
7.0141408506
 21
13.8649157616
  0
LINE
  8
___SYMBOL
 62
2
  6
CONTINUOUS
 10
7.1886410776
 20
13.864939765
 11
7.0141408506
 21
13.8649157616
  0
LINE
  8
___SYMBOL
 62
2
  6
CONTINUOUS
 10
7.1886410776
 20
14.066439599
 11
7.1886410776
 21
13.864939765
  0
LINE
  8
___SYMBOL
 62
2
  6
CONTINUOUS
 10
7.3423790176
 20
13.864939765
 11
7.1886410776
 21
14.066439599
  0
LINE
  8
___SYMBOL
 62
2
  6
CONTINUOUS
 10
7.3423790176
 20
13.864939765
 11
7.5586714392
 21
13.864939765
  0
LINE
  8
___SYMBOL
 62
2
  6
CONTINUOUS
 10
7.5586714392
 20
13.864939765
 11
7.3051636045
 21
14.1972051415
  0
SOLID
  8
___SYMBOL
 62
2
  6
CONTINUOUS
 10
7.1886410776
 20
14.2870322247
 11
7.3264052443
 21
14.4508534144
 12
7.5184670564
 22
14.4508534144
 13
7.5184670564
 23
14.4508534144
  0
SOLID
  8
___SYMBOL
 62
2
  6
CONTINUOUS
 10
7.5184670564
 20
14.4508534144
 11
7.3051636045
 21
14.1972051415
 12
7.1886410776
 22
14.2870322247
 13
7.1886410776
 23
14.2870322247
  0
SOLID
  8
___SYMBOL
 62
2
  6
CONTINUOUS
 10
7.1886410776
 20
14.066439599
 11
7.3051636045
 21
14.1972051415
 12
7.3423790176
 22
13.864939765
 13
7.3423790176
 23
13.864939765
  0
SOLID
  8
___SYMBOL
 62
2
  6
CONTINUOUS
 10
7.3051636045
 20
14.1972051415
 11
7.5586714392
 21
13.864939765
 12
7.3423790176
 22
13.864939765
 13
7.3423790176
 23
13.864939765
  0
SOLID
  8
___SYMBOL
 62
2
  6
CONTINUOUS
 10
7.1886410776
 20
13.864939765
 11
7.0141408506
 21
13.8649157616
 12
7.1886410776
 22
14.066439599
 13
7.1886410776
 23
14.066439599
  0
SOLID
  8
___SYMBOL
 62
2
  6
CONTINUOUS
 10
7.3051636045
 20
14.1972051415
 11
7.1886410776
 21
14.066439599
 12
7.1886410776
 22
14.2870322247
 13
7.1886410776
 23
14.2870322247
  0
SOLID
  8
___SYMBOL
 62
2
  6
CONTINUOUS
 10
7.1886410776
 20
14.066439599
 11
7.0141408506
 21
13.8649157616
 12
7.1886410776
 22
14.2870322247
 13
7.1886410776
 23
14.2870322247
  0
SOLID
  8
___SYMBOL
 62
2
  6
CONTINUOUS
 10
7.1886410776
 20
14.2870322247
 11
7.0141408506
 21
13.8649157616
 12
7.1886410776
 22
14.4508534144
 13
7.1886410776
 23
14.4508534144
  0
SOLID
  8
___SYMBOL
 62
2
  6
CONTINUOUS
 10
7.0141408506
 20
13.8649157616
 11
7.0141408506
 21
14.4508534144
 12
7.1886410776
 22
14.4508534144
 13
7.1886410776
 23
14.4508534144
  0
CIRCLE
  8
___SYMBOL
 62
2
  6
CONTINUOUS
 10
7.7351802758
 20
14.1567753378
 40
0.298056591
  0
CIRCLE
  8
___SYMBOL
 62
2
  6
CONTINUOUS
 10
7.7351802758
 20
14.1567753378
 40
0.1247694151
  0
SOLID
  8
___SYMBOL
 62
2
  6
CONTINUOUS
 10
7.6430757239
 20
14.4402440009
 11
7.7040248784
 21
14.4531991436
 12
7.7663356733
 22
14.4531991436
 13
7.7663356733
 23
14.4531991436
  0
SOLID
  8
___SYMBOL
 62
2
  6
CONTINUOUS
 10
7.7663356733
 20
14.4531991436
 11
7.8272848277
 21
14.4402440009
 12
7.6430757239
 22
14.4402440009
 13
7.6430757239
 23
14.4402440009
  0
SOLID
  8
___SYMBOL
 62
2
  6
CONTINUOUS
 10
7.5861519803
 20
14.4148999174
 11
7.6430757239
 21
14.4402440009
 12
7.8272848277
 22
14.4402440009
 13
7.8272848277
 23
14.4402440009
  0
SOLID
  8
___SYMBOL
 62
2
  6
CONTINUOUS
 10
7.8272848277
 20
14.4402440009
 11
7.8842085713
 21
14.4148999174
 12
7.5861519803
 22
14.4148999174
 13
7.5861519803
 23
14.4148999174
  0
SOLID
  8
___SYMBOL
 62
2
  6
CONTINUOUS
 10
7.5357414884
 20
14.3782745511
 11
7.5861519803
 21
14.4148999174
 12
7.8842085713
 22
14.4148999174
 13
7.8842085713
 23
14.4148999174
  0
SOLID
  8
___SYMBOL
 62
2
  6
CONTINUOUS
 10
7.8842085713
 20
14.4148999174
 11
7.9346190633
 21
14.3782745511
 12
7.5357414884
 22
14.3782745511
 13
7.5357414884
 23
14.3782745511
  0
SOLID
  8
___SYMBOL
 62
2
  6
CONTINUOUS
 10
7.4940474284
 20
14.3319686064
 11
7.5357414884
 21
14.3782745511
 12
7.9346190633
 22
14.3782745511
 13
7.9346190633
 23
14.3782745511
  0
SOLID
  8
___SYMBOL
 62
2
  6
CONTINUOUS
 10
7.9346190633
 20
14.3782745511
 11
7.9763131232
 21
14.3319686064
 12
7.4940474284
 22
14.3319686064
 13
7.4940474284
 23
14.3319686064
  0
SOLID
  8
___SYMBOL
 62
2
  6
CONTINUOUS
 10
7.7351802758
 20
14.2815447529
 11
7.462892031
 21
14.2780058751
 12
7.9763131232
 22
14.3319686064
 13
7.9763131232
 23
14.3319686064
  0
SOLID
  8
___SYMBOL
 62
2
  6
CONTINUOUS
 10
7.462892031
 20
14.2780058751
 11
7.4940474284
 21
14.3319686064
 12
7.9763131232
 22
14.3319686064
 13
7.9763131232
 23
14.3319686064
  0
SOLID
  8
___SYMBOL
 62
2
  6
CONTINUOUS
 10
7.9763131232
 20
14.3319686064
 11
8.0074685207
 21
14.2780058751
 12
7.7351802758
 22
14.2815447529
 13
7.7351802758
 23
14.2815447529
  0
SOLID
  8
___SYMBOL
 62
2
  6
CONTINUOUS
 10
7.7351802758
 20
14.2815447529
 11
7.6966244062
 21
14.2754381031
 12
7.462892031
 22
14.2780058751
 13
7.462892031
 23
14.2780058751
  0
SOLID
  8
___SYMBOL
 62
2
  6
CONTINUOUS
 10
7.7737361455
 20
14.2754381031
 11
7.7351802758
 21
14.2815447529
 12
8.0074685207
 22
14.2780058751
 13
8.0074685207
 23
14.2780058751
  0
SOLID
  8
___SYMBOL
 62
2
  6
CONTINUOUS
 10
7.6342396987
 20
14.23011296
 11
7.4436369365
 21
14.2187447876
 12
7.6618426537
 22
14.257715915
 13
7.6618426537
 23
14.257715915
  0
SOLID
  8
___SYMBOL
 62
2
  6
CONTINUOUS
 10
7.6618426537
 20
14.257715915
 11
7.4436369365
 21
14.2187447876
 12
7.6966244062
 22
14.2754381031
 13
7.6966244062
 23
14.2754381031
  0
SOLID
  8
___SYMBOL
 62
2
  6
CONTINUOUS
 10
7.4436369365
 20
14.2187447876
 11
7.462892031
 21
14.2780058751
 12
7.6966244062
 22
14.2754381031
 13
7.6966244062
 23
14.2754381031
  0
SOLID
  8
___SYMBOL
 62
2
  6
CONTINUOUS
 10
7.7737361455
 20
14.2754381031
 11
8.0074685207
 21
14.2780058751
 12
7.808517898
 22
14.257715915
 13
7.808517898
 23
14.257715915
  0
SOLID
  8
___SYMBOL
 62
2
  6
CONTINUOUS
 10
7.808517898
 20
14.257715915
 11
8.0074685207
 21
14.2780058751
 12
7.836120853
 22
14.23011296
 13
7.836120853
 23
14.23011296
  0
SOLID
  8
___SYMBOL
 62
2
  6
CONTINUOUS
 10
8.0074685207
 20
14.2780058751
 11
8.0267236152
 21
14.2187447876
 12
7.836120853
 22
14.23011296
 13
7.836120853
 23
14.23011296
  0
SOLID
  8
___SYMBOL
 62
2
  6
CONTINUOUS
 10
7.6342396987
 20
14.23011296
 11
7.6165175106
 21
14.1953312075
 12
7.4436369365
 22
14.2187447876
 13
7.4436369365
 23
14.2187447876
  0
SOLID
  8
___SYMBOL
 62
2
  6
CONTINUOUS
 10
7.8538430411
 20
14.1953312075
 11
7.836120853
 21
14.23011296
 12
8.0267236152
 22
14.2187447876
 13
8.0267236152
 23
14.2187447876
  0
SOLID
  8
___SYMBOL
 62
2
  6
CONTINUOUS
 10
7.4371236849
 20
14.1567753378
 11
7.4436369365
 21
14.2187447876
 12
7.6165175106
 22
14.1953312075
 13
7.6165175106
 23
14.1953312075
  0
SOLID
  8
___SYMBOL
 62
2
  6
CONTINUOUS
 10
7.6165175106
 20
14.1953312075
 11
7.6104108608
 21
14.1567753378
 12
7.4371236849
 22
14.1567753378
 13
7.4371236849
 23
14.1567753378
  0
SOLID
  8
___SYMBOL
 62
2
  6
CONTINUOUS
 10
7.8538430411
 20
14.1953312075
 11
8.0267236152
 21
14.2187447876
 12
7.8599496909
 22
14.1567753378
 13
7.8599496909
 23
14.1567753378
  0
SOLID
  8
___SYMBOL
 62
2
  6
CONTINUOUS
 10
8.0267236152
 20
14.2187447876
 11
8.0332368668
 21
14.1567753378
 12
7.8599496909
 22
14.1567753378
 13
7.8599496909
 23
14.1567753378
  0
SOLID
  8
___SYMBOL
 62
2
  6
CONTINUOUS
 10
7.8538430411
 20
14.1182194682
 11
7.8599496909
 21
14.1567753378
 12
8.0332368668
 22
14.1567753378
 13
8.0332368668
 23
14.1567753378
  0
SOLID
  8
___SYMBOL
 62
2
  6
CONTINUOUS
 10
7.6165175106
 20
14.1182194682
 11
7.4436369365
 21
14.094805888
 12
7.6104108608
 22
14.1567753378
 13
7.6104108608
 23
14.1567753378
  0
SOLID
  8
___SYMBOL
 62
2
  6
CONTINUOUS
 10
7.4436369365
 20
14.094805888
 11
7.4371236849
 21
14.1567753378
 12
7.6104108608
 22
14.1567753378
 13
7.6104108608
 23
14.1567753378
  0
SOLID
  8
___SYMBOL
 62
2
  6
CONTINUOUS
 10
8.0332368668
 20
14.1567753378
 11
8.0267236152
 21
14.094805888
 12
7.8538430411
 22
14.1182194682
 13
7.8538430411
 23
14.1182194682
  0
SOLID
  8
___SYMBOL
 62
2
  6
CONTINUOUS
 10
7.6165175106
 20
14.1182194682
 11
7.6342396987
 21
14.0834377157
 12
7.4436369365
 22
14.094805888
 13
7.4436369365
 23
14.094805888
  0
SOLID
  8
___SYMBOL
 62
2
  6
CONTINUOUS
 10
7.836120853
 20
14.0834377157
 11
7.8538430411
 21
14.1182194682
 12
8.0267236152
 22
14.094805888
 13
8.0267236152
 23
14.094805888
  0
SOLID
  8
___SYMBOL
 62
2
  6
CONTINUOUS
 10
7.6966244062
 20
14.0381125726
 11
7.462892031
 21
14.0355448006
 12
7.6618426537
 22
14.0558347607
 13
7.6618426537
 23
14.0558347607
  0
SOLID
  8
___SYMBOL
 62
2
  6
CONTINUOUS
 10
7.6618426537
 20
14.0558347607
 11
7.462892031
 21
14.0355448006
 12
7.6342396987
 22
14.0834377157
 13
7.6342396987
 23
14.0834377157
  0
SOLID
  8
___SYMBOL
 62
2
  6
CONTINUOUS
 10
7.462892031
 20
14.0355448006
 11
7.4436369365
 21
14.094805888
 12
7.6342396987
 22
14.0834377157
 13
7.6342396987
 23
14.0834377157
  0
SOLID
  8
___SYMBOL
 62
2
  6
CONTINUOUS
 10
7.836120853
 20
14.0834377157
 11
8.0267236152
 21
14.094805888
 12
7.808517898
 22
14.0558347607
 13
7.808517898
 23
14.0558347607
  0
SOLID
  8
___SYMBOL
 62
2
  6
CONTINUOUS
 10
7.808517898
 20
14.0558347607
 11
8.0267236152
 21
14.094805888
 12
7.7737361455
 22
14.0381125726
 13
7.7737361455
 23
14.0381125726
  0
SOLID
  8
___SYMBOL
 62
2
  6
CONTINUOUS
 10
8.0267236152
 20
14.094805888
 11
8.0074685207
 21
14.0355448006
 12
7.7737361455
 22
14.0381125726
 13
7.7737361455
 23
14.0381125726
  0
SOLID
  8
___SYMBOL
 62
2
  6
CONTINUOUS
 10
7.6966244062
 20
14.0381125726
 11
7.7351802758
 21
14.0320059228
 12
7.462892031
 22
14.0355448006
 13
7.462892031
 23
14.0355448006
  0
SOLID
  8
___SYMBOL
 62
2
  6
CONTINUOUS
 10
7.7351802758
 20
14.0320059228
 11
7.7737361455
 21
14.0381125726
 12
8.0074685207
 22
14.0355448006
 13
8.0074685207
 23
14.0355448006
  0
SOLID
  8
___SYMBOL
 62
2
  6
CONTINUOUS
 10
7.4940474284
 20
13.9815820693
 11
7.462892031
 21
14.0355448006
 12
7.7351802758
 22
14.0320059228
 13
7.7351802758
 23
14.0320059228
  0
SOLID
  8
___SYMBOL
 62
2
  6
CONTINUOUS
 10
7.7351802758
 20
14.0320059228
 11
8.0074685207
 21
14.0355448006
 12
7.4940474284
 22
13.9815820693
 13
7.4940474284
 23
13.9815820693
  0
SOLID
  8
___SYMBOL
 62
2
  6
CONTINUOUS
 10
8.0074685207
 20
14.0355448006
 11
7.9763131232
 21
13.9815820693
 12
7.4940474284
 22
13.9815820693
 13
7.4940474284
 23
13.9815820693
  0
SOLID
  8
___SYMBOL
 62
2
  6
CONTINUOUS
 10
7.5357414884
 20
13.9352761245
 11
7.4940474284
 21
13.9815820693
 12
7.9763131232
 22
13.9815820693
 13
7.9763131232
 23
13.9815820693
  0
SOLID
  8
___SYMBOL
 62
2
  6
CONTINUOUS
 10
7.9763131232
 20
13.9815820693
 11
7.9346190633
 21
13.9352761245
 12
7.5357414884
 22
13.9352761245
 13
7.5357414884
 23
13.9352761245
  0
SOLID
  8
___SYMBOL
 62
2
  6
CONTINUOUS
 10
7.5861519803
 20
13.8986507583
 11
7.5357414884
 21
13.9352761245
 12
7.9346190633
 22
13.9352761245
 13
7.9346190633
 23
13.9352761245
  0
SOLID
  8
___SYMBOL
 62
2
  6
CONTINUOUS
 10
7.9346190633
 20
13.9352761245
 11
7.8842085713
 21
13.8986507583
 12
7.5861519803
 22
13.8986507583
 13
7.5861519803
 23
13.8986507583
  0
SOLID
  8
___SYMBOL
 62
2
  6
CONTINUOUS
 10
7.6430757239
 20
13.8733066748
 11
7.5861519803
 21
13.8986507583
 12
7.8842085713
 22
13.8986507583
 13
7.8842085713
 23
13.8986507583
  0
SOLID
  8
___SYMBOL
 62
2
  6
CONTINUOUS
 10
7.8842085713
 20
13.8986507583
 11
7.8272848277
 21
13.8733066748
 12
7.6430757239
 22
13.8733066748
 13
7.6430757239
 23
13.8733066748
  0
SOLID
  8
___SYMBOL
 62
2
  6
CONTINUOUS
 10
7.7040248784
 20
13.860351532
 11
7.6430757239
 21
13.8733066748
 12
7.8272848277
 22
13.8733066748
 13
7.8272848277
 23
13.8733066748
  0
SOLID
  8
___SYMBOL
 62
2
  6
CONTINUOUS
 10
7.8272848277
 20
13.8733066748
 11
7.7663356733
 21
13.860351532
 12
7.7040248784
 22
13.860351532
 13
7.7040248784
 23
13.860351532
  0
LINE
  8
___SYMBOL
 62
2
  6
CONTINUOUS
 10
8.5278162851
 20
14.4508534144
 11
8.5278162851
 21
13.864939765
  0
LINE
  8
___SYMBOL
 62
2
  6
CONTINUOUS
 10
8.5278162851
 20
13.864939765
 11
8.3630826052
 21
13.864939765
  0
LINE
  8
___SYMBOL
 62
2
  6
CONTINUOUS
 10
8.3630826052
 20
14.0932643748
 11
8.3630826052
 21
13.864939765
  0
LINE
  8
___SYMBOL
 62
2
  6
CONTINUOUS
 10
8.2150857941
 20
14.0932643748
 11
8.3630826052
 21
14.0932643748
  0
LINE
  8
___SYMBOL
 62
2
  6
CONTINUOUS
 10
8.2150857941
 20
14.0932643748
 11
8.2150857941
 21
13.864939765
  0
LINE
  8
___SYMBOL
 62
2
  6
CONTINUOUS
 10
8.2150857941
 20
13.864939765
 11
8.0503521142
 21
13.864939765
  0
LINE
  8
___SYMBOL
 62
2
  6
CONTINUOUS
 10
8.0503521142
 20
14.4508534144
 11
8.0503521142
 21
13.864939765
  0
LINE
  8
___SYMBOL
 62
2
  6
CONTINUOUS
 10
8.0503521142
 20
14.4508534144
 11
8.2150857941
 21
14.4508534144
  0
LINE
  8
___SYMBOL
 62
2
  6
CONTINUOUS
 10
8.2150857941
 20
14.4508534144
 11
8.2150857941
 21
14.2304696547
  0
LINE
  8
___SYMBOL
 62
2
  6
CONTINUOUS
 10
8.2150857941
 20
14.2304696547
 11
8.3630826052
 21
14.2304696547
  0
LINE
  8
___SYMBOL
 62
2
  6
CONTINUOUS
 10
8.3630826052
 20
14.4508534144
 11
8.3630826052
 21
14.2304696547
  0
LINE
  8
___SYMBOL
 62
2
  6
CONTINUOUS
 10
8.3630826052
 20
14.4508534144
 11
8.5278162851
 21
14.4508534144
  0
SOLID
  8
___SYMBOL
 62
2
  6
CONTINUOUS
 10
8.3630826052
 20
14.2304696547
 11
8.3630826052
 21
14.4508534144
 12
8.5278162851
 22
14.4508534144
 13
8.5278162851
 23
14.4508534144
  0
SOLID
  8
___SYMBOL
 62
2
  6
CONTINUOUS
 10
8.3630826052
 20
14.2304696547
 11
8.2150857941
 21
14.0932643748
 12
8.2150857941
 22
14.2304696547
 13
8.2150857941
 23
14.2304696547
  0
SOLID
  8
___SYMBOL
 62
2
  6
CONTINUOUS
 10
8.2150857941
 20
14.0932643748
 11
8.0503521142
 21
13.864939765
 12
8.2150857941
 22
14.2304696547
 13
8.2150857941
 23
14.2304696547
  0
SOLID
  8
___SYMBOL
 62
2
  6
CONTINUOUS
 10
8.2150857941
 20
14.2304696547
 11
8.0503521142
 21
13.864939765
 12
8.2150857941
 22
14.4508534144
 13
8.2150857941
 23
14.4508534144
  0
SOLID
  8
___SYMBOL
 62
2
  6
CONTINUOUS
 10
8.0503521142
 20
13.864939765
 11
8.0503521142
 21
14.4508534144
 12
8.2150857941
 22
14.4508534144
 13
8.2150857941
 23
14.4508534144
  0
SOLID
  8
___SYMBOL
 62
2
  6
CONTINUOUS
 10
8.2150857941
 20
14.0932643748
 11
8.2150857941
 21
13.864939765
 12
8.0503521142
 22
13.864939765
 13
8.0503521142
 23
13.864939765
  0
SOLID
  8
___SYMBOL
 62
2
  6
CONTINUOUS
 10
8.2150857941
 20
14.0932643748
 11
8.3630826052
 21
14.2304696547
 12
8.3630826052
 22
14.0932643748
 13
8.3630826052
 23
14.0932643748
  0
SOLID
  8
___SYMBOL
 62
2
  6
CONTINUOUS
 10
8.3630826052
 20
14.2304696547
 11
8.5278162851
 21
14.4508534144
 12
8.3630826052
 22
14.0932643748
 13
8.3630826052
 23
14.0932643748
  0
SOLID
  8
___SYMBOL
 62
2
  6
CONTINUOUS
 10
8.3630826052
 20
14.0932643748
 11
8.5278162851
 21
14.4508534144
 12
8.3630826052
 22
13.864939765
 13
8.3630826052
 23
13.864939765
  0
SOLID
  8
___SYMBOL
 62
2
  6
CONTINUOUS
 10
8.5278162851
 20
14.4508534144
 11
8.5278162851
 21
13.864939765
 12
8.3630826052
 22
13.864939765
 13
8.3630826052
 23
13.864939765
  0
LINE
  8
___SYMBOL
 62
2
  6
CONTINUOUS
 10
8.722907192
 20
13.864939765
 11
8.8855912619
 21
13.864939765
  0
LINE
  8
___SYMBOL
 62
2
  6
CONTINUOUS
 10
8.722907192
 20
13.864939765
 11
8.5728611293
 21
13.864939765
  0
LINE
  8
___SYMBOL
 62
2
  6
CONTINUOUS
 10
8.5728611293
 20
13.864939765
 11
8.5728611293
 21
14.4508534144
  0
LINE
  8
___SYMBOL
 62
2
  6
CONTINUOUS
 10
8.5728611293
 20
14.4508534144
 11
8.722907192
 21
14.4508534144
  0
LINE
  8
___SYMBOL
 62
2
  6
CONTINUOUS
 10
8.722907192
 20
14.4508534144
 11
8.722907192
 21
14.0061665222
  0
LINE
  8
___SYMBOL
 62
2
  6
CONTINUOUS
 10
8.722907192
 20
14.0061665222
 11
8.8855912619
 21
14.0061665222
  0
LINE
  8
___SYMBOL
 62
2
  6
CONTINUOUS
 10
8.8855912619
 20
14.0061665222
 11
8.8855912619
 21
13.864939765
  0
SOLID
  8
___SYMBOL
 62
2
  6
CONTINUOUS
 10
8.8855912619
 20
14.0061665222
 11
8.5728611293
 21
13.864939765
 12
8.722907192
 22
14.0061665222
 13
8.722907192
 23
14.0061665222
  0
SOLID
  8
___SYMBOL
 62
2
  6
CONTINUOUS
 10
8.722907192
 20
14.0061665222
 11
8.5728611293
 21
13.864939765
 12
8.722907192
 22
14.4508534144
 13
8.722907192
 23
14.4508534144
  0
SOLID
  8
___SYMBOL
 62
2
  6
CONTINUOUS
 10
8.5728611293
 20
13.864939765
 11
8.5728611293
 21
14.4508534144
 12
8.722907192
 22
14.4508534144
 13
8.722907192
 23
14.4508534144
  0
SOLID
  8
___SYMBOL
 62
2
  6
CONTINUOUS
 10
8.5728611293
 20
13.864939765
 11
8.8855912619
 21
14.0061665222
 12
8.722907192
 22
13.864939765
 13
8.722907192
 23
13.864939765
  0
SOLID
  8
___SYMBOL
 62
2
  6
CONTINUOUS
 10
8.8855912619
 20
14.0061665222
 11
8.8855912619
 21
13.864939765
 12
8.722907192
 22
13.864939765
 13
8.722907192
 23
13.864939765
  0
LINE
  8
___SYMBOL
 62
2
  6
CONTINUOUS
 10
9.223843176
 20
14.0860880532
 11
9.223843176
 21
14.2304696547
  0
LINE
  8
___SYMBOL
 62
2
  6
CONTINUOUS
 10
9.0729856526
 20
14.2304696547
 11
9.223843176
 21
14.2304696547
  0
LINE
  8
___SYMBOL
 62
2
  6
CONTINUOUS
 10
9.0729856526
 20
14.3080940176
 11
9.0729856526
 21
14.2304696547
  0
LINE
  8
___SYMBOL
 62
2
  6
CONTINUOUS
 10
9.0729856526
 20
14.3080940176
 11
9.223843176
 21
14.3080940176
  0
LINE
  8
___SYMBOL
 62
2
  6
CONTINUOUS
 10
9.223843176
 20
14.3080940176
 11
9.223843176
 21
14.4508534144
  0
LINE
  8
___SYMBOL
 62
2
  6
CONTINUOUS
 10
9.0871899759
 20
14.4508534144
 11
9.223843176
 21
14.4508534144
  0
LINE
  8
___SYMBOL
 62
2
  6
CONTINUOUS
 10
8.9147390006
 20
14.4508534144
 11
9.0871899759
 21
14.4508534144
  0
LINE
  8
___SYMBOL
 62
2
  6
CONTINUOUS
 10
8.9147390006
 20
13.864939765
 11
8.9147390006
 21
14.4508534144
  0
LINE
  8
___SYMBOL
 62
2
  6
CONTINUOUS
 10
8.9147390006
 20
13.864939765
 11
9.223843176
 21
13.864939765
  0
LINE
  8
___SYMBOL
 62
2
  6
CONTINUOUS
 10
9.223843176
 20
13.864939765
 11
9.223843176
 21
14.0061665222
  0
LINE
  8
___SYMBOL
 62
2
  6
CONTINUOUS
 10
9.0729856526
 20
14.0061665222
 11
9.223843176
 21
14.0061665222
  0
LINE
  8
___SYMBOL
 62
2
  6
CONTINUOUS
 10
9.0729856526
 20
14.0860880532
 11
9.0729856526
 21
14.0061665222
  0
LINE
  8
___SYMBOL
 62
2
  6
CONTINUOUS
 10
9.0729856526
 20
14.0860880532
 11
9.223843176
 21
14.0860880532
  0
SOLID
  8
___SYMBOL
 62
2
  6
CONTINUOUS
 10
9.223843176
 20
14.4508534144
 11
9.223843176
 21
14.3080940176
 12
9.0729856526
 22
14.3080940176
 13
9.0729856526
 23
14.3080940176
  0
SOLID
  8
___SYMBOL
 62
2
  6
CONTINUOUS
 10
9.223843176
 20
14.2304696547
 11
9.223843176
 21
14.0860880532
 12
9.0729856526
 22
14.0860880532
 13
9.0729856526
 23
14.0860880532
  0
SOLID
  8
___SYMBOL
 62
2
  6
CONTINUOUS
 10
9.223843176
 20
14.0061665222
 11
8.9147390006
 21
13.864939765
 12
9.0729856526
 22
14.0061665222
 13
9.0729856526
 23
14.0061665222
  0
SOLID
  8
___SYMBOL
 62
2
  6
CONTINUOUS
 10
9.0729856526
 20
14.0061665222
 11
8.9147390006
 21
13.864939765
 12
9.0729856526
 22
14.0860880532
 13
9.0729856526
 23
14.0860880532
  0
SOLID
  8
___SYMBOL
 62
2
  6
CONTINUOUS
 10
9.223843176
 20
14.2304696547
 11
9.0729856526
 21
14.0860880532
 12
9.0729856526
 22
14.2304696547
 13
9.0729856526
 23
14.2304696547
  0
SOLID
  8
___SYMBOL
 62
2
  6
CONTINUOUS
 10
9.0729856526
 20
14.0860880532
 11
8.9147390006
 21
13.864939765
 12
9.0729856526
 22
14.2304696547
 13
9.0729856526
 23
14.2304696547
  0
SOLID
  8
___SYMBOL
 62
2
  6
CONTINUOUS
 10
9.0729856526
 20
14.2304696547
 11
8.9147390006
 21
13.864939765
 12
9.0729856526
 22
14.3080940176
 13
9.0729856526
 23
14.3080940176
  0
SOLID
  8
___SYMBOL
 62
2
  6
CONTINUOUS
 10
9.223843176
 20
14.4508534144
 11
9.0729856526
 21
14.3080940176
 12
9.0871899759
 22
14.4508534144
 13
9.0871899759
 23
14.4508534144
  0
SOLID
  8
___SYMBOL
 62
2
  6
CONTINUOUS
 10
9.0729856526
 20
14.3080940176
 11
8.9147390006
 21
13.864939765
 12
9.0871899759
 22
14.4508534144
 13
9.0871899759
 23
14.4508534144
  0
SOLID
  8
___SYMBOL
 62
2
  6
CONTINUOUS
 10
8.9147390006
 20
13.864939765
 11
8.9147390006
 21
14.4508534144
 12
9.0871899759
 22
14.4508534144
 13
9.0871899759
 23
14.4508534144
  0
SOLID
  8
___SYMBOL
 62
2
  6
CONTINUOUS
 10
9.223843176
 20
14.0061665222
 11
9.223843176
 21
13.864939765
 12
8.9147390006
 22
13.864939765
 13
8.9147390006
 23
13.864939765
  0
LINE
  8
___SYMBOL
 62
2
  6
CONTINUOUS
 10
9.734093582
 20
13.864939765
 11
9.574650339
 21
14.1165223063
  0
ARC
  8
___SYMBOL
 62
2
  6
CONTINUOUS
 10
9.5022110913
 20
14.2758439037
 40
0.1750166163
 50
294.4500166359
 51
90.0
  0
LINE
  8
___SYMBOL
 62
2
  6
CONTINUOUS
 10
9.2686633907
 20
14.4508534144
 11
9.5022110913
 21
14.4508534144
  0
LINE
  8
___SYMBOL
 62
2
  6
CONTINUOUS
 10
9.2686633907
 20
13.864939765
 11
9.2686633907
 21
14.4508534144
  0
LINE
  8
___SYMBOL
 62
2
  6
CONTINUOUS
 10
9.2686633907
 20
13.864939765
 11
9.4193192133
 21
13.864939765
  0
LINE
  8
___SYMBOL
 62
2
  6
CONTINUOUS
 10
9.4193192133
 20
14.0618961358
 11
9.4193192133
 21
13.864939765
  0
LINE
  8
___SYMBOL
 62
2
  6
CONTINUOUS
 10
9.5441426424
 20
13.864939765
 11
9.4193192133
 21
14.0618961358
  0
LINE
  8
___SYMBOL
 62
2
  6
CONTINUOUS
 10
9.5441426424
 20
13.864939765
 11
9.734093582
 21
13.864939765
  0
LINE
  8
___SYMBOL
 62
2
  6
CONTINUOUS
 10
9.4193192133
 20
14.2011714465
 11
9.4716589634
 21
14.2011714465
  0
ARC
  8
___SYMBOL
 62
2
  6
CONTINUOUS
 10
9.4752489927
 20
14.254662846
 40
0.053611735
 50
266.1604009902
 51
89.9998910512
  0
LINE
  8
___SYMBOL
 62
2
  6
CONTINUOUS
 10
9.4752490947
 20
14.308274581
 11
9.4193192133
 21
14.308274581
  0
LINE
  8
___SYMBOL
 62
2
  6
CONTINUOUS
 10
9.4193192133
 20
14.308274581
 11
9.4193192133
 21
14.2011714465
  0
SOLID
  8
___SYMBOL
 62
2
  6
CONTINUOUS
 10
9.5022110913
 20
14.45086052
 11
9.5491441149
 21
14.4444502716
 12
9.2686633907
 22
14.4508534144
 13
9.2686633907
 23
14.4508534144
  0
SOLID
  8
___SYMBOL
 62
2
  6
CONTINUOUS
 10
9.4193192133
 20
14.308274581
 11
9.6732589543
 21
14.3129039166
 12
9.4752490947
 22
14.308274581
 13
9.4752490947
 23
14.308274581
  0
SOLID
  8
___SYMBOL
 62
2
  6
CONTINUOUS
 10
9.4752490947
 20
14.308274581
 11
9.6732589543
 21
14.3129039166
 12
9.4989716763
 22
14.3027404127
 13
9.4989716763
 23
14.3027404127
  0
SOLID
  8
___SYMBOL
 62
2
  6
CONTINUOUS
 10
9.4989716763
 20
14.3027404127
 11
9.6732589543
 21
14.3129039166
 12
9.5177966639
 22
14.2872805377
 13
9.5177966639
 23
14.2872805377
  0
SOLID
  8
___SYMBOL
 62
2
  6
CONTINUOUS
 10
9.6732589543
 20
14.3129039166
 11
9.6769322008
 21
14.2656777877
 12
9.5177966639
 22
14.2872805377
 13
9.5177966639
 23
14.2872805377
  0
SOLID
  8
___SYMBOL
 62
2
  6
CONTINUOUS
 10
9.5278376025
 20
14.2650866771
 11
9.5177966639
 21
14.2872805377
 12
9.6769322008
 22
14.2656777877
 13
9.6769322008
 23
14.2656777877
  0
SOLID
  8
___SYMBOL
 62
2
  6
CONTINUOUS
 10
9.5278376025
 20
14.2650866771
 11
9.6769322008
 21
14.2656777877
 12
9.5270215208
 22
14.2407407964
 13
9.5270215208
 23
14.2407407964
  0
SOLID
  8
___SYMBOL
 62
2
  6
CONTINUOUS
 10
9.5270215208
 20
14.2407407964
 11
9.6769322008
 21
14.2656777877
 12
9.5155169005
 22
14.2192691498
 13
9.5155169005
 23
14.2192691498
  0
SOLID
  8
___SYMBOL
 62
2
  6
CONTINUOUS
 10
9.6769322008
 20
14.2656777877
 11
9.6678065971
 21
14.2191963577
 12
9.5155169005
 22
14.2192691498
 13
9.5155169005
 23
14.2192691498
  0
SOLID
  8
___SYMBOL
 62
2
  6
CONTINUOUS
 10
9.4956988927
 20
14.2051046003
 11
9.5155169005
 21
14.2192691498
 12
9.6678065971
 22
14.2191963577
 13
9.6678065971
 23
14.2191963577
  0
SOLID
  8
___SYMBOL
 62
2
  6
CONTINUOUS
 10
9.4956988927
 20
14.2051046003
 11
9.6678065971
 21
14.2191963577
 12
9.4716589634
 22
14.2011714465
 13
9.4716589634
 23
14.2011714465
  0
SOLID
  8
___SYMBOL
 62
2
  6
CONTINUOUS
 10
9.6678065971
 20
14.2191963577
 11
9.6465506214
 21
14.1768645318
 12
9.4716589634
 22
14.2011714465
 13
9.4716589634
 23
14.2011714465
  0
SOLID
  8
___SYMBOL
 62
2
  6
CONTINUOUS
 10
9.574650339
 20
14.1165223063
 11
9.4193192133
 21
14.0618961358
 12
9.6147213383
 22
14.1417832445
 13
9.6147213383
 23
14.1417832445
  0
SOLID
  8
___SYMBOL
 62
2
  6
CONTINUOUS
 10
9.6147213383
 20
14.1417832445
 11
9.4193192133
 21
14.0618961358
 12
9.6465506214
 22
14.1768645318
 13
9.6465506214
 23
14.1768645318
  0
SOLID
  8
___SYMBOL
 62
2
  6
CONTINUOUS
 10
9.6465506214
 20
14.1768645318
 11
9.4193192133
 21
14.0618961358
 12
9.4716589634
 22
14.2011714465
 13
9.4716589634
 23
14.2011714465
  0
SOLID
  8
___SYMBOL
 62
2
  6
CONTINUOUS
 10
9.4193192133
 20
14.0618961358
 11
9.2686633907
 21
13.864939765
 12
9.4716589634
 22
14.2011714465
 13
9.4716589634
 23
14.2011714465
  0
SOLID
  8
___SYMBOL
 62
2
  6
CONTINUOUS
 10
9.4716589634
 20
14.2011714465
 11
9.2686633907
 21
13.864939765
 12
9.4193192133
 22
14.2011714465
 13
9.4193192133
 23
14.2011714465
  0
SOLID
  8
___SYMBOL
 62
2
  6
CONTINUOUS
 10
9.4193192133
 20
14.2011714465
 11
9.2686633907
 21
13.864939765
 12
9.4193192133
 22
14.308274581
 13
9.4193192133
 23
14.308274581
  0
SOLID
  8
___SYMBOL
 62
2
  6
CONTINUOUS
 10
9.6732589543
 20
14.3129039166
 11
9.4193192133
 21
14.308274581
 12
9.6570559342
 22
14.3574152873
 13
9.6570559342
 23
14.3574152873
  0
SOLID
  8
___SYMBOL
 62
2
  6
CONTINUOUS
 10
9.6570559342
 20
14.3574152873
 11
9.4193192133
 21
14.308274581
 12
9.6295100607
 22
14.3959513072
 13
9.6295100607
 23
14.3959513072
  0
SOLID
  8
___SYMBOL
 62
2
  6
CONTINUOUS
 10
9.6295100607
 20
14.3959513072
 11
9.4193192133
 21
14.308274581
 12
9.5926391524
 22
14.4256890963
 13
9.5926391524
 23
14.4256890963
  0
SOLID
  8
___SYMBOL
 62
2
  6
CONTINUOUS
 10
9.5926391524
 20
14.4256890963
 11
9.4193192133
 21
14.308274581
 12
9.5491441149
 22
14.4444502716
 13
9.5491441149
 23
14.4444502716
  0
SOLID
  8
___SYMBOL
 62
2
  6
CONTINUOUS
 10
9.5491441149
 20
14.4444502716
 11
9.4193192133
 21
14.308274581
 12
9.2686633907
 22
14.4508534144
 13
9.2686633907
 23
14.4508534144
  0
SOLID
  8
___SYMBOL
 62
2
  6
CONTINUOUS
 10
9.2686633907
 20
13.864939765
 11
9.2686633907
 21
14.4508534144
 12
9.4193192133
 22
14.308274581
 13
9.4193192133
 23
14.308274581
  0
SOLID
  8
___SYMBOL
 62
2
  6
CONTINUOUS
 10
9.4193192133
 20
14.0618961358
 11
9.4193192133
 21
13.864939765
 12
9.2686633907
 22
13.864939765
 13
9.2686633907
 23
13.864939765
  0
SOLID
  8
___SYMBOL
 62
2
  6
CONTINUOUS
 10
9.4193192133
 20
14.0618961358
 11
9.574650339
 21
14.1165223063
 12
9.5441426424
 22
13.864939765
 13
9.5441426424
 23
13.864939765
  0
SOLID
  8
___SYMBOL
 62
2
  6
CONTINUOUS
 10
9.574650339
 20
14.1165223063
 11
9.734093582
 21
13.864939765
 12
9.5441426424
 22
13.864939765
 13
9.5441426424
 23
13.864939765
  0
CIRCLE
  8
___SYMBOL
 62
2
  6
CONTINUOUS
 10
9.8748635566
 20
13.864939765
 40
0.0653578721
  0
LINE
  8
___SYMBOL
 62
2
  6
CONTINUOUS
 10
9.8705755334
 20
13.8644020156
 11
9.9024435461
 21
13.8320990742
  0
LINE
  8
___SYMBOL
 62
2
  6
CONTINUOUS
 10
9.8589775572
 20
13.8320990742
 11
9.8589775572
 21
13.8980652731
  0
LINE
  8
___SYMBOL
 62
2
  6
CONTINUOUS
 10
9.8589775572
 20
13.8980652731
 11
9.8832568901
 21
13.8980652731
  0
ARC
  8
___SYMBOL
 62
2
  6
CONTINUOUS
 10
9.8832568901
 20
13.8812338235
 40
0.0168314496
 50
270.0
 51
90.0
  0
LINE
  8
___SYMBOL
 62
2
  6
CONTINUOUS
 10
9.8832568901
 20
13.8644020156
 11
9.8589775572
 21
13.8644020156
  0
TEXT
  8
___SYMBOL
 62
2
  6
CONTINUOUS
 10
6.992288686
 20
13.4004756418
  7
STANDARD
 40
0.25
  1
CUT-OUT TEMPLATE
 41
0.8
 72
0
  0
TEXT
  8
___SYMBOL
 62
2
  6
CONTINUOUS
 10
6.992288686
 20
13.0254756418
  7
STANDARD
 40
0.25
  1
SELF-RIMMING/UNDERCOUNTER SINK
 41
0.8
 72
0
  0
TEXT
  8
___SYMBOL
 62
2
  6
CONTINUOUS
 10
6.992288686
 20
12.6504756418
  7
STANDARD
 40
0.25
  1
GABARIT DE DÉCOUPE
 41
0.8
 72
0
  0
TEXT
  8
___SYMBOL
 62
2
  6
CONTINUOUS
 10
6.992288686
 20
12.2754756418
  7
STANDARD
 40
0.25
  1
ÉVIER À REBORD INTÉGRÉ/SOUS COMPTOIR
 41
0.8
 72
0
  0
TEXT
  8
___SYMBOL
 62
2
  6
CONTINUOUS
 10
6.992288686
 20
11.9004756418
  7
STANDARD
 40
0.25
  1
PLANTILLA DE CORTE
 41
0.8
 72
0
  0
TEXT
  8
___SYMBOL
 62
2
  6
CONTINUOUS
 10
6.992288686
 20
11.5254756418
  7
STANDARD
 40
0.25
  1
FREGADERO DE BORDE TERMINADO/INSTALACIÓN
 41
0.8
 72
0
  0
TEXT
  8
___SYMBOL
 62
2
  6
CONTINUOUS
 10
6.992288686
 20
11.1504756418
  7
STANDARD
 40
0.25
  1
 BAJO CUBIERTA
 41
0.8
 72
0
  0
TEXT
  8
___SYMBOL
 62
2
  6
CONTINUOUS
 10
6.992288686
 20
10.7754756418
  7
STANDARD
 40
0.25
  1
VAULT
 41
0.8
 72
0
  0
TEXT
  8
___SYMBOL
 62
2
  6
CONTINUOUS
 10
8.592288686
 20
10.7754756418
  7
STANDARD
 40
0.25
  1
3840
 41
0.8
 72
0
  0
TEXT
  8
___SYMBOL
 62
2
  6
CONTINUOUS
 10
9.392288686
 20
10.7754756418
  7
STANDARD
 40
0.25
  1
-**-
 41
0.8
 72
0
  0
TEXT
  8
___SYMBOL
 62
2
  6
CONTINUOUS
 10
10.192288686
 20
10.7754756418
  7
STANDARD
 40
0.25
  1
A
 41
0.8
 72
0
  0
ENDBLK
  8
0
  6
BYBLOCK
 62
0
  0
BLOCK
  8
0
  2
_FILLED
 70
64
 10
0.0
 20
0.0
  0
SOLID
  8
0
  6
BYBLOCK
 62
0
 10
0.0
 20
0.0
 11
-1.0
 21
0.1666666667
 12
-1.0
 22
-0.1666666667
 13
-1.0
 23
-0.1666666667
  0
ENDBLK
  8
0
  6
BYBLOCK
 62
0
  0
BLOCK
  8
0
 62
2
  6
CONTINUOUS
  2
*D0
 70
65
 10
0.0
 20
0.0
  0
TEXT
  8
0
 62
2
  6
CONTINUOUS
 10
19.0790984292
 20
10.8955556907
  7
STANDARD
 40
0.15625
  1
14-1/2
 41
0.8
 72
1
 11
19.4540984292
 21
10.8955556907
  0
TEXT
  8
0
 62
2
  6
CONTINUOUS
 10
19.8290984292
 20
10.8955556907
  7
STANDARD
 40
0.15625
  1
"
 41
0.8
 72
1
 11
19.8915984292
 21
10.8955556907
  0
TEXT
  8
0
 62
2
  6
CONTINUOUS
 10
19.0790984292
 20
10.6611806907
  7
STANDARD
 40
0.15625
  1
[
 41
0.8
 72
1
 11
19.1415984292
 21
10.6611806907
  0
TEXT
  8
0
 62
2
  6
CONTINUOUS
 10
19.2040984292
 20
10.6611806907
  7
STANDARD
 40
0.15625
  1
36,8
 41
0.8
 72
1
 11
19.4540984292
 21
10.6611806907
  0
TEXT
  8
0
 62
2
  6
CONTINUOUS
 10
19.7040984292
 20
10.6611806907
  7
STANDARD
 40
0.15625
  1
]
 41
0.8
 72
1
 11
19.7665984292
 21
10.6611806907
  0
TEXT
  8
0
 62
2
  6
CONTINUOUS
 10
19.2665984292
 20
10.4268056907
  7
STANDARD
 40
0.15625
  1
SELF
 41
0.8
 72
1
 11
19.5165984292
 21
10.4268056907
  0
TEXT
  8
0
 62
2
  6
CONTINUOUS
 10
19.0790984292
 20
10.1924306907
  7
STANDARD
 40
0.15625
  1
RIMMING
 41
0.8
 72
1
 11
19.5165984292
 21
10.1924306907
  0
LINE
  8
0
 62
2
  6
CONTINUOUS
 10
19.3915984292
 20
18.6522787029
 11
19.5517718299
 21
18.6522787029
  0
LINE
  8
0
 62
2
  6
CONTINUOUS
 10
19.3915984292
 20
4.1522787029
 11
19.5517718299
 21
4.1522787029
  0
LINE
  8
0
 62
2
  6
CONTINUOUS
 10
19.5165984292
 20
18.6522787029
 11
19.5165984292
 21
11.1299306907
  0
LINE
  8
0
 62
2
  6
CONTINUOUS
 10
19.5165984292
 20
4.1522787029
 11
19.5165984292
 21
10.1143056907
  0
INSERT
  8
0
 62
2
  6
CONTINUOUS
  2
_FILLED
 10
19.5165984292
 20
18.6522787029
 41
0.1875
 42
0.1875
 43
0.1875
 50
90.0
  0
INSERT
  8
0
 62
2
  6
CONTINUOUS
  2
_FILLED
 10
19.5165984292
 20
4.1522787029
 41
0.1875
 42
0.1875
 43
0.1875
 50
270.0
  0
ENDBLK
  8
0
  6
BYBLOCK
 62
0
  0
BLOCK
  8
0
 62
2
  6
CONTINUOUS
  2
*D1
 70
65
 10
0.0
 20
0.0
  0
TEXT
  8
0
 62
2
  6
CONTINUOUS
 10
11.5633216477
 20
4.8332711257
  7
STANDARD
 40
0.15625
  1
14-1/2
 41
0.8
 72
1
 11
11.9383216477
 21
4.8332711257
  0
TEXT
  8
0
 62
2
  6
CONTINUOUS
 10
12.3133216477
 20
4.8332711257
  7
STANDARD
 40
0.15625
  1
" SELF RIMMING
 41
0.8
 72
1
 11
13.1883216477
 21
4.8332711257
  0
TEXT
  8
0
 62
2
  6
CONTINUOUS
 10
11.5633216477
 20
4.5988961257
  7
STANDARD
 40
0.15625
  1
[
 41
0.8
 72
1
 11
11.6258216477
 21
4.5988961257
  0
TEXT
  8
0
 62
2
  6
CONTINUOUS
 10
11.6883216477
 20
4.5988961257
  7
STANDARD
 40
0.15625
  1
36,8
 41
0.8
 72
1
 11
11.9383216477
 21
4.5988961257
  0
TEXT
  8
0
 62
2
  6
CONTINUOUS
 10
12.1883216477
 20
4.5988961257
  7
STANDARD
 40
0.15625
  1
]
 41
0.8
 72
1
 11
12.2508216477
 21
4.5988961257
  0
LINE
  8
0
 62
2
  6
CONTINUOUS
 10
5.5633216477
 20
5.0400697472
 11
5.5633216477
 21
4.7863961257
  0
LINE
  8
0
 62
2
  6
CONTINUOUS
 10
20.0633216477
 20
5.0400697472
 11
20.0633216477
 21
4.7863961257
  0
LINE
  8
0
 62
2
  6
CONTINUOUS
 10
5.5633216477
 20
4.9113961257
 11
11.4851966477
 21
4.9113961257
  0
LINE
  8
0
 62
2
  6
CONTINUOUS
 10
20.0633216477
 20
4.9113961257
 11
14.1414466477
 21
4.9113961257
  0
INSERT
  8
0
 62
2
  6
CONTINUOUS
  2
_FILLED
 10
5.5633216477
 20
4.9113961257
 41
0.1875
 42
0.1875
 43
0.1875
 50
180.0
  0
INSERT
  8
0
 62
2
  6
CONTINUOUS
  2
_FILLED
 10
20.0633216477
 20
4.9113961257
 41
0.1875
 42
0.1875
 43
0.1875
  0
ENDBLK
  8
0
  6
BYBLOCK
 62
0
  0
BLOCK
  8
0
 62
2
  6
CONTINUOUS
  2
*D2
 70
65
 10
0.0
 20
0.0
  0
TEXT
  8
0
 62
2
  6
CONTINUOUS
 10
6.5512255135
 20
17.8450713173
  7
STANDARD
 40
0.15625
  1
4X 
 41
0.8
 72
0
  0
TEXT
  8
0
 62
2
  6
CONTINUOUS
 10
6.9262255135
 20
17.8450713173
  7
STANDARD
 40
0.15625
  1
R
 41
0.8
 72
0
  0
TEXT
  8
0
 62
2
  6
CONTINUOUS
 10
7.0512255135
 20
17.8450713173
  7
STANDARD
 40
0.15625
  1
1/2
 41
0.8
 72
0
  0
TEXT
  8
0
 62
2
  6
CONTINUOUS
 10
7.6762255135
 20
17.8450713173
  7
STANDARD
 40
0.15625
  1
"
 41
0.8
 72
0
  0
TEXT
  8
0
 62
2
  6
CONTINUOUS
 10
7.0512255135
 20
17.6106963173
  7
STANDARD
 40
0.15625
  1
[
 41
0.8
 72
0
  0
TEXT
  8
0
 62
2
  6
CONTINUOUS
 10
7.1762255135
 20
17.6106963173
  7
STANDARD
 40
0.15625
  1
1,3
 41
0.8
 72
0
  0
TEXT
  8
0
 62
2
  6
CONTINUOUS
 10
7.5512255135
 20
17.6106963173
  7
STANDARD
 40
0.15625
  1
]
 41
0.8
 72
0
  0
LINE
  8
0
 62
2
  6
CONTINUOUS
 10
5.7031538058
 20
18.4990915137
 11
6.3012255135
 21
17.9231963173
  0
LINE
  8
0
 62
2
  6
CONTINUOUS
 10
6.3012255135
 20
17.9231963173
 11
6.4731005135
 21
17.9231963173
  0
INSERT
  8
0
 62
2
  6
CONTINUOUS
  2
_FILLED
 10
5.7031538058
 20
18.4990915137
 41
0.1875
 42
0.1875
 43
0.1875
 50
136.0822020594
  0
ENDBLK
  8
0
  6
BYBLOCK
 62
0
  0
BLOCK
  8
0
 62
2
  6
CONTINUOUS
  2
*D3
 70
65
 10
0.0
 20
0.0
  0
TEXT
  8
0
 62
2
  6
CONTINUOUS
 10
17.7752346446
 20
10.5135396653
  7
STANDARD
 40
0.15625
  1
9-9/16
 41
0.8
 72
1
 11
18.1502346446
 21
10.5135396653
  0
TEXT
  8
0
 62
2
  6
CONTINUOUS
 10
18.5252346446
 20
10.5135396653
  7
STANDARD
 40
0.15625
  1
"
 41
0.8
 72
1
 11
18.5877346446
 21
10.5135396653
  0
TEXT
  8
0
 62
2
  6
CONTINUOUS
 10
17.7752346446
 20
10.2791646653
  7
STANDARD
 40
0.15625
  1
[
 41
0.8
 72
1
 11
17.8377346446
 21
10.2791646653
  0
TEXT
  8
0
 62
2
  6
CONTINUOUS
 10
17.9002346446
 20
10.2791646653
  7
STANDARD
 40
0.15625
  1
24,3
 41
0.8
 72
1
 11
18.1502346446
 21
10.2791646653
  0
TEXT
  8
0
 62
2
  6
CONTINUOUS
 10
18.4002346446
 20
10.2791646653
  7
STANDARD
 40
0.15625
  1
]
 41
0.8
 72
1
 11
18.4627346446
 21
10.2791646653
  0
TEXT
  8
0
 62
2
  6
CONTINUOUS
 10
17.9002346446
 20
10.0447896653
  7
STANDARD
 40
0.15625
  1
UNDER
 41
0.8
 72
1
 11
18.2127346446
 21
10.0447896653
  0
TEXT
  8
0
 62
2
  6
CONTINUOUS
 10
17.7752346446
 20
9.8104146653
  7
STANDARD
 40
0.15625
  1
COUNTER
 41
0.8
 72
1
 11
18.2127346446
 21
9.8104146653
  0
LINE
  8
0
 62
2
  6
CONTINUOUS
 10
18.3377346446
 20
14.8272787029
 11
17.8796992153
 21
14.8272787029
  0
LINE
  8
0
 62
2
  6
CONTINUOUS
 10
18.3377346446
 20
5.2772787029
 11
17.7848430689
 21
5.2772787029
  0
LINE
  8
0
 62
2
  6
CONTINUOUS
 10
18.2127346446
 20
14.8272787029
 11
18.2127346446
 21
10.7479146653
  0
LINE
  8
0
 62
2
  6
CONTINUOUS
 10
18.2127346446
 20
5.2772787029
 11
18.2127346446
 21
9.7322896653
  0
INSERT
  8
0
 62
2
  6
CONTINUOUS
  2
_FILLED
 10
18.2127346446
 20
14.8272787029
 41
0.1875
 42
0.1875
 43
0.1875
 50
90.0
  0
INSERT
  8
0
 62
2
  6
CONTINUOUS
  2
_FILLED
 10
18.2127346446
 20
5.2772787029
 41
0.1875
 42
0.1875
 43
0.1875
 50
270.0
  0
ENDBLK
  8
0
  6
BYBLOCK
 62
0
  0
BLOCK
  8
0
 62
2
  6
CONTINUOUS
  2
*D4
 70
65
 10
0.0
 20
0.0
  0
TEXT
  8
0
 62
2
  6
CONTINUOUS
 10
11.5633216477
 20
5.7599545549
  7
STANDARD
 40
0.15625
  1
12-1/4
 41
0.8
 72
1
 11
11.9383216477
 21
5.7599545549
  0
TEXT
  8
0
 62
2
  6
CONTINUOUS
 10
12.3133216477
 20
5.7599545549
  7
STANDARD
 40
0.15625
  1
" UNDERCOUNTER
 41
0.8
 72
1
 11
13.1883216477
 21
5.7599545549
  0
TEXT
  8
0
 62
2
  6
CONTINUOUS
 10
11.5633216477
 20
5.5255795549
  7
STANDARD
 40
0.15625
  1
[
 41
0.8
 72
1
 11
11.6258216477
 21
5.5255795549
  0
TEXT
  8
0
 62
2
  6
CONTINUOUS
 10
11.6883216477
 20
5.5255795549
  7
STANDARD
 40
0.15625
  1
31,1
 41
0.8
 72
1
 11
11.9383216477
 21
5.5255795549
  0
TEXT
  8
0
 62
2
  6
CONTINUOUS
 10
12.1883216477
 20
5.5255795549
  7
STANDARD
 40
0.15625
  1
]
 41
0.8
 72
1
 11
12.2508216477
 21
5.5255795549
  0
LINE
  8
0
 62
2
  6
CONTINUOUS
 10
18.9383216477
 20
5.8026449211
 11
18.9383216477
 21
5.9630795549
  0
LINE
  8
0
 62
2
  6
CONTINUOUS
 10
6.6883216477
 20
5.8063455305
 11
6.6883216477
 21
5.9630795549
  0
LINE
  8
0
 62
2
  6
CONTINUOUS
 10
18.9383216477
 20
5.8380795549
 11
14.1414466477
 21
5.8380795549
  0
LINE
  8
0
 62
2
  6
CONTINUOUS
 10
6.6883216477
 20
5.8380795549
 11
11.4851966477
 21
5.8380795549
  0
INSERT
  8
0
 62
2
  6
CONTINUOUS
  2
_FILLED
 10
18.9383216477
 20
5.8380795549
 41
0.1875
 42
0.1875
 43
0.1875
  0
INSERT
  8
0
 62
2
  6
CONTINUOUS
  2
_FILLED
 10
6.6883216477
 20
5.8380795549
 41
0.1875
 42
0.1875
 43
0.1875
 50
180.0
  0
ENDBLK
  8
0
  6
BYBLOCK
 62
0
  0
BLOCK
  8
0
 62
2
  6
CONTINUOUS
  2
*D5
 70
65
 10
0.0
 20
0.0
  0
TEXT
  8
0
 62
2
  6
CONTINUOUS
 10
8.3065781441
 20
6.4624028963
  7
STANDARD
 40
0.15625
  1
4X 
 41
0.8
 72
1
 11
8.4940781441
 21
6.4624028963
  0
TEXT
  8
0
 62
2
  6
CONTINUOUS
 10
8.6815781441
 20
6.4624028963
  7
STANDARD
 40
0.15625
  1
R
 41
0.8
 72
1
 11
8.7440781441
 21
6.4624028963
  0
TEXT
  8
0
 62
2
  6
CONTINUOUS
 10
8.8065781441
 20
6.4624028963
  7
STANDARD
 40
0.15625
  1
1/2
 41
0.8
 72
1
 11
8.9940781441
 21
6.4624028963
  0
TEXT
  8
0
 62
2
  6
CONTINUOUS
 10
9.4315781441
 20
6.4624028963
  7
STANDARD
 40
0.15625
  1
"
 41
0.8
 72
1
 11
9.4940781441
 21
6.4624028963
  0
TEXT
  8
0
 62
2
  6
CONTINUOUS
 10
8.8065781441
 20
6.2280278963
  7
STANDARD
 40
0.15625
  1
[
 41
0.8
 72
1
 11
8.8690781441
 21
6.2280278963
  0
TEXT
  8
0
 62
2
  6
CONTINUOUS
 10
8.9315781441
 20
6.2280278963
  7
STANDARD
 40
0.15625
  1
1,3
 41
0.8
 72
1
 11
9.1190781441
 21
6.2280278963
  0
TEXT
  8
0
 62
2
  6
CONTINUOUS
 10
9.3065781441
 20
6.2280278963
  7
STANDARD
 40
0.15625
  1
]
 41
0.8
 72
1
 11
9.3690781441
 21
6.2280278963
  0
LINE
  8
0
 62
2
  6
CONTINUOUS
 10
6.8127897967
 20
5.4471638307
 11
8.0565781441
 21
6.5405278963
  0
LINE
  8
0
 62
2
  6
CONTINUOUS
 10
8.0565781441
 20
6.5405278963
 11
8.2284531441
 21
6.5405278963
  0
INSERT
  8
0
 62
2
  6
CONTINUOUS
  2
_FILLED
 10
6.8127897967
 20
5.4471638307
 41
0.1875
 42
0.1875
 43
0.1875
 50
221.3173967642
  0
ENDBLK
  8
0
  6
BYBLOCK
 62
0
  0
BLOCK
  8
0
 62
2
  6
CONTINUOUS
  2
*D6
 70
65
 10
0.0
 20
0.0
  0
TEXT
  8
0
 62
2
  6
CONTINUOUS
 10
16.9622588262
 20
4.5521534671
  7
STANDARD
 40
0.15625
  1
1/4
 41
0.8
 72
0
  0
TEXT
  8
0
 62
2
  6
CONTINUOUS
 10
17.5872588262
 20
4.5521534671
  7
STANDARD
 40
0.15625
  1
"
 41
0.8
 72
0
  0
TEXT
  8
0
 62
2
  6
CONTINUOUS
 10
16.9622588262
 20
4.3177784671
  7
STANDARD
 40
0.15625
  1
[
 41
0.8
 72
0
  0
TEXT
  8
0
 62
2
  6
CONTINUOUS
 10
17.0872588262
 20
4.3177784671
  7
STANDARD
 40
0.15625
  1
0,6
 41
0.8
 72
0
  0
TEXT
  8
0
 62
2
  6
CONTINUOUS
 10
17.4622588262
 20
4.3177784671
  7
STANDARD
 40
0.15625
  1
]
 41
0.8
 72
0
  0
LINE
  8
0
 62
2
  6
CONTINUOUS
 10
16.8503619627
 20
3.9022787029
 11
16.6122699134
 21
3.9022787029
  0
LINE
  8
0
 62
2
  6
CONTINUOUS
 10
16.8503619627
 20
4.1522787029
 11
16.6122699134
 21
4.1522787029
  0
LINE
  8
0
 62
2
  6
CONTINUOUS
 10
16.7372699134
 20
3.9022787029
 11
16.7372699134
 21
3.4022787029
  0
LINE
  8
0
 62
2
  6
CONTINUOUS
 10
16.7372699134
 20
4.1522787029
 11
16.7372699134
 21
4.6302784671
  0
LINE
  8
0
 62
2
  6
CONTINUOUS
 10
16.7372699134
 20
4.6302784671
 11
16.8841338262
 21
4.6302784671
  0
INSERT
  8
0
 62
2
  6
CONTINUOUS
  2
_FILLED
 10
16.7372699134
 20
3.9022787029
 41
0.1875
 42
0.1875
 43
0.1875
 50
90.0
  0
INSERT
  8
0
 62
2
  6
CONTINUOUS
  2
_FILLED
 10
16.7372699134
 20
4.1522787029
 41
0.1875
 42
0.1875
 43
0.1875
 50
270.0
  0
ENDBLK
  8
0
  6
BYBLOCK
 62
0
  0
ENDSEC
  0
SECTION
  2
ENTITIES
  0
DIMENSION
  8
0
 62
2
  6
CONTINUOUS
  2
*D0
 10
19.5165984292
 20
4.1522787029
 11
19.2665984292
 21
10.6221181907
 70
128
 13
19.3915984292
 23
18.6522787029
 14
19.3915984292
 24
4.1522787029
 50
270.0
  0
DIMENSION
  8
0
 62
2
  6
CONTINUOUS
  2
*D1
 10
20.0633216477
 20
4.9113961257
 11
12.1883216477
 21
4.7942086257
 70
128
 13
5.5633216477
 23
5.0400697472
 14
20.0633216477
 24
5.0400697472
  0
DIMENSION
  8
0
 62
2
  6
CONTINUOUS
  2
*D2
 10
6.0633216477
 20
18.1522787029
 11
7.1762255135
 21
17.8060088173
 70
132
 15
5.7031538058
 25
18.4990915137
  0
DIMENSION
  8
0
 62
2
  6
CONTINUOUS
  2
*D3
 10
18.2127346446
 20
5.2772787029
 11
17.9627346446
 21
10.2401021653
 70
128
 13
17.8796992153
 23
14.8272787029
 14
17.7848430689
 24
5.2772787029
 50
270.0
  0
DIMENSION
  8
0
 62
2
  6
CONTINUOUS
  2
*D4
 10
6.6883216477
 20
5.8380795549
 11
12.1883216477
 21
5.7208920549
 70
128
 13
18.9383216477
 23
5.9630795549
 14
6.6883216477
 24
5.9630795549
 50
180.0
  0
DIMENSION
  8
0
 62
2
  6
CONTINUOUS
  2
*D5
 10
7.1883216477
 20
5.7772787029
 11
8.8065781441
 21
6.4233403963
 70
132
 15
6.8127897967
 25
5.4471638307
  0
DIMENSION
  8
0
 62
2
  6
CONTINUOUS
  2
*D6
 10
16.7372699134
 20
4.1522787029
 11
17.3372588262
 21
4.5130909671
 70
128
 13
16.6122699134
 23
3.9022787029
 14
16.6122699134
 24
4.1522787029
 50
90.0
  0
LINE
  8
0
 62
2
  6
CONTINUOUS
 10
11.4427208719
 20
11.314820677
 11
17.1927208719
 21
11.314820677
  0
LINE
  8
0
 62
2
  6
CONTINUOUS
 10
11.4427208719
 20
11.314820677
 11
11.4427208719
 21
6.139820677
  0
LINE
  8
0
 62
2
  6
CONTINUOUS
 10
11.4427208719
 20
10.939820677
 11
17.1927208719
 21
10.939820677
  0
LINE
  8
0
 62
2
  6
CONTINUOUS
 10
11.4427208719
 20
9.339820677
 11
17.1927208719
 21
9.339820677
  0
LINE
  8
0
 62
2
  6
CONTINUOUS
 10
11.4427208719
 20
7.739820677
 11
17.1927208719
 21
7.739820677
  0
LINE
  8
0
 62
2
  6
CONTINUOUS
 10
11.4427208719
 20
6.139820677
 11
17.1927208719
 21
6.139820677
  0
LINE
  8
0
 62
2
  6
CONTINUOUS
 10
12.1927208719
 20
11.314820677
 11
12.1927208719
 21
6.139820677
  0
LINE
  8
0
 62
2
  6
CONTINUOUS
 10
12.6927208719
 20
11.314820677
 11
12.6927208719
 21
6.139820677
  0
LINE
  8
0
 62
2
  6
CONTINUOUS
 10
13.4427208719
 20
11.314820677
 11
13.4427208719
 21
6.139820677
  0
LINE
  8
0
 62
2
  6
CONTINUOUS
 10
17.1927208719
 20
11.314820677
 11
17.1927208719
 21
6.139820677
  0
TEXT
  8
___NOTE
 62
2
  6
CONTINUOUS
 10
11.5177208719
 20
11.064820677
  7
STANDARD
 40
0.125
  1
OPTION
 41
0.8
 72
1
 11
11.8177208719
 21
11.064820677
  0
TEXT
  8
___NOTE
 62
2
  6
CONTINUOUS
 10
12.2927208719
 20
11.064820677
  7
STANDARD
 40
0.125
  1
QTY
 41
0.8
 72
1
 11
12.4427208719
 21
11.064820677
  0
TEXT
  8
___NOTE
 62
2
  6
CONTINUOUS
 10
12.9739708719
 20
11.064820677
  7
TEXTSTYLE_1
 40
0.125
  1
n
 41
1.0
 72
1
 11
13.0677208719
 21
11.064820677
  0
TEXT
  8
___NOTE
 62
2
  6
CONTINUOUS
 10
15.1177208719
 20
11.064820677
  7
STANDARD
 40
0.125
  1
NOTE
 41
0.8
 72
1
 11
15.3177208719
 21
11.064820677
  0
TEXT
  8
___NOTE
 62
2
  6
CONTINUOUS
 10
11.7677208719
 20
10.077320677
  7
STANDARD
 40
0.125
  1
A
 41
0.8
 72
1
 11
11.8177208719
 21
10.077320677
  0
TEXT
  8
___NOTE
 62
2
  6
CONTINUOUS
 10
12.3927208719
 20
10.077320677
  7
STANDARD
 40
0.125
  1
3
 41
0.8
 72
1
 11
12.4427208719
 21
10.077320677
  0
TEXT
  8
___NOTE
 62
2
  6
CONTINUOUS
 10
12.7177208719
 20
10.171070677
  7
STANDARD
 40
0.125
  1
1-7/16
 41
0.8
 72
1
 11
13.0177208719
 21
10.171070677
  0
TEXT
  8
___NOTE
 62
2
  6
CONTINUOUS
 10
13.3177208719
 20
10.171070677
  7
STANDARD
 40
0.125
  1
"
 41
0.8
 72
1
 11
13.3677208719
 21
10.171070677
  0
TEXT
  8
___NOTE
 62
2
  6
CONTINUOUS
 10
12.7177208719
 20
9.983570677
  7
STANDARD
 40
0.125
  1
[
 41
0.8
 72
1
 11
12.7677208719
 21
9.983570677
  0
TEXT
  8
___NOTE
 62
2
  6
CONTINUOUS
 10
12.8177208719
 20
9.983570677
  7
STANDARD
 40
0.125
  1
3,7
 41
0.8
 72
1
 11
12.9677208719
 21
9.983570677
  0
TEXT
  8
___NOTE
 62
2
  6
CONTINUOUS
 10
13.1177208719
 20
9.983570677
  7
STANDARD
 40
0.125
  1
]
 41
0.8
 72
1
 11
13.1677208719
 21
9.983570677
  0
TEXT
  8
___NOTE
 62
2
  6
CONTINUOUS
 10
13.5052208719
 20
10.733570677
  7
STANDARD
 40
0.125
  1
UNDERCOUNTER INSTALLATION TO BE 
 41
0.8
 72
0
  0
TEXT
  8
___NOTE
 62
2
  6
CONTINUOUS
 10
13.5052208719
 20
10.546070677
  7
STANDARD
 40
0.125
  1
DRILLED INTO COUNTERTOP.
 41
0.8
 72
0
  0
TEXT
  8
___NOTE
 62
2
  6
CONTINUOUS
 10
13.5052208719
 20
10.358570677
  7
STANDARD
 40
0.125
  1
ORIFICIO DEL CONECTOR OPCIONAL
 41
0.8
 72
0
  0
TEXT
  8
___NOTE
 62
2
  6
CONTINUOUS
 10
13.5052208719
 20
10.171070677
  7
STANDARD
 40
0.125
  1
(À PERCER DANS LE COMPTOIR POUR
 41
0.8
 72
0
  0
TEXT
  8
___NOTE
 62
2
  6
CONTINUOUS
 10
13.5052208719
 20
9.983570677
  7
STANDARD
 40
0.125
  1
INSTALLATION PAR DESSOUS SEULEMENT).
 41
0.8
 72
0
  0
TEXT
  8
___NOTE
 62
2
  6
CONTINUOUS
 10
13.5052208719
 20
9.796070677
  7
STANDARD
 40
0.125
  1
ORIFICE DU RACCORD OPTIONNEL
 41
0.8
 72
0
  0
TEXT
  8
___NOTE
 62
2
  6
CONTINUOUS
 10
13.5052208719
 20
9.608570677
  7
STANDARD
 40
0.125
  1
(A TALADRAR EN LA CUBIERTA PARA
 41
0.8
 72
0
  0
TEXT
  8
___NOTE
 62
2
  6
CONTINUOUS
 10
13.5052208719
 20
9.421070677
  7
STANDARD
 40
0.125
  1
INSTALACIÓN BAJO CUBIERTA SOLAMENTE).
 41
0.8
 72
0
  0
TEXT
  8
___NOTE
 62
2
  6
CONTINUOUS
 10
11.7677208719
 20
8.477320677
  7
STANDARD
 40
0.125
  1
B
 41
0.8
 72
1
 11
11.8177208719
 21
8.477320677
  0
TEXT
  8
___NOTE
 62
2
  6
CONTINUOUS
 10
12.3927208719
 20
8.477320677
  7
STANDARD
 40
0.125
  1
2
 41
0.8
 72
1
 11
12.4427208719
 21
8.477320677
  0
TEXT
  8
___NOTE
 62
2
  6
CONTINUOUS
 10
12.7177208719
 20
8.571070677
  7
STANDARD
 40
0.125
  1
1-7/16
 41
0.8
 72
1
 11
13.0177208719
 21
8.571070677
  0
TEXT
  8
___NOTE
 62
2
  6
CONTINUOUS
 10
13.3177208719
 20
8.571070677
  7
STANDARD
 40
0.125
  1
"
 41
0.8
 72
1
 11
13.3677208719
 21
8.571070677
  0
TEXT
  8
___NOTE
 62
2
  6
CONTINUOUS
 10
12.7177208719
 20
8.383570677
  7
STANDARD
 40
0.125
  1
[
 41
0.8
 72
1
 11
12.7677208719
 21
8.383570677
  0
TEXT
  8
___NOTE
 62
2
  6
CONTINUOUS
 10
12.8177208719
 20
8.383570677
  7
STANDARD
 40
0.125
  1
3,7
 41
0.8
 72
1
 11
12.9677208719
 21
8.383570677
  0
TEXT
  8
___NOTE
 62
2
  6
CONTINUOUS
 10
13.1177208719
 20
8.383570677
  7
STANDARD
 40
0.125
  1
]
 41
0.8
 72
1
 11
13.1677208719
 21
8.383570677
  0
TEXT
  8
___NOTE
 62
2
  6
CONTINUOUS
 10
13.5052208719
 20
9.133570677
  7
STANDARD
 40
0.125
  1
UNDERCOUNTER INSTALLATION TO BE 
 41
0.8
 72
0
  0
TEXT
  8
___NOTE
 62
2
  6
CONTINUOUS
 10
13.5052208719
 20
8.946070677
  7
STANDARD
 40
0.125
  1
DRILLED INTO COUNTERTOP.
 41
0.8
 72
0
  0
TEXT
  8
___NOTE
 62
2
  6
CONTINUOUS
 10
13.5052208719
 20
8.758570677
  7
STANDARD
 40
0.125
  1
ORIFICIO DEL CONECTOR OPCIONAL
 41
0.8
 72
0
  0
TEXT
  8
___NOTE
 62
2
  6
CONTINUOUS
 10
13.5052208719
 20
8.571070677
  7
STANDARD
 40
0.125
  1
(À PERCER DANS LE COMPTOIR POUR
 41
0.8
 72
0
  0
TEXT
  8
___NOTE
 62
2
  6
CONTINUOUS
 10
13.5052208719
 20
8.383570677
  7
STANDARD
 40
0.125
  1
INSTALLATION PAR DESSOUS SEULEMENT).
 41
0.8
 72
0
  0
TEXT
  8
___NOTE
 62
2
  6
CONTINUOUS
 10
13.5052208719
 20
8.196070677
  7
STANDARD
 40
0.125
  1
ORIFICE DU RACCORD OPTIONNEL
 41
0.8
 72
0
  0
TEXT
  8
___NOTE
 62
2
  6
CONTINUOUS
 10
13.5052208719
 20
8.008570677
  7
STANDARD
 40
0.125
  1
(A TALADRAR EN LA CUBIERTA PARA
 41
0.8
 72
0
  0
TEXT
  8
___NOTE
 62
2
  6
CONTINUOUS
 10
13.5052208719
 20
7.821070677
  7
STANDARD
 40
0.125
  1
INSTALACIÓN BAJO CUBIERTA SOLAMENTE).
 41
0.8
 72
0
  0
TEXT
  8
___NOTE
 62
2
  6
CONTINUOUS
 10
11.7677208719
 20
6.877320677
  7
STANDARD
 40
0.125
  1
C
 41
0.8
 72
1
 11
11.8177208719
 21
6.877320677
  0
TEXT
  8
___NOTE
 62
2
  6
CONTINUOUS
 10
12.3927208719
 20
6.877320677
  7
STANDARD
 40
0.125
  1
1
 41
0.8
 72
1
 11
12.4427208719
 21
6.877320677
  0
TEXT
  8
___NOTE
 62
2
  6
CONTINUOUS
 10
12.7177208719
 20
6.971070677
  7
STANDARD
 40
0.125
  1
1-7/16
 41
0.8
 72
1
 11
13.0177208719
 21
6.971070677
  0
TEXT
  8
___NOTE
 62
2
  6
CONTINUOUS
 10
13.3177208719
 20
6.971070677
  7
STANDARD
 40
0.125
  1
"
 41
0.8
 72
1
 11
13.3677208719
 21
6.971070677
  0
TEXT
  8
___NOTE
 62
2
  6
CONTINUOUS
 10
12.7177208719
 20
6.783570677
  7
STANDARD
 40
0.125
  1
[
 41
0.8
 72
1
 11
12.7677208719
 21
6.783570677
  0
TEXT
  8
___NOTE
 62
2
  6
CONTINUOUS
 10
12.8177208719
 20
6.783570677
  7
STANDARD
 40
0.125
  1
3,7
 41
0.8
 72
1
 11
12.9677208719
 21
6.783570677
  0
TEXT
  8
___NOTE
 62
2
  6
CONTINUOUS
 10
13.1177208719
 20
6.783570677
  7
STANDARD
 40
0.125
  1
]
 41
0.8
 72
1
 11
13.1677208719
 21
6.783570677
  0
TEXT
  8
___NOTE
 62
2
  6
CONTINUOUS
 10
13.5052208719
 20
7.533570677
  7
STANDARD
 40
0.125
  1
UNDERCOUNTER INSTALLATION TO BE 
 41
0.8
 72
0
  0
TEXT
  8
___NOTE
 62
2
  6
CONTINUOUS
 10
13.5052208719
 20
7.346070677
  7
STANDARD
 40
0.125
  1
DRILLED INTO COUNTERTOP.
 41
0.8
 72
0
  0
TEXT
  8
___NOTE
 62
2
  6
CONTINUOUS
 10
13.5052208719
 20
7.158570677
  7
STANDARD
 40
0.125
  1
ORIFICIO DEL CONECTOR OPCIONAL
 41
0.8
 72
0
  0
TEXT
  8
___NOTE
 62
2
  6
CONTINUOUS
 10
13.5052208719
 20
6.971070677
  7
STANDARD
 40
0.125
  1
(À PERCER DANS LE COMPTOIR POUR
 41
0.8
 72
0
  0
TEXT
  8
___NOTE
 62
2
  6
CONTINUOUS
 10
13.5052208719
 20
6.783570677
  7
STANDARD
 40
0.125
  1
INSTALLATION PAR DESSOUS SEULEMENT).
 41
0.8
 72
0
  0
TEXT
  8
___NOTE
 62
2
  6
CONTINUOUS
 10
13.5052208719
 20
6.596070677
  7
STANDARD
 40
0.125
  1
ORIFICE DU RACCORD OPTIONNEL
 41
0.8
 72
0
  0
TEXT
  8
___NOTE
 62
2
  6
CONTINUOUS
 10
13.5052208719
 20
6.408570677
  7
STANDARD
 40
0.125
  1
(A TALADRAR EN LA CUBIERTA PARA
 41
0.8
 72
0
  0
TEXT
  8
___NOTE
 62
2
  6
CONTINUOUS
 10
13.5052208719
 20
6.221070677
  7
STANDARD
 40
0.125
  1
INSTALACIÓN BAJO CUBIERTA SOLAMENTE).
 41
0.8
 72
0
  0
TEXT
  8
___NOTE
 62
2
  6
CONTINUOUS
 10
7.3082744015
 20
5.3376269543
  7
STANDARD
 40
0.125
  1
1161548-7
 41
0.8
 72
0
  0
TEXT
  8
___NOTE
 62
2
  6
CONTINUOUS
 10
8.2082744015
 20
5.3376269543
  7
STANDARD
 40
0.125
  1
-A
 41
0.8
 72
0
  0
TEXT
  8
___NOTE
 62
2
  6
CONTINUOUS
 10
6.9206309605
 20
3.7170301892
  7
STANDARD
 40
0.125
  1
1161548-7
 41
0.8
 72
0
  0
TEXT
  8
___NOTE
 62
2
  6
CONTINUOUS
 10
7.8206309605
 20
3.7170301892
  7
STANDARD
 40
0.125
  1
-A
 41
0.8
 72
0
  0
TEXT
  8
___NOTE
 62
2
  6
CONTINUOUS
 10
10.511678225
 20
14.5682497114
  7
STANDARD
 40
0.125
  1
WHEN PLOTTING TEMPLATE FULL SIZE: Make sure horizontal and vertical
 41
0.8
 72
0
  0
TEXT
  8
___NOTE
 62
2
  6
CONTINUOUS
 10
10.511678225
 20
14.3807497114
  7
STANDARD
 40
0.125
  1
dimensions match the dimensions labeled on the template.
 41
0.8
 72
0
  0
TEXT
  8
___NOTE
 62
2
  6
CONTINUOUS
 10
10.511678225
 20
14.1932497114
  7
STANDARD
 40
0.125
  1
LORS DU TRACÉ DU GABARIT À L'ÉCHELLE: s'assurer que les dimensions
 41
0.8
 72
0
  0
TEXT
  8
___NOTE
 62
2
  6
CONTINUOUS
 10
10.511678225
 20
14.0057497114
  7
STANDARD
 40
0.125
  1
horizontales et verticales correspondent à celles marquées sur le gabarit.
 41
0.8
 72
0
  0
TEXT
  8
___NOTE
 62
2
  6
CONTINUOUS
 10
10.511678225
 20
13.8182497114
  7
STANDARD
 40
0.125
  1
AL TRAZAR LA PLANTILLA A ESCALA COMPLETA: asegúrese de que la dimensión
 41
0.8
 72
0
  0
TEXT
  8
___NOTE
 62
2
  6
CONTINUOUS
 10
10.511678225
 20
13.6307497114
  7
STANDARD
 40
0.125
  1
horizontal y la dimensión vertical sean iguales a las dimensiones indicadas
 41
0.8
 72
0
  0
TEXT
  8
___NOTE
 62
2
  6
CONTINUOUS
 10
10.511678225
 20
13.4432497114
  7
STANDARD
 40
0.125
  1
en la plantilla.
 41
0.8
 72
0
  0
TEXT
  8
___NOTE
 62
2
  6
CONTINUOUS
 10
7.4898270544
 20
7.5130872533
  7
STANDARD
 40
0.125
  1
RIM OF SINK
 41
0.8
 72
0
  0
TEXT
  8
___NOTE
 62
2
  6
CONTINUOUS
 10
7.4898270544
 20
7.3255872533
  7
STANDARD
 40
0.125
  1
REBORD DE L'ÉVIER
 41
0.8
 72
0
  0
TEXT
  8
___NOTE
 62
2
  6
CONTINUOUS
 10
7.4898270544
 20
7.1380872533
  7
STANDARD
 40
0.125
  1
BORDE DEL FREGADERO
 41
0.8
 72
0
  0
LINE
  8
___NOTE
 62
2
  6
CONTINUOUS
 10
5.3133216477
 20
6.3599606648
 11
7.2398270544
 21
7.5755872533
  0
LINE
  8
___NOTE
 62
2
  6
CONTINUOUS
 10
7.2398270544
 20
7.5755872533
 11
7.4898270544
 21
7.5755872533
  0
SOLID
  8
___NOTE
 62
2
  6
CONTINUOUS
 10
5.455215831
 20
6.4864472382
 11
5.3133216477
 21
6.3599606648
 12
5.4885685476
 22
6.433590391
 13
5.4885685476
 23
6.433590391
  0
TEXT
  8
___NOTE
 62
2
  6
CONTINUOUS
 10
7.3798212891
 20
10.281170774
  7
STANDARD
 40
0.125
  1
SELF-RIMMING INSTALLATION
 41
0.8
 72
0
  0
TEXT
  8
___NOTE
 62
2
  6
CONTINUOUS
 10
7.3798212891
 20
10.093670774
  7
STANDARD
 40
0.125
  1
CUT ALONG THIS LINE.
 41
0.8
 72
0
  0
TEXT
  8
___NOTE
 62
2
  6
CONTINUOUS
 10
7.3798212891
 20
9.906170774
  7
STANDARD
 40
0.125
  1
POUR INSTALLATION À REBORD INTÉGRÉ
 41
0.8
 72
0
  0
TEXT
  8
___NOTE
 62
2
  6
CONTINUOUS
 10
7.3798212891
 20
9.718670774
  7
STANDARD
 40
0.125
  1
DÉCOUPER LE LONG DE CETTE LIGNE.
 41
0.8
 72
0
  0
TEXT
  8
___NOTE
 62
2
  6
CONTINUOUS
 10
7.3798212891
 20
9.531170774
  7
STANDARD
 40
0.125
  1
PARA INSTALACIÓN DE BORDE
 41
0.8
 72
0
  0
TEXT
  8
___NOTE
 62
2
  6
CONTINUOUS
 10
7.3798212891
 20
9.343670774
  7
STANDARD
 40
0.125
  1
TERMINADO, CORTE POR ESTA LÍNEA
 41
0.8
 72
0
  0
LINE
  8
___NOTE
 62
2
  6
CONTINUOUS
 10
5.5633216477
 20
8.8043942752
 11
7.1298212891
 21
10.343670774
  0
LINE
  8
___NOTE
 62
2
  6
CONTINUOUS
 10
7.1298212891
 20
10.343670774
 11
7.3798212891
 21
10.343670774
  0
SOLID
  8
___NOTE
 62
2
  6
CONTINUOUS
 10
5.6751586034
 20
8.9580995381
 11
5.5633216477
 21
8.8043942752
 12
5.718963718
 22
8.9135197004
 13
5.718963718
 23
8.9135197004
  0
TEXT
  8
___NOTE
 62
2
  6
CONTINUOUS
 10
7.4542256074
 20
8.8819788375
  7
STANDARD
 40
0.125
  1
UNDERCOUNTER INSTALLATION
 41
0.8
 72
0
  0
TEXT
  8
___NOTE
 62
2
  6
CONTINUOUS
 10
7.4542256074
 20
8.6944788375
  7
STANDARD
 40
0.125
  1
CUT ALONG THIS LINE.
 41
0.8
 72
0
  0
TEXT
  8
___NOTE
 62
2
  6
CONTINUOUS
 10
7.4542256074
 20
8.5069788375
  7
STANDARD
 40
0.125
  1
POUR INSTALLATION SOUS COMPTOIR
 41
0.8
 72
0
  0
TEXT
  8
___NOTE
 62
2
  6
CONTINUOUS
 10
7.4542256074
 20
8.3194788375
  7
STANDARD
 40
0.125
  1
DÉCOUPER LE LONG DE CETTE LIGNE.
 41
0.8
 72
0
  0
TEXT
  8
___NOTE
 62
2
  6
CONTINUOUS
 10
7.4542256074
 20
8.1319788375
  7
STANDARD
 40
0.125
  1
PARA INSTALACIÓN BAJO CUBIERTA,
 41
0.8
 72
0
  0
TEXT
  8
___NOTE
 62
2
  6
CONTINUOUS
 10
7.4542256074
 20
7.9444788375
  7
STANDARD
 40
0.125
  1
CORTE POR ESTA LÍNEA
 41
0.8
 72
0
  0
LINE
  8
___NOTE
 62
2
  6
CONTINUOUS
 10
6.6883216477
 20
8.4226398892
 11
7.2042256074
 21
8.9444788375
  0
LINE
  8
___NOTE
 62
2
  6
CONTINUOUS
 10
7.2042256074
 20
8.9444788375
 11
7.4542256074
 21
8.9444788375
  0
SOLID
  8
___NOTE
 62
2
  6
CONTINUOUS
 10
6.7979206568
 20
8.5779488384
 11
6.6883216477
 21
8.4226398892
 12
6.842366856
 22
8.5340081355
 13
6.842366856
 23
8.5340081355
  0
TEXT
  8
___NOTE
 62
2
  6
CONTINUOUS
 10
8.471694308
 20
16.6766675494
  7
STANDARD
 40
0.1875
  1
A
 41
0.8
 72
0
  0
TEXT
  8
___NOTE
 62
2
  6
CONTINUOUS
 10
12.4022728408
 20
16.6419773015
  7
STANDARD
 40
0.1875
  1
A
 41
0.8
 72
0
  0
TEXT
  8
___NOTE
 62
2
  6
CONTINUOUS
 10
16.3970283321
 20
16.7009507229
  7
STANDARD
 40
0.1875
  1
A
 41
0.8
 72
0
  0
TEXT
  8
___NOTE
 62
2
  6
CONTINUOUS
 10
10.4637817909
 20
16.6463135825
  7
STANDARD
 40
0.1875
  1
B
 41
0.8
 72
0
  0
TEXT
  8
___NOTE
 62
2
  6
CONTINUOUS
 10
14.4023390807
 20
16.6764940981
  7
STANDARD
 40
0.1875
  1
B
 41
0.8
 72
0
  0
TEXT
  8
___NOTE
 62
2
  6
CONTINUOUS
 10
13.0700601119
 20
16.6614038403
  7
STANDARD
 40
0.1875
  1
C
 41
0.8
 72
0
  0
INSERT
  8
___SYMBOL
 62
2
  6
CONTINUOUS
  2
SKU_SINK_KOHLER_BL0
 10
10.992288686
 20
12.6151537853
  0
INSERT
  8
___SYMBOL
 62
2
  6
CONTINUOUS
  2
COPYRIGHT_YEAR_BL1
 10
18.8694741802
 20
4.2173669143
  0
LINE
  8
DEFAULT_1
 62
2
  6
CENTER
 10
8.8133216477
 20
17.4343566688
 11
8.8133216477
 21
15.470200737
  0
LINE
  8
DEFAULT_1
 62
2
  6
CENTER
 10
10.8133216477
 20
17.4343566688
 11
10.8133216477
 21
15.470200737
  0
LINE
  8
DEFAULT_1
 62
2
  6
CENTER
 10
12.813322
 20
18.375
 11
12.813322
 21
15.220201
  0
LINE
  8
DEFAULT_1
 62
2
  6
CENTER
 10
14.8133216477
 20
17.4343566688
 11
14.8133216477
 21
15.470200737
  0
LINE
  8
DEFAULT_1
 62
2
  6
CENTER
 10
16.8133216477
 20
17.4343566688
 11
16.8133216477
 21
15.470200737
  0
LINE
  8
DEFAULT_1
 62
2
  6
CENTER
 10
7.8433216477
 20
16.4522787029
 11
17.7833216477
 21
16.4522787029
  0
LINE
  8
_CURVE
 62
8
 10
5.3133216477
 20
18.6522787029
 11
5.3133216477
 21
4.1522787029
  0
LINE
  8
_CURVE
 62
7
  6
CONTINUOUS
 10
5.5633216477
 20
18.1522787029
 11
5.5633216477
 21
4.6522787029
  0
LINE
  8
_CURVE
 62
8
 10
5.5633216477
 20
3.9022787029
 11
20.0633216477
 21
3.9022787029
  0
LINE
  8
_CURVE
 62
7
  6
CONTINUOUS
 10
6.0633216477
 20
4.1522787029
 11
19.5633216477
 21
4.1522787029
  0
LINE
  8
_CURVE
 62
7
  6
CONTINUOUS
 10
6.6883216477
 20
14.3272787029
 11
6.6883216477
 21
5.7772787029
  0
LINE
  8
_CURVE
 62
7
  6
CONTINUOUS
 10
7.1883216477
 20
5.2772787029
 11
18.4383216477
 21
5.2772787029
  0
LINE
  8
_CURVE
 62
2
  6
CENTER
 10
12.8133216477
 20
4.4022787029
 11
12.8133216477
 21
2.9022787029
  0
LINE
  8
_CURVE
 62
2
  6
CENTER
 10
12.8133216477
 20
18.4022787029
 11
12.8133216477
 21
19.9022787029
  0
LINE
  8
_CURVE
 62
2
  6
CENTER
 10
5.8133216477
 20
11.4022787029
 11
4.3133216477
 21
11.4022787029
  0
LINE
  8
_CURVE
 62
2
  6
CENTER
 10
19.8133216477
 20
11.4022787029
 11
21.3133216477
 21
11.4022787029
  0
LINE
  8
_CURVE
 62
7
  6
CONTINUOUS
 10
18.4383216477
 20
14.8272787029
 11
7.1883216477
 21
14.8272787029
  0
LINE
  8
_CURVE
 62
7
  6
CONTINUOUS
 10
18.9383216477
 20
5.7772787029
 11
18.9383216477
 21
14.3272787029
  0
LINE
  8
_CURVE
 62
7
  6
CONTINUOUS
 10
20.0633216477
 20
4.6522787029
 11
20.0633216477
 21
18.1522787029
  0
LINE
  8
_CURVE
 62
7
  6
CONTINUOUS
 10
19.5633216477
 20
18.6522787029
 11
6.0633216477
 21
18.6522787029
  0
LINE
  8
_CURVE
 62
8
 10
20.3133216477
 20
4.1522787029
 11
20.3133216477
 21
18.6522787029
  0
LINE
  8
_CURVE
 62
8
 10
20.0633216477
 20
18.9022787029
 11
5.5633216477
 21
18.9022787029
  0
CIRCLE
  8
_CURVE
 62
7
  6
CONTINUOUS
 10
12.8133216477
 20
16.4522787029
 40
0.72
  0
CIRCLE
  8
_CURVE
 62
7
  6
CONTINUOUS
 10
8.8133216477
 20
16.4522787029
 40
0.72
  0
CIRCLE
  8
_CURVE
 62
7
  6
CONTINUOUS
 10
16.8133216477
 20
16.4522787029
 40
0.72
  0
CIRCLE
  8
_CURVE
 62
7
  6
CONTINUOUS
 10
10.8133216477
 20
16.4522787029
 40
0.72
  0
CIRCLE
  8
_CURVE
 62
7
  6
CONTINUOUS
 10
14.8133216477
 20
16.4522787029
 40
0.72
  0
ARC
  8
_CURVE
 62
7
  6
CONTINUOUS
 10
19.5633216477
 20
4.6522787029
 40
0.5
 50
270.0
 51
360.0
  0
ARC
  8
_CURVE
 62
7
  6
CONTINUOUS
 10
19.5633216477
 20
18.1522787029
 40
0.5
 50
0.0
 51
90.0
  0
ARC
  8
_CURVE
 62
7
  6
CONTINUOUS
 10
6.0633216477
 20
18.1522787029
 40
0.5
 50
90.0
 51
180.0
  0
ARC
  8
_CURVE
 62
7
  6
CONTINUOUS
 10
6.0633216477
 20
4.6522787029
 40
0.5
 50
180.0
 51
270.0
  0
ARC
  8
_CURVE
 62
7
  6
CONTINUOUS
 10
18.4383216477
 20
5.7772787029
 40
0.5
 50
270.0
 51
360.0
  0
ARC
  8
_CURVE
 62
7
  6
CONTINUOUS
 10
18.4383216477
 20
14.3272787029
 40
0.5
 50
0.0
 51
90.0
  0
ARC
  8
_CURVE
 62
7
  6
CONTINUOUS
 10
7.1883216477
 20
14.3272787029
 40
0.5
 50
90.0
 51
180.0
  0
ARC
  8
_CURVE
 62
7
  6
CONTINUOUS
 10
7.1883216477
 20
5.7772787029
 40
0.5
 50
180.0
 51
270.0
  0
ARC
  8
_CURVE
 62
8
 10
20.0633216477
 20
18.6522787029
 40
0.25
 50
0.0
 51
90.0
  0
ARC
  8
_CURVE
 62
8
 10
5.5633216477
 20
18.6522787029
 40
0.25
 50
90.0
 51
180.0
  0
ARC
  8
_CURVE
 62
8
 10
5.5633216477
 20
4.1522787029
 40
0.25
 50
180.0
 51
270.0
  0
ARC
  8
_CURVE
 62
8
 10
20.0633216477
 20
4.1522787029
 40
0.25
 50
270.0
 51
360.0
  0
ENDSEC
  0
EOF
