999
DXF file: 1139754-7_a2.dxf
999
Pro/ENGINEER 2009220 by Parametric Technology Corporation
  0
SECTION
  2
HEADER
  9
$ACADVER
  1
AC1015
  9
$DWGCODEPAGE
  3
ANSI_1252
  9
$EXTMAX
 10
44.0
 20
34.0
 30
0.0
  9
$EXTMIN
 10
0.0
 20
0.0
 30
0.0
  9
$LIMMIN
 10
0.0
 20
0.0
  9
$LIMMAX
 10
44.0
 20
34.0
  9
$VIEWCTR
 10
22.0
 20
17.0
  9
$VIEWSIZE
 40
34.0
  9
$CLAYER
  8
0
  9
$LTSCALE
 40
2.42
  9
$CELTYPE
  6
BYLAYER
  9
$DIMSCALE
 40
1.0
  9
$DIMASZ
 40
0.1875
  9
$DIMEXO
 40
0.275
  9
$DIMDLI
 40
1.672
  9
$DIMEXE
 40
0.792
  9
$DIMCEN
 40
0.396
  9
$DIMLFAC
 40
1.0
  9
$DIMBLK
  1
_FILLED
  9
$DIMTXT
 40
0.15625
  9
$DIMTOL
 70
1
  9
$DIMLIM
 70
0
  9
$DIMTFAC
 40
1.0
  9
$DIMTP
 40
0.01
  9
$DIMTM
 40
0.01
  9
$PDMODE
 70
3
  9
$PDSIZE
 40
0.3125
  9
$HANDSEED
  5
344
  9
$TILEMODE
 70
1
  9
$MEASUREMENT
 70
0
  9
$INSUNITS
 70
1
  0
ENDSEC
  0
SECTION
  2
CLASSES
  0
CLASS
  1
ACDBDICTIONARYWDFLT
  2
AcDbDictionaryWithDefault
  3
AutoCAD 2000
 90
0
280
0
281
0
  0
CLASS
  1
ACDBPLACEHOLDER
  2
AcDbPlaceHolder
  3
AutoCAD 2000
 90
0
280
0
281
0
  0
CLASS
  1
LAYOUT
  2
AcDbLayout
  3
AutoCAD 2000
 90
0
280
0
281
0
  0
ENDSEC
  0
SECTION
  2
TABLES
  0
TABLE
  2
VPORT
  5
8
100
AcDbSymbolTable
 70
2
  0
VPORT
  5
1F4
100
AcDbSymbolTableRecord
100
AcDbViewportTableRecord
  2
*ACTIVE
 70
0
 10
0.0
 20
0.0
 11
1.0
 21
1.0
 12
22.0
 22
17.0
 13
0.0
 23
0.0
 14
1.0
 24
1.0
 15
0.0
 25
0.0
 16
0.0
 26
0.0
 36
1.0
 17
0.0
 27
0.0
 37
0.0
 40
34.0
 41
1.2941176471
 42
50.0
 43
0.0
 44
0.0
 50
0.0
 51
0.0
 71
0
 72
100
 73
1
 74
1
 75
0
 76
0
 77
0
 78
0
  0
ENDTAB
  0
TABLE
  2
LTYPE
  5
5
100
AcDbSymbolTable
 70
6
  0
LTYPE
  5
14
100
AcDbSymbolTableRecord
100
AcDbLinetypeTableRecord
  2
BYBLOCK
 70
0
  3

 72
65
 73
0
 40
0.0
  0
LTYPE
  5
15
100
AcDbSymbolTableRecord
100
AcDbLinetypeTableRecord
  2
BYLAYER
 70
0
  3

 72
65
 73
0
 40
0.0
  0
LTYPE
  5
16
100
AcDbSymbolTableRecord
100
AcDbLinetypeTableRecord
  2
CONTINUOUS
 70
64
  3
Solid line
 72
65
 73
0
 40
0.0
  0
LTYPE
  5
1F5
100
AcDbSymbolTableRecord
100
AcDbLinetypeTableRecord
  2
CENTER
 70
64
  3
____ _ ____ _ ____ _ ____ _ ____ _ ____ _ ____
 72
65
 73
4
 40
0.6
 49
0.375
 74
0
 49
-0.075
 74
0
 49
0.075
 74
0
 49
-0.075
 74
0
  0
LTYPE
  5
1F6
100
AcDbSymbolTableRecord
100
AcDbLinetypeTableRecord
  2
HIDDEN
 70
64
  3
- - - - - - - - - - - - - - - - - - - -
 72
65
 73
2
 40
0.2
 49
0.1
 74
0
 49
-0.1
 74
0
  0
LTYPE
  5
1F7
100
AcDbSymbolTableRecord
100
AcDbLinetypeTableRecord
  2
PHANTOM
 70
64
  3
_____ _ _ _____ _ _ _____ _ _ _____
 72
65
 73
6
 40
0.8
 49
0.45
 74
0
 49
-0.05
 74
0
 49
0.1
 74
0
 49
-0.05
 74
0
 49
0.1
 74
0
 49
-0.05
 74
0
  0
LTYPE
  5
1F8
100
AcDbSymbolTableRecord
100
AcDbLinetypeTableRecord
  2
DOT
 70
64
  3
. . . . . . . . . . . . . . . . . . . .
 72
65
 73
2
 40
0.2
 49
0.1
 74
0
 49
-0.1
 74
0
  0
LTYPE
  5
1F9
100
AcDbSymbolTableRecord
100
AcDbLinetypeTableRecord
  2
DASHED
 70
64
  3
- - - - - - - - - - - - - - - - - - - -
 72
65
 73
2
 40
0.2
 49
0.1
 74
0
 49
-0.1
 74
0
  0
ENDTAB
  0
TABLE
  2
LAYER
  5
2
100
AcDbSymbolTable
 70
36
  0
LAYER
  5
10
100
AcDbSymbolTableRecord
100
AcDbLayerTableRecord
  2
0
 70
0
 62
7
  6
CONTINUOUS
370
-3
390
F
  0
LAYER
  5
1FA
100
AcDbSymbolTableRecord
100
AcDbLayerTableRecord
  2
DEFAULT_1
 70
0
 62
7
  6
CENTER
370
-3
390
F
  0
LAYER
  5
1FB
100
AcDbSymbolTableRecord
100
AcDbLayerTableRecord
  2
DEFAULT_2
 70
0
 62
8
  6
HIDDEN
370
-3
390
F
  0
LAYER
  5
1FC
100
AcDbSymbolTableRecord
100
AcDbLayerTableRecord
  2
DEFAULT_3
 70
0
 62
7
  6
PHANTOM
370
-3
390
F
  0
LAYER
  5
1FD
100
AcDbSymbolTableRecord
100
AcDbLayerTableRecord
  2
DATUMS
 70
0
 62
7
  6
CONTINUOUS
370
-3
390
F
  0
LAYER
  5
1FE
100
AcDbSymbolTableRecord
100
AcDbLayerTableRecord
  2
DATUM_AXIS
 70
0
 62
7
  6
CONTINUOUS
370
-3
390
F
  0
LAYER
  5
1FF
100
AcDbSymbolTableRecord
100
AcDbLayerTableRecord
  2
DATUM_CSYS
 70
0
 62
7
  6
CONTINUOUS
370
-3
390
F
  0
LAYER
  5
200
100
AcDbSymbolTableRecord
100
AcDbLayerTableRecord
  2
DATUM_PLANE
 70
0
 62
7
  6
CONTINUOUS
370
-3
390
F
  0
LAYER
  5
201
100
AcDbSymbolTableRecord
100
AcDbLayerTableRecord
  2
DATUM_POINT
 70
0
 62
7
  6
CONTINUOUS
370
-3
390
F
  0
LAYER
  5
202
100
AcDbSymbolTableRecord
100
AcDbLayerTableRecord
  2
_CURVE
 70
0
 62
7
  6
CONTINUOUS
370
-3
390
F
  0
LAYER
  5
203
100
AcDbSymbolTableRecord
100
AcDbLayerTableRecord
  2
_SURFACE
 70
0
 62
7
  6
CONTINUOUS
370
-3
390
F
  0
LAYER
  5
204
100
AcDbSymbolTableRecord
100
AcDbLayerTableRecord
  2
__REF_CURVE
 70
0
 62
7
  6
CONTINUOUS
370
-3
390
F
  0
LAYER
  5
205
100
AcDbSymbolTableRecord
100
AcDbLayerTableRecord
  2
__REF_SURFACE
 70
0
 62
7
  6
CONTINUOUS
370
-3
390
F
  0
LAYER
  5
206
100
AcDbSymbolTableRecord
100
AcDbLayerTableRecord
  2
___NOTE
 70
0
 62
7
  6
CONTINUOUS
370
-3
390
F
  0
LAYER
  5
207
100
AcDbSymbolTableRecord
100
AcDbLayerTableRecord
  2
___SYMBOL
 70
0
 62
7
  6
CONTINUOUS
370
-3
390
F
  0
ENDTAB
  0
TABLE
  2
STYLE
  5
3
100
AcDbSymbolTable
 70
1
  0
STYLE
  5
11
100
AcDbSymbolTableRecord
100
AcDbTextStyleTableRecord
  2
STANDARD
 70
0
 40
0.0
 41
0.8
 50
0.0
 71
0
 42
0.2
  3
txt
  4

  0
STYLE
  5
208
100
AcDbSymbolTableRecord
100
AcDbTextStyleTableRecord
  2
TEXTSTYLE_1
 70
0
 40
0.0
 41
0.8
 50
0.0
 71
0
 42
0.2
  3
gdt
  4

  0
STYLE
  5
209
100
AcDbSymbolTableRecord
100
AcDbTextStyleTableRecord
  2
TEXTSTYLE_2
 70
0
 40
0.0
 41
1.0
 50
0.0
 71
0
 42
0.2
  3
txt
  4

  0
ENDTAB
  0
TABLE
  2
VIEW
  5
6
100
AcDbSymbolTable
 70
0
  0
ENDTAB
  0
TABLE
  2
UCS
  5
7
100
AcDbSymbolTable
 70
0
  0
ENDTAB
  0
TABLE
  2
APPID
  5
9
100
AcDbSymbolTable
 70
1
  0
APPID
  5
20A
100
AcDbSymbolTableRecord
100
AcDbRegAppTableRecord
  2
ACAD
 70
0
  0
ENDTAB
  0
TABLE
  2
BLOCK_RECORD
  5
1
100
AcDbSymbolTable
 70
0
  0
BLOCK_RECORD
  5
20B
100
AcDbSymbolTableRecord
100
AcDbBlockTableRecord
  2
*Model_Space
  0
BLOCK_RECORD
  5
20C
100
AcDbSymbolTableRecord
100
AcDbBlockTableRecord
  2
*Paper_Space
  0
BLOCK_RECORD
  5
20D
100
AcDbSymbolTableRecord
100
AcDbBlockTableRecord
  2
_FILLED
  0
BLOCK_RECORD
  5
20E
100
AcDbSymbolTableRecord
100
AcDbBlockTableRecord
  2
*D0
  0
BLOCK_RECORD
  5
20F
100
AcDbSymbolTableRecord
100
AcDbBlockTableRecord
  2
*D1
  0
BLOCK_RECORD
  5
210
100
AcDbSymbolTableRecord
100
AcDbBlockTableRecord
  2
*D2
  0
BLOCK_RECORD
  5
211
100
AcDbSymbolTableRecord
100
AcDbBlockTableRecord
  2
*D3
  0
BLOCK_RECORD
  5
212
100
AcDbSymbolTableRecord
100
AcDbBlockTableRecord
  2
*D4
  0
BLOCK_RECORD
  5
213
100
AcDbSymbolTableRecord
100
AcDbBlockTableRecord
  2
PLOTTING_TEMPLATE_NOTE_BL4
  0
BLOCK_RECORD
  5
214
100
AcDbSymbolTableRecord
100
AcDbBlockTableRecord
  2
TEMPLATE_NUMBER_BL3
  0
BLOCK_RECORD
  5
215
100
AcDbSymbolTableRecord
100
AcDbBlockTableRecord
  2
TEMPLATE_NUMBER_BL2
  0
BLOCK_RECORD
  5
216
100
AcDbSymbolTableRecord
100
AcDbBlockTableRecord
  2
SKU_SINK_KOHLER_BL1
  0
BLOCK_RECORD
  5
217
100
AcDbSymbolTableRecord
100
AcDbBlockTableRecord
  2
COPYRIGHT_YEAR_BL0
  0
ENDTAB
  0
TABLE
  2
DIMSTYLE
  5
A
100
AcDbSymbolTable
 70
1
100
AcDbDimStyleTable
 71
0
  0
DIMSTYLE
105
218
100
AcDbSymbolTableRecord
100
AcDbDimStyleTableRecord
  2
STANDARD
 70
0
  3

  4

 40
1.0
 41
0.1875
 42
0.0625
 43
0.38
 44
0.18
 45
0.0
 46
0.0
 47
0.01
 48
0.01
140
0.15625
141
0.09
142
0.0
143
25.4
144
1.0
145
0.0
146
1.0
147
0.09
 71
1.0
 72
0.0
 73
1
 74
1
 75
0
 76
0
 77
0
 78
4
170
0
171
2
172
0
173
0
174
0
175
0
176
0
177
0
178
0
270
2
271
3
272
3
273
2
274
2
275
0
280
0
281
0
282
0
283
1
284
4
285
0
286
0
287
3
288
0
340
11
341
20D
342
20D
343
20D
344
20D
  0
DIMSTYLE
105
219
100
AcDbSymbolTableRecord
100
AcDbDimStyleTableRecord
  2
DIMSTYLE_1
 70
0
  3

  4

 40
1.0
 41
0.1875
 42
0.0625
 43
0.38
 44
0.18
 45
0.0
 46
0.0
 47
0.03125
 48
0.03125
140
0.15625
141
0.09
142
0.0
143
25.4
144
1.0
145
0.0
146
1.0
147
0.09
 71
0.0
 72
0.0
 73
1
 74
1
 75
0
 76
0
 77
0
 78
4
170
0
171
2
172
0
173
0
174
0
175
0
176
0
177
0
178
0
270
2
271
5
272
5
273
2
274
2
275
0
280
0
281
0
282
0
283
1
284
4
285
0
286
0
287
3
288
0
340
11
341
20D
342
20D
343
20D
344
20D
  0
DIMSTYLE
105
21A
100
AcDbSymbolTableRecord
100
AcDbDimStyleTableRecord
  2
DIMSTYLE_2
 70
0
  3

  4

 40
1.0
 41
0.1875
 42
0.0625
 43
0.38
 44
0.18
 45
0.0
 46
0.0
 47
0.02
 48
0.02
140
0.15625
141
0.09
142
0.0
143
25.4
144
1.0
145
0.0
146
1.0
147
0.09
 71
0.0
 72
0.0
 73
1
 74
1
 75
0
 76
0
 77
0
 78
4
170
0
171
2
172
0
173
0
174
0
175
0
176
0
177
0
178
0
270
2
271
2
272
2
273
2
274
2
275
0
280
0
281
0
282
0
283
1
284
4
285
0
286
0
287
3
288
0
340
11
341
20D
342
20D
343
20D
344
20D
  0
ENDTAB
  0
ENDSEC
  0
SECTION
  2
BLOCKS
  0
BLOCK
  5
20
100
AcDbEntity
  8
0
100
AcDbBlockBegin
  2
*Model_Space
 70
0
 10
0.0
 20
0.0
 30
0.0
  3
*Model_Space
  1

  0
ENDBLK
  5
21
100
AcDbEntity
  8
0
100
AcDbBlockEnd
  0
BLOCK
  5
1C
100
AcDbEntity
  8
0
100
AcDbBlockBegin
  2
*Paper_Space
 70
0
 10
0.0
 20
0.0
 30
0.0
  3
*Paper_Space
  1

  0
ENDBLK
  5
1D
100
AcDbEntity
  8
0
100
AcDbBlockEnd
  0
BLOCK
  5
21B
100
AcDbEntity
  8
___SYMBOL
100
AcDbBlockBegin
 62
2
  6
CONTINUOUS
  2
PLOTTING_TEMPLATE_NOTE_BL4
 70
64
 10
28.8252860255
 20
15.4927397914
  3
PLOTTING_TEMPLATE_NOTE_BL4
  1

  0
MTEXT
  5
21C
100
AcDbEntity
  8
___SYMBOL
100
AcDbMText
 62
2
  6
CONTINUOUS
  7
STANDARD
 71
1
 72
1
 10
25.5127860255
 20
16.8599272914
 30
0.0
 11
1.0
 21
0.0
 31
0.0
 44
0.9
  1
WHEN PLOTTING TEMPLATE FULL SIZE:
 40
0.15625
 41
4.125
  0
MTEXT
  5
21D
100
AcDbEntity
  8
___SYMBOL
100
AcDbMText
 62
2
  6
CONTINUOUS
  7
STANDARD
 71
1
 72
1
 10
25.5127860255
 20
16.6255522914
 30
0.0
 11
1.0
 21
0.0
 31
0.0
 44
0.9
  1
Make sure horizontal and vertical dimensions
 40
0.15625
 41
5.5
  0
MTEXT
  5
21E
100
AcDbEntity
  8
___SYMBOL
100
AcDbMText
 62
2
  6
CONTINUOUS
  7
STANDARD
 71
1
 72
1
 10
25.5127860255
 20
16.3911772914
 30
0.0
 11
1.0
 21
0.0
 31
0.0
 44
0.9
  1
match the dimensions labeled on the template.
 40
0.15625
 41
5.625
  0
MTEXT
  5
21F
100
AcDbEntity
  8
___SYMBOL
100
AcDbMText
 62
2
  6
CONTINUOUS
  7
STANDARD
 71
1
 72
1
 10
25.5127860255
 20
15.9224272914
 30
0.0
 11
1.0
 21
0.0
 31
0.0
 44
0.9
  1
AL TRAZAR LA PLANTILLA A ESCALA,
 40
0.15625
 41
4.0
  0
MTEXT
  5
220
100
AcDbEntity
  8
___SYMBOL
100
AcDbMText
 62
2
  6
CONTINUOUS
  7
STANDARD
 71
1
 72
1
 10
25.5127860255
 20
15.6880522914
 30
0.0
 11
1.0
 21
0.0
 31
0.0
 44
0.9
  1
asegúrese de que las dimensiones horizontales
 40
0.15625
 41
5.625
  0
MTEXT
  5
221
100
AcDbEntity
  8
___SYMBOL
100
AcDbMText
 62
2
  6
CONTINUOUS
  7
STANDARD
 71
1
 72
1
 10
25.5127860255
 20
15.4536772914
 30
0.0
 11
1.0
 21
0.0
 31
0.0
 44
0.9
  1
y verticales concuerden con las dimensiones marcadas
 40
0.15625
 41
6.5
  0
MTEXT
  5
222
100
AcDbEntity
  8
___SYMBOL
100
AcDbMText
 62
2
  6
CONTINUOUS
  7
STANDARD
 71
1
 72
1
 10
25.5127860255
 20
15.2193022914
 30
0.0
 11
1.0
 21
0.0
 31
0.0
 44
0.9
  1
en la plantilla.
 40
0.15625
 41
2.0
  0
MTEXT
  5
223
100
AcDbEntity
  8
___SYMBOL
100
AcDbMText
 62
2
  6
CONTINUOUS
  7
STANDARD
 71
1
 72
1
 10
25.5127860255
 20
14.7505522914
 30
0.0
 11
1.0
 21
0.0
 31
0.0
 44
0.9
  1
AU MOMENT DE TRACER LA DÉCOUPE À L'ÉCHELLE,
 40
0.15625
 41
5.375
  0
MTEXT
  5
224
100
AcDbEntity
  8
___SYMBOL
100
AcDbMText
 62
2
  6
CONTINUOUS
  7
STANDARD
 71
1
 72
1
 10
25.5127860255
 20
14.5161772914
 30
0.0
 11
1.0
 21
0.0
 31
0.0
 44
0.9
  1
Assurez vos que les dimensions horizotales et
 40
0.15625
 41
5.625
  0
MTEXT
  5
225
100
AcDbEntity
  8
___SYMBOL
100
AcDbMText
 62
2
  6
CONTINUOUS
  7
STANDARD
 71
1
 72
1
 10
25.5127860255
 20
14.2818022914
 30
0.0
 11
1.0
 21
0.0
 31
0.0
 44
0.9
  1
verticales correspondent avec les dimensions du plan.
 40
0.15625
 41
6.625
  0
ENDBLK
  5
226
100
AcDbEntity
  8
0
  6
BYBLOCK
 62
0
100
AcDbBlockEnd
  0
BLOCK
  5
227
100
AcDbEntity
  8
___SYMBOL
100
AcDbBlockBegin
 62
2
  6
CONTINUOUS
  2
TEMPLATE_NUMBER_BL3
 70
64
 10
10.2399854703
 20
8.9031647745
  3
TEMPLATE_NUMBER_BL3
  1

  0
MTEXT
  5
228
100
AcDbEntity
  8
___SYMBOL
100
AcDbMText
 62
2
  6
CONTINUOUS
  7
STANDARD
 71
1
 72
1
 10
9.9297854703
 20
8.9384147745
 30
0.0
 11
1.0
 21
0.0
 31
0.0
 44
0.9
  1
1139754-7-A
 40
0.0705
 41
0.6204
  0
ENDBLK
  5
229
100
AcDbEntity
  8
0
  6
BYBLOCK
 62
0
100
AcDbBlockEnd
  0
BLOCK
  5
22A
100
AcDbEntity
  8
___SYMBOL
100
AcDbBlockBegin
 62
2
  6
CONTINUOUS
  2
TEMPLATE_NUMBER_BL2
 70
64
 10
10.2647869382
 20
11.036091013
  3
TEMPLATE_NUMBER_BL2
  1

  0
MTEXT
  5
22B
100
AcDbEntity
  8
___SYMBOL
100
AcDbMText
 62
2
  6
CONTINUOUS
  7
STANDARD
 71
1
 72
1
 10
9.9545869382
 20
11.071341013
 30
0.0
 11
1.0
 21
0.0
 31
0.0
 44
0.9
  1
1139754-7-A
 40
0.0705
 41
0.6204
  0
ENDBLK
  5
22C
100
AcDbEntity
  8
0
  6
BYBLOCK
 62
0
100
AcDbBlockEnd
  0
BLOCK
  5
22D
100
AcDbEntity
  8
___SYMBOL
100
AcDbBlockBegin
 62
2
  6
CONTINUOUS
  2
SKU_SINK_KOHLER_BL1
 70
64
 10
11.7358891819
 20
21.8962047484
  3
SKU_SINK_KOHLER_BL1
  1

  0
LINE
  5
22E
100
AcDbEntity
  8
___SYMBOL
100
AcDbLine
 62
2
  6
CONTINUOUS
 10
9.862460958
 20
23.7326721101
 11
9.6491575062
 21
23.4790238372
  0
LINE
  5
22F
100
AcDbEntity
  8
___SYMBOL
100
AcDbLine
 62
2
  6
CONTINUOUS
 10
9.670399146
 20
23.7326721101
 11
9.862460958
 21
23.7326721101
  0
LINE
  5
230
100
AcDbEntity
  8
___SYMBOL
100
AcDbLine
 62
2
  6
CONTINUOUS
 10
9.670399146
 20
23.7326721101
 11
9.5326349792
 21
23.5688509204
  0
LINE
  5
231
100
AcDbEntity
  8
___SYMBOL
100
AcDbLine
 62
2
  6
CONTINUOUS
 10
9.5326349792
 20
23.7326721101
 11
9.5326349792
 21
23.5688509204
  0
LINE
  5
232
100
AcDbEntity
  8
___SYMBOL
100
AcDbLine
 62
2
  6
CONTINUOUS
 10
9.3581347523
 20
23.7326721101
 11
9.5326349792
 21
23.7326721101
  0
LINE
  5
233
100
AcDbEntity
  8
___SYMBOL
100
AcDbLine
 62
2
  6
CONTINUOUS
 10
9.3581347523
 20
23.7326721101
 11
9.3581347523
 21
23.1467344573
  0
LINE
  5
234
100
AcDbEntity
  8
___SYMBOL
100
AcDbLine
 62
2
  6
CONTINUOUS
 10
9.5326349792
 20
23.1467584607
 11
9.3581347523
 21
23.1467344573
  0
LINE
  5
235
100
AcDbEntity
  8
___SYMBOL
100
AcDbLine
 62
2
  6
CONTINUOUS
 10
9.5326349792
 20
23.3482582947
 11
9.5326349792
 21
23.1467584607
  0
LINE
  5
236
100
AcDbEntity
  8
___SYMBOL
100
AcDbLine
 62
2
  6
CONTINUOUS
 10
9.6863729193
 20
23.1467584607
 11
9.5326349792
 21
23.3482582947
  0
LINE
  5
237
100
AcDbEntity
  8
___SYMBOL
100
AcDbLine
 62
2
  6
CONTINUOUS
 10
9.6863729193
 20
23.1467584607
 11
9.9026653409
 21
23.1467584607
  0
LINE
  5
238
100
AcDbEntity
  8
___SYMBOL
100
AcDbLine
 62
2
  6
CONTINUOUS
 10
9.9026653409
 20
23.1467584607
 11
9.6491575062
 21
23.4790238372
  0
SOLID
  5
239
100
AcDbEntity
  8
___SYMBOL
100
AcDbTrace
 62
2
  6
CONTINUOUS
 10
9.5326349792
 20
23.5688509204
 11
9.670399146
 21
23.7326721101
 12
9.862460958
 22
23.7326721101
 13
9.862460958
 23
23.7326721101
  0
SOLID
  5
23A
100
AcDbEntity
  8
___SYMBOL
100
AcDbTrace
 62
2
  6
CONTINUOUS
 10
9.862460958
 20
23.7326721101
 11
9.6491575062
 21
23.4790238372
 12
9.5326349792
 22
23.5688509204
 13
9.5326349792
 23
23.5688509204
  0
SOLID
  5
23B
100
AcDbEntity
  8
___SYMBOL
100
AcDbTrace
 62
2
  6
CONTINUOUS
 10
9.5326349792
 20
23.3482582947
 11
9.6491575062
 21
23.4790238372
 12
9.6863729193
 22
23.1467584607
 13
9.6863729193
 23
23.1467584607
  0
SOLID
  5
23C
100
AcDbEntity
  8
___SYMBOL
100
AcDbTrace
 62
2
  6
CONTINUOUS
 10
9.6491575062
 20
23.4790238372
 11
9.9026653409
 21
23.1467584607
 12
9.6863729193
 22
23.1467584607
 13
9.6863729193
 23
23.1467584607
  0
SOLID
  5
23D
100
AcDbEntity
  8
___SYMBOL
100
AcDbTrace
 62
2
  6
CONTINUOUS
 10
9.5326349792
 20
23.1467584607
 11
9.3581347523
 21
23.1467344573
 12
9.5326349792
 22
23.3482582947
 13
9.5326349792
 23
23.3482582947
  0
SOLID
  5
23E
100
AcDbEntity
  8
___SYMBOL
100
AcDbTrace
 62
2
  6
CONTINUOUS
 10
9.6491575062
 20
23.4790238372
 11
9.5326349792
 21
23.3482582947
 12
9.5326349792
 22
23.5688509204
 13
9.5326349792
 23
23.5688509204
  0
SOLID
  5
23F
100
AcDbEntity
  8
___SYMBOL
100
AcDbTrace
 62
2
  6
CONTINUOUS
 10
9.5326349792
 20
23.3482582947
 11
9.3581347523
 21
23.1467344573
 12
9.5326349792
 22
23.5688509204
 13
9.5326349792
 23
23.5688509204
  0
SOLID
  5
240
100
AcDbEntity
  8
___SYMBOL
100
AcDbTrace
 62
2
  6
CONTINUOUS
 10
9.5326349792
 20
23.5688509204
 11
9.3581347523
 21
23.1467344573
 12
9.5326349792
 22
23.7326721101
 13
9.5326349792
 23
23.7326721101
  0
SOLID
  5
241
100
AcDbEntity
  8
___SYMBOL
100
AcDbTrace
 62
2
  6
CONTINUOUS
 10
9.3581347523
 20
23.1467344573
 11
9.3581347523
 21
23.7326721101
 12
9.5326349792
 22
23.7326721101
 13
9.5326349792
 23
23.7326721101
  0
CIRCLE
  5
242
100
AcDbEntity
  8
___SYMBOL
100
AcDbCircle
 62
2
  6
CONTINUOUS
 10
10.0791741775
 20
23.4385940336
 40
0.298056591
  0
CIRCLE
  5
243
100
AcDbEntity
  8
___SYMBOL
100
AcDbCircle
 62
2
  6
CONTINUOUS
 10
10.0791741775
 20
23.4385940336
 40
0.1247694151
  0
SOLID
  5
244
100
AcDbEntity
  8
___SYMBOL
100
AcDbTrace
 62
2
  6
CONTINUOUS
 10
9.9870696256
 20
23.7220626966
 11
10.0480187801
 21
23.7350178394
 12
10.1103295749
 22
23.7350178394
 13
10.1103295749
 23
23.7350178394
  0
SOLID
  5
245
100
AcDbEntity
  8
___SYMBOL
100
AcDbTrace
 62
2
  6
CONTINUOUS
 10
10.1103295749
 20
23.7350178394
 11
10.1712787294
 21
23.7220626966
 12
9.9870696256
 22
23.7220626966
 13
9.9870696256
 23
23.7220626966
  0
SOLID
  5
246
100
AcDbEntity
  8
___SYMBOL
100
AcDbTrace
 62
2
  6
CONTINUOUS
 10
9.930145882
 20
23.6967186131
 11
9.9870696256
 21
23.7220626966
 12
10.1712787294
 22
23.7220626966
 13
10.1712787294
 23
23.7220626966
  0
SOLID
  5
247
100
AcDbEntity
  8
___SYMBOL
100
AcDbTrace
 62
2
  6
CONTINUOUS
 10
10.1712787294
 20
23.7220626966
 11
10.228202473
 21
23.6967186131
 12
9.930145882
 22
23.6967186131
 13
9.930145882
 23
23.6967186131
  0
SOLID
  5
248
100
AcDbEntity
  8
___SYMBOL
100
AcDbTrace
 62
2
  6
CONTINUOUS
 10
9.8797353901
 20
23.6600932469
 11
9.930145882
 21
23.6967186131
 12
10.228202473
 22
23.6967186131
 13
10.228202473
 23
23.6967186131
  0
SOLID
  5
249
100
AcDbEntity
  8
___SYMBOL
100
AcDbTrace
 62
2
  6
CONTINUOUS
 10
10.228202473
 20
23.6967186131
 11
10.278612965
 21
23.6600932469
 12
9.8797353901
 22
23.6600932469
 13
9.8797353901
 23
23.6600932469
  0
SOLID
  5
24A
100
AcDbEntity
  8
___SYMBOL
100
AcDbTrace
 62
2
  6
CONTINUOUS
 10
9.8380413301
 20
23.6137873021
 11
9.8797353901
 21
23.6600932469
 12
10.278612965
 22
23.6600932469
 13
10.278612965
 23
23.6600932469
  0
SOLID
  5
24B
100
AcDbEntity
  8
___SYMBOL
100
AcDbTrace
 62
2
  6
CONTINUOUS
 10
10.278612965
 20
23.6600932469
 11
10.3203070249
 21
23.6137873021
 12
9.8380413301
 22
23.6137873021
 13
9.8380413301
 23
23.6137873021
  0
SOLID
  5
24C
100
AcDbEntity
  8
___SYMBOL
100
AcDbTrace
 62
2
  6
CONTINUOUS
 10
10.0791741775
 20
23.5633634486
 11
9.8068859327
 21
23.5598245708
 12
10.3203070249
 22
23.6137873021
 13
10.3203070249
 23
23.6137873021
  0
SOLID
  5
24D
100
AcDbEntity
  8
___SYMBOL
100
AcDbTrace
 62
2
  6
CONTINUOUS
 10
9.8068859327
 20
23.5598245708
 11
9.8380413301
 21
23.6137873021
 12
10.3203070249
 22
23.6137873021
 13
10.3203070249
 23
23.6137873021
  0
SOLID
  5
24E
100
AcDbEntity
  8
___SYMBOL
100
AcDbTrace
 62
2
  6
CONTINUOUS
 10
10.3203070249
 20
23.6137873021
 11
10.3514624223
 21
23.5598245708
 12
10.0791741775
 22
23.5633634486
 13
10.0791741775
 23
23.5633634486
  0
SOLID
  5
24F
100
AcDbEntity
  8
___SYMBOL
100
AcDbTrace
 62
2
  6
CONTINUOUS
 10
10.0791741775
 20
23.5633634486
 11
10.0406183079
 21
23.5572567988
 12
9.8068859327
 22
23.5598245708
 13
9.8068859327
 23
23.5598245708
  0
SOLID
  5
250
100
AcDbEntity
  8
___SYMBOL
100
AcDbTrace
 62
2
  6
CONTINUOUS
 10
10.1177300471
 20
23.5572567988
 11
10.0791741775
 21
23.5633634486
 12
10.3514624223
 22
23.5598245708
 13
10.3514624223
 23
23.5598245708
  0
SOLID
  5
251
100
AcDbEntity
  8
___SYMBOL
100
AcDbTrace
 62
2
  6
CONTINUOUS
 10
9.9782336003
 20
23.5119316557
 11
9.7876308381
 21
23.5005634833
 12
10.0058365554
 22
23.5395346107
 13
10.0058365554
 23
23.5395346107
  0
SOLID
  5
252
100
AcDbEntity
  8
___SYMBOL
100
AcDbTrace
 62
2
  6
CONTINUOUS
 10
10.0058365554
 20
23.5395346107
 11
9.7876308381
 21
23.5005634833
 12
10.0406183079
 22
23.5572567988
 13
10.0406183079
 23
23.5572567988
  0
SOLID
  5
253
100
AcDbEntity
  8
___SYMBOL
100
AcDbTrace
 62
2
  6
CONTINUOUS
 10
9.7876308381
 20
23.5005634833
 11
9.8068859327
 21
23.5598245708
 12
10.0406183079
 22
23.5572567988
 13
10.0406183079
 23
23.5572567988
  0
SOLID
  5
254
100
AcDbEntity
  8
___SYMBOL
100
AcDbTrace
 62
2
  6
CONTINUOUS
 10
10.1177300471
 20
23.5572567988
 11
10.3514624223
 21
23.5598245708
 12
10.1525117996
 22
23.5395346107
 13
10.1525117996
 23
23.5395346107
  0
SOLID
  5
255
100
AcDbEntity
  8
___SYMBOL
100
AcDbTrace
 62
2
  6
CONTINUOUS
 10
10.1525117996
 20
23.5395346107
 11
10.3514624223
 21
23.5598245708
 12
10.1801147547
 22
23.5119316557
 13
10.1801147547
 23
23.5119316557
  0
SOLID
  5
256
100
AcDbEntity
  8
___SYMBOL
100
AcDbTrace
 62
2
  6
CONTINUOUS
 10
10.3514624223
 20
23.5598245708
 11
10.3707175169
 21
23.5005634833
 12
10.1801147547
 22
23.5119316557
 13
10.1801147547
 23
23.5119316557
  0
SOLID
  5
257
100
AcDbEntity
  8
___SYMBOL
100
AcDbTrace
 62
2
  6
CONTINUOUS
 10
9.9782336003
 20
23.5119316557
 11
9.9605114123
 21
23.4771499032
 12
9.7876308381
 22
23.5005634833
 13
9.7876308381
 23
23.5005634833
  0
SOLID
  5
258
100
AcDbEntity
  8
___SYMBOL
100
AcDbTrace
 62
2
  6
CONTINUOUS
 10
10.1978369428
 20
23.4771499032
 11
10.1801147547
 21
23.5119316557
 12
10.3707175169
 22
23.5005634833
 13
10.3707175169
 23
23.5005634833
  0
SOLID
  5
259
100
AcDbEntity
  8
___SYMBOL
100
AcDbTrace
 62
2
  6
CONTINUOUS
 10
9.7811175865
 20
23.4385940336
 11
9.7876308381
 21
23.5005634833
 12
9.9605114123
 22
23.4771499032
 13
9.9605114123
 23
23.4771499032
  0
SOLID
  5
25A
100
AcDbEntity
  8
___SYMBOL
100
AcDbTrace
 62
2
  6
CONTINUOUS
 10
9.9605114123
 20
23.4771499032
 11
9.9544047624
 21
23.4385940336
 12
9.7811175865
 22
23.4385940336
 13
9.7811175865
 23
23.4385940336
  0
SOLID
  5
25B
100
AcDbEntity
  8
___SYMBOL
100
AcDbTrace
 62
2
  6
CONTINUOUS
 10
10.1978369428
 20
23.4771499032
 11
10.3707175169
 21
23.5005634833
 12
10.2039435926
 22
23.4385940336
 13
10.2039435926
 23
23.4385940336
  0
SOLID
  5
25C
100
AcDbEntity
  8
___SYMBOL
100
AcDbTrace
 62
2
  6
CONTINUOUS
 10
10.3707175169
 20
23.5005634833
 11
10.3772307685
 21
23.4385940336
 12
10.2039435926
 22
23.4385940336
 13
10.2039435926
 23
23.4385940336
  0
SOLID
  5
25D
100
AcDbEntity
  8
___SYMBOL
100
AcDbTrace
 62
2
  6
CONTINUOUS
 10
10.1978369428
 20
23.4000381639
 11
10.2039435926
 21
23.4385940336
 12
10.3772307685
 22
23.4385940336
 13
10.3772307685
 23
23.4385940336
  0
SOLID
  5
25E
100
AcDbEntity
  8
___SYMBOL
100
AcDbTrace
 62
2
  6
CONTINUOUS
 10
9.9605114123
 20
23.4000381639
 11
9.7876308381
 21
23.3766245838
 12
9.9544047624
 22
23.4385940336
 13
9.9544047624
 23
23.4385940336
  0
SOLID
  5
25F
100
AcDbEntity
  8
___SYMBOL
100
AcDbTrace
 62
2
  6
CONTINUOUS
 10
9.7876308381
 20
23.3766245838
 11
9.7811175865
 21
23.4385940336
 12
9.9544047624
 22
23.4385940336
 13
9.9544047624
 23
23.4385940336
  0
SOLID
  5
260
100
AcDbEntity
  8
___SYMBOL
100
AcDbTrace
 62
2
  6
CONTINUOUS
 10
10.3772307685
 20
23.4385940336
 11
10.3707175169
 21
23.3766245838
 12
10.1978369428
 22
23.4000381639
 13
10.1978369428
 23
23.4000381639
  0
SOLID
  5
261
100
AcDbEntity
  8
___SYMBOL
100
AcDbTrace
 62
2
  6
CONTINUOUS
 10
9.9605114123
 20
23.4000381639
 11
9.9782336003
 21
23.3652564114
 12
9.7876308381
 22
23.3766245838
 13
9.7876308381
 23
23.3766245838
  0
SOLID
  5
262
100
AcDbEntity
  8
___SYMBOL
100
AcDbTrace
 62
2
  6
CONTINUOUS
 10
10.1801147547
 20
23.3652564114
 11
10.1978369428
 21
23.4000381639
 12
10.3707175169
 22
23.3766245838
 13
10.3707175169
 23
23.3766245838
  0
SOLID
  5
263
100
AcDbEntity
  8
___SYMBOL
100
AcDbTrace
 62
2
  6
CONTINUOUS
 10
10.0406183079
 20
23.3199312683
 11
9.8068859327
 21
23.3173634963
 12
10.0058365554
 22
23.3376534564
 13
10.0058365554
 23
23.3376534564
  0
SOLID
  5
264
100
AcDbEntity
  8
___SYMBOL
100
AcDbTrace
 62
2
  6
CONTINUOUS
 10
10.0058365554
 20
23.3376534564
 11
9.8068859327
 21
23.3173634963
 12
9.9782336003
 22
23.3652564114
 13
9.9782336003
 23
23.3652564114
  0
SOLID
  5
265
100
AcDbEntity
  8
___SYMBOL
100
AcDbTrace
 62
2
  6
CONTINUOUS
 10
9.8068859327
 20
23.3173634963
 11
9.7876308381
 21
23.3766245838
 12
9.9782336003
 22
23.3652564114
 13
9.9782336003
 23
23.3652564114
  0
SOLID
  5
266
100
AcDbEntity
  8
___SYMBOL
100
AcDbTrace
 62
2
  6
CONTINUOUS
 10
10.1801147547
 20
23.3652564114
 11
10.3707175169
 21
23.3766245838
 12
10.1525117996
 22
23.3376534564
 13
10.1525117996
 23
23.3376534564
  0
SOLID
  5
267
100
AcDbEntity
  8
___SYMBOL
100
AcDbTrace
 62
2
  6
CONTINUOUS
 10
10.1525117996
 20
23.3376534564
 11
10.3707175169
 21
23.3766245838
 12
10.1177300471
 22
23.3199312683
 13
10.1177300471
 23
23.3199312683
  0
SOLID
  5
268
100
AcDbEntity
  8
___SYMBOL
100
AcDbTrace
 62
2
  6
CONTINUOUS
 10
10.3707175169
 20
23.3766245838
 11
10.3514624223
 21
23.3173634963
 12
10.1177300471
 22
23.3199312683
 13
10.1177300471
 23
23.3199312683
  0
SOLID
  5
269
100
AcDbEntity
  8
___SYMBOL
100
AcDbTrace
 62
2
  6
CONTINUOUS
 10
10.0406183079
 20
23.3199312683
 11
10.0791741775
 21
23.3138246185
 12
9.8068859327
 22
23.3173634963
 13
9.8068859327
 23
23.3173634963
  0
SOLID
  5
26A
100
AcDbEntity
  8
___SYMBOL
100
AcDbTrace
 62
2
  6
CONTINUOUS
 10
10.0791741775
 20
23.3138246185
 11
10.1177300471
 21
23.3199312683
 12
10.3514624223
 22
23.3173634963
 13
10.3514624223
 23
23.3173634963
  0
SOLID
  5
26B
100
AcDbEntity
  8
___SYMBOL
100
AcDbTrace
 62
2
  6
CONTINUOUS
 10
9.8380413301
 20
23.263400765
 11
9.8068859327
 21
23.3173634963
 12
10.0791741775
 22
23.3138246185
 13
10.0791741775
 23
23.3138246185
  0
SOLID
  5
26C
100
AcDbEntity
  8
___SYMBOL
100
AcDbTrace
 62
2
  6
CONTINUOUS
 10
10.0791741775
 20
23.3138246185
 11
10.3514624223
 21
23.3173634963
 12
9.8380413301
 22
23.263400765
 13
9.8380413301
 23
23.263400765
  0
SOLID
  5
26D
100
AcDbEntity
  8
___SYMBOL
100
AcDbTrace
 62
2
  6
CONTINUOUS
 10
10.3514624223
 20
23.3173634963
 11
10.3203070249
 21
23.263400765
 12
9.8380413301
 22
23.263400765
 13
9.8380413301
 23
23.263400765
  0
SOLID
  5
26E
100
AcDbEntity
  8
___SYMBOL
100
AcDbTrace
 62
2
  6
CONTINUOUS
 10
9.8797353901
 20
23.2170948203
 11
9.8380413301
 21
23.263400765
 12
10.3203070249
 22
23.263400765
 13
10.3203070249
 23
23.263400765
  0
SOLID
  5
26F
100
AcDbEntity
  8
___SYMBOL
100
AcDbTrace
 62
2
  6
CONTINUOUS
 10
10.3203070249
 20
23.263400765
 11
10.278612965
 21
23.2170948203
 12
9.8797353901
 22
23.2170948203
 13
9.8797353901
 23
23.2170948203
  0
SOLID
  5
270
100
AcDbEntity
  8
___SYMBOL
100
AcDbTrace
 62
2
  6
CONTINUOUS
 10
9.930145882
 20
23.180469454
 11
9.8797353901
 21
23.2170948203
 12
10.278612965
 22
23.2170948203
 13
10.278612965
 23
23.2170948203
  0
SOLID
  5
271
100
AcDbEntity
  8
___SYMBOL
100
AcDbTrace
 62
2
  6
CONTINUOUS
 10
10.278612965
 20
23.2170948203
 11
10.228202473
 21
23.180469454
 12
9.930145882
 22
23.180469454
 13
9.930145882
 23
23.180469454
  0
SOLID
  5
272
100
AcDbEntity
  8
___SYMBOL
100
AcDbTrace
 62
2
  6
CONTINUOUS
 10
9.9870696256
 20
23.1551253705
 11
9.930145882
 21
23.180469454
 12
10.228202473
 22
23.180469454
 13
10.228202473
 23
23.180469454
  0
SOLID
  5
273
100
AcDbEntity
  8
___SYMBOL
100
AcDbTrace
 62
2
  6
CONTINUOUS
 10
10.228202473
 20
23.180469454
 11
10.1712787294
 21
23.1551253705
 12
9.9870696256
 22
23.1551253705
 13
9.9870696256
 23
23.1551253705
  0
SOLID
  5
274
100
AcDbEntity
  8
___SYMBOL
100
AcDbTrace
 62
2
  6
CONTINUOUS
 10
10.0480187801
 20
23.1421702278
 11
9.9870696256
 21
23.1551253705
 12
10.1712787294
 22
23.1551253705
 13
10.1712787294
 23
23.1551253705
  0
SOLID
  5
275
100
AcDbEntity
  8
___SYMBOL
100
AcDbTrace
 62
2
  6
CONTINUOUS
 10
10.1712787294
 20
23.1551253705
 11
10.1103295749
 21
23.1421702278
 12
10.0480187801
 22
23.1421702278
 13
10.0480187801
 23
23.1421702278
  0
LINE
  5
276
100
AcDbEntity
  8
___SYMBOL
100
AcDbLine
 62
2
  6
CONTINUOUS
 10
10.8718101867
 20
23.7326721101
 11
10.8718101867
 21
23.1467584607
  0
LINE
  5
277
100
AcDbEntity
  8
___SYMBOL
100
AcDbLine
 62
2
  6
CONTINUOUS
 10
10.8718101867
 20
23.1467584607
 11
10.7070765068
 21
23.1467584607
  0
LINE
  5
278
100
AcDbEntity
  8
___SYMBOL
100
AcDbLine
 62
2
  6
CONTINUOUS
 10
10.7070765068
 20
23.3750830705
 11
10.7070765068
 21
23.1467584607
  0
LINE
  5
279
100
AcDbEntity
  8
___SYMBOL
100
AcDbLine
 62
2
  6
CONTINUOUS
 10
10.5590796958
 20
23.3750830705
 11
10.7070765068
 21
23.3750830705
  0
LINE
  5
27A
100
AcDbEntity
  8
___SYMBOL
100
AcDbLine
 62
2
  6
CONTINUOUS
 10
10.5590796958
 20
23.3750830705
 11
10.5590796958
 21
23.1467584607
  0
LINE
  5
27B
100
AcDbEntity
  8
___SYMBOL
100
AcDbLine
 62
2
  6
CONTINUOUS
 10
10.5590796958
 20
23.1467584607
 11
10.3943460159
 21
23.1467584607
  0
LINE
  5
27C
100
AcDbEntity
  8
___SYMBOL
100
AcDbLine
 62
2
  6
CONTINUOUS
 10
10.3943460159
 20
23.7326721101
 11
10.3943460159
 21
23.1467584607
  0
LINE
  5
27D
100
AcDbEntity
  8
___SYMBOL
100
AcDbLine
 62
2
  6
CONTINUOUS
 10
10.3943460159
 20
23.7326721101
 11
10.5590796958
 21
23.7326721101
  0
LINE
  5
27E
100
AcDbEntity
  8
___SYMBOL
100
AcDbLine
 62
2
  6
CONTINUOUS
 10
10.5590796958
 20
23.7326721101
 11
10.5590796958
 21
23.5122883505
  0
LINE
  5
27F
100
AcDbEntity
  8
___SYMBOL
100
AcDbLine
 62
2
  6
CONTINUOUS
 10
10.5590796958
 20
23.5122883505
 11
10.7070765068
 21
23.5122883505
  0
LINE
  5
280
100
AcDbEntity
  8
___SYMBOL
100
AcDbLine
 62
2
  6
CONTINUOUS
 10
10.7070765068
 20
23.7326721101
 11
10.7070765068
 21
23.5122883505
  0
LINE
  5
281
100
AcDbEntity
  8
___SYMBOL
100
AcDbLine
 62
2
  6
CONTINUOUS
 10
10.7070765068
 20
23.7326721101
 11
10.8718101867
 21
23.7326721101
  0
SOLID
  5
282
100
AcDbEntity
  8
___SYMBOL
100
AcDbTrace
 62
2
  6
CONTINUOUS
 10
10.7070765068
 20
23.5122883505
 11
10.7070765068
 21
23.7326721101
 12
10.8718101867
 22
23.7326721101
 13
10.8718101867
 23
23.7326721101
  0
SOLID
  5
283
100
AcDbEntity
  8
___SYMBOL
100
AcDbTrace
 62
2
  6
CONTINUOUS
 10
10.7070765068
 20
23.5122883505
 11
10.5590796958
 21
23.3750830705
 12
10.5590796958
 22
23.5122883505
 13
10.5590796958
 23
23.5122883505
  0
SOLID
  5
284
100
AcDbEntity
  8
___SYMBOL
100
AcDbTrace
 62
2
  6
CONTINUOUS
 10
10.5590796958
 20
23.3750830705
 11
10.3943460159
 21
23.1467584607
 12
10.5590796958
 22
23.5122883505
 13
10.5590796958
 23
23.5122883505
  0
SOLID
  5
285
100
AcDbEntity
  8
___SYMBOL
100
AcDbTrace
 62
2
  6
CONTINUOUS
 10
10.5590796958
 20
23.5122883505
 11
10.3943460159
 21
23.1467584607
 12
10.5590796958
 22
23.7326721101
 13
10.5590796958
 23
23.7326721101
  0
SOLID
  5
286
100
AcDbEntity
  8
___SYMBOL
100
AcDbTrace
 62
2
  6
CONTINUOUS
 10
10.3943460159
 20
23.1467584607
 11
10.3943460159
 21
23.7326721101
 12
10.5590796958
 22
23.7326721101
 13
10.5590796958
 23
23.7326721101
  0
SOLID
  5
287
100
AcDbEntity
  8
___SYMBOL
100
AcDbTrace
 62
2
  6
CONTINUOUS
 10
10.5590796958
 20
23.3750830705
 11
10.5590796958
 21
23.1467584607
 12
10.3943460159
 22
23.1467584607
 13
10.3943460159
 23
23.1467584607
  0
SOLID
  5
288
100
AcDbEntity
  8
___SYMBOL
100
AcDbTrace
 62
2
  6
CONTINUOUS
 10
10.5590796958
 20
23.3750830705
 11
10.7070765068
 21
23.5122883505
 12
10.7070765068
 22
23.3750830705
 13
10.7070765068
 23
23.3750830705
  0
SOLID
  5
289
100
AcDbEntity
  8
___SYMBOL
100
AcDbTrace
 62
2
  6
CONTINUOUS
 10
10.7070765068
 20
23.5122883505
 11
10.8718101867
 21
23.7326721101
 12
10.7070765068
 22
23.3750830705
 13
10.7070765068
 23
23.3750830705
  0
SOLID
  5
28A
100
AcDbEntity
  8
___SYMBOL
100
AcDbTrace
 62
2
  6
CONTINUOUS
 10
10.7070765068
 20
23.3750830705
 11
10.8718101867
 21
23.7326721101
 12
10.7070765068
 22
23.1467584607
 13
10.7070765068
 23
23.1467584607
  0
SOLID
  5
28B
100
AcDbEntity
  8
___SYMBOL
100
AcDbTrace
 62
2
  6
CONTINUOUS
 10
10.8718101867
 20
23.7326721101
 11
10.8718101867
 21
23.1467584607
 12
10.7070765068
 22
23.1467584607
 13
10.7070765068
 23
23.1467584607
  0
LINE
  5
28C
100
AcDbEntity
  8
___SYMBOL
100
AcDbLine
 62
2
  6
CONTINUOUS
 10
11.0669010937
 20
23.1467584607
 11
11.2295851636
 21
23.1467584607
  0
LINE
  5
28D
100
AcDbEntity
  8
___SYMBOL
100
AcDbLine
 62
2
  6
CONTINUOUS
 10
11.0669010937
 20
23.1467584607
 11
10.9168550309
 21
23.1467584607
  0
LINE
  5
28E
100
AcDbEntity
  8
___SYMBOL
100
AcDbLine
 62
2
  6
CONTINUOUS
 10
10.9168550309
 20
23.1467584607
 11
10.9168550309
 21
23.7326721101
  0
LINE
  5
28F
100
AcDbEntity
  8
___SYMBOL
100
AcDbLine
 62
2
  6
CONTINUOUS
 10
10.9168550309
 20
23.7326721101
 11
11.0669010937
 21
23.7326721101
  0
LINE
  5
290
100
AcDbEntity
  8
___SYMBOL
100
AcDbLine
 62
2
  6
CONTINUOUS
 10
11.0669010937
 20
23.7326721101
 11
11.0669010937
 21
23.2879852179
  0
LINE
  5
291
100
AcDbEntity
  8
___SYMBOL
100
AcDbLine
 62
2
  6
CONTINUOUS
 10
11.0669010937
 20
23.2879852179
 11
11.2295851636
 21
23.2879852179
  0
LINE
  5
292
100
AcDbEntity
  8
___SYMBOL
100
AcDbLine
 62
2
  6
CONTINUOUS
 10
11.2295851636
 20
23.2879852179
 11
11.2295851636
 21
23.1467584607
  0
SOLID
  5
293
100
AcDbEntity
  8
___SYMBOL
100
AcDbTrace
 62
2
  6
CONTINUOUS
 10
11.2295851636
 20
23.2879852179
 11
10.9168550309
 21
23.1467584607
 12
11.0669010937
 22
23.2879852179
 13
11.0669010937
 23
23.2879852179
  0
SOLID
  5
294
100
AcDbEntity
  8
___SYMBOL
100
AcDbTrace
 62
2
  6
CONTINUOUS
 10
11.0669010937
 20
23.2879852179
 11
10.9168550309
 21
23.1467584607
 12
11.0669010937
 22
23.7326721101
 13
11.0669010937
 23
23.7326721101
  0
SOLID
  5
295
100
AcDbEntity
  8
___SYMBOL
100
AcDbTrace
 62
2
  6
CONTINUOUS
 10
10.9168550309
 20
23.1467584607
 11
10.9168550309
 21
23.7326721101
 12
11.0669010937
 22
23.7326721101
 13
11.0669010937
 23
23.7326721101
  0
SOLID
  5
296
100
AcDbEntity
  8
___SYMBOL
100
AcDbTrace
 62
2
  6
CONTINUOUS
 10
10.9168550309
 20
23.1467584607
 11
11.2295851636
 21
23.2879852179
 12
11.0669010937
 22
23.1467584607
 13
11.0669010937
 23
23.1467584607
  0
SOLID
  5
297
100
AcDbEntity
  8
___SYMBOL
100
AcDbTrace
 62
2
  6
CONTINUOUS
 10
11.2295851636
 20
23.2879852179
 11
11.2295851636
 21
23.1467584607
 12
11.0669010937
 22
23.1467584607
 13
11.0669010937
 23
23.1467584607
  0
LINE
  5
298
100
AcDbEntity
  8
___SYMBOL
100
AcDbLine
 62
2
  6
CONTINUOUS
 10
11.5678370776
 20
23.3679067489
 11
11.5678370776
 21
23.5122883505
  0
LINE
  5
299
100
AcDbEntity
  8
___SYMBOL
100
AcDbLine
 62
2
  6
CONTINUOUS
 10
11.4169795542
 20
23.5122883505
 11
11.5678370776
 21
23.5122883505
  0
LINE
  5
29A
100
AcDbEntity
  8
___SYMBOL
100
AcDbLine
 62
2
  6
CONTINUOUS
 10
11.4169795542
 20
23.5899127133
 11
11.4169795542
 21
23.5122883505
  0
LINE
  5
29B
100
AcDbEntity
  8
___SYMBOL
100
AcDbLine
 62
2
  6
CONTINUOUS
 10
11.4169795542
 20
23.5899127133
 11
11.5678370776
 21
23.5899127133
  0
LINE
  5
29C
100
AcDbEntity
  8
___SYMBOL
100
AcDbLine
 62
2
  6
CONTINUOUS
 10
11.5678370776
 20
23.5899127133
 11
11.5678370776
 21
23.7326721101
  0
LINE
  5
29D
100
AcDbEntity
  8
___SYMBOL
100
AcDbLine
 62
2
  6
CONTINUOUS
 10
11.4311838776
 20
23.7326721101
 11
11.5678370776
 21
23.7326721101
  0
LINE
  5
29E
100
AcDbEntity
  8
___SYMBOL
100
AcDbLine
 62
2
  6
CONTINUOUS
 10
11.2587329023
 20
23.7326721101
 11
11.4311838776
 21
23.7326721101
  0
LINE
  5
29F
100
AcDbEntity
  8
___SYMBOL
100
AcDbLine
 62
2
  6
CONTINUOUS
 10
11.2587329023
 20
23.1467584607
 11
11.2587329023
 21
23.7326721101
  0
LINE
  5
2A0
100
AcDbEntity
  8
___SYMBOL
100
AcDbLine
 62
2
  6
CONTINUOUS
 10
11.2587329023
 20
23.1467584607
 11
11.5678370776
 21
23.1467584607
  0
LINE
  5
2A1
100
AcDbEntity
  8
___SYMBOL
100
AcDbLine
 62
2
  6
CONTINUOUS
 10
11.5678370776
 20
23.1467584607
 11
11.5678370776
 21
23.2879852179
  0
LINE
  5
2A2
100
AcDbEntity
  8
___SYMBOL
100
AcDbLine
 62
2
  6
CONTINUOUS
 10
11.4169795542
 20
23.2879852179
 11
11.5678370776
 21
23.2879852179
  0
LINE
  5
2A3
100
AcDbEntity
  8
___SYMBOL
100
AcDbLine
 62
2
  6
CONTINUOUS
 10
11.4169795542
 20
23.3679067489
 11
11.4169795542
 21
23.2879852179
  0
LINE
  5
2A4
100
AcDbEntity
  8
___SYMBOL
100
AcDbLine
 62
2
  6
CONTINUOUS
 10
11.4169795542
 20
23.3679067489
 11
11.5678370776
 21
23.3679067489
  0
SOLID
  5
2A5
100
AcDbEntity
  8
___SYMBOL
100
AcDbTrace
 62
2
  6
CONTINUOUS
 10
11.5678370776
 20
23.7326721101
 11
11.5678370776
 21
23.5899127133
 12
11.4169795542
 22
23.5899127133
 13
11.4169795542
 23
23.5899127133
  0
SOLID
  5
2A6
100
AcDbEntity
  8
___SYMBOL
100
AcDbTrace
 62
2
  6
CONTINUOUS
 10
11.5678370776
 20
23.5122883505
 11
11.5678370776
 21
23.3679067489
 12
11.4169795542
 22
23.3679067489
 13
11.4169795542
 23
23.3679067489
  0
SOLID
  5
2A7
100
AcDbEntity
  8
___SYMBOL
100
AcDbTrace
 62
2
  6
CONTINUOUS
 10
11.5678370776
 20
23.2879852179
 11
11.2587329023
 21
23.1467584607
 12
11.4169795542
 22
23.2879852179
 13
11.4169795542
 23
23.2879852179
  0
SOLID
  5
2A8
100
AcDbEntity
  8
___SYMBOL
100
AcDbTrace
 62
2
  6
CONTINUOUS
 10
11.4169795542
 20
23.2879852179
 11
11.2587329023
 21
23.1467584607
 12
11.4169795542
 22
23.3679067489
 13
11.4169795542
 23
23.3679067489
  0
SOLID
  5
2A9
100
AcDbEntity
  8
___SYMBOL
100
AcDbTrace
 62
2
  6
CONTINUOUS
 10
11.5678370776
 20
23.5122883505
 11
11.4169795542
 21
23.3679067489
 12
11.4169795542
 22
23.5122883505
 13
11.4169795542
 23
23.5122883505
  0
SOLID
  5
2AA
100
AcDbEntity
  8
___SYMBOL
100
AcDbTrace
 62
2
  6
CONTINUOUS
 10
11.4169795542
 20
23.3679067489
 11
11.2587329023
 21
23.1467584607
 12
11.4169795542
 22
23.5122883505
 13
11.4169795542
 23
23.5122883505
  0
SOLID
  5
2AB
100
AcDbEntity
  8
___SYMBOL
100
AcDbTrace
 62
2
  6
CONTINUOUS
 10
11.4169795542
 20
23.5122883505
 11
11.2587329023
 21
23.1467584607
 12
11.4169795542
 22
23.5899127133
 13
11.4169795542
 23
23.5899127133
  0
SOLID
  5
2AC
100
AcDbEntity
  8
___SYMBOL
100
AcDbTrace
 62
2
  6
CONTINUOUS
 10
11.5678370776
 20
23.7326721101
 11
11.4169795542
 21
23.5899127133
 12
11.4311838776
 22
23.7326721101
 13
11.4311838776
 23
23.7326721101
  0
SOLID
  5
2AD
100
AcDbEntity
  8
___SYMBOL
100
AcDbTrace
 62
2
  6
CONTINUOUS
 10
11.4169795542
 20
23.5899127133
 11
11.2587329023
 21
23.1467584607
 12
11.4311838776
 22
23.7326721101
 13
11.4311838776
 23
23.7326721101
  0
SOLID
  5
2AE
100
AcDbEntity
  8
___SYMBOL
100
AcDbTrace
 62
2
  6
CONTINUOUS
 10
11.2587329023
 20
23.1467584607
 11
11.2587329023
 21
23.7326721101
 12
11.4311838776
 22
23.7326721101
 13
11.4311838776
 23
23.7326721101
  0
SOLID
  5
2AF
100
AcDbEntity
  8
___SYMBOL
100
AcDbTrace
 62
2
  6
CONTINUOUS
 10
11.5678370776
 20
23.2879852179
 11
11.5678370776
 21
23.1467584607
 12
11.2587329023
 22
23.1467584607
 13
11.2587329023
 23
23.1467584607
  0
LINE
  5
2B0
100
AcDbEntity
  8
___SYMBOL
100
AcDbLine
 62
2
  6
CONTINUOUS
 10
12.0780874836
 20
23.1467584607
 11
11.9186442407
 21
23.398341002
  0
ARC
  5
2B1
100
AcDbEntity
  8
___SYMBOL
100
AcDbCircle
 62
2
  6
CONTINUOUS
 10
11.846204993
 20
23.5576625994
 40
0.1750166163
100
AcDbArc
 50
294.4500166359
 51
90.0
  0
LINE
  5
2B2
100
AcDbEntity
  8
___SYMBOL
100
AcDbLine
 62
2
  6
CONTINUOUS
 10
11.6126572923
 20
23.7326721101
 11
11.846204993
 21
23.7326721101
  0
LINE
  5
2B3
100
AcDbEntity
  8
___SYMBOL
100
AcDbLine
 62
2
  6
CONTINUOUS
 10
11.6126572923
 20
23.1467584607
 11
11.6126572923
 21
23.7326721101
  0
LINE
  5
2B4
100
AcDbEntity
  8
___SYMBOL
100
AcDbLine
 62
2
  6
CONTINUOUS
 10
11.6126572923
 20
23.1467584607
 11
11.7633131149
 21
23.1467584607
  0
LINE
  5
2B5
100
AcDbEntity
  8
___SYMBOL
100
AcDbLine
 62
2
  6
CONTINUOUS
 10
11.7633131149
 20
23.3437148316
 11
11.7633131149
 21
23.1467584607
  0
LINE
  5
2B6
100
AcDbEntity
  8
___SYMBOL
100
AcDbLine
 62
2
  6
CONTINUOUS
 10
11.8881365441
 20
23.1467584607
 11
11.7633131149
 21
23.3437148316
  0
LINE
  5
2B7
100
AcDbEntity
  8
___SYMBOL
100
AcDbLine
 62
2
  6
CONTINUOUS
 10
11.8881365441
 20
23.1467584607
 11
12.0780874836
 21
23.1467584607
  0
LINE
  5
2B8
100
AcDbEntity
  8
___SYMBOL
100
AcDbLine
 62
2
  6
CONTINUOUS
 10
11.7633131149
 20
23.4829901422
 11
11.8156528651
 21
23.4829901422
  0
ARC
  5
2B9
100
AcDbEntity
  8
___SYMBOL
100
AcDbCircle
 62
2
  6
CONTINUOUS
 10
11.8192428944
 20
23.5364815417
 40
0.053611735
100
AcDbArc
 50
266.1604009902
 51
89.9998910512
  0
LINE
  5
2BA
100
AcDbEntity
  8
___SYMBOL
100
AcDbLine
 62
2
  6
CONTINUOUS
 10
11.8192429964
 20
23.5900932768
 11
11.7633131149
 21
23.5900932768
  0
LINE
  5
2BB
100
AcDbEntity
  8
___SYMBOL
100
AcDbLine
 62
2
  6
CONTINUOUS
 10
11.7633131149
 20
23.5900932768
 11
11.7633131149
 21
23.4829901422
  0
SOLID
  5
2BC
100
AcDbEntity
  8
___SYMBOL
100
AcDbTrace
 62
2
  6
CONTINUOUS
 10
11.846204993
 20
23.7326792157
 11
11.8931380165
 21
23.7262689673
 12
11.6126572923
 22
23.7326721101
 13
11.6126572923
 23
23.7326721101
  0
SOLID
  5
2BD
100
AcDbEntity
  8
___SYMBOL
100
AcDbTrace
 62
2
  6
CONTINUOUS
 10
11.7633131149
 20
23.5900932768
 11
12.017252856
 21
23.5947226123
 12
11.8192429964
 22
23.5900932768
 13
11.8192429964
 23
23.5900932768
  0
SOLID
  5
2BE
100
AcDbEntity
  8
___SYMBOL
100
AcDbTrace
 62
2
  6
CONTINUOUS
 10
11.8192429964
 20
23.5900932768
 11
12.017252856
 21
23.5947226123
 12
11.8429655779
 22
23.5845591084
 13
11.8429655779
 23
23.5845591084
  0
SOLID
  5
2BF
100
AcDbEntity
  8
___SYMBOL
100
AcDbTrace
 62
2
  6
CONTINUOUS
 10
11.8429655779
 20
23.5845591084
 11
12.017252856
 21
23.5947226123
 12
11.8617905656
 22
23.5690992334
 13
11.8617905656
 23
23.5690992334
  0
SOLID
  5
2C0
100
AcDbEntity
  8
___SYMBOL
100
AcDbTrace
 62
2
  6
CONTINUOUS
 10
12.017252856
 20
23.5947226123
 11
12.0209261024
 21
23.5474964835
 12
11.8617905656
 22
23.5690992334
 13
11.8617905656
 23
23.5690992334
  0
SOLID
  5
2C1
100
AcDbEntity
  8
___SYMBOL
100
AcDbTrace
 62
2
  6
CONTINUOUS
 10
11.8718315042
 20
23.5469053728
 11
11.8617905656
 21
23.5690992334
 12
12.0209261024
 22
23.5474964835
 13
12.0209261024
 23
23.5474964835
  0
SOLID
  5
2C2
100
AcDbEntity
  8
___SYMBOL
100
AcDbTrace
 62
2
  6
CONTINUOUS
 10
11.8718315042
 20
23.5469053728
 11
12.0209261024
 21
23.5474964835
 12
11.8710154225
 22
23.5225594921
 13
11.8710154225
 23
23.5225594921
  0
SOLID
  5
2C3
100
AcDbEntity
  8
___SYMBOL
100
AcDbTrace
 62
2
  6
CONTINUOUS
 10
11.8710154225
 20
23.5225594921
 11
12.0209261024
 21
23.5474964835
 12
11.8595108022
 22
23.5010878455
 13
11.8595108022
 23
23.5010878455
  0
SOLID
  5
2C4
100
AcDbEntity
  8
___SYMBOL
100
AcDbTrace
 62
2
  6
CONTINUOUS
 10
12.0209261024
 20
23.5474964835
 11
12.0118004987
 21
23.5010150534
 12
11.8595108022
 22
23.5010878455
 13
11.8595108022
 23
23.5010878455
  0
SOLID
  5
2C5
100
AcDbEntity
  8
___SYMBOL
100
AcDbTrace
 62
2
  6
CONTINUOUS
 10
11.8396927943
 20
23.486923296
 11
11.8595108022
 21
23.5010878455
 12
12.0118004987
 22
23.5010150534
 13
12.0118004987
 23
23.5010150534
  0
SOLID
  5
2C6
100
AcDbEntity
  8
___SYMBOL
100
AcDbTrace
 62
2
  6
CONTINUOUS
 10
11.8396927943
 20
23.486923296
 11
12.0118004987
 21
23.5010150534
 12
11.8156528651
 22
23.4829901422
 13
11.8156528651
 23
23.4829901422
  0
SOLID
  5
2C7
100
AcDbEntity
  8
___SYMBOL
100
AcDbTrace
 62
2
  6
CONTINUOUS
 10
12.0118004987
 20
23.5010150534
 11
11.9905445231
 21
23.4586832275
 12
11.8156528651
 22
23.4829901422
 13
11.8156528651
 23
23.4829901422
  0
SOLID
  5
2C8
100
AcDbEntity
  8
___SYMBOL
100
AcDbTrace
 62
2
  6
CONTINUOUS
 10
11.9186442407
 20
23.398341002
 11
11.7633131149
 21
23.3437148316
 12
11.9587152399
 22
23.4236019403
 13
11.9587152399
 23
23.4236019403
  0
SOLID
  5
2C9
100
AcDbEntity
  8
___SYMBOL
100
AcDbTrace
 62
2
  6
CONTINUOUS
 10
11.9587152399
 20
23.4236019403
 11
11.7633131149
 21
23.3437148316
 12
11.9905445231
 22
23.4586832275
 13
11.9905445231
 23
23.4586832275
  0
SOLID
  5
2CA
100
AcDbEntity
  8
___SYMBOL
100
AcDbTrace
 62
2
  6
CONTINUOUS
 10
11.9905445231
 20
23.4586832275
 11
11.7633131149
 21
23.3437148316
 12
11.8156528651
 22
23.4829901422
 13
11.8156528651
 23
23.4829901422
  0
SOLID
  5
2CB
100
AcDbEntity
  8
___SYMBOL
100
AcDbTrace
 62
2
  6
CONTINUOUS
 10
11.7633131149
 20
23.3437148316
 11
11.6126572923
 21
23.1467584607
 12
11.8156528651
 22
23.4829901422
 13
11.8156528651
 23
23.4829901422
  0
SOLID
  5
2CC
100
AcDbEntity
  8
___SYMBOL
100
AcDbTrace
 62
2
  6
CONTINUOUS
 10
11.8156528651
 20
23.4829901422
 11
11.6126572923
 21
23.1467584607
 12
11.7633131149
 22
23.4829901422
 13
11.7633131149
 23
23.4829901422
  0
SOLID
  5
2CD
100
AcDbEntity
  8
___SYMBOL
100
AcDbTrace
 62
2
  6
CONTINUOUS
 10
11.7633131149
 20
23.4829901422
 11
11.6126572923
 21
23.1467584607
 12
11.7633131149
 22
23.5900932768
 13
11.7633131149
 23
23.5900932768
  0
SOLID
  5
2CE
100
AcDbEntity
  8
___SYMBOL
100
AcDbTrace
 62
2
  6
CONTINUOUS
 10
12.017252856
 20
23.5947226123
 11
11.7633131149
 21
23.5900932768
 12
12.0010498359
 22
23.639233983
 13
12.0010498359
 23
23.639233983
  0
SOLID
  5
2CF
100
AcDbEntity
  8
___SYMBOL
100
AcDbTrace
 62
2
  6
CONTINUOUS
 10
12.0010498359
 20
23.639233983
 11
11.7633131149
 21
23.5900932768
 12
11.9735039624
 22
23.6777700029
 13
11.9735039624
 23
23.6777700029
  0
SOLID
  5
2D0
100
AcDbEntity
  8
___SYMBOL
100
AcDbTrace
 62
2
  6
CONTINUOUS
 10
11.9735039624
 20
23.6777700029
 11
11.7633131149
 21
23.5900932768
 12
11.936633054
 22
23.7075077921
 13
11.936633054
 23
23.7075077921
  0
SOLID
  5
2D1
100
AcDbEntity
  8
___SYMBOL
100
AcDbTrace
 62
2
  6
CONTINUOUS
 10
11.936633054
 20
23.7075077921
 11
11.7633131149
 21
23.5900932768
 12
11.8931380165
 22
23.7262689673
 13
11.8931380165
 23
23.7262689673
  0
SOLID
  5
2D2
100
AcDbEntity
  8
___SYMBOL
100
AcDbTrace
 62
2
  6
CONTINUOUS
 10
11.8931380165
 20
23.7262689673
 11
11.7633131149
 21
23.5900932768
 12
11.6126572923
 22
23.7326721101
 13
11.6126572923
 23
23.7326721101
  0
SOLID
  5
2D3
100
AcDbEntity
  8
___SYMBOL
100
AcDbTrace
 62
2
  6
CONTINUOUS
 10
11.6126572923
 20
23.1467584607
 11
11.6126572923
 21
23.7326721101
 12
11.7633131149
 22
23.5900932768
 13
11.7633131149
 23
23.5900932768
  0
SOLID
  5
2D4
100
AcDbEntity
  8
___SYMBOL
100
AcDbTrace
 62
2
  6
CONTINUOUS
 10
11.7633131149
 20
23.3437148316
 11
11.7633131149
 21
23.1467584607
 12
11.6126572923
 22
23.1467584607
 13
11.6126572923
 23
23.1467584607
  0
SOLID
  5
2D5
100
AcDbEntity
  8
___SYMBOL
100
AcDbTrace
 62
2
  6
CONTINUOUS
 10
11.7633131149
 20
23.3437148316
 11
11.9186442407
 21
23.398341002
 12
11.8881365441
 22
23.1467584607
 13
11.8881365441
 23
23.1467584607
  0
SOLID
  5
2D6
100
AcDbEntity
  8
___SYMBOL
100
AcDbTrace
 62
2
  6
CONTINUOUS
 10
11.9186442407
 20
23.398341002
 11
12.0780874836
 21
23.1467584607
 12
11.8881365441
 22
23.1467584607
 13
11.8881365441
 23
23.1467584607
  0
CIRCLE
  5
2D7
100
AcDbEntity
  8
___SYMBOL
100
AcDbCircle
 62
2
  6
CONTINUOUS
 10
12.2188574583
 20
23.1467584607
 40
0.0653578721
  0
LINE
  5
2D8
100
AcDbEntity
  8
___SYMBOL
100
AcDbLine
 62
2
  6
CONTINUOUS
 10
12.214569435
 20
23.1462207113
 11
12.2464374478
 21
23.11391777
  0
LINE
  5
2D9
100
AcDbEntity
  8
___SYMBOL
100
AcDbLine
 62
2
  6
CONTINUOUS
 10
12.2029714588
 20
23.11391777
 11
12.2029714588
 21
23.1798839688
  0
LINE
  5
2DA
100
AcDbEntity
  8
___SYMBOL
100
AcDbLine
 62
2
  6
CONTINUOUS
 10
12.2029714588
 20
23.1798839688
 11
12.2272507918
 21
23.1798839688
  0
ARC
  5
2DB
100
AcDbEntity
  8
___SYMBOL
100
AcDbCircle
 62
2
  6
CONTINUOUS
 10
12.2272507918
 20
23.1630525192
 40
0.0168314496
100
AcDbArc
 50
270.0
 51
90.0
  0
LINE
  5
2DC
100
AcDbEntity
  8
___SYMBOL
100
AcDbLine
 62
2
  6
CONTINUOUS
 10
12.2272507918
 20
23.1462207113
 11
12.2029714588
 21
23.1462207113
  0
MTEXT
  5
2DD
100
AcDbEntity
  8
___SYMBOL
100
AcDbMText
 62
2
  6
CONTINUOUS
  7
STANDARD
 71
1
 72
1
 10
9.3358891819
 20
22.9307588723
 30
0.0
 11
1.0
 21
0.0
 31
0.0
 44
0.9
  1
CUT-OUT TEMPLATE
 40
0.25
 41
3.2
  0
MTEXT
  5
2DE
100
AcDbEntity
  8
___SYMBOL
100
AcDbMText
 62
2
  6
CONTINUOUS
  7
STANDARD
 71
1
 72
1
 10
9.3358891819
 20
22.5557588723
 30
0.0
 11
1.0
 21
0.0
 31
0.0
 44
0.9
  1
UNDERCOUNTER SINK
 40
0.25
 41
3.4
  0
MTEXT
  5
2DF
100
AcDbEntity
  8
___SYMBOL
100
AcDbMText
 62
2
  6
CONTINUOUS
  7
STANDARD
 71
1
 72
1
 10
9.3358891819
 20
22.1807588723
 30
0.0
 11
1.0
 21
0.0
 31
0.0
 44
0.9
  1
PLANTILLA DE RECORTE
 40
0.25
 41
4.0
  0
MTEXT
  5
2E0
100
AcDbEntity
  8
___SYMBOL
100
AcDbMText
 62
2
  6
CONTINUOUS
  7
STANDARD
 71
1
 72
1
 10
9.3358891819
 20
21.8057588723
 30
0.0
 11
1.0
 21
0.0
 31
0.0
 44
0.9
  1
FREGADERO MONTADO DEBAJO
 40
0.25
 41
4.8
  0
MTEXT
  5
2E1
100
AcDbEntity
  8
___SYMBOL
100
AcDbMText
 62
2
  6
CONTINUOUS
  7
STANDARD
 71
1
 72
1
 10
9.3358891819
 20
21.4307588723
 30
0.0
 11
1.0
 21
0.0
 31
0.0
 44
0.9
  1
  DEL MOSTRADOR
 40
0.25
 41
3.0
  0
MTEXT
  5
2E2
100
AcDbEntity
  8
___SYMBOL
100
AcDbMText
 62
2
  6
CONTINUOUS
  7
STANDARD
 71
1
 72
1
 10
9.3358891819
 20
21.0557588723
 30
0.0
 11
1.0
 21
0.0
 31
0.0
 44
0.9
  1
PLAN DE DÉCOUPE
 40
0.25
 41
3.0
  0
MTEXT
  5
2E3
100
AcDbEntity
  8
___SYMBOL
100
AcDbMText
 62
2
  6
CONTINUOUS
  7
STANDARD
 71
1
 72
1
 10
9.3358891819
 20
20.6807588723
 30
0.0
 11
1.0
 21
0.0
 31
0.0
 44
0.9
  1
ÉVIER SOUS-COMPTOIR
 40
0.25
 41
3.8
  0
MTEXT
  5
2E4
100
AcDbEntity
  8
___SYMBOL
100
AcDbMText
 62
2
  6
CONTINUOUS
  7
STANDARD
 71
1
 72
1
 10
9.3358891819
 20
20.3057588723
 30
0.0
 11
1.0
 21
0.0
 31
0.0
 44
0.9
  1
BAKERSFIELD
 40
0.25
 41
2.2
  0
MTEXT
  5
2E5
100
AcDbEntity
  8
___SYMBOL
100
AcDbMText
 62
2
  6
CONTINUOUS
  7
STANDARD
 71
1
 72
1
 10
12.1358891819
 20
20.3057588723
 30
0.0
 11
1.0
 21
0.0
 31
0.0
 44
0.9
  1
5832
 40
0.25
 41
0.8
  0
MTEXT
  5
2E6
100
AcDbEntity
  8
___SYMBOL
100
AcDbMText
 62
2
  6
CONTINUOUS
  7
STANDARD
 71
1
 72
1
 10
12.9358891819
 20
20.3057588723
 30
0.0
 11
1.0
 21
0.0
 31
0.0
 44
0.9
  1
-**-
 40
0.25
 41
0.8
  0
MTEXT
  5
2E7
100
AcDbEntity
  8
___SYMBOL
100
AcDbMText
 62
2
  6
CONTINUOUS
  7
STANDARD
 71
1
 72
1
 10
13.7358891819
 20
20.3057588723
 30
0.0
 11
1.0
 21
0.0
 31
0.0
 44
0.9
  1
**
 40
0.25
 41
0.4
  0
ENDBLK
  5
2E8
100
AcDbEntity
  8
0
  6
BYBLOCK
 62
0
100
AcDbBlockEnd
  0
BLOCK
  5
2E9
100
AcDbEntity
  8
___SYMBOL
100
AcDbBlockBegin
 62
2
  6
CONTINUOUS
  2
COPYRIGHT_YEAR_BL0
 70
64
 10
30.3028482418
 20
11.077245685
  3
COPYRIGHT_YEAR_BL0
  1

  0
CIRCLE
  5
2EA
100
AcDbEntity
  8
___SYMBOL
100
AcDbCircle
 62
7
  6
CONTINUOUS
 10
29.863365867
 20
11.0796933102
 40
0.0328259996
  0
MTEXT
  5
2EB
100
AcDbEntity
  8
___SYMBOL
100
AcDbMText
 62
2
  6
CONTINUOUS
  7
STANDARD
 71
1
 72
1
 10
29.9291566162
 20
11.1124720602
 30
0.0
 11
1.0
 21
0.0
 31
0.0
 44
0.9
  1
2009
 40
0.0705
 41
0.2256
  0
MTEXT
  5
2EC
100
AcDbEntity
  8
___SYMBOL
100
AcDbMText
 62
2
  6
CONTINUOUS
  7
STANDARD
 71
1
 72
1
 10
30.1547566162
 20
11.1124720602
 30
0.0
 11
1.0
 21
0.0
 31
0.0
 44
0.9
  1
 KOHLER CO.
 40
0.0705
 41
0.6204
  0
MTEXT
  5
2ED
100
AcDbEntity
  8
___SYMBOL
100
AcDbMText
 62
2
  6
CONTINUOUS
  7
TEXTSTYLE_2
 71
1
 72
1
 10
29.8491308671
 20
11.10064456
 30
0.0
 11
1.0
 21
0.0
 31
0.0
 44
0.9
  1
C
 40
0.0421874995
 41
0.0421874995
  0
ENDBLK
  5
2EE
100
AcDbEntity
  8
0
  6
BYBLOCK
 62
0
100
AcDbBlockEnd
  0
BLOCK
  5
2EF
100
AcDbEntity
  8
0
100
AcDbBlockBegin
  2
_FILLED
 70
64
 10
0.0
 20
0.0
  3
_FILLED
  1

  0
SOLID
  5
2F0
100
AcDbEntity
  8
0
  6
BYBLOCK
 62
0
100
AcDbTrace
 10
0.0
 20
0.0
 11
-1.0
 21
0.1666666667
 12
-1.0
 22
-0.1666666667
 13
-1.0
 23
-0.1666666667
  0
ENDBLK
  5
2F1
100
AcDbEntity
  8
0
  6
BYBLOCK
 62
0
100
AcDbBlockEnd
  0
BLOCK
  5
2F2
100
AcDbEntity
  8
0
100
AcDbBlockBegin
 62
2
  6
CONTINUOUS
  2
*D0
 70
65
 10
0.0
 20
0.0
  3
*D0
  1

  0
MTEXT
  5
2F3
100
AcDbEntity
  8
0
100
AcDbMText
 62
2
  6
CONTINUOUS
  7
STANDARD
 71
2
 72
1
 10
21.2612783486
 20
18.0519273119
 30
0.0
 11
1.0
 21
0.0
 31
0.0
 44
0.9
  1
15-15/16\P[40,8 cm]
 40
0.15625
 41
1.125
  0
LINE
  5
2F4
100
AcDbEntity
  8
0
100
AcDbLine
 62
2
  6
CONTINUOUS
 10
21.032700367
 20
26.7173481835
 11
21.3862783486
 21
26.7173481835
  0
LINE
  5
2F5
100
AcDbEntity
  8
0
100
AcDbLine
 62
2
  6
CONTINUOUS
 10
21.1053609174
 20
10.7803481835
 11
21.3862783486
 21
10.7803481835
  0
LINE
  5
2F6
100
AcDbEntity
  8
0
100
AcDbLine
 62
2
  6
CONTINUOUS
 10
21.2612783486
 20
26.7173481835
 11
21.2612783486
 21
18.1300523119
  0
LINE
  5
2F7
100
AcDbEntity
  8
0
100
AcDbLine
 62
2
  6
CONTINUOUS
 10
21.2612783486
 20
10.7803481835
 11
21.2612783486
 21
17.5831773119
  0
INSERT
  5
2F8
100
AcDbEntity
  8
0
100
AcDbBlockReference
 62
2
  6
CONTINUOUS
  2
_FILLED
 10
21.2612783486
 20
26.7173481835
 41
0.1875
 42
0.1875
 43
0.1875
 50
90.0
  0
INSERT
  5
2F9
100
AcDbEntity
  8
0
100
AcDbBlockReference
 62
2
  6
CONTINUOUS
  2
_FILLED
 10
21.2612783486
 20
10.7803481835
 41
0.1875
 42
0.1875
 43
0.1875
 50
270.0
  0
ENDBLK
  5
2FA
100
AcDbEntity
  8
0
  6
BYBLOCK
 62
0
100
AcDbBlockEnd
  0
BLOCK
  5
2FB
100
AcDbEntity
  8
0
100
AcDbBlockBegin
 62
2
  6
CONTINUOUS
  2
*D1
 70
65
 10
0.0
 20
0.0
  3
*D1
  1

  0
MTEXT
  5
2FC
100
AcDbEntity
  8
0
100
AcDbMText
 62
2
  6
CONTINUOUS
  7
STANDARD
 71
2
 72
1
 10
19.492658789
 20
18.8830542477
 30
0.0
 11
1.0
 21
0.0
 31
0.0
 44
0.9
  1
28-3/8\P[72,1 cm]
 40
0.15625
 41
1.125
  0
LINE
  5
2FD
100
AcDbEntity
  8
0
100
AcDbLine
 62
2
  6
CONTINUOUS
 10
6.9285081272
 20
18.7876669174
 11
6.9285081272
 21
18.9299292477
  0
LINE
  5
2FE
100
AcDbEntity
  8
0
100
AcDbLine
 62
2
  6
CONTINUOUS
 10
35.310762038
 20
18.6907861835
 11
35.310762038
 21
18.9299292477
  0
LINE
  5
2FF
100
AcDbEntity
  8
0
100
AcDbLine
 62
2
  6
CONTINUOUS
 10
6.9285081272
 20
18.8049292477
 11
18.852033789
 21
18.8049292477
  0
LINE
  5
300
100
AcDbEntity
  8
0
100
AcDbLine
 62
2
  6
CONTINUOUS
 10
35.310762038
 20
18.8049292477
 11
20.133283789
 21
18.8049292477
  0
INSERT
  5
301
100
AcDbEntity
  8
0
100
AcDbBlockReference
 62
2
  6
CONTINUOUS
  2
_FILLED
 10
6.9285081272
 20
18.8049292477
 41
0.1875
 42
0.1875
 43
0.1875
 50
180.0
  0
INSERT
  5
302
100
AcDbEntity
  8
0
100
AcDbBlockReference
 62
2
  6
CONTINUOUS
  2
_FILLED
 10
35.310762038
 20
18.8049292477
 41
0.1875
 42
0.1875
 43
0.1875
  0
ENDBLK
  5
303
100
AcDbEntity
  8
0
  6
BYBLOCK
 62
0
100
AcDbBlockEnd
  0
BLOCK
  5
304
100
AcDbEntity
  8
0
100
AcDbBlockBegin
 62
2
  6
CONTINUOUS
  2
*D2
 70
65
 10
0.0
 20
0.0
  3
*D2
  1

  0
MTEXT
  5
305
100
AcDbEntity
  8
0
100
AcDbMText
 62
2
  6
CONTINUOUS
  7
STANDARD
 71
3
 72
1
 10
20.8489056947
 20
31.1073186352
 30
0.0
 11
1.0
 21
0.0
 31
0.0
 44
0.9
  3
1-3/8" DIAMETER HOLES - STANDARD 3 HOLE FITTING\P(TO BE DRILLED IN COUNTERTOP)\P3.5 cmDIAMÈTRE TROUS - RACCORDEMENT STANDARD À 3 ORIFICES\P(A ÊTRE PERCÉS DANS COMPTOIR)\PORIFICIOS DE 3.5 cm DE DIÁMETRO - CONEXIÓN ESTÁNDAR DE 3 ORIFICIOS\P(A TALADRAR 
  1
EN LA CUBIERTA)
 40
0.15625
 41
8.25
  0
LINE
  5
306
100
AcDbEntity
  8
0
100
AcDbLine
 62
2
  6
CONTINUOUS
 10
21.4353726459
 20
29.3995576407
 11
22.2778965204
 21
31.0291936352
  0
LINE
  5
307
100
AcDbEntity
  8
0
100
AcDbLine
 62
2
  6
CONTINUOUS
 10
22.2778965204
 20
31.0291936352
 11
20.9270306947
 21
31.0291936352
  0
INSERT
  5
308
100
AcDbEntity
  8
0
100
AcDbBlockReference
 62
2
  6
CONTINUOUS
  2
_FILLED
 10
21.4353726459
 20
29.3995576407
 41
0.1875
 42
0.1875
 43
0.1875
 50
242.6609789181
  0
ENDBLK
  5
309
100
AcDbEntity
  8
0
  6
BYBLOCK
 62
0
100
AcDbBlockEnd
  0
BLOCK
  5
30A
100
AcDbEntity
  8
0
100
AcDbBlockBegin
 62
2
  6
CONTINUOUS
  2
*D3
 70
65
 10
0.0
 20
0.0
  3
*D3
  1

  0
MTEXT
  5
30B
100
AcDbEntity
  8
0
100
AcDbMText
 62
2
  6
CONTINUOUS
  7
STANDARD
 71
3
 72
1
 10
30.6712170342
 20
26.3193177544
 30
0.0
 11
1.0
 21
0.0
 31
0.0
 44
0.9
  3
1-3/8" DIAMETER HOLES - OPTIONAL FITTING HOLE\P(TO BE DRILLED IN COUNTERTOP)\P3.5 cmDIAMÈTRE TROUS - ORIFICE DE RACCORDEMENT OPTIONNEL\P(A ÊTRE PERCÉS DANS COMPTOIR)\PORIFICIOS DE 3.5 cm DE DIÁMETRO - ORIFICIO PARA CONEXIÓN OPCIONAL\P(A TALADRAR EN L
  1
A CUBIERTA)
 40
0.15625
 41
8.125
  0
LINE
  5
30C
100
AcDbEntity
  8
0
100
AcDbLine
 62
2
  6
CONTINUOUS
 10
29.5724200907
 20
28.2715069166
 11
31.3493821718
 21
26.2411927544
  0
LINE
  5
30D
100
AcDbEntity
  8
0
100
AcDbLine
 62
2
  6
CONTINUOUS
 10
31.3493821718
 20
26.2411927544
 11
30.7493420342
 21
26.2411927544
  0
INSERT
  5
30E
100
AcDbEntity
  8
0
100
AcDbBlockReference
 62
2
  6
CONTINUOUS
  2
_FILLED
 10
29.5724200907
 20
28.2715069166
 41
0.1875
 42
0.1875
 43
0.1875
 50
131.192912058
  0
ENDBLK
  5
30F
100
AcDbEntity
  8
0
  6
BYBLOCK
 62
0
100
AcDbBlockEnd
  0
BLOCK
  5
310
100
AcDbEntity
  8
0
100
AcDbBlockBegin
 62
2
  6
CONTINUOUS
  2
*D4
 70
65
 10
0.0
 20
0.0
  3
*D4
  1

  0
MTEXT
  5
311
100
AcDbEntity
  8
0
100
AcDbMText
 62
2
  6
CONTINUOUS
  7
STANDARD
 71
1
 72
1
 10
12.1833617475
 20
26.4574987452
 30
0.0
 11
1.0
 21
0.0
 31
0.0
 44
0.9
  3
1-3/8" DIAMETER HOLES - OPTIONAL FITTING HOLE\P(TO BE DRILLED IN COUNTERTOP)\P3.5 cmDIAMÈTRE TROUS - ORIFICE DE RACCORDEMENT OPTIONNEL\P(A ÊTRE PERCÉS DANS COMPTOIR)\PORIFICIOS DE 3.5 cm DE DIÁMETRO - ORIFICIO PARA CONEXIÓN OPCIONAL\P(A TALADRAR EN L
  1
A CUBIERTA)
 40
0.15625
 41
8.125
  0
LINE
  5
312
100
AcDbEntity
  8
0
100
AcDbLine
 62
2
  6
CONTINUOUS
 10
12.7660013585
 20
28.1992725402
 11
11.6744067589
 21
26.3793737452
  0
LINE
  5
313
100
AcDbEntity
  8
0
100
AcDbLine
 62
2
  6
CONTINUOUS
 10
11.6744067589
 20
26.3793737452
 11
12.1052367475
 21
26.3793737452
  0
INSERT
  5
314
100
AcDbEntity
  8
0
100
AcDbBlockReference
 62
2
  6
CONTINUOUS
  2
_FILLED
 10
12.7660013585
 20
28.1992725402
 41
0.1875
 42
0.1875
 43
0.1875
 50
59.0442231496
  0
ENDBLK
  5
315
100
AcDbEntity
  8
0
  6
BYBLOCK
 62
0
100
AcDbBlockEnd
  0
ENDSEC
  0
SECTION
  2
ENTITIES
  0
DIMENSION
  5
316
100
AcDbEntity
  8
0
100
AcDbDimension
 62
2
  6
CONTINUOUS
  2
*D0
 10
21.2612783486
 20
10.7803481835
 11
20.6987783486
 21
17.8566148119
 70
160
 71
2
 42
15.937
  1
<>\P[40,8 cm]
  3
DIMSTYLE_1
100
AcDbAlignedDimension
 13
21.032700367
 23
26.7173481835
 14
21.1053609174
 24
10.7803481835
 50
270.0
100
AcDbRotatedDimension
  0
DIMENSION
  5
317
100
AcDbEntity
  8
0
100
AcDbDimension
 62
2
  6
CONTINUOUS
  2
*D1
 10
35.310762038
 20
18.8049292477
 11
18.930158789
 21
18.6877417477
 70
160
 71
2
 42
28.3822539108
  1
<>\P[72,1 cm]
  3
DIMSTYLE_1
100
AcDbAlignedDimension
 13
6.9285081272
 23
18.9299292477
 14
35.310762038
 24
18.9299292477
100
AcDbRotatedDimension
  0
DIMENSION
  5
318
100
AcDbEntity
  8
0
100
AcDbDimension
 62
2
  6
CONTINUOUS
  2
*D2
 10
21.1196350826
 20
28.7888481835
 11
10.9114056947
 21
30.4432561352
 70
164
 71
3
 42
0.6875
  1
1-3/8" DIAMETER HOLES - STANDARD 3 HOLE FITTING\P(TO BE DRILLED IN COUNTERTOP)\P3.5 cmDIAMÈTRE TROUS - RACCORDEMENT STANDARD À 3 ORIFICES\P(A ÊTRE PERCÉS DANS COMPTOIR)\PORIFICIOS DE 3.5 cm DE DIÁMETRO - CONEXIÓN ESTÁNDAR DE 3 ORIFICIOS\P(A TALADRAR EN LA CUBIERTA)
  3
DIMSTYLE_2
100
AcDbRadialDimension
 15
21.4353726459
 25
29.3995576407
  0
DIMENSION
  5
319
100
AcDbEntity
  8
0
100
AcDbDimension
 62
2
  6
CONTINUOUS
  2
*D3
 10
29.1196350826
 20
28.7888481835
 11
20.8587170342
 21
25.6552552544
 70
164
 71
3
 42
0.6875
  1
1-3/8" DIAMETER HOLES - OPTIONAL FITTING HOLE\P(TO BE DRILLED IN COUNTERTOP)\P3.5 cmDIAMÈTRE TROUS - ORIFICE DE RACCORDEMENT OPTIONNEL\P(A ÊTRE PERCÉS DANS COMPTOIR)\PORIFICIOS DE 3.5 cm DE DIÁMETRO - ORIFICIO PARA CONEXIÓN OPCIONAL\P(A TALADRAR EN LA CUBIERTA)
  3
DIMSTYLE_2
100
AcDbRadialDimension
 15
29.5724200907
 25
28.2715069166
  0
DIMENSION
  5
31A
100
AcDbEntity
  8
0
100
AcDbDimension
 62
2
  6
CONTINUOUS
  2
*D4
 10
13.1196350826
 20
28.7888481835
 11
16.2458617475
 21
25.7934362452
 70
164
 71
1
 42
0.6875
  1
1-3/8" DIAMETER HOLES - OPTIONAL FITTING HOLE\P(TO BE DRILLED IN COUNTERTOP)\P3.5 cmDIAMÈTRE TROUS - ORIFICE DE RACCORDEMENT OPTIONNEL\P(A ÊTRE PERCÉS DANS COMPTOIR)\PORIFICIOS DE 3.5 cm DE DIÁMETRO - ORIFICIO PARA CONEXIÓN OPCIONAL\P(A TALADRAR EN LA CUBIERTA)
  3
DIMSTYLE_2
100
AcDbRadialDimension
 15
12.7660013585
 25
28.1992725402
  0
MTEXT
  5
31B
100
AcDbEntity
  8
___NOTE
100
AcDbMText
 62
2
  6
CONTINUOUS
  7
TEXTSTYLE_2
 71
1
 72
1
 10
11.529074653
 20
20.3170381687
 30
0.0
 11
1.0
 21
0.0
 31
0.0
 44
0.9
  1
TM
 40
0.094
 41
0.188
  0
LEADER
  5
31C
100
AcDbEntity
  8
___NOTE
100
AcDbLeader
 62
2
  6
CONTINUOUS
  3
STANDARD
 71
1
 72
0
 73
0
 75
0
 40
0.15625
 41
1.375
 76
3
 10
36.6192015161
 20
22.5629371051
 30
0.0
 10
34.1702858267
 20
24.0901719442
 30
0.0
 10
33.9202858267
 20
24.0901719442
 30
0.0
340
31D
1001
ACAD
1000
DSTYLE
1002
{
1070
77
1070
0
1002
}
  0
MTEXT
  5
31D
102
{ACAD_REACTORS
330
31C
102
}
100
AcDbEntity
  8
___NOTE
100
AcDbMText
 62
2
  6
CONTINUOUS
  7
STANDARD
 71
3
 72
1
 10
33.9202858267
 20
24.1682969442
 30
0.0
 11
1.0
 21
0.0
 31
0.0
 44
0.9
  1
RIM OF SINK\PREBORDE DE FREGADERO\PREBORD D'ÉVIER
 40
0.15625
 41
2.5
  0
LEADER
  5
31E
100
AcDbEntity
  8
___NOTE
100
AcDbLeader
 62
2
  6
CONTINUOUS
  3
STANDARD
 71
1
 72
0
 73
0
 75
0
 40
0.15625
 41
3.625
 76
3
 10
35.3084358707
 20
20.4203344261
 30
0.0
 10
33.798729836
 20
21.5112938695
 30
0.0
 10
33.548729836
 20
21.5112938695
 30
0.0
340
31F
1001
ACAD
1000
DSTYLE
1002
{
1070
77
1070
0
1002
}
  0
MTEXT
  5
31F
102
{ACAD_REACTORS
330
31E
102
}
100
AcDbEntity
  8
___NOTE
100
AcDbMText
 62
2
  6
CONTINUOUS
  7
STANDARD
 71
3
 72
1
 10
33.548729836
 20
21.5894188695
 30
0.0
 11
1.0
 21
0.0
 31
0.0
 44
0.9
  1
FOR UNDERCOUNTER INSTALLATION\PCUT ALONG THIS LINE\PPARA INSTALACIONES DEBAJO DEL MOSTRADOR,\PCORTE A LO LARGO DE ESTA LÍNEA\PPOUR DES INSTALLATIONS SOUS COMPTOIR,\PDÉCOUPER AU LONG DE CETTE LIGNE
 40
0.15625
 41
5.0
  0
LEADER
  5
320
100
AcDbEntity
  8
___NOTE
100
AcDbLeader
 62
2
  6
CONTINUOUS
  3
STANDARD
 71
1
 72
0
 73
0
 75
0
 40
0.15625
 41
2.75
 76
3
 10
22.4218225388
 20
28.7888481835
 30
0.0
 10
23.9137858415
 20
30.7673395434
 30
0.0
 10
24.1637858415
 20
30.7673395434
 30
0.0
340
321
1001
ACAD
1000
DSTYLE
1002
{
1070
77
1070
0
1002
}
  0
MTEXT
  5
321
102
{ACAD_REACTORS
330
320
102
}
100
AcDbEntity
  8
___NOTE
100
AcDbMText
 62
2
  6
CONTINUOUS
  7
STANDARD
 71
1
 72
1
 10
24.1637858415
 20
30.8454645434
 30
0.0
 11
1.0
 21
0.0
 31
0.0
 44
0.9
  1
FAUCET HOLE CENTERLINE\PLIGNE CENTRALE D'ORIFICE DE ROBINET\PLÍNEA CENTRAL DEL ORIFICIO PARA GRIFERÍA
 40
0.15625
 41
5.0
  0
INSERT
  5
322
100
AcDbEntity
  8
___SYMBOL
100
AcDbBlockReference
 62
2
  6
CONTINUOUS
  2
COPYRIGHT_YEAR_BL0
 10
30.3028482418
 20
11.077245685
  0
INSERT
  5
323
100
AcDbEntity
  8
___SYMBOL
100
AcDbBlockReference
 62
2
  6
CONTINUOUS
  2
SKU_SINK_KOHLER_BL1
 10
11.7358891819
 20
21.8962047484
  0
INSERT
  5
324
100
AcDbEntity
  8
___SYMBOL
100
AcDbBlockReference
 62
2
  6
CONTINUOUS
  2
TEMPLATE_NUMBER_BL2
 10
10.2647869382
 20
11.036091013
  0
INSERT
  5
325
100
AcDbEntity
  8
___SYMBOL
100
AcDbBlockReference
 62
2
  6
CONTINUOUS
  2
TEMPLATE_NUMBER_BL3
 10
10.2399854703
 20
8.9031647745
  0
INSERT
  5
326
100
AcDbEntity
  8
___SYMBOL
100
AcDbBlockReference
 62
2
  6
CONTINUOUS
  2
PLOTTING_TEMPLATE_NOTE_BL4
 10
28.8252860255
 20
15.4927397914
  0
LINE
  5
327
100
AcDbEntity
  8
_CURVE
100
AcDbLine
 62
8
  6
PHANTOM
 10
5.6200686491
 20
29.9388481835
 11
5.6200686491
 21
10.5588481835
  0
LINE
  5
328
100
AcDbEntity
  8
_CURVE
100
AcDbLine
 62
8
  6
PHANTOM
 10
6.9296350826
 20
9.24928175
 11
35.3096350826
 21
9.24928175
  0
LINE
  5
329
100
AcDbEntity
  8
_CURVE
100
AcDbLine
 62
2
  6
CENTER
 10
13.1196350826
 20
29.9763481835
 11
13.1196350826
 21
27.6013481835
  0
LINE
  5
32A
100
AcDbEntity
  8
_CURVE
100
AcDbLine
 62
2
  6
CENTER
 10
17.1196350826
 20
29.9763481835
 11
17.1196350826
 21
27.6013481835
  0
LINE
  5
32B
100
AcDbEntity
  8
_CURVE
100
AcDbLine
 62
2
  6
CENTER
 10
21.1196350826
 20
29.9763481835
 11
21.1196350826
 21
27.6013481835
  0
LINE
  5
32C
100
AcDbEntity
  8
_CURVE
100
AcDbLine
 62
2
  6
CENTER
 10
25.1196350826
 20
29.9763481835
 11
25.1196350826
 21
27.6013481835
  0
LINE
  5
32D
100
AcDbEntity
  8
_CURVE
100
AcDbLine
 62
2
  6
CENTER
 10
29.1196350826
 20
29.9763481835
 11
29.1196350826
 21
27.6013481835
  0
LINE
  5
32E
100
AcDbEntity
  8
_CURVE
100
AcDbLine
 62
2
  6
CENTER
 10
11.9321350826
 20
28.7888481835
 11
30.3071350826
 21
28.7888481835
  0
LINE
  5
32F
100
AcDbEntity
  8
_CURVE
100
AcDbLine
 62
8
  6
PHANTOM
 10
35.3096350826
 20
31.248414617
 11
6.9296350826
 21
31.248414617
  0
LINE
  5
330
100
AcDbEntity
  8
_CURVE
100
AcDbLine
 62
8
  6
PHANTOM
 10
36.6192015161
 20
10.5588481835
 11
36.6192015161
 21
29.9388481835
  0
ARC
  5
331
100
AcDbEntity
  8
_CURVE
100
AcDbCircle
 62
7
  6
CONTINUOUS
 10
-565.2203649213
 20
18.7488481835
 40
600.5311269593
100
AcDbArc
 50
359.5130665206
 51
0.4869334794
  0
ARC
  5
332
100
AcDbEntity
  8
_CURVE
100
AcDbCircle
 62
7
  6
CONTINUOUS
 10
607.4596350788
 20
18.7488481835
 40
600.5311269516
100
AcDbArc
 50
179.5130665206
 51
180.4869334794
  0
ARC
  5
333
100
AcDbEntity
  8
_CURVE
100
AcDbCircle
 62
7
  6
CONTINUOUS
 10
21.1196350826
 20
-573.8136518165
 40
600.531
100
AcDbArc
 50
88.9082208262
 51
91.0917791738
  0
ARC
  5
334
100
AcDbEntity
  8
_CURVE
100
AcDbCircle
 62
7
  6
CONTINUOUS
 10
21.1196350826
 20
611.3113481835
 40
600.531
100
AcDbArc
 50
268.9082208262
 51
271.0917791738
  0
ARC
  5
335
100
AcDbEntity
  8
_CURVE
100
AcDbCircle
 62
7
  6
CONTINUOUS
 10
32.5091755594
 20
23.8288302484
 40
2.78
100
AcDbArc
 50
0.4869334794
 51
88.9082208262
  0
ARC
  5
336
100
AcDbEntity
  8
_CURVE
100
AcDbCircle
 62
7
  6
CONTINUOUS
 10
9.7300946057
 20
23.8288302484
 40
2.78
100
AcDbArc
 50
91.0917791738
 51
179.5130665206
  0
ARC
  5
337
100
AcDbEntity
  8
_CURVE
100
AcDbCircle
 62
7
  6
CONTINUOUS
 10
9.7300946057
 20
13.6688661186
 40
2.78
100
AcDbArc
 50
180.4869334794
 51
268.9082208262
  0
ARC
  5
338
100
AcDbEntity
  8
_CURVE
100
AcDbCircle
 62
7
  6
CONTINUOUS
 10
32.5091755594
 20
13.6688661186
 40
2.78
100
AcDbArc
 50
271.0917791738
 51
359.5130665206
  0
ARC
  5
339
100
AcDbEntity
  8
_CURVE
100
AcDbCircle
 62
8
  6
PHANTOM
 10
6.9296350826
 20
29.9388481835
 40
1.3095664335
100
AcDbArc
 50
90.0
 51
180.0
  0
ARC
  5
33A
100
AcDbEntity
  8
_CURVE
100
AcDbCircle
 62
8
  6
PHANTOM
 10
6.9296350826
 20
10.5588481835
 40
1.3095664335
100
AcDbArc
 50
180.0
 51
270.0
  0
ARC
  5
33B
100
AcDbEntity
  8
_CURVE
100
AcDbCircle
 62
8
  6
PHANTOM
 10
35.3096350826
 20
10.5588481835
 40
1.3095664335
100
AcDbArc
 50
270.0
 51
360.0
  0
ARC
  5
33C
100
AcDbEntity
  8
_CURVE
100
AcDbCircle
 62
8
  6
PHANTOM
 10
35.3096350826
 20
29.9388481835
 40
1.3095664335
100
AcDbArc
 50
0.0
 51
90.0
  0
CIRCLE
  5
33D
100
AcDbEntity
  8
_CURVE
100
AcDbCircle
 62
7
  6
CONTINUOUS
 10
13.1196350826
 20
28.7888481835
 40
0.6875
  0
CIRCLE
  5
33E
100
AcDbEntity
  8
_CURVE
100
AcDbCircle
 62
7
  6
CONTINUOUS
 10
17.1196350826
 20
28.7888481835
 40
0.6875
  0
CIRCLE
  5
33F
100
AcDbEntity
  8
_CURVE
100
AcDbCircle
 62
7
  6
CONTINUOUS
 10
21.1196350826
 20
28.7888481835
 40
0.6875
  0
CIRCLE
  5
340
100
AcDbEntity
  8
_CURVE
100
AcDbCircle
 62
7
  6
CONTINUOUS
 10
25.1196350826
 20
28.7888481835
 40
0.6875
  0
CIRCLE
  5
341
100
AcDbEntity
  8
_CURVE
100
AcDbCircle
 62
7
  6
CONTINUOUS
 10
29.1196350826
 20
28.7888481835
 40
0.6875
  0
ENDSEC
  0
SECTION
  2
OBJECTS
  0
DICTIONARY
  5
C
100
AcDbDictionary
280
0
281
1
  3
ACAD_GROUP
350
D
  3
ACAD_MLINESTYLE
350
17
  3
ACAD_LAYOUT
350
1A
  3
ACAD_PLOTSETTINGS
350
19
  3
ACAD_PLOTSTYLENAME
350
E
  0
DICTIONARY
  5
D
102
{ACAD_REACTORS
330
C
102
}
100
AcDbDictionary
280
0
281
1
  0
ACDBDICTIONARYWDFLT
  5
E
102
{ACAD_REACTORS
330
C
102
}
100
AcDbDictionary
281
1
  3
Normal
350
F
100
AcDbDictionaryWithDefault
340
F
  0
DICTIONARY
  5
17
102
{ACAD_REACTORS
330
C
102
}
100
AcDbDictionary
280
0
281
1
  3
Standard
350
18
  0
DICTIONARY
  5
19
102
{ACAD_REACTORS
330
C
102
}
100
AcDbDictionary
281
1
  0
DICTIONARY
  5
1A
102
{ACAD_REACTORS
330
C
102
}
100
AcDbDictionary
281
1
  3
Model
350
342
  3
Layout1
350
343
  0
ACDBPLACEHOLDER
  5
F
102
{ACAD_REACTORS
330
E
102
}
  0
MLINESTYLE
  5
18
102
{ACAD_REACTORS
330
17
102
}
100
AcDbMlineStyle
  2
STANDARD
 70
0
  3

 62
256
 51
90.0
 52
90.0
 71
2
 49
0.5
 62
256
  6
BYLAYER
 49
-0.5
 62
256
  6
BYLAYER
  0
LAYOUT
  5
342
102
{ACAD_REACTORS
330
1A
102
}
100
AcDbPlotSettings
  1

  2
none_device
  4
ANSI_E_(44.00_x_34.00_Inches)
  6

 40
0.0
 41
0.0
 42
0.0
 43
0.0
 44
1117.6
 45
863.6
 46
0.0
 47
0.0
 48
0.0
 49
0.0
140
0.0
141
0.0
142
1.0
143
1.0
 70
1024
 72
0
 73
0
 74
0
  7

 75
0
147
1.0
148
0.0
149
0.0
100
AcDbLayout
  1
Model
 70
0
 71
0
 10
0.0
 20
0.0
 11
44.0
 21
34.0
 12
0.0
 22
0.0
 32
0.0
 14
0.0
 24
0.0
 34
0.0
 15
0.0
 25
0.0
 35
0.0
146
0.0
 13
0.0
 23
0.0
 33
0.0
 16
1.0
 26
0.0
 36
0.0
 17
0.0
 27
1.0
 37
0.0
 76
0
330
20B
345
0
346
0
  0
LAYOUT
  5
343
102
{ACAD_REACTORS
330
1A
102
}
100
AcDbPlotSettings
  1

  2
none_device
  4
ANSI_E_(44.00_x_34.00_Inches)
  6

 40
0.0
 41
0.0
 42
0.0
 43
0.0
 44
1117.6
 45
863.6
 46
0.0
 47
0.0
 48
0.0
 49
0.0
140
0.0
141
0.0
142
1.0
143
1.0
 70
0
 72
0
 73
0
 74
0
  7

 75
0
147
1.0
148
0.0
149
0.0
100
AcDbLayout
  1
Layout1
 70
0
 71
1
 10
0.0
 20
0.0
 11
44.0
 21
34.0
 12
0.0
 22
0.0
 32
0.0
 14
0.0
 24
0.0
 34
0.0
 15
0.0
 25
0.0
 35
0.0
146
0.0
 13
0.0
 23
0.0
 33
0.0
 16
1.0
 26
0.0
 36
0.0
 17
0.0
 27
1.0
 37
0.0
 76
0
330
20C
345
0
346
0
  0
ENDSEC
  0
EOF
