999
DXF file: 1093326_7_b.dxf
999
Pro/ENGINEER 2007160 by Parametric Technology Corporation
  0
SECTION
  2
HEADER
  9
$EXTMAX
 10
34.0
 20
22.0
 30
0.0
  9
$EXTMIN
 10
0.0
 20
0.0
 30
0.0
  9
$LIMMIN
 10
0.0
 20
0.0
  9
$LIMMAX
 10
34.0
 20
22.0
  9
$VIEWCTR
 10
17.0
 20
11.0
  9
$VIEWSIZE
 40
22.0
  9
$CLAYER
  8
0
  9
$LTSCALE
 40
1.87
  9
$CELTYPE
  6
BYLAYER
  9
$DIMSCALE
 40
1.0
  9
$DIMASZ
 40
0.1875
  9
$DIMEXO
 40
0.2125
  9
$DIMDLI
 40
1.292
  9
$DIMEXE
 40
0.612
  9
$DIMCEN
 40
0.306
  9
$DIMLFAC
 40
1.0
  9
$DIMBLK
  1
_FILLED
  9
$DIMTXT
 40
0.15625
  9
$PDMODE
 70
3
  9
$PDSIZE
 40
0.3125
  0
ENDSEC
  0
SECTION
  2
TABLES
  0
TABLE
  2
LTYPE
 70
6
  0
LTYPE
  2
BYBLOCK
 70
0
  3

 72
65
 73
0
 40
0.0
  0
LTYPE
  2
BYLAYER
 70
0
  3

 72
65
 73
0
 40
0.0
  0
LTYPE
  2
CONTINUOUS
 70
64
  3
Solid line
 72
65
 73
0
 40
0.0
  0
LTYPE
  2
CENTER
 70
64
  3
____ _ ____ _ ____ _ ____ _ ____ _ ____ _ ____
 72
65
 73
4
 40
0.6
 49
0.375
 49
-0.075
 49
0.075
 49
-0.075
  0
LTYPE
  2
HIDDEN
 70
64
  3
- - - - - - - - - - - - - - - - - - - -
 72
65
 73
2
 40
0.2
 49
0.1
 49
-0.1
  0
LTYPE
  2
PHANTOM
 70
64
  3
_____ _ _ _____ _ _ _____ _ _ _____
 72
65
 73
6
 40
0.8
 49
0.45
 49
-0.05
 49
0.1
 49
-0.05
 49
0.1
 49
-0.05
  0
LTYPE
  2
DOT
 70
64
  3
. . . . . . . . . . . . . . . . . . . .
 72
65
 73
2
 40
0.2
 49
0.1
 49
-0.1
  0
LTYPE
  2
DASHED
 70
64
  3
- - - - - - - - - - - - - - - - - - - -
 72
65
 73
2
 40
0.2
 49
0.1
 49
-0.1
  0
ENDTAB
  0
TABLE
  2
LAYER
 70
36
  0
LAYER
  2
0
 70
0
 62
7
  6
CONTINUOUS
  0
LAYER
  2
DEFAULT_1
 70
0
 62
7
  6
CENTER
  0
LAYER
  2
DEFAULT_2
 70
0
 62
8
  6
HIDDEN
  0
LAYER
  2
DEFAULT_3
 70
0
 62
7
  6
PHANTOM
  0
LAYER
  2
_2D_DELETED_OBJS
 70
0
 62
7
  6
CONTINUOUS
  0
LAYER
  2
DATUMS
 70
0
 62
7
  6
CONTINUOUS
  0
LAYER
  2
DATUM_AXIS
 70
0
 62
7
  6
CONTINUOUS
  0
LAYER
  2
DATUM_CSYS
 70
0
 62
7
  6
CONTINUOUS
  0
LAYER
  2
DATUM_PLANE
 70
0
 62
7
  6
CONTINUOUS
  0
LAYER
  2
DATUM_POINT
 70
0
 62
7
  6
CONTINUOUS
  0
LAYER
  2
_CURVE
 70
0
 62
7
  6
CONTINUOUS
  0
LAYER
  2
_SURFACE
 70
0
 62
7
  6
CONTINUOUS
  0
LAYER
  2
__REF_CURVE
 70
0
 62
7
  6
CONTINUOUS
  0
LAYER
  2
__REF_SURFACE
 70
0
 62
7
  6
CONTINUOUS
  0
LAYER
  2
___NOTE
 70
0
 62
7
  6
CONTINUOUS
  0
LAYER
  2
___SYMBOL
 70
0
 62
7
  6
CONTINUOUS
  0
ENDTAB
  0
TABLE
  2
STYLE
 70
1
  0
STYLE
  2
STANDARD
 70
0
 40
0.0
 41
0.8
 50
0.0
 71
0
 42
0.2
  3
txt
  4

  0
ENDTAB
  0
ENDSEC
  0
SECTION
  2
BLOCKS
  0
BLOCK
  8
0
 62
2
  6
CONTINUOUS
  2
*D0
 70
65
 10
0.0
 20
0.0
  0
TEXT
  8
0
 62
2
  6
CONTINUOUS
 10
12.3466105556
 20
10.7289536172
  7
STANDARD
 40
0.15625
  1
"
 41
0.8
 72
0
  0
TEXT
  8
0
 62
2
  6
CONTINUOUS
 10
11.5966105556
 20
10.4945786172
  7
STANDARD
 40
0.15625
  1
[41,9 cm]
 41
0.8
 72
0
  0
TEXT
  8
0
 62
2
  6
CONTINUOUS
 10
11.5966105556
 20
10.7289536172
  7
STANDARD
 40
0.15625
  1
16-1/2
 41
0.8
 72
0
  0
LINE
  8
0
 62
2
  6
CONTINUOUS
 10
6.7252661218
 20
19.0570786172
 11
12.1591105556
 21
19.0570786172
  0
LINE
  8
0
 62
2
  6
CONTINUOUS
 10
6.7831291355
 20
2.5570786172
 11
12.1591105556
 21
2.5570786172
  0
LINE
  8
0
 62
2
  6
CONTINUOUS
 10
12.0341105556
 20
19.0570786172
 11
12.0341105556
 21
10.9633286172
  0
LINE
  8
0
 62
2
  6
CONTINUOUS
 10
12.0341105556
 20
2.5570786172
 11
12.0341105556
 21
10.4164536172
  0
INSERT
  8
0
 62
2
  6
CONTINUOUS
  2
_FILLED
 10
12.0341105556
 20
19.0570786172
 41
0.1875
 42
0.1875
 43
0.1875
 50
90.0
  0
INSERT
  8
0
 62
2
  6
CONTINUOUS
  2
_FILLED
 10
12.0341105556
 20
2.5570786172
 41
0.1875
 42
0.1875
 43
0.1875
 50
270.0
  0
ENDBLK
  8
0
  6
BYBLOCK
 62
0
  0
BLOCK
  8
0
 62
2
  6
CONTINUOUS
  2
*D1
 70
65
 10
0.0
 20
0.0
  0
TEXT
  8
0
 62
2
  6
CONTINUOUS
 10
10.6405332884
 20
11.5489777778
  7
STANDARD
 40
0.15625
  1
"
 41
0.8
 72
0
  0
TEXT
  8
0
 62
2
  6
CONTINUOUS
 10
9.8905332884
 20
11.3146027778
  7
STANDARD
 40
0.15625
  1
[41,9 cm]
 41
0.8
 72
0
  0
TEXT
  8
0
 62
2
  6
CONTINUOUS
 10
9.8905332884
 20
11.5489777778
  7
STANDARD
 40
0.15625
  1
16-1/2
 41
0.8
 72
0
  0
LINE
  8
0
 62
2
  6
CONTINUOUS
 10
19.9999027328
 20
14.600247339
 11
19.9999027328
 21
11.5021027778
  0
LINE
  8
0
 62
2
  6
CONTINUOUS
 10
3.4999027328
 20
14.6773980239
 11
3.4999027328
 21
11.5021027778
  0
LINE
  8
0
 62
2
  6
CONTINUOUS
 10
19.9999027328
 20
11.6271027778
 11
11.0936582884
 21
11.6271027778
  0
LINE
  8
0
 62
2
  6
CONTINUOUS
 10
3.4999027328
 20
11.6271027778
 11
9.8124082884
 21
11.6271027778
  0
INSERT
  8
0
 62
2
  6
CONTINUOUS
  2
_FILLED
 10
19.9999027328
 20
11.6271027778
 41
0.1875
 42
0.1875
 43
0.1875
  0
INSERT
  8
0
 62
2
  6
CONTINUOUS
  2
_FILLED
 10
3.4999027328
 20
11.6271027778
 41
0.1875
 42
0.1875
 43
0.1875
 50
180.0
  0
ENDBLK
  8
0
  6
BYBLOCK
 62
0
  0
BLOCK
  8
___SYMBOL
 62
2
  6
CONTINUOUS
  2
COPYRIGHT_YEAR_BL0
 70
64
 10
18.2382542436
 20
3.1510774367
  0
TEXT
  8
___SYMBOL
 62
2
  6
CONTINUOUS
 10
17.8645639401
 20
3.1158039367
  7
STANDARD
 40
0.0704997506
  1
2008
 41
0.8
 72
0
  0
TEXT
  8
___SYMBOL
 62
2
  6
CONTINUOUS
 10
18.090163142
 20
3.1158039367
  7
STANDARD
 40
0.0704997506
  1
 KOHLER CO.
 41
0.8
 72
0
  0
TEXT
  8
___SYMBOL
 62
7
  6
CONTINUOUS
 10
17.7845384742
 20
3.1322888786
  7
STANDARD
 40
0.0421873503
  1
C
 41
1.0
 72
0
  0
CIRCLE
  8
___SYMBOL
 62
7
  6
CONTINUOUS
 10
17.7987734237
 20
3.1535250532
 40
0.0328258835
  0
ENDBLK
  8
0
  6
BYBLOCK
 62
0
  0
BLOCK
  8
___SYMBOL
 62
2
  6
CONTINUOUS
  2
PACKAGING_UPC_BL1
 70
64
 10
7.0165247266
 20
6.9074628136
  0
TEXT
  8
___SYMBOL
 62
7
  6
CONTINUOUS
 10
5.4825238383
 20
7.434466115
  7
STANDARD
 40
0.0593587494
  1
XXXXX-XX-X-XX
 41
0.8258950223
 72
0
  0
TEXT
  8
___SYMBOL
 62
7
  6
CONTINUOUS
 10
7.1165038224
 20
7.3053011163
  7
STANDARD
 40
0.0445192496
  1
xxxxxx-xx
 41
0.6740211631
 72
0
  0
TEXT
  8
___SYMBOL
 62
2
  6
CONTINUOUS
 10
4.3521795408
 20
8.9780947798
  7
STANDARD
 40
0.1562500055
  1
PACKAGING/UPC LABEL ON BOX
 41
0.8
 72
0
  0
TEXT
  8
___SYMBOL
 62
2
  6
CONTINUOUS
 10
4.3521795408
 20
8.7437197715
  7
STANDARD
 40
0.1562500055
  1
ETIQUETA DE EMBALAJE/UPC EN LA CAJA
 41
0.8
 72
0
  0
TEXT
  8
___SYMBOL
 62
2
  6
CONTINUOUS
 10
4.3521795408
 20
8.5093447701
  7
STANDARD
 40
0.1562500003
  1
ETIQUETTE D'EMBALLAGE/UPC SUR LA BOÎTE
 41
0.7999999985
 72
0
  0
TEXT
  8
___SYMBOL
 62
2
  6
CONTINUOUS
 10
4.3290246316
 20
6.7899558599
  7
STANDARD
 40
0.1562500055
  1
The template and the label suffixes circled
 41
0.8
 72
0
  0
TEXT
  8
___SYMBOL
 62
2
  6
CONTINUOUS
 10
4.3290246316
 20
6.5555808516
  7
STANDARD
 40
0.1562500055
  1
must match for proper cut-out.
 41
0.8
 72
0
  0
TEXT
  8
___SYMBOL
 62
2
  6
CONTINUOUS
 10
4.3290246316
 20
6.3212058502
  7
STANDARD
 40
0.1562500003
  1
 
 41
0.7999999985
 72
0
  0
TEXT
  8
___SYMBOL
 62
2
  6
CONTINUOUS
 10
4.3290246316
 20
6.0868308433
  7
STANDARD
 40
0.1562500055
  1
A fin de realizar el corte apropiado, la
 41
0.8
 72
0
  0
TEXT
  8
___SYMBOL
 62
2
  6
CONTINUOUS
 10
4.3290246316
 20
5.8524558419
  7
STANDARD
 40
0.1562500003
  1
plantilla y los sufijos de la etiqueta
 41
0.7999999985
 72
0
  0
TEXT
  8
___SYMBOL
 62
2
  6
CONTINUOUS
 10
4.3290246316
 20
5.6180808419
  7
STANDARD
 40
0.1562500003
  1
demarcados deben concordar.
 41
0.7999999985
 72
0
  0
TEXT
  8
___SYMBOL
 62
2
  6
CONTINUOUS
 10
4.3290246316
 20
5.3837058419
  7
STANDARD
 40
0.1562500003
  1
 
 41
0.7999999985
 72
0
  0
TEXT
  8
___SYMBOL
 62
2
  6
CONTINUOUS
 10
4.3290246316
 20
5.1493308419
  7
STANDARD
 40
0.1562500003
  1
Afin de découper l'ouverture correctement,
 41
0.7999999985
 72
0
  0
TEXT
  8
___SYMBOL
 62
2
  6
CONTINUOUS
 10
4.3290246316
 20
4.9149558419
  7
STANDARD
 40
0.1562500003
  1
le gabarit et les suffixes encerclés
 41
0.7999999985
 72
0
  0
TEXT
  8
___SYMBOL
 62
2
  6
CONTINUOUS
 10
4.3290246316
 20
4.6805808419
  7
STANDARD
 40
0.1562500003
  1
doivent correspondre
 41
0.7999999985
 72
0
  0
LINE
  8
___SYMBOL
 62
7
  6
CONTINUOUS
 10
7.4713288189
 20
7.2785711165
 11
5.2862863402
 21
7.2785711165
  0
LINE
  8
___SYMBOL
 62
7
  6
CONTINUOUS
 10
5.2862863402
 20
7.2785711165
 11
5.2862863402
 21
8.2716011068
  0
LINE
  8
___SYMBOL
 62
7
  6
CONTINUOUS
 10
5.2862863402
 20
8.2716011068
 11
7.4713288189
 21
8.2716011068
  0
LINE
  8
___SYMBOL
 62
7
  6
CONTINUOUS
 10
7.4713288189
 20
8.2716011068
 11
7.4713288189
 21
7.2785711165
  0
LINE
  8
___SYMBOL
 62
7
  6
CONTINUOUS
 10
5.2529188405
 20
8.3040611065
 11
7.5054838186
 21
8.3040611065
  0
LINE
  8
___SYMBOL
 62
7
  6
CONTINUOUS
 10
7.5054838186
 20
8.3040611065
 11
7.5054838186
 21
7.2111536172
  0
LINE
  8
___SYMBOL
 62
7
  6
CONTINUOUS
 10
7.5054838186
 20
7.2111536172
 11
5.2529188405
 21
7.2111536172
  0
LINE
  8
___SYMBOL
 62
7
  6
CONTINUOUS
 10
5.2529188405
 20
7.2111536172
 11
5.2529188405
 21
8.3040611065
  0
LINE
  8
___SYMBOL
 62
7
  6
CONTINUOUS
 10
7.2661438209
 20
7.7102411123
 11
7.2661438209
 21
7.5886061135
  0
LINE
  8
___SYMBOL
 62
7
  6
CONTINUOUS
 10
7.2661438209
 20
7.5886061135
 11
6.9231913242
 21
7.5886061135
  0
LINE
  8
___SYMBOL
 62
7
  6
CONTINUOUS
 10
6.9231913242
 20
7.5886061135
 11
6.9231913242
 21
7.7102411123
  0
LINE
  8
___SYMBOL
 62
7
  6
CONTINUOUS
 10
6.9231913242
 20
7.7102411123
 11
7.2661438209
 21
7.7102411123
  0
SOLID
  8
___SYMBOL
 62
7
  6
CONTINUOUS
 10
6.9231913242
 20
7.5886061044
 11
6.9231913242
 21
7.7102411046
 12
7.2661438209
 22
7.7102411046
 13
7.2661438209
 23
7.7102411046
  0
SOLID
  8
___SYMBOL
 62
7
  6
CONTINUOUS
 10
7.2661438209
 20
7.7102411046
 11
7.2661438209
 21
7.5886061044
 12
6.9231913242
 22
7.5886061044
 13
6.9231913242
 23
7.5886061044
  0
LINE
  8
___SYMBOL
 62
7
  6
CONTINUOUS
 10
6.1906888314
 20
7.7102411123
 11
6.1906888314
 21
7.5886061135
  0
LINE
  8
___SYMBOL
 62
7
  6
CONTINUOUS
 10
6.1906888314
 20
7.5886061135
 11
5.3349838397
 21
7.5886061135
  0
LINE
  8
___SYMBOL
 62
7
  6
CONTINUOUS
 10
5.3349838397
 20
7.5886061135
 11
5.3349838397
 21
7.7102411123
  0
LINE
  8
___SYMBOL
 62
7
  6
CONTINUOUS
 10
5.3349838397
 20
7.7102411123
 11
6.1906888314
 21
7.7102411123
  0
SOLID
  8
___SYMBOL
 62
7
  6
CONTINUOUS
 10
5.3349838397
 20
7.5886061044
 11
5.3349838397
 21
7.7102411046
 12
6.1906888314
 22
7.7102411046
 13
6.1906888314
 23
7.7102411046
  0
SOLID
  8
___SYMBOL
 62
7
  6
CONTINUOUS
 10
6.1906888314
 20
7.7102411046
 11
6.1906888314
 21
7.5886061044
 12
5.3349838397
 22
7.5886061044
 13
5.3349838397
 23
7.5886061044
  0
LINE
  8
___SYMBOL
 62
7
  6
CONTINUOUS
 10
6.1906888314
 20
7.336973616
 11
6.1906888314
 21
7.3019936163
  0
LINE
  8
___SYMBOL
 62
7
  6
CONTINUOUS
 10
6.1906888314
 20
7.3019936163
 11
5.3349838397
 21
7.3019936163
  0
LINE
  8
___SYMBOL
 62
7
  6
CONTINUOUS
 10
5.3349838397
 20
7.3019936163
 11
5.3349838397
 21
7.336973616
  0
LINE
  8
___SYMBOL
 62
7
  6
CONTINUOUS
 10
5.3349838397
 20
7.336973616
 11
6.1906888314
 21
7.336973616
  0
SOLID
  8
___SYMBOL
 62
7
  6
CONTINUOUS
 10
5.3349838397
 20
7.3019936179
 11
5.3349838397
 21
7.3369735999
 12
6.1906888314
 22
7.3369735999
 13
6.1906888314
 23
7.3369735999
  0
SOLID
  8
___SYMBOL
 62
7
  6
CONTINUOUS
 10
6.1906888314
 20
7.3369735999
 11
6.1906888314
 21
7.3019936179
 12
5.3349838397
 22
7.3019936179
 13
5.3349838397
 23
7.3019936179
  0
POLYLINE
  8
___SYMBOL
 62
7
  6
CONTINUOUS
 66
1
 70
0
  0
VERTEX
  8
___SYMBOL
 62
7
  6
CONTINUOUS
 10
6.0566937847
 20
7.5487512341
  0
VERTEX
  8
___SYMBOL
 62
7
  6
CONTINUOUS
 10
6.0449899921
 20
7.5450576793
  0
VERTEX
  8
___SYMBOL
 62
7
  6
CONTINUOUS
 10
6.03396562
 20
7.5396646372
  0
VERTEX
  8
___SYMBOL
 62
7
  6
CONTINUOUS
 10
6.0238658654
 20
7.5326920566
  0
VERTEX
  8
___SYMBOL
 62
7
  6
CONTINUOUS
 10
6.014915361
 20
7.5242950173
  0
VERTEX
  8
___SYMBOL
 62
7
  6
CONTINUOUS
 10
6.0073131781
 20
7.5146602809
  0
VERTEX
  8
___SYMBOL
 62
7
  6
CONTINUOUS
 10
6.0012283999
 20
7.5040021373
  0
VERTEX
  8
___SYMBOL
 62
7
  6
CONTINUOUS
 10
5.9967963601
 20
7.4925576383
  0
VERTEX
  8
___SYMBOL
 62
7
  6
CONTINUOUS
 10
5.9941156334
 20
7.4805813252
  0
VERTEX
  8
___SYMBOL
 62
7
  6
CONTINUOUS
 10
5.9932458429
 20
7.4683395677
  0
VERTEX
  8
___SYMBOL
 62
7
  6
CONTINUOUS
 10
5.9942063338
 20
7.4561046394
  0
VERTEX
  8
___SYMBOL
 62
7
  6
CONTINUOUS
 10
5.9969757436
 20
7.4441486618
  0
VERTEX
  8
___SYMBOL
 62
7
  6
CONTINUOUS
 10
6.0014924768
 20
7.4327375524
  0
VERTEX
  8
___SYMBOL
 62
7
  6
CONTINUOUS
 10
6.007656075
 20
7.42212511
  0
VERTEX
  8
___SYMBOL
 62
7
  6
CONTINUOUS
 10
6.0153294513
 20
7.4125473698
  0
VERTEX
  8
___SYMBOL
 62
7
  6
CONTINUOUS
 10
6.0243419393
 20
7.404217354
  0
VERTEX
  8
___SYMBOL
 62
7
  6
CONTINUOUS
 10
6.0344930888
 20
7.3973203336
  0
VERTEX
  8
___SYMBOL
 62
7
  6
CONTINUOUS
 10
6.0455571243
 20
7.3920097078
  0
VERTEX
  8
___SYMBOL
 62
7
  6
CONTINUOUS
 10
6.0572879665
 20
7.3884035922
  0
VERTEX
  8
___SYMBOL
 62
7
  6
CONTINUOUS
 10
6.0694247052
 20
7.3865821919
  0
VERTEX
  8
___SYMBOL
 62
7
  6
CONTINUOUS
 10
6.0816974027
 20
7.3865860172
  0
VERTEX
  8
___SYMBOL
 62
7
  6
CONTINUOUS
 10
6.0938330973
 20
7.3884149831
  0
VERTEX
  8
___SYMBOL
 62
7
  6
CONTINUOUS
 10
6.1055618745
 20
7.3920284108
  0
VERTEX
  8
___SYMBOL
 62
7
  6
CONTINUOUS
 10
6.1166228702
 20
7.3973459328
  0
VERTEX
  8
___SYMBOL
 62
7
  6
CONTINUOUS
 10
6.1267700725
 20
7.40424928
  0
VERTEX
  8
___SYMBOL
 62
7
  6
CONTINUOUS
 10
6.1357777938
 20
7.4125849126
  0
VERTEX
  8
___SYMBOL
 62
7
  6
CONTINUOUS
 10
6.1434456899
 20
7.4221674345
  0
VERTEX
  8
___SYMBOL
 62
7
  6
CONTINUOUS
 10
6.1496032163
 20
7.4327837174
  0
VERTEX
  8
___SYMBOL
 62
7
  6
CONTINUOUS
 10
6.1541134211
 20
7.4441976404
  0
VERTEX
  8
___SYMBOL
 62
7
  6
CONTINUOUS
 10
6.1568759912
 20
7.4561553422
  0
VERTEX
  8
___SYMBOL
 62
7
  6
CONTINUOUS
 10
6.1578294831
 20
7.4683908671
  0
VERTEX
  8
___SYMBOL
 62
7
  6
CONTINUOUS
 10
6.15695269
 20
7.4806320802
  0
VERTEX
  8
___SYMBOL
 62
7
  6
CONTINUOUS
 10
6.1542651129
 20
7.49260672
  0
VERTEX
  8
___SYMBOL
 62
7
  6
CONTINUOUS
 10
6.1498265272
 20
7.5040484542
  0
VERTEX
  8
___SYMBOL
 62
7
  6
CONTINUOUS
 10
6.1437356532
 20
7.5147028027
  0
VERTEX
  8
___SYMBOL
 62
7
  6
CONTINUOUS
 10
6.1361279603
 20
7.5243327983
  0
VERTEX
  8
___SYMBOL
 62
7
  6
CONTINUOUS
 10
6.127172654
 20
7.5327242565
  0
VERTEX
  8
___SYMBOL
 62
7
  6
CONTINUOUS
 10
6.1170689127
 20
7.5396905398
  0
VERTEX
  8
___SYMBOL
 62
7
  6
CONTINUOUS
 10
6.1060414575
 20
7.5450767085
  0
VERTEX
  8
___SYMBOL
 62
7
  6
CONTINUOUS
 10
6.0943355541
 20
7.5487629668
  0
VERTEX
  8
___SYMBOL
 62
7
  6
CONTINUOUS
 10
6.082211558
 20
7.5506673271
  0
VERTEX
  8
___SYMBOL
 62
7
  6
CONTINUOUS
 10
6.0699391235
 20
7.550747434
  0
VERTEX
  8
___SYMBOL
 62
7
  6
CONTINUOUS
 10
6.0577912064
 20
7.5490015058
  0
SEQEND
  0
LINE
  8
___SYMBOL
 62
7
  6
CONTINUOUS
 10
6.2373388309
 20
8.2434761071
 11
6.2373388309
 21
8.1818261077
  0
LINE
  8
___SYMBOL
 62
7
  6
CONTINUOUS
 10
6.2373388309
 20
8.1818261077
 11
5.3816338393
 21
8.1818261077
  0
LINE
  8
___SYMBOL
 62
7
  6
CONTINUOUS
 10
5.3816338393
 20
8.1818261077
 11
5.3816338393
 21
8.2434761071
  0
LINE
  8
___SYMBOL
 62
7
  6
CONTINUOUS
 10
5.3816338393
 20
8.2434761071
 11
6.2373388309
 21
8.2434761071
  0
SOLID
  8
___SYMBOL
 62
7
  6
CONTINUOUS
 10
5.3816338393
 20
8.1818261036
 11
5.3816338393
 21
8.2434760937
 12
6.2373388309
 22
8.2434760937
 13
6.2373388309
 23
8.2434760937
  0
SOLID
  8
___SYMBOL
 62
7
  6
CONTINUOUS
 10
6.2373388309
 20
8.2434760937
 11
6.2373388309
 21
8.1818261036
 12
5.3816338393
 22
8.1818261036
 13
5.3816338393
 23
8.1818261036
  0
LINE
  8
___SYMBOL
 62
7
  6
CONTINUOUS
 10
6.2373388309
 20
8.1434936081
 11
6.2373388309
 21
8.0818436087
  0
LINE
  8
___SYMBOL
 62
7
  6
CONTINUOUS
 10
6.2373388309
 20
8.0818436087
 11
5.3816338393
 21
8.0818436087
  0
LINE
  8
___SYMBOL
 62
7
  6
CONTINUOUS
 10
5.3816338393
 20
8.0818436087
 11
5.3816338393
 21
8.1434936081
  0
LINE
  8
___SYMBOL
 62
7
  6
CONTINUOUS
 10
5.3816338393
 20
8.1434936081
 11
6.2373388309
 21
8.1434936081
  0
SOLID
  8
___SYMBOL
 62
7
  6
CONTINUOUS
 10
5.3816338393
 20
8.0818435954
 11
5.3816338393
 21
8.1434936195
 12
6.2373388309
 22
8.1434936195
 13
6.2373388309
 23
8.1434936195
  0
SOLID
  8
___SYMBOL
 62
7
  6
CONTINUOUS
 10
6.2373388309
 20
8.1434936195
 11
6.2373388309
 21
8.0818435954
 12
5.3816338393
 22
8.0818435954
 13
5.3816338393
 23
8.0818435954
  0
LINE
  8
___SYMBOL
 62
7
  6
CONTINUOUS
 10
6.2373388309
 20
8.0435111091
 11
6.2373388309
 21
7.9818686097
  0
LINE
  8
___SYMBOL
 62
7
  6
CONTINUOUS
 10
6.2373388309
 20
7.9818686097
 11
5.3816338393
 21
7.9818686097
  0
LINE
  8
___SYMBOL
 62
7
  6
CONTINUOUS
 10
5.3816338393
 20
7.9818686097
 11
5.3816338393
 21
8.0435111091
  0
LINE
  8
___SYMBOL
 62
7
  6
CONTINUOUS
 10
5.3816338393
 20
8.0435111091
 11
6.2373388309
 21
8.0435111091
  0
SOLID
  8
___SYMBOL
 62
7
  6
CONTINUOUS
 10
5.3816338393
 20
7.9818686012
 11
5.3816338393
 21
8.0435111113
 12
6.2373388309
 22
8.0435111113
 13
6.2373388309
 23
8.0435111113
  0
SOLID
  8
___SYMBOL
 62
7
  6
CONTINUOUS
 10
6.2373388309
 20
8.0435111113
 11
6.2373388309
 21
7.9818686012
 12
5.3816338393
 22
7.9818686012
 13
5.3816338393
 23
7.9818686012
  0
LINE
  8
___SYMBOL
 62
7
  6
CONTINUOUS
 10
6.2373388309
 20
7.94352861
 11
6.2373388309
 21
7.8818861106
  0
LINE
  8
___SYMBOL
 62
7
  6
CONTINUOUS
 10
6.2373388309
 20
7.8818861106
 11
5.3816338393
 21
7.8818861106
  0
LINE
  8
___SYMBOL
 62
7
  6
CONTINUOUS
 10
5.3816338393
 20
7.8818861106
 11
5.3816338393
 21
7.94352861
  0
LINE
  8
___SYMBOL
 62
7
  6
CONTINUOUS
 10
5.3816338393
 20
7.94352861
 11
6.2373388309
 21
7.94352861
  0
SOLID
  8
___SYMBOL
 62
7
  6
CONTINUOUS
 10
5.3816338393
 20
7.881886127
 11
5.3816338393
 21
7.9435286031
 12
6.2373388309
 22
7.9435286031
 13
6.2373388309
 23
7.9435286031
  0
SOLID
  8
___SYMBOL
 62
7
  6
CONTINUOUS
 10
6.2373388309
 20
7.9435286031
 11
6.2373388309
 21
7.881886127
 12
5.3816338393
 22
7.881886127
 13
5.3816338393
 23
7.881886127
  0
LINE
  8
___SYMBOL
 62
7
  6
CONTINUOUS
 10
6.2373388309
 20
7.8168911113
 11
6.2373388309
 21
7.7552411119
  0
LINE
  8
___SYMBOL
 62
7
  6
CONTINUOUS
 10
6.2373388309
 20
7.7552411119
 11
5.3816338393
 21
7.7552411119
  0
LINE
  8
___SYMBOL
 62
7
  6
CONTINUOUS
 10
5.3816338393
 20
7.7552411119
 11
5.3816338393
 21
7.8168911113
  0
LINE
  8
___SYMBOL
 62
7
  6
CONTINUOUS
 10
5.3816338393
 20
7.8168911113
 11
6.2373388309
 21
7.8168911113
  0
SOLID
  8
___SYMBOL
 62
7
  6
CONTINUOUS
 10
5.3816338393
 20
7.7552411247
 11
5.3816338393
 21
7.8168911149
 12
6.2373388309
 22
7.8168911149
 13
6.2373388309
 23
7.8168911149
  0
SOLID
  8
___SYMBOL
 62
7
  6
CONTINUOUS
 10
6.2373388309
 20
7.8168911149
 11
6.2373388309
 21
7.7552411247
 12
5.3816338393
 22
7.7552411247
 13
5.3816338393
 23
7.7552411247
  0
ENDBLK
  8
0
  6
BYBLOCK
 62
0
  0
BLOCK
  8
___SYMBOL
 62
2
  6
CONTINUOUS
  2
TEMPLATE_NUMBER_BL2
 70
64
 10
5.6590724215
 20
3.086160464
  0
TEXT
  8
___SYMBOL
 62
2
  6
CONTINUOUS
 10
5.3488725191
 20
3.050910475
  7
STANDARD
 40
0.0704999778
  1
1093326-7
 41
0.8
 72
0
  0
TEXT
  8
___SYMBOL
 62
2
  6
CONTINUOUS
 10
5.8564723595
 20
3.050910475
  7
STANDARD
 40
0.0704999778
  1
-
 41
0.8
 72
0
  0
TEXT
  8
___SYMBOL
 62
2
  6
CONTINUOUS
 10
5.9128723418
 20
3.050910475
  7
STANDARD
 40
0.0704999778
  1
B
 41
0.8
 72
0
  0
ENDBLK
  8
0
  6
BYBLOCK
 62
0
  0
BLOCK
  8
___SYMBOL
 62
2
  6
CONTINUOUS
  2
TEMPLATE_NUMBER_BL3
 70
64
 10
5.6777464952
 20
1.3698184242
  0
TEXT
  8
___SYMBOL
 62
2
  6
CONTINUOUS
 10
5.3675465927
 20
1.3345684353
  7
STANDARD
 40
0.0704999778
  1
1093326-7
 41
0.8
 72
0
  0
TEXT
  8
___SYMBOL
 62
2
  6
CONTINUOUS
 10
5.8751464332
 20
1.3345684353
  7
STANDARD
 40
0.0704999778
  1
-
 41
0.8
 72
0
  0
TEXT
  8
___SYMBOL
 62
2
  6
CONTINUOUS
 10
5.9315464154
 20
1.3345684353
  7
STANDARD
 40
0.0704999778
  1
B
 41
0.8
 72
0
  0
ENDBLK
  8
0
  6
BYBLOCK
 62
0
  0
BLOCK
  8
___SYMBOL
 62
2
  6
CONTINUOUS
  2
WHEN_PLOTTING_TEMPLATE_N_BL4
 70
64
 10
16.4725230674
 20
6.7296396988
  0
TEXT
  8
___SYMBOL
 62
2
  6
CONTINUOUS
 10
13.160022835
 20
7.9405772838
  7
STANDARD
 40
0.156250011
  1
WHEN PLOTTING TEMPLATE FULL SIZE:
 41
0.8
 72
0
  0
TEXT
  8
___SYMBOL
 62
2
  6
CONTINUOUS
 10
13.160022835
 20
7.7062022673
  7
STANDARD
 40
0.156250011
  1
Make sure horizontal and vertical dimensions
 41
0.8
 72
0
  0
TEXT
  8
___SYMBOL
 62
2
  6
CONTINUOUS
 10
13.160022835
 20
7.4718272509
  7
STANDARD
 40
0.156250011
  1
match the dimensions labeled on the template.
 41
0.8
 72
0
  0
TEXT
  8
___SYMBOL
 62
2
  6
CONTINUOUS
 10
13.160022835
 20
7.2374522344
  7
STANDARD
 40
0.156250011
  1
 
 41
0.8
 72
0
  0
TEXT
  8
___SYMBOL
 62
2
  6
CONTINUOUS
 10
13.160022835
 20
7.003077218
  7
STANDARD
 40
0.156250011
  1
AL TRAZAR LA PLANTILLA A ESCALA,
 41
0.8
 72
0
  0
TEXT
  8
___SYMBOL
 62
2
  6
CONTINUOUS
 10
13.160022835
 20
6.7687022015
  7
STANDARD
 40
0.156250011
  1
asegúrese de que las dimensiones horizontales
 41
0.8
 72
0
  0
TEXT
  8
___SYMBOL
 62
2
  6
CONTINUOUS
 10
13.160022835
 20
6.5343271851
  7
STANDARD
 40
0.156250011
  1
y verticales concuerden con las dimensiones marcadas
 41
0.8
 72
0
  0
TEXT
  8
___SYMBOL
 62
2
  6
CONTINUOUS
 10
13.160022835
 20
6.2999521687
  7
STANDARD
 40
0.156250011
  1
en la plantilla.
 41
0.8
 72
0
  0
TEXT
  8
___SYMBOL
 62
2
  6
CONTINUOUS
 10
13.160022835
 20
6.0655771522
  7
STANDARD
 40
0.156250011
  1
 
 41
0.8
 72
0
  0
TEXT
  8
___SYMBOL
 62
2
  6
CONTINUOUS
 10
13.160022835
 20
5.8312021358
  7
STANDARD
 40
0.156250011
  1
AU MOMENT DE TRACER LA DÉCOUPE À L'ÉCHELLE,
 41
0.8
 72
0
  0
TEXT
  8
___SYMBOL
 62
2
  6
CONTINUOUS
 10
13.160022835
 20
5.5968271193
  7
STANDARD
 40
0.156250011
  1
Assurez vos que les dimensions horizotales et
 41
0.8
 72
0
  0
TEXT
  8
___SYMBOL
 62
2
  6
CONTINUOUS
 10
13.160022835
 20
5.3624521029
  7
STANDARD
 40
0.156250011
  1
verticales correspondent avec les dimensions du plan.
 41
0.8
 72
0
  0
ENDBLK
  8
0
  6
BYBLOCK
 62
0
  0
BLOCK
  8
___SYMBOL
 62
2
  6
CONTINUOUS
  2
CUT-OUT_TEMPLATE_SKU_SIN_BL5
 70
64
 10
7.6450517153
 20
16.5437493226
  0
TEXT
  8
___SYMBOL
 62
2
  6
CONTINUOUS
 10
4.2450515944
 20
17.3283034744
  7
STANDARD
 40
0.2500000089
  1
CUT-OUT TEMPLATE
 41
0.8
 72
0
  0
TEXT
  8
___SYMBOL
 62
2
  6
CONTINUOUS
 10
4.2450515944
 20
16.953303461
  7
STANDARD
 40
0.2500000089
  1
UNDERCOUNTER SINK
 41
0.8
 72
0
  0
TEXT
  8
___SYMBOL
 62
2
  6
CONTINUOUS
 10
4.2450515944
 20
16.5783034477
  7
STANDARD
 40
0.2500000089
  1
PLANTILLA DE RECORTE
 41
0.8
 72
0
  0
TEXT
  8
___SYMBOL
 62
2
  6
CONTINUOUS
 10
4.2450515944
 20
16.2033034344
  7
STANDARD
 40
0.2500000089
  1
FREGADERO MONTADO DEBAJO
 41
0.8
 72
0
  0
TEXT
  8
___SYMBOL
 62
2
  6
CONTINUOUS
 10
4.2450515944
 20
15.828303421
  7
STANDARD
 40
0.2500000089
  1
  DEL MOSTRADOR
 41
0.8
 72
0
  0
TEXT
  8
___SYMBOL
 62
2
  6
CONTINUOUS
 10
4.2450515944
 20
15.4533034077
  7
STANDARD
 40
0.2500000089
  1
PLAN DE DÉCOUPE
 41
0.8
 72
0
  0
TEXT
  8
___SYMBOL
 62
2
  6
CONTINUOUS
 10
4.2450515944
 20
15.0783033944
  7
STANDARD
 40
0.2500000089
  1
ÉVIER SOUS-COMPTOIR
 41
0.8
 72
0
  0
TEXT
  8
___SYMBOL
 62
2
  6
CONTINUOUS
 10
4.2450515944
 20
14.7033033811
  7
STANDARD
 40
0.2500000089
  1
18 X 18 ENTERTAINMENT
 41
0.8
 72
0
  0
TEXT
  8
___SYMBOL
 62
2
  6
CONTINUOUS
 10
8.4450517437
 20
14.7033033811
  7
STANDARD
 40
0.2500000089
  1
   
 41
0.8
 72
0
  0
TEXT
  8
___SYMBOL
 62
2
  6
CONTINUOUS
 10
9.045051765
 20
14.7033033811
  7
STANDARD
 40
0.2500000089
  1
3671
 41
0.8
 72
0
  0
TEXT
  8
___SYMBOL
 62
2
  6
CONTINUOUS
 10
9.8450517935
 20
14.7033033811
  7
STANDARD
 40
0.2500000089
  1
-**-
 41
0.8
 72
0
  0
TEXT
  8
___SYMBOL
 62
2
  6
CONTINUOUS
 10
10.6450518219
 20
14.7033033811
  7
STANDARD
 40
0.2500000089
  1
AA
 41
0.8
 72
0
  0
LINE
  8
___SYMBOL
 62
2
  6
CONTINUOUS
 10
4.7716233893
 20
18.3802167496
 11
4.5583199298
 21
18.1265684676
  0
LINE
  8
___SYMBOL
 62
2
  6
CONTINUOUS
 10
4.5795615704
 20
18.3802167496
 11
4.7716233893
 21
18.3802167496
  0
LINE
  8
___SYMBOL
 62
2
  6
CONTINUOUS
 10
4.5795615704
 20
18.3802167496
 11
4.4417973988
 21
18.2163955541
  0
LINE
  8
___SYMBOL
 62
2
  6
CONTINUOUS
 10
4.4417973988
 20
18.3802167496
 11
4.4417973988
 21
18.2163955541
  0
LINE
  8
___SYMBOL
 62
2
  6
CONTINUOUS
 10
4.2672971656
 20
18.3802167496
 11
4.4417973988
 21
18.3802167496
  0
LINE
  8
___SYMBOL
 62
2
  6
CONTINUOUS
 10
4.2672971656
 20
18.3802167496
 11
4.2672971656
 21
17.7942790759
  0
LINE
  8
___SYMBOL
 62
2
  6
CONTINUOUS
 10
4.4417973988
 20
17.7943030794
 11
4.2672971656
 21
17.7942790759
  0
LINE
  8
___SYMBOL
 62
2
  6
CONTINUOUS
 10
4.4417973988
 20
17.9958029206
 11
4.4417973988
 21
17.7943030794
  0
LINE
  8
___SYMBOL
 62
2
  6
CONTINUOUS
 10
4.5955353443
 20
17.7943030794
 11
4.4417973988
 21
17.9958029206
  0
LINE
  8
___SYMBOL
 62
2
  6
CONTINUOUS
 10
4.5955353443
 20
17.7943030794
 11
4.8118277735
 21
17.7943030794
  0
LINE
  8
___SYMBOL
 62
2
  6
CONTINUOUS
 10
4.8118277735
 20
17.7943030794
 11
4.5583199298
 21
18.1265684676
  0
SOLID
  8
___SYMBOL
 62
2
  6
CONTINUOUS
 10
4.4417973988
 20
18.2163955541
 11
4.5795615704
 21
18.3802167496
 12
4.7716233893
 22
18.3802167496
 13
4.7716233893
 23
18.3802167496
  0
SOLID
  8
___SYMBOL
 62
2
  6
CONTINUOUS
 10
4.7716233893
 20
18.3802167496
 11
4.5583199298
 21
18.1265684676
 12
4.4417973988
 22
18.2163955541
 13
4.4417973988
 23
18.2163955541
  0
SOLID
  8
___SYMBOL
 62
2
  6
CONTINUOUS
 10
4.4417973988
 20
17.9958029206
 11
4.5583199298
 21
18.1265684676
 12
4.5955353443
 22
17.7943030794
 13
4.5955353443
 23
17.7943030794
  0
SOLID
  8
___SYMBOL
 62
2
  6
CONTINUOUS
 10
4.5583199298
 20
18.1265684676
 11
4.8118277735
 21
17.7943030794
 12
4.5955353443
 22
17.7943030794
 13
4.5955353443
 23
17.7943030794
  0
SOLID
  8
___SYMBOL
 62
2
  6
CONTINUOUS
 10
4.4417973988
 20
17.7943030794
 11
4.2672971656
 21
17.7942790759
 12
4.4417973988
 22
17.9958029206
 13
4.4417973988
 23
17.9958029206
  0
SOLID
  8
___SYMBOL
 62
2
  6
CONTINUOUS
 10
4.5583199298
 20
18.1265684676
 11
4.4417973988
 21
17.9958029206
 12
4.4417973988
 22
18.2163955541
 13
4.4417973988
 23
18.2163955541
  0
SOLID
  8
___SYMBOL
 62
2
  6
CONTINUOUS
 10
4.4417973988
 20
17.9958029206
 11
4.2672971656
 21
17.7942790759
 12
4.4417973988
 22
18.2163955541
 13
4.4417973988
 23
18.2163955541
  0
SOLID
  8
___SYMBOL
 62
2
  6
CONTINUOUS
 10
4.4417973988
 20
18.2163955541
 11
4.2672971656
 21
17.7942790759
 12
4.4417973988
 22
18.3802167496
 13
4.4417973988
 23
18.3802167496
  0
SOLID
  8
___SYMBOL
 62
2
  6
CONTINUOUS
 10
4.2672971656
 20
17.7942790759
 11
4.2672971656
 21
18.3802167496
 12
4.4417973988
 22
18.3802167496
 13
4.4417973988
 23
18.3802167496
  0
CIRCLE
  8
___SYMBOL
 62
2
  6
CONTINUOUS
 10
4.9883366165
 20
18.0861386626
 40
0.2980566016
  0
CIRCLE
  8
___SYMBOL
 62
2
  6
CONTINUOUS
 10
4.9883366165
 20
18.0861386626
 40
0.1247694195
  0
SOLID
  8
___SYMBOL
 62
2
  6
CONTINUOUS
 10
4.8962320613
 20
18.3696073358
 11
4.9571812179
 21
18.3825624789
 12
5.019492015
 22
18.3825624789
 13
5.019492015
 23
18.3825624789
  0
SOLID
  8
___SYMBOL
 62
2
  6
CONTINUOUS
 10
5.019492015
 20
18.3825624789
 11
5.0804411717
 21
18.3696073358
 12
4.8962320613
 22
18.3696073358
 13
4.8962320613
 23
18.3696073358
  0
SOLID
  8
___SYMBOL
 62
2
  6
CONTINUOUS
 10
4.8393083157
 20
18.3442632513
 11
4.8962320613
 21
18.3696073358
 12
5.0804411717
 22
18.3696073358
 13
5.0804411717
 23
18.3696073358
  0
SOLID
  8
___SYMBOL
 62
2
  6
CONTINUOUS
 10
5.0804411717
 20
18.3696073358
 11
5.1373649173
 21
18.3442632513
 12
4.8393083157
 22
18.3442632513
 13
4.8393083157
 23
18.3442632513
  0
SOLID
  8
___SYMBOL
 62
2
  6
CONTINUOUS
 10
4.7888978219
 20
18.3076378838
 11
4.8393083157
 21
18.3442632513
 12
5.1373649173
 22
18.3442632513
 13
5.1373649173
 23
18.3442632513
  0
SOLID
  8
___SYMBOL
 62
2
  6
CONTINUOUS
 10
5.1373649173
 20
18.3442632513
 11
5.187775411
 21
18.3076378838
 12
4.7888978219
 22
18.3076378838
 13
4.7888978219
 23
18.3076378838
  0
SOLID
  8
___SYMBOL
 62
2
  6
CONTINUOUS
 10
4.7472037605
 20
18.2613319374
 11
4.7888978219
 21
18.3076378838
 12
5.187775411
 22
18.3076378838
 13
5.187775411
 23
18.3076378838
  0
SOLID
  8
___SYMBOL
 62
2
  6
CONTINUOUS
 10
5.187775411
 20
18.3076378838
 11
5.2294694724
 21
18.2613319374
 12
4.7472037605
 22
18.2613319374
 13
4.7472037605
 23
18.2613319374
  0
SOLID
  8
___SYMBOL
 62
2
  6
CONTINUOUS
 10
4.9883366165
 20
18.2109080821
 11
4.716048362
 21
18.2073692042
 12
5.2294694724
 22
18.2613319374
 13
5.2294694724
 23
18.2613319374
  0
SOLID
  8
___SYMBOL
 62
2
  6
CONTINUOUS
 10
4.716048362
 20
18.2073692042
 11
4.7472037605
 21
18.2613319374
 12
5.2294694724
 22
18.2613319374
 13
5.2294694724
 23
18.2613319374
  0
SOLID
  8
___SYMBOL
 62
2
  6
CONTINUOUS
 10
5.2294694724
 20
18.2613319374
 11
5.260624871
 21
18.2073692042
 12
4.9883366165
 22
18.2109080821
 13
4.9883366165
 23
18.2109080821
  0
SOLID
  8
___SYMBOL
 62
2
  6
CONTINUOUS
 10
4.9883366165
 20
18.2109080821
 11
4.9497807455
 21
18.2048014321
 12
4.716048362
 22
18.2073692042
 13
4.716048362
 23
18.2073692042
  0
SOLID
  8
___SYMBOL
 62
2
  6
CONTINUOUS
 10
5.0268924875
 20
18.2048014321
 11
4.9883366165
 21
18.2109080821
 12
5.260624871
 22
18.2073692042
 13
5.260624871
 23
18.2073692042
  0
SOLID
  8
___SYMBOL
 62
2
  6
CONTINUOUS
 10
4.8873960357
 20
18.1594762873
 11
4.6967932668
 21
18.1481081146
 12
4.9149989917
 22
18.1870792434
 13
4.9149989917
 23
18.1870792434
  0
SOLID
  8
___SYMBOL
 62
2
  6
CONTINUOUS
 10
4.9149989917
 20
18.1870792434
 11
4.6967932668
 21
18.1481081146
 12
4.9497807455
 22
18.2048014321
 13
4.9497807455
 23
18.2048014321
  0
SOLID
  8
___SYMBOL
 62
2
  6
CONTINUOUS
 10
4.6967932668
 20
18.1481081146
 11
4.716048362
 21
18.2073692042
 12
4.9497807455
 22
18.2048014321
 13
4.9497807455
 23
18.2048014321
  0
SOLID
  8
___SYMBOL
 62
2
  6
CONTINUOUS
 10
5.0268924875
 20
18.2048014321
 11
5.260624871
 21
18.2073692042
 12
5.0616742412
 22
18.1870792434
 13
5.0616742412
 23
18.1870792434
  0
SOLID
  8
___SYMBOL
 62
2
  6
CONTINUOUS
 10
5.0616742412
 20
18.1870792434
 11
5.260624871
 21
18.2073692042
 12
5.0892771972
 22
18.1594762873
 13
5.0892771972
 23
18.1594762873
  0
SOLID
  8
___SYMBOL
 62
2
  6
CONTINUOUS
 10
5.260624871
 20
18.2073692042
 11
5.2798799662
 21
18.1481081146
 12
5.0892771972
 22
18.1594762873
 13
5.0892771972
 23
18.1594762873
  0
SOLID
  8
___SYMBOL
 62
2
  6
CONTINUOUS
 10
4.8873960357
 20
18.1594762873
 11
4.869673847
 21
18.1246945336
 12
4.6967932668
 22
18.1481081146
 13
4.6967932668
 23
18.1481081146
  0
SOLID
  8
___SYMBOL
 62
2
  6
CONTINUOUS
 10
5.1069993859
 20
18.1246945336
 11
5.0892771972
 21
18.1594762873
 12
5.2798799662
 22
18.1481081146
 13
5.2798799662
 23
18.1481081146
  0
SOLID
  8
___SYMBOL
 62
2
  6
CONTINUOUS
 10
4.6902800149
 20
18.0861386626
 11
4.6967932668
 21
18.1481081146
 12
4.869673847
 22
18.1246945336
 13
4.869673847
 23
18.1246945336
  0
SOLID
  8
___SYMBOL
 62
2
  6
CONTINUOUS
 10
4.869673847
 20
18.1246945336
 11
4.863567197
 21
18.0861386626
 12
4.6902800149
 22
18.0861386626
 13
4.6902800149
 23
18.0861386626
  0
SOLID
  8
___SYMBOL
 62
2
  6
CONTINUOUS
 10
5.1069993859
 20
18.1246945336
 11
5.2798799662
 21
18.1481081146
 12
5.113106036
 22
18.0861386626
 13
5.113106036
 23
18.0861386626
  0
SOLID
  8
___SYMBOL
 62
2
  6
CONTINUOUS
 10
5.2798799662
 20
18.1481081146
 11
5.2863932181
 21
18.0861386626
 12
5.113106036
 22
18.0861386626
 13
5.113106036
 23
18.0861386626
  0
SOLID
  8
___SYMBOL
 62
2
  6
CONTINUOUS
 10
5.1069993859
 20
18.0475827916
 11
5.113106036
 21
18.0861386626
 12
5.2863932181
 22
18.0861386626
 13
5.2863932181
 23
18.0861386626
  0
SOLID
  8
___SYMBOL
 62
2
  6
CONTINUOUS
 10
4.869673847
 20
18.0475827916
 11
4.6967932668
 21
18.0241692106
 12
4.863567197
 22
18.0861386626
 13
4.863567197
 23
18.0861386626
  0
SOLID
  8
___SYMBOL
 62
2
  6
CONTINUOUS
 10
4.6967932668
 20
18.0241692106
 11
4.6902800149
 21
18.0861386626
 12
4.863567197
 22
18.0861386626
 13
4.863567197
 23
18.0861386626
  0
SOLID
  8
___SYMBOL
 62
2
  6
CONTINUOUS
 10
5.2863932181
 20
18.0861386626
 11
5.2798799662
 21
18.0241692106
 12
5.1069993859
 22
18.0475827916
 13
5.1069993859
 23
18.0475827916
  0
SOLID
  8
___SYMBOL
 62
2
  6
CONTINUOUS
 10
4.869673847
 20
18.0475827916
 11
4.8873960357
 21
18.0128010379
 12
4.6967932668
 22
18.0241692106
 13
4.6967932668
 23
18.0241692106
  0
SOLID
  8
___SYMBOL
 62
2
  6
CONTINUOUS
 10
5.0892771972
 20
18.0128010379
 11
5.1069993859
 21
18.0475827916
 12
5.2798799662
 22
18.0241692106
 13
5.2798799662
 23
18.0241692106
  0
SOLID
  8
___SYMBOL
 62
2
  6
CONTINUOUS
 10
4.9497807455
 20
17.9674758931
 11
4.716048362
 21
17.964908121
 12
4.9149989917
 22
17.9851980818
 13
4.9149989917
 23
17.9851980818
  0
SOLID
  8
___SYMBOL
 62
2
  6
CONTINUOUS
 10
4.9149989917
 20
17.9851980818
 11
4.716048362
 21
17.964908121
 12
4.8873960357
 22
18.0128010379
 13
4.8873960357
 23
18.0128010379
  0
SOLID
  8
___SYMBOL
 62
2
  6
CONTINUOUS
 10
4.716048362
 20
17.964908121
 11
4.6967932668
 21
18.0241692106
 12
4.8873960357
 22
18.0128010379
 13
4.8873960357
 23
18.0128010379
  0
SOLID
  8
___SYMBOL
 62
2
  6
CONTINUOUS
 10
5.0892771972
 20
18.0128010379
 11
5.2798799662
 21
18.0241692106
 12
5.0616742412
 22
17.9851980818
 13
5.0616742412
 23
17.9851980818
  0
SOLID
  8
___SYMBOL
 62
2
  6
CONTINUOUS
 10
5.0616742412
 20
17.9851980818
 11
5.2798799662
 21
18.0241692106
 12
5.0268924875
 22
17.9674758931
 13
5.0268924875
 23
17.9674758931
  0
SOLID
  8
___SYMBOL
 62
2
  6
CONTINUOUS
 10
5.2798799662
 20
18.0241692106
 11
5.260624871
 21
17.964908121
 12
5.0268924875
 22
17.9674758931
 13
5.0268924875
 23
17.9674758931
  0
SOLID
  8
___SYMBOL
 62
2
  6
CONTINUOUS
 10
4.9497807455
 20
17.9674758931
 11
4.9883366165
 21
17.9613692431
 12
4.716048362
 22
17.964908121
 13
4.716048362
 23
17.964908121
  0
SOLID
  8
___SYMBOL
 62
2
  6
CONTINUOUS
 10
4.9883366165
 20
17.9613692431
 11
5.0268924875
 21
17.9674758931
 12
5.260624871
 22
17.964908121
 13
5.260624871
 23
17.964908121
  0
SOLID
  8
___SYMBOL
 62
2
  6
CONTINUOUS
 10
4.7472037605
 20
17.9109453878
 11
4.716048362
 21
17.964908121
 12
4.9883366165
 22
17.9613692431
 13
4.9883366165
 23
17.9613692431
  0
SOLID
  8
___SYMBOL
 62
2
  6
CONTINUOUS
 10
4.9883366165
 20
17.9613692431
 11
5.260624871
 21
17.964908121
 12
4.7472037605
 22
17.9109453878
 13
4.7472037605
 23
17.9109453878
  0
SOLID
  8
___SYMBOL
 62
2
  6
CONTINUOUS
 10
5.260624871
 20
17.964908121
 11
5.2294694724
 21
17.9109453878
 12
4.7472037605
 22
17.9109453878
 13
4.7472037605
 23
17.9109453878
  0
SOLID
  8
___SYMBOL
 62
2
  6
CONTINUOUS
 10
4.7888978219
 20
17.8646394414
 11
4.7472037605
 21
17.9109453878
 12
5.2294694724
 22
17.9109453878
 13
5.2294694724
 23
17.9109453878
  0
SOLID
  8
___SYMBOL
 62
2
  6
CONTINUOUS
 10
5.2294694724
 20
17.9109453878
 11
5.187775411
 21
17.8646394414
 12
4.7888978219
 22
17.8646394414
 13
4.7888978219
 23
17.8646394414
  0
SOLID
  8
___SYMBOL
 62
2
  6
CONTINUOUS
 10
4.8393083157
 20
17.8280140739
 11
4.7888978219
 21
17.8646394414
 12
5.187775411
 22
17.8646394414
 13
5.187775411
 23
17.8646394414
  0
SOLID
  8
___SYMBOL
 62
2
  6
CONTINUOUS
 10
5.187775411
 20
17.8646394414
 11
5.1373649173
 21
17.8280140739
 12
4.8393083157
 22
17.8280140739
 13
4.8393083157
 23
17.8280140739
  0
SOLID
  8
___SYMBOL
 62
2
  6
CONTINUOUS
 10
4.8962320613
 20
17.8026699894
 11
4.8393083157
 21
17.8280140739
 12
5.1373649173
 22
17.8280140739
 13
5.1373649173
 23
17.8280140739
  0
SOLID
  8
___SYMBOL
 62
2
  6
CONTINUOUS
 10
5.1373649173
 20
17.8280140739
 11
5.0804411717
 21
17.8026699894
 12
4.8962320613
 22
17.8026699894
 13
4.8962320613
 23
17.8026699894
  0
SOLID
  8
___SYMBOL
 62
2
  6
CONTINUOUS
 10
4.9571812179
 20
17.7897148463
 11
4.8962320613
 21
17.8026699894
 12
5.0804411717
 22
17.8026699894
 13
5.0804411717
 23
17.8026699894
  0
SOLID
  8
___SYMBOL
 62
2
  6
CONTINUOUS
 10
5.0804411717
 20
17.8026699894
 11
5.019492015
 21
17.7897148463
 12
4.9571812179
 22
17.7897148463
 13
4.9571812179
 23
17.7897148463
  0
LINE
  8
___SYMBOL
 62
2
  6
CONTINUOUS
 10
5.7809726539
 20
18.3802167496
 11
5.7809726539
 21
17.7943030794
  0
LINE
  8
___SYMBOL
 62
2
  6
CONTINUOUS
 10
5.7809726539
 20
17.7943030794
 11
5.6162389681
 21
17.7943030794
  0
LINE
  8
___SYMBOL
 62
2
  6
CONTINUOUS
 10
5.6162389681
 20
18.0226276973
 11
5.6162389681
 21
17.7943030794
  0
LINE
  8
___SYMBOL
 62
2
  6
CONTINUOUS
 10
5.4682421518
 20
18.0226276973
 11
5.6162389681
 21
18.0226276973
  0
LINE
  8
___SYMBOL
 62
2
  6
CONTINUOUS
 10
5.4682421518
 20
18.0226276973
 11
5.4682421518
 21
17.7943030794
  0
LINE
  8
___SYMBOL
 62
2
  6
CONTINUOUS
 10
5.4682421518
 20
17.7943030794
 11
5.3035084661
 21
17.7943030794
  0
LINE
  8
___SYMBOL
 62
2
  6
CONTINUOUS
 10
5.3035084661
 20
18.3802167496
 11
5.3035084661
 21
17.7943030794
  0
LINE
  8
___SYMBOL
 62
2
  6
CONTINUOUS
 10
5.3035084661
 20
18.3802167496
 11
5.4682421518
 21
18.3802167496
  0
LINE
  8
___SYMBOL
 62
2
  6
CONTINUOUS
 10
5.4682421518
 20
18.3802167496
 11
5.4682421518
 21
18.1598329821
  0
LINE
  8
___SYMBOL
 62
2
  6
CONTINUOUS
 10
5.4682421518
 20
18.1598329821
 11
5.6162389681
 21
18.1598329821
  0
LINE
  8
___SYMBOL
 62
2
  6
CONTINUOUS
 10
5.6162389681
 20
18.3802167496
 11
5.6162389681
 21
18.1598329821
  0
LINE
  8
___SYMBOL
 62
2
  6
CONTINUOUS
 10
5.6162389681
 20
18.3802167496
 11
5.7809726539
 21
18.3802167496
  0
SOLID
  8
___SYMBOL
 62
2
  6
CONTINUOUS
 10
5.6162389681
 20
18.1598329821
 11
5.6162389681
 21
18.3802167496
 12
5.7809726539
 22
18.3802167496
 13
5.7809726539
 23
18.3802167496
  0
SOLID
  8
___SYMBOL
 62
2
  6
CONTINUOUS
 10
5.6162389681
 20
18.1598329821
 11
5.4682421518
 21
18.0226276973
 12
5.4682421518
 22
18.1598329821
 13
5.4682421518
 23
18.1598329821
  0
SOLID
  8
___SYMBOL
 62
2
  6
CONTINUOUS
 10
5.4682421518
 20
18.0226276973
 11
5.3035084661
 21
17.7943030794
 12
5.4682421518
 22
18.1598329821
 13
5.4682421518
 23
18.1598329821
  0
SOLID
  8
___SYMBOL
 62
2
  6
CONTINUOUS
 10
5.4682421518
 20
18.1598329821
 11
5.3035084661
 21
17.7943030794
 12
5.4682421518
 22
18.3802167496
 13
5.4682421518
 23
18.3802167496
  0
SOLID
  8
___SYMBOL
 62
2
  6
CONTINUOUS
 10
5.3035084661
 20
17.7943030794
 11
5.3035084661
 21
18.3802167496
 12
5.4682421518
 22
18.3802167496
 13
5.4682421518
 23
18.3802167496
  0
SOLID
  8
___SYMBOL
 62
2
  6
CONTINUOUS
 10
5.4682421518
 20
18.0226276973
 11
5.4682421518
 21
17.7943030794
 12
5.3035084661
 22
17.7943030794
 13
5.3035084661
 23
17.7943030794
  0
SOLID
  8
___SYMBOL
 62
2
  6
CONTINUOUS
 10
5.4682421518
 20
18.0226276973
 11
5.6162389681
 21
18.1598329821
 12
5.6162389681
 22
18.0226276973
 13
5.6162389681
 23
18.0226276973
  0
SOLID
  8
___SYMBOL
 62
2
  6
CONTINUOUS
 10
5.6162389681
 20
18.1598329821
 11
5.7809726539
 21
18.3802167496
 12
5.6162389681
 22
18.0226276973
 13
5.6162389681
 23
18.0226276973
  0
SOLID
  8
___SYMBOL
 62
2
  6
CONTINUOUS
 10
5.6162389681
 20
18.0226276973
 11
5.7809726539
 21
18.3802167496
 12
5.6162389681
 22
17.7943030794
 13
5.6162389681
 23
17.7943030794
  0
SOLID
  8
___SYMBOL
 62
2
  6
CONTINUOUS
 10
5.7809726539
 20
18.3802167496
 11
5.7809726539
 21
17.7943030794
 12
5.6162389681
 22
17.7943030794
 13
5.6162389681
 23
17.7943030794
  0
LINE
  8
___SYMBOL
 62
2
  6
CONTINUOUS
 10
5.9760635677
 20
17.7943030794
 11
6.1387476435
 21
17.7943030794
  0
LINE
  8
___SYMBOL
 62
2
  6
CONTINUOUS
 10
5.9760635677
 20
17.7943030794
 11
5.8260174997
 21
17.7943030794
  0
LINE
  8
___SYMBOL
 62
2
  6
CONTINUOUS
 10
5.8260174997
 20
17.7943030794
 11
5.8260174997
 21
18.3802167496
  0
LINE
  8
___SYMBOL
 62
2
  6
CONTINUOUS
 10
5.8260174997
 20
18.3802167496
 11
5.9760635677
 21
18.3802167496
  0
LINE
  8
___SYMBOL
 62
2
  6
CONTINUOUS
 10
5.9760635677
 20
18.3802167496
 11
5.9760635677
 21
17.9355298416
  0
LINE
  8
___SYMBOL
 62
2
  6
CONTINUOUS
 10
5.9760635677
 20
17.9355298416
 11
6.1387476435
 21
17.9355298416
  0
LINE
  8
___SYMBOL
 62
2
  6
CONTINUOUS
 10
6.1387476435
 20
17.9355298416
 11
6.1387476435
 21
17.7943030794
  0
SOLID
  8
___SYMBOL
 62
2
  6
CONTINUOUS
 10
6.1387476435
 20
17.9355298416
 11
5.8260174997
 21
17.7943030794
 12
5.9760635677
 22
17.9355298416
 13
5.9760635677
 23
17.9355298416
  0
SOLID
  8
___SYMBOL
 62
2
  6
CONTINUOUS
 10
5.9760635677
 20
17.9355298416
 11
5.8260174997
 21
17.7943030794
 12
5.9760635677
 22
18.3802167496
 13
5.9760635677
 23
18.3802167496
  0
SOLID
  8
___SYMBOL
 62
2
  6
CONTINUOUS
 10
5.8260174997
 20
17.7943030794
 11
5.8260174997
 21
18.3802167496
 12
5.9760635677
 22
18.3802167496
 13
5.9760635677
 23
18.3802167496
  0
SOLID
  8
___SYMBOL
 62
2
  6
CONTINUOUS
 10
5.8260174997
 20
17.7943030794
 11
6.1387476435
 21
17.9355298416
 12
5.9760635677
 22
17.7943030794
 13
5.9760635677
 23
17.7943030794
  0
SOLID
  8
___SYMBOL
 62
2
  6
CONTINUOUS
 10
6.1387476435
 20
17.9355298416
 11
6.1387476435
 21
17.7943030794
 12
5.9760635677
 22
17.7943030794
 13
5.9760635677
 23
17.7943030794
  0
LINE
  8
___SYMBOL
 62
2
  6
CONTINUOUS
 10
6.4769995695
 20
18.0154513754
 11
6.4769995695
 21
18.1598329821
  0
LINE
  8
___SYMBOL
 62
2
  6
CONTINUOUS
 10
6.3261420408
 20
18.1598329821
 11
6.4769995695
 21
18.1598329821
  0
LINE
  8
___SYMBOL
 62
2
  6
CONTINUOUS
 10
6.3261420408
 20
18.2374573477
 11
6.3261420408
 21
18.1598329821
  0
LINE
  8
___SYMBOL
 62
2
  6
CONTINUOUS
 10
6.3261420408
 20
18.2374573477
 11
6.4769995695
 21
18.2374573477
  0
LINE
  8
___SYMBOL
 62
2
  6
CONTINUOUS
 10
6.4769995695
 20
18.2374573477
 11
6.4769995695
 21
18.3802167496
  0
LINE
  8
___SYMBOL
 62
2
  6
CONTINUOUS
 10
6.3403463646
 20
18.3802167496
 11
6.4769995695
 21
18.3802167496
  0
LINE
  8
___SYMBOL
 62
2
  6
CONTINUOUS
 10
6.1678953832
 20
18.3802167496
 11
6.3403463646
 21
18.3802167496
  0
LINE
  8
___SYMBOL
 62
2
  6
CONTINUOUS
 10
6.1678953832
 20
17.7943030794
 11
6.1678953832
 21
18.3802167496
  0
LINE
  8
___SYMBOL
 62
2
  6
CONTINUOUS
 10
6.1678953832
 20
17.7943030794
 11
6.4769995695
 21
17.7943030794
  0
LINE
  8
___SYMBOL
 62
2
  6
CONTINUOUS
 10
6.4769995695
 20
17.7943030794
 11
6.4769995695
 21
17.9355298416
  0
LINE
  8
___SYMBOL
 62
2
  6
CONTINUOUS
 10
6.3261420408
 20
17.9355298416
 11
6.4769995695
 21
17.9355298416
  0
LINE
  8
___SYMBOL
 62
2
  6
CONTINUOUS
 10
6.3261420408
 20
18.0154513754
 11
6.3261420408
 21
17.9355298416
  0
LINE
  8
___SYMBOL
 62
2
  6
CONTINUOUS
 10
6.3261420408
 20
18.0154513754
 11
6.4769995695
 21
18.0154513754
  0
SOLID
  8
___SYMBOL
 62
2
  6
CONTINUOUS
 10
6.4769995695
 20
18.3802167496
 11
6.4769995695
 21
18.2374573477
 12
6.3261420408
 22
18.2374573477
 13
6.3261420408
 23
18.2374573477
  0
SOLID
  8
___SYMBOL
 62
2
  6
CONTINUOUS
 10
6.4769995695
 20
18.1598329821
 11
6.4769995695
 21
18.0154513754
 12
6.3261420408
 22
18.0154513754
 13
6.3261420408
 23
18.0154513754
  0
SOLID
  8
___SYMBOL
 62
2
  6
CONTINUOUS
 10
6.4769995695
 20
17.9355298416
 11
6.1678953832
 21
17.7943030794
 12
6.3261420408
 22
17.9355298416
 13
6.3261420408
 23
17.9355298416
  0
SOLID
  8
___SYMBOL
 62
2
  6
CONTINUOUS
 10
6.3261420408
 20
17.9355298416
 11
6.1678953832
 21
17.7943030794
 12
6.3261420408
 22
18.0154513754
 13
6.3261420408
 23
18.0154513754
  0
SOLID
  8
___SYMBOL
 62
2
  6
CONTINUOUS
 10
6.4769995695
 20
18.1598329821
 11
6.3261420408
 21
18.0154513754
 12
6.3261420408
 22
18.1598329821
 13
6.3261420408
 23
18.1598329821
  0
SOLID
  8
___SYMBOL
 62
2
  6
CONTINUOUS
 10
6.3261420408
 20
18.0154513754
 11
6.1678953832
 21
17.7943030794
 12
6.3261420408
 22
18.1598329821
 13
6.3261420408
 23
18.1598329821
  0
SOLID
  8
___SYMBOL
 62
2
  6
CONTINUOUS
 10
6.3261420408
 20
18.1598329821
 11
6.1678953832
 21
17.7943030794
 12
6.3261420408
 22
18.2374573477
 13
6.3261420408
 23
18.2374573477
  0
SOLID
  8
___SYMBOL
 62
2
  6
CONTINUOUS
 10
6.4769995695
 20
18.3802167496
 11
6.3261420408
 21
18.2374573477
 12
6.3403463646
 22
18.3802167496
 13
6.3403463646
 23
18.3802167496
  0
SOLID
  8
___SYMBOL
 62
2
  6
CONTINUOUS
 10
6.3261420408
 20
18.2374573477
 11
6.1678953832
 21
17.7943030794
 12
6.3403463646
 22
18.3802167496
 13
6.3403463646
 23
18.3802167496
  0
SOLID
  8
___SYMBOL
 62
2
  6
CONTINUOUS
 10
6.1678953832
 20
17.7943030794
 11
6.1678953832
 21
18.3802167496
 12
6.3403463646
 22
18.3802167496
 13
6.3403463646
 23
18.3802167496
  0
SOLID
  8
___SYMBOL
 62
2
  6
CONTINUOUS
 10
6.4769995695
 20
17.9355298416
 11
6.4769995695
 21
17.7943030794
 12
6.1678953832
 22
17.7943030794
 13
6.1678953832
 23
17.7943030794
  0
LINE
  8
___SYMBOL
 62
2
  6
CONTINUOUS
 10
6.9872499936
 20
17.7943030794
 11
6.827806745
 21
18.0458856296
  0
ARC
  8
___SYMBOL
 62
2
  6
CONTINUOUS
 10
6.7553674948
 20
18.2052072327
 40
0.1750166225
 50
294.4500166359
 51
90.0
  0
LINE
  8
___SYMBOL
 62
2
  6
CONTINUOUS
 10
6.5218197858
 20
18.3802167496
 11
6.7553674948
 21
18.3802167496
  0
LINE
  8
___SYMBOL
 62
2
  6
CONTINUOUS
 10
6.5218197858
 20
17.7943030794
 11
6.5218197858
 21
18.3802167496
  0
LINE
  8
___SYMBOL
 62
2
  6
CONTINUOUS
 10
6.5218197858
 20
17.7943030794
 11
6.6724756138
 21
17.7943030794
  0
LINE
  8
___SYMBOL
 62
2
  6
CONTINUOUS
 10
6.6724756138
 20
17.9912594572
 11
6.6724756138
 21
17.7943030794
  0
LINE
  8
___SYMBOL
 62
2
  6
CONTINUOUS
 10
6.7972990473
 20
17.7943030794
 11
6.6724756138
 21
17.9912594572
  0
LINE
  8
___SYMBOL
 62
2
  6
CONTINUOUS
 10
6.7972990473
 20
17.7943030794
 11
6.9872499936
 21
17.7943030794
  0
LINE
  8
___SYMBOL
 62
2
  6
CONTINUOUS
 10
6.6724756138
 20
18.1305347729
 11
6.7248153658
 21
18.1305347729
  0
ARC
  8
___SYMBOL
 62
2
  6
CONTINUOUS
 10
6.7284053952
 20
18.1840261743
 40
0.0536117369
 50
266.1604009902
 51
89.9998910512
  0
LINE
  8
___SYMBOL
 62
2
  6
CONTINUOUS
 10
6.7284054972
 20
18.2376379112
 11
6.6724756138
 21
18.2376379112
  0
LINE
  8
___SYMBOL
 62
2
  6
CONTINUOUS
 10
6.6724756138
 20
18.2376379112
 11
6.6724756138
 21
18.1305347729
  0
SOLID
  8
___SYMBOL
 62
2
  6
CONTINUOUS
 10
6.7553674948
 20
18.3802238552
 11
6.80230052
 21
18.3738136065
 12
6.5218197858
 22
18.3802167496
 13
6.5218197858
 23
18.3802167496
  0
SOLID
  8
___SYMBOL
 62
2
  6
CONTINUOUS
 10
6.6724756138
 20
18.2376379112
 11
6.9264153639
 21
18.2422672469
 12
6.7284054972
 22
18.2376379112
 13
6.7284054972
 23
18.2376379112
  0
SOLID
  8
___SYMBOL
 62
2
  6
CONTINUOUS
 10
6.7284054972
 20
18.2376379112
 11
6.9264153639
 21
18.2422672469
 12
6.7521280796
 22
18.2321037426
 13
6.7521280796
 23
18.2321037426
  0
SOLID
  8
___SYMBOL
 62
2
  6
CONTINUOUS
 10
6.7521280796
 20
18.2321037426
 11
6.9264153639
 21
18.2422672469
 12
6.7709530679
 22
18.2166438671
 13
6.7709530679
 23
18.2166438671
  0
SOLID
  8
___SYMBOL
 62
2
  6
CONTINUOUS
 10
6.9264153639
 20
18.2422672469
 11
6.9300886104
 21
18.1950411164
 12
6.7709530679
 22
18.2166438671
 13
6.7709530679
 23
18.2166438671
  0
SOLID
  8
___SYMBOL
 62
2
  6
CONTINUOUS
 10
6.7809940069
 20
18.1944500057
 11
6.7709530679
 21
18.2166438671
 12
6.9300886104
 22
18.1950411164
 13
6.9300886104
 23
18.1950411164
  0
SOLID
  8
___SYMBOL
 62
2
  6
CONTINUOUS
 10
6.7809940069
 20
18.1944500057
 11
6.9300886104
 21
18.1950411164
 12
6.7801779252
 22
18.1701041241
 13
6.7801779252
 23
18.1701041241
  0
SOLID
  8
___SYMBOL
 62
2
  6
CONTINUOUS
 10
6.7801779252
 20
18.1701041241
 11
6.9300886104
 21
18.1950411164
 12
6.7686733044
 22
18.1486324767
 13
6.7686733044
 23
18.1486324767
  0
SOLID
  8
___SYMBOL
 62
2
  6
CONTINUOUS
 10
6.9300886104
 20
18.1950411164
 11
6.9209630064
 21
18.1485596847
 12
6.7686733044
 22
18.1486324767
 13
6.7686733044
 23
18.1486324767
  0
SOLID
  8
___SYMBOL
 62
2
  6
CONTINUOUS
 10
6.7488552959
 20
18.1344679267
 11
6.7686733044
 21
18.1486324767
 12
6.9209630064
 22
18.1485596847
 13
6.9209630064
 23
18.1485596847
  0
SOLID
  8
___SYMBOL
 62
2
  6
CONTINUOUS
 10
6.7488552959
 20
18.1344679267
 11
6.9209630064
 21
18.1485596847
 12
6.7248153658
 22
18.1305347729
 13
6.7248153658
 23
18.1305347729
  0
SOLID
  8
___SYMBOL
 62
2
  6
CONTINUOUS
 10
6.9209630064
 20
18.1485596847
 11
6.89970703
 21
18.1062278573
 12
6.7248153658
 22
18.1305347729
 13
6.7248153658
 23
18.1305347729
  0
SOLID
  8
___SYMBOL
 62
2
  6
CONTINUOUS
 10
6.827806745
 20
18.0458856296
 11
6.6724756138
 21
17.9912594572
 12
6.8678777457
 22
18.0711465688
 13
6.8678777457
 23
18.0711465688
  0
SOLID
  8
___SYMBOL
 62
2
  6
CONTINUOUS
 10
6.8678777457
 20
18.0711465688
 11
6.6724756138
 21
17.9912594572
 12
6.89970703
 22
18.1062278573
 13
6.89970703
 23
18.1062278573
  0
SOLID
  8
___SYMBOL
 62
2
  6
CONTINUOUS
 10
6.89970703
 20
18.1062278573
 11
6.6724756138
 21
17.9912594572
 12
6.7248153658
 22
18.1305347729
 13
6.7248153658
 23
18.1305347729
  0
SOLID
  8
___SYMBOL
 62
2
  6
CONTINUOUS
 10
6.6724756138
 20
17.9912594572
 11
6.5218197858
 21
17.7943030794
 12
6.7248153658
 22
18.1305347729
 13
6.7248153658
 23
18.1305347729
  0
SOLID
  8
___SYMBOL
 62
2
  6
CONTINUOUS
 10
6.7248153658
 20
18.1305347729
 11
6.5218197858
 21
17.7943030794
 12
6.6724756138
 22
18.1305347729
 13
6.6724756138
 23
18.1305347729
  0
SOLID
  8
___SYMBOL
 62
2
  6
CONTINUOUS
 10
6.6724756138
 20
18.1305347729
 11
6.5218197858
 21
17.7943030794
 12
6.6724756138
 22
18.2376379112
 13
6.6724756138
 23
18.2376379112
  0
SOLID
  8
___SYMBOL
 62
2
  6
CONTINUOUS
 10
6.9264153639
 20
18.2422672469
 11
6.6724756138
 21
18.2376379112
 12
6.9102123432
 22
18.2867786192
 13
6.9102123432
 23
18.2867786192
  0
SOLID
  8
___SYMBOL
 62
2
  6
CONTINUOUS
 10
6.9102123432
 20
18.2867786192
 11
6.6724756138
 21
18.2376379112
 12
6.8826664687
 22
18.3253146405
 13
6.8826664687
 23
18.3253146405
  0
SOLID
  8
___SYMBOL
 62
2
  6
CONTINUOUS
 10
6.8826664687
 20
18.3253146405
 11
6.6724756138
 21
18.2376379112
 12
6.845795559
 22
18.3550524307
 13
6.845795559
 23
18.3550524307
  0
SOLID
  8
___SYMBOL
 62
2
  6
CONTINUOUS
 10
6.845795559
 20
18.3550524307
 11
6.6724756138
 21
18.2376379112
 12
6.80230052
 22
18.3738136065
 13
6.80230052
 23
18.3738136065
  0
SOLID
  8
___SYMBOL
 62
2
  6
CONTINUOUS
 10
6.80230052
 20
18.3738136065
 11
6.6724756138
 21
18.2376379112
 12
6.5218197858
 22
18.3802167496
 13
6.5218197858
 23
18.3802167496
  0
SOLID
  8
___SYMBOL
 62
2
  6
CONTINUOUS
 10
6.5218197858
 20
17.7943030794
 11
6.5218197858
 21
18.3802167496
 12
6.6724756138
 22
18.2376379112
 13
6.6724756138
 23
18.2376379112
  0
SOLID
  8
___SYMBOL
 62
2
  6
CONTINUOUS
 10
6.6724756138
 20
17.9912594572
 11
6.6724756138
 21
17.7943030794
 12
6.5218197858
 22
17.7943030794
 13
6.5218197858
 23
17.7943030794
  0
SOLID
  8
___SYMBOL
 62
2
  6
CONTINUOUS
 10
6.6724756138
 20
17.9912594572
 11
6.827806745
 21
18.0458856296
 12
6.7972990473
 22
17.7943030794
 13
6.7972990473
 23
17.7943030794
  0
SOLID
  8
___SYMBOL
 62
2
  6
CONTINUOUS
 10
6.827806745
 20
18.0458856296
 11
6.9872499936
 21
17.7943030794
 12
6.7972990473
 22
17.7943030794
 13
6.7972990473
 23
17.7943030794
  0
CIRCLE
  8
___SYMBOL
 62
2
  6
CONTINUOUS
 10
7.1280199733
 20
17.7943030794
 40
0.0653578744
  0
LINE
  8
___SYMBOL
 62
2
  6
CONTINUOUS
 10
7.1237319499
 20
17.79376533
 11
7.1555999638
 21
17.7614623875
  0
LINE
  8
___SYMBOL
 62
2
  6
CONTINUOUS
 10
7.1121339733
 20
17.7614623875
 11
7.1121339733
 21
17.8274285887
  0
LINE
  8
___SYMBOL
 62
2
  6
CONTINUOUS
 10
7.1121339733
 20
17.8274285887
 11
7.1364133071
 21
17.8274285887
  0
ARC
  8
___SYMBOL
 62
2
  6
CONTINUOUS
 10
7.1364133071
 20
17.8105971385
 40
0.0168314502
 50
270.0
 51
90.0
  0
LINE
  8
___SYMBOL
 62
2
  6
CONTINUOUS
 10
7.1364133071
 20
17.79376533
 11
7.1121339733
 21
17.79376533
  0
ENDBLK
  8
0
  6
BYBLOCK
 62
0
  0
BLOCK
  8
0
  2
_FILLED
 70
64
 10
0.0
 20
0.0
  0
SOLID
  8
0
  6
BYBLOCK
 62
0
 10
0.0
 20
0.0
 11
-1.0
 21
0.1666666667
 12
-1.0
 22
-0.1666666667
 13
-1.0
 23
-0.1666666667
  0
ENDBLK
  8
0
  6
BYBLOCK
 62
0
  0
ENDSEC
  0
SECTION
  2
ENTITIES
  0
DIMENSION
  8
0
 62
2
  6
CONTINUOUS
  2
*D0
 10
12.0341105556
 20
2.5570786172
 11
12.1591105556
 21
10.6898911172
 70
128
 13
6.7252661218
 23
19.0570786172
 14
6.7831291355
 24
2.5570786172
 50
270.0
  0
DIMENSION
  8
0
 62
2
  6
CONTINUOUS
  2
*D1
 10
3.4999027328
 20
11.6271027778
 11
10.4530332884
 21
11.5099152778
 70
128
 13
19.9999027328
 23
14.600247339
 14
3.4999027328
 24
14.6773980239
 50
180.0
  0
TEXT
  8
___NOTE
 62
2
  6
CONTINUOUS
 10
14.9009481326
 20
16.0116333953
  7
STANDARD
 40
0.15625
  1
FOR UNDERCOUNTER INSTALLATION
 41
0.8
 72
0
  0
TEXT
  8
___NOTE
 62
2
  6
CONTINUOUS
 10
16.1509481326
 20
15.7772583953
  7
STANDARD
 40
0.15625
  1
CUT ALONG THIS LINE
 41
0.8
 72
0
  0
TEXT
  8
___NOTE
 62
2
  6
CONTINUOUS
 10
13.5259481326
 20
15.5428833953
  7
STANDARD
 40
0.15625
  1
PARA INSTALACIONES DEBAJO DEL MOSTRADOR,
 41
0.8
 72
0
  0
TEXT
  8
___NOTE
 62
2
  6
CONTINUOUS
 10
14.7759481326
 20
15.3085083953
  7
STANDARD
 40
0.15625
  1
CORTE A LO LARGO DE ESTA LÍNEA
 41
0.8
 72
0
  0
TEXT
  8
___NOTE
 62
2
  6
CONTINUOUS
 10
13.9009481326
 20
15.0741333953
  7
STANDARD
 40
0.15625
  1
POUR DES INSTALLATIONS SOUS COMPTOIR,
 41
0.8
 72
0
  0
TEXT
  8
___NOTE
 62
2
  6
CONTINUOUS
 10
14.6509481326
 20
14.8397583953
  7
STANDARD
 40
0.15625
  1
DÉCOUPER AU LONG DE CETTE LIGNE
 41
0.8
 72
0
  0
LINE
  8
___NOTE
 62
2
  6
CONTINUOUS
 10
19.9999027328
 20
13.5454248587
 11
18.7759481326
 21
16.0897583953
  0
LINE
  8
___NOTE
 62
2
  6
CONTINUOUS
 10
18.7759481326
 20
16.0897583953
 11
18.5259481326
 21
16.0897583953
  0
SOLID
  8
___NOTE
 62
2
  6
CONTINUOUS
 10
19.8904602982
 20
13.7008441818
 11
19.9999027328
 21
13.5454248587
 12
19.9467823724
 22
13.727937981
 13
19.9467823724
 23
13.727937981
  0
TEXT
  8
___NOTE
 62
2
  6
CONTINUOUS
 10
12.1803409132
 20
13.5403488569
  7
STANDARD
 40
0.15625
  1
ENSURE THAT THE CUT LINE IS FOLLOWED IN ORDER TO
 41
0.8
 72
0
  0
TEXT
  8
___NOTE
 62
2
  6
CONTINUOUS
 10
12.1803409132
 20
13.3059738569
  7
STANDARD
 40
0.15625
  1
MAINTAIN PROPER FIT OF THE WINE GLASS RACK
 41
0.8
 72
0
  0
TEXT
  8
___NOTE
 62
2
  6
CONTINUOUS
 10
12.1803409132
 20
13.0715988569
  7
STANDARD
 40
0.15625
  1
 
 41
0.8
 72
0
  0
TEXT
  8
___NOTE
 62
2
  6
CONTINUOUS
 10
12.1803409132
 20
12.8372238569
  7
STANDARD
 40
0.15625
  1
ASEGÚRESE DE SEGUIR LA LÍNEA DE CORTE PARA 
 41
0.8
 72
0
  0
TEXT
  8
___NOTE
 62
2
  6
CONTINUOUS
 10
12.1803409132
 20
12.6028488569
  7
STANDARD
 40
0.15625
  1
MANTENER EL AJUSTE CORRECTO DE LA REJILLA DE VIDRIO PARA VINO
 41
0.8
 72
0
  0
TEXT
  8
___NOTE
 62
2
  6
CONTINUOUS
 10
12.1803409132
 20
12.3684738569
  7
STANDARD
 40
0.15625
  1
 
 41
0.8
 72
0
  0
TEXT
  8
___NOTE
 62
2
  6
CONTINUOUS
 10
12.1803409132
 20
12.1340988569
  7
STANDARD
 40
0.15625
  1
S'ASSURER QUE LA LIGNE DE DÉCOUPE SOIT SUIVIE POUR
 41
0.8
 72
0
  0
TEXT
  8
___NOTE
 62
2
  6
CONTINUOUS
 10
12.1803409132
 20
11.8997238569
  7
STANDARD
 40
0.15625
  1
MAINTENIR UN BON AJUSTAGE DU PORTE VERRES À VIN
 41
0.8
 72
0
  0
TEXT
  8
___NOTE
 62
2
  6
CONTINUOUS
 10
17.6078264164
 20
17.4525351191
  7
STANDARD
 40
0.15625
  1
RIM OF SINK
 41
0.8
 72
0
  0
TEXT
  8
___NOTE
 62
2
  6
CONTINUOUS
 10
16.4828264164
 20
17.2181601191
  7
STANDARD
 40
0.15625
  1
REBORDE DE FREGADERO
 41
0.8
 72
0
  0
TEXT
  8
___NOTE
 62
2
  6
CONTINUOUS
 10
17.2328264164
 20
16.9837851191
  7
STANDARD
 40
0.15625
  1
REBORD D'ÉVIER
 41
0.8
 72
0
  0
LINE
  8
___NOTE
 62
2
  6
CONTINUOUS
 10
20.7499027328
 20
15.9357233333
 11
19.2328264164
 21
17.5306601191
  0
LINE
  8
___NOTE
 62
2
  6
CONTINUOUS
 10
19.2328264164
 20
17.5306601191
 11
18.9828264164
 21
17.5306601191
  0
SOLID
  8
___NOTE
 62
2
  6
CONTINUOUS
 10
20.5980349201
 20
16.0500429728
 11
20.7499027328
 21
15.9357233333
 12
20.6433206309
 22
16.0931179586
 13
20.6433206309
 23
16.0931179586
  0
INSERT
  8
___SYMBOL
 62
2
  6
CONTINUOUS
  2
COPYRIGHT_YEAR_BL0
 10
18.2382542436
 20
3.1510774367
  0
INSERT
  8
___SYMBOL
 62
2
  6
CONTINUOUS
  2
PACKAGING_UPC_BL1
 10
7.0165247266
 20
6.9074628136
  0
INSERT
  8
___SYMBOL
 62
2
  6
CONTINUOUS
  2
TEMPLATE_NUMBER_BL2
 10
5.6590724215
 20
3.086160464
  0
INSERT
  8
___SYMBOL
 62
2
  6
CONTINUOUS
  2
TEMPLATE_NUMBER_BL3
 10
5.6777464952
 20
1.3698184242
  0
INSERT
  8
___SYMBOL
 62
2
  6
CONTINUOUS
  2
WHEN_PLOTTING_TEMPLATE_N_BL4
 10
16.4725230674
 20
6.7296396988
  0
INSERT
  8
___SYMBOL
 62
2
  6
CONTINUOUS
  2
CUT-OUT_TEMPLATE_SKU_SIN_BL5
 10
7.6450517153
 20
16.5437493226
  0
LINE
  8
_CURVE
 62
8
  6
PHANTOM
 10
2.7499027328
 20
18.9320786172
 11
2.7499027328
 21
2.6820786172
  0
LINE
  8
_CURVE
 62
8
  6
PHANTOM
 10
3.6249027328
 20
1.8070786172
 11
19.8749027328
 21
1.8070786172
  0
LINE
  8
_CURVE
 62
7
  6
CONTINUOUS
 10
3.4999027328
 20
18.9320786172
 11
3.4999027328
 21
2.6820786172
  0
LINE
  8
_CURVE
 62
7
  6
CONTINUOUS
 10
3.6249027328
 20
2.5570786172
 11
19.8749027328
 21
2.5570786172
  0
LINE
  8
_CURVE
 62
7
  6
CONTINUOUS
 10
19.9999027328
 20
2.6820786172
 11
19.9999027328
 21
18.9320786172
  0
LINE
  8
_CURVE
 62
7
  6
CONTINUOUS
 10
19.8749027328
 20
19.0570786172
 11
3.6249027328
 21
19.0570786172
  0
LINE
  8
_CURVE
 62
8
  6
PHANTOM
 10
20.7499027328
 20
2.6820786172
 11
20.7499027328
 21
18.9320786172
  0
LINE
  8
_CURVE
 62
8
  6
PHANTOM
 10
19.8749027328
 20
19.8070786172
 11
3.6249027328
 21
19.8070786172
  0
CIRCLE
  8
0
 62
2
  6
CONTINUOUS
 10
10.8572577778
 20
14.8085411111
 40
0.2513022906
  0
ARC
  8
_CURVE
 62
8
  6
PHANTOM
 10
3.6249027328
 20
18.9320786172
 40
0.875
 50
90.0
 51
180.0
  0
ARC
  8
_CURVE
 62
8
  6
PHANTOM
 10
3.6249027328
 20
2.6820786172
 40
0.875
 50
180.0
 51
270.0
  0
ARC
  8
_CURVE
 62
8
  6
PHANTOM
 10
19.8749027328
 20
2.6820786172
 40
0.875
 50
270.0
 51
360.0
  0
ARC
  8
_CURVE
 62
8
  6
PHANTOM
 10
19.8749027328
 20
18.9320786172
 40
0.875
 50
0.0
 51
90.0
  0
ARC
  8
_CURVE
 62
7
  6
CONTINUOUS
 10
19.8749027328
 20
18.9320786172
 40
0.125
 50
0.0
 51
90.0
  0
ARC
  8
_CURVE
 62
7
  6
CONTINUOUS
 10
3.6249027328
 20
18.9320786172
 40
0.125
 50
90.0
 51
180.0
  0
ARC
  8
_CURVE
 62
7
  6
CONTINUOUS
 10
3.6249027328
 20
2.6820786172
 40
0.125
 50
180.0
 51
270.0
  0
ARC
  8
_CURVE
 62
7
  6
CONTINUOUS
 10
19.8749027328
 20
2.6820786172
 40
0.125
 50
270.0
 51
360.0
  0
ENDSEC
  0
EOF
