999
DXF file: 1222632_7_a.dxf
999
Pro/ENGINEER 2013150 by Parametric Technology Corporation
  0
SECTION
  2
HEADER
  9
$EXTMAX
 10
44.0
 20
34.0
 30
0.0
  9
$EXTMIN
 10
0.0
 20
0.0
 30
0.0
  9
$LIMMIN
 10
0.0
 20
0.0
  9
$LIMMAX
 10
44.0
 20
34.0
  9
$VIEWCTR
 10
22.0
 20
17.0
  9
$VIEWSIZE
 40
34.0
  9
$CLAYER
  8
0
  9
$LTSCALE
 40
2.42
  9
$CELTYPE
  6
BYLAYER
  9
$DIMSCALE
 40
1.0
  9
$DIMASZ
 40
0.1875
  9
$DIMEXO
 40
0.0625
  9
$DIMDLI
 40
1.672
  9
$DIMEXE
 40
0.125
  9
$DIMCEN
 40
0.396
  9
$DIMLFAC
 40
1.0
  9
$DIMBLK
  1
_FILLED
  9
$DIMTXT
 40
0.15625
  9
$PDMODE
 70
3
  9
$PDSIZE
 40
0.3125
  9
$TILEMODE
 70
1
  0
ENDSEC
  0
SECTION
  2
TABLES
  0
TABLE
  2
LTYPE
 70
6
  0
LTYPE
  2
BYBLOCK
 70
0
  3

 72
65
 73
0
 40
0.0
  0
LTYPE
  2
BYLAYER
 70
0
  3

 72
65
 73
0
 40
0.0
  0
LTYPE
  2
CONTINUOUS
 70
64
  3
Solid line
 72
65
 73
0
 40
0.0
  0
LTYPE
  2
CENTER
 70
64
  3
____ _ ____ _ ____ _ ____ _ ____ _ ____ _ ____
 72
65
 73
4
 40
0.6
 49
0.375
 49
-0.075
 49
0.075
 49
-0.075
  0
LTYPE
  2
HIDDEN
 70
64
  3
- - - - - - - - - - - - - - - - - - - -
 72
65
 73
2
 40
0.2
 49
0.1
 49
-0.1
  0
LTYPE
  2
PHANTOM
 70
64
  3
_____ _ _ _____ _ _ _____ _ _ _____
 72
65
 73
6
 40
0.8
 49
0.45
 49
-0.05
 49
0.1
 49
-0.05
 49
0.1
 49
-0.05
  0
LTYPE
  2
DOT
 70
64
  3
. . . . . . . . . . . . . . . . . . . .
 72
65
 73
2
 40
0.2
 49
0.1
 49
-0.1
  0
LTYPE
  2
DASHED
 70
64
  3
- - - - - - - - - - - - - - - - - - - -
 72
65
 73
2
 40
0.2
 49
0.1
 49
-0.1
  0
ENDTAB
  0
TABLE
  2
LAYER
 70
36
  0
LAYER
  2
0
 70
0
 62
7
  6
CONTINUOUS
  0
LAYER
  2
DEFAULT_1
 70
0
 62
7
  6
CENTER
  0
LAYER
  2
DEFAULT_2
 70
0
 62
8
  6
HIDDEN
  0
LAYER
  2
DEFAULT_3
 70
0
 62
7
  6
PHANTOM
  0
LAYER
  2
DATUMS
 70
0
 62
7
  6
CONTINUOUS
  0
LAYER
  2
DATUM_AXIS
 70
0
 62
7
  6
CONTINUOUS
  0
LAYER
  2
DATUM_CSYS
 70
0
 62
7
  6
CONTINUOUS
  0
LAYER
  2
DATUM_PLANE
 70
0
 62
7
  6
CONTINUOUS
  0
LAYER
  2
DATUM_POINT
 70
0
 62
7
  6
CONTINUOUS
  0
LAYER
  2
_CURVE
 70
0
 62
7
  6
CONTINUOUS
  0
LAYER
  2
_SURFACE
 70
0
 62
7
  6
CONTINUOUS
  0
LAYER
  2
__REF_CURVE
 70
0
 62
7
  6
CONTINUOUS
  0
LAYER
  2
__REF_SURFACE
 70
0
 62
7
  6
CONTINUOUS
  0
LAYER
  2
___NOTE
 70
0
 62
7
  6
CONTINUOUS
  0
LAYER
  2
___SYMBOL
 70
0
 62
7
  6
CONTINUOUS
  0
ENDTAB
  0
TABLE
  2
STYLE
 70
1
  0
STYLE
  2
STANDARD
 70
0
 40
0.0
 41
0.8
 50
0.0
 71
0
 42
0.2
  3
txt
  4

  0
STYLE
  2
TEXTSTYLE_1
 70
0
 40
0.0
 41
0.8
 50
0.0
 71
0
 42
0.2
  3
gdt
  4

  0
STYLE
  2
TEXTSTYLE_2
 70
0
 40
0.0
 41
1.0
 50
0.0
 71
0
 42
0.2
  3
txt
  4

  0
ENDTAB
  0
ENDSEC
  0
SECTION
  2
BLOCKS
  0
BLOCK
  8
___SYMBOL
 62
2
  6
CONTINUOUS
  2
SYMBOL_12_BL6
 70
64
 10
25.0621761411
 20
14.8265612239
  0
TEXT
  8
___SYMBOL
 62
2
  6
CONTINUOUS
 10
20.9371761411
 20
15.9203112239
  7
STANDARD
 40
0.15625
  1
WHEN PLOTTING TEMPLATE FULL SIZE:
 41
0.8
 72
0
  0
TEXT
  8
___SYMBOL
 62
2
  6
CONTINUOUS
 10
20.9371761411
 20
15.6859362239
  7
STANDARD
 40
0.15625
  1
Make sure horizontal and vertical dimensions
 41
0.8
 72
0
  0
TEXT
  8
___SYMBOL
 62
2
  6
CONTINUOUS
 10
20.9371761411
 20
15.4515612239
  7
STANDARD
 40
0.15625
  1
match the dimensions labeled on the template.
 41
0.8
 72
0
  0
TEXT
  8
___SYMBOL
 62
2
  6
CONTINUOUS
 10
20.9371761411
 20
15.2171862239
  7
STANDARD
 40
0.15625
  1
 
 41
0.8
 72
0
  0
TEXT
  8
___SYMBOL
 62
2
  6
CONTINUOUS
 10
20.9371761411
 20
14.9828112239
  7
STANDARD
 40
0.15625
  1
LORS DU TRACÉ DU GABARIT À L'ÉCHELLE:  
 41
0.8
 72
0
  0
TEXT
  8
___SYMBOL
 62
2
  6
CONTINUOUS
 10
20.9371761411
 20
14.7484362239
  7
STANDARD
 40
0.15625
  1
S'assurer que les dimensions horizontales et verticales 
 41
0.8
 72
0
  0
TEXT
  8
___SYMBOL
 62
2
  6
CONTINUOUS
 10
20.9371761411
 20
14.5140612239
  7
STANDARD
 40
0.15625
  1
correspondent à celles marquées sur le gabarit.
 41
0.8
 72
0
  0
TEXT
  8
___SYMBOL
 62
2
  6
CONTINUOUS
 10
20.9371761411
 20
14.2796862239
  7
STANDARD
 40
0.15625
  1
 
 41
0.8
 72
0
  0
TEXT
  8
___SYMBOL
 62
2
  6
CONTINUOUS
 10
20.9371761411
 20
14.0453112239
  7
STANDARD
 40
0.15625
  1
AL TRAZAR LA PLANTILLA A ESCALA COMPLETA: 
 41
0.8
 72
0
  0
TEXT
  8
___SYMBOL
 62
2
  6
CONTINUOUS
 10
20.9371761411
 20
13.8109362239
  7
STANDARD
 40
0.15625
  1
Asegúrese de que la dimensión horizontal y la dimensión 
 41
0.8
 72
0
  0
TEXT
  8
___SYMBOL
 62
2
  6
CONTINUOUS
 10
20.9371761411
 20
13.5765612239
  7
STANDARD
 40
0.15625
  1
vertical sean iguales a las dimensiones indicadas en la plantilla.
 41
0.8
 72
0
  0
ENDBLK
  8
0
  6
BYBLOCK
 62
0
  0
BLOCK
  8
___SYMBOL
 62
2
  6
CONTINUOUS
  2
SYMBOL_10_BL5
 70
64
 10
16.5030471772
 20
10.4788415294
  0
TEXT
  8
___SYMBOL
 62
2
  6
CONTINUOUS
 10
15.8155471772
 20
10.4007165294
  7
STANDARD
 40
0.15625
  1
1222632-7
 41
0.8
 72
0
  0
TEXT
  8
___SYMBOL
 62
2
  6
CONTINUOUS
 10
16.9405471772
 20
10.4007165294
  7
STANDARD
 40
0.15625
  1
-A
 41
0.8
 72
0
  0
ENDBLK
  8
0
  6
BYBLOCK
 62
0
  0
BLOCK
  8
___SYMBOL
 62
2
  6
CONTINUOUS
  2
SYMBOL_9_BL4
 70
64
 10
16.4672296569
 20
12.9581043811
  0
TEXT
  8
___SYMBOL
 62
2
  6
CONTINUOUS
 10
15.7797296569
 20
12.8799793811
  7
STANDARD
 40
0.15625
  1
1222632-7
 41
0.8
 72
0
  0
TEXT
  8
___SYMBOL
 62
2
  6
CONTINUOUS
 10
16.9047296569
 20
12.8799793811
  7
STANDARD
 40
0.15625
  1
-A
 41
0.8
 72
0
  0
ENDBLK
  8
0
  6
BYBLOCK
 62
0
  0
BLOCK
  8
___SYMBOL
 62
2
  6
CONTINUOUS
  2
SYMBOL_3_BL3
 70
64
 10
27.3665519728
 20
13.0171041212
  0
TEXT
  8
___SYMBOL
 62
2
  6
CONTINUOUS
 10
26.5845637818
 20
12.9370161723
  7
STANDARD
 40
0.15625
  1
2013 KOHLER CO.
 41
0.8
 72
0
  0
TEXT
  8
___SYMBOL
 62
7
  6
CONTINUOUS
 10
26.3272417828
 20
12.9393449222
  7
TEXTSTYLE_2
 40
0.15625
  1
C
 41
1.0
 72
0
  0
CIRCLE
  8
___SYMBOL
 62
7
  6
CONTINUOUS
 10
26.405897201
 20
13.0171041212
 40
0.1323570371
  0
ENDBLK
  8
0
  6
BYBLOCK
 62
0
  0
BLOCK
  8
___SYMBOL
 62
2
  6
CONTINUOUS
  2
SYMBOL_53_BL2
 70
64
 10
30.8066501904
 20
22.3170623474
  0
LINE
  8
___SYMBOL
 62
7
  6
CONTINUOUS
 10
30.7760648098
 20
22.4349716894
 11
30.6639850366
 21
22.9886299911
  0
LINE
  8
___SYMBOL
 62
7
  6
CONTINUOUS
 10
30.7276851506
 20
22.4054706139
 11
30.6639850366
 21
22.9886299911
  0
LINE
  8
___SYMBOL
 62
7
  6
CONTINUOUS
 10
30.803326915
 20
22.3392876974
 11
30.8017593011
 21
22.3901411042
  0
LINE
  8
___SYMBOL
 62
7
  6
CONTINUOUS
 10
30.8181370024
 20
22.3908210937
 11
30.8197154031
 21
22.3396177629
  0
LINE
  8
___SYMBOL
 62
7
  6
CONTINUOUS
 10
30.8122189194
 20
22.5681905435
 11
30.9999333091
 21
22.9788945101
  0
LINE
  8
___SYMBOL
 62
7
  6
CONTINUOUS
 10
30.6981100977
 20
22.3099204429
 11
30.7306391916
 21
22.3713330109
  0
LINE
  8
___SYMBOL
 62
7
  6
CONTINUOUS
 10
30.8793661649
 20
22.3777391415
 11
30.9999333091
 21
22.7634277543
  0
LINE
  8
___SYMBOL
 62
7
  6
CONTINUOUS
 10
30.8499975495
 20
22.4610380757
 11
30.7760648098
 21
22.4349716894
  0
LINE
  8
___SYMBOL
 62
7
  6
CONTINUOUS
 10
30.9039781888
 20
22.3079314463
 11
30.8466913871
 21
22.1696669235
  0
LINE
  8
___SYMBOL
 62
7
  6
CONTINUOUS
 10
30.7519518607
 20
22.1741785333
 11
30.7960291359
 21
22.2199777351
  0
LINE
  8
___SYMBOL
 62
7
  6
CONTINUOUS
 10
30.6639850366
 20
22.9886299911
 11
30.9039781888
 21
22.3079314463
  0
LINE
  8
___SYMBOL
 62
7
  6
CONTINUOUS
 10
30.7519518607
 20
22.1741785333
 11
30.6981100977
 21
22.3099204429
  0
ARC
  8
___SYMBOL
 62
7
  6
CONTINUOUS
 10
30.6552993097
 20
22.8711611322
 40
0.3610804262
 50
342.6406360869
 51
17.3593639131
  0
ARC
  8
___SYMBOL
 62
7
  6
CONTINUOUS
 10
31.0403371192
 20
22.4153288216
 40
0.3128073492
 50
181.8059909349
 51
231.752660067
  0
CIRCLE
  8
___SYMBOL
 62
7
  6
CONTINUOUS
 10
30.8110071321
 20
22.3649753139
 40
0.0268111801
  0
ARC
  8
___SYMBOL
 62
7
  6
CONTINUOUS
 10
30.9704649425
 20
21.9926577165
 40
0.0146088562
 50
185.3133793157
 51
314.0675041521
  0
ARC
  8
___SYMBOL
 62
7
  6
CONTINUOUS
 10
30.6358033474
 20
21.9851371473
 40
0.0146087357
 50
233.3109272841
 51
359.4467240969
  0
POLYLINE
  8
___SYMBOL
 62
7
  6
CONTINUOUS
 66
1
 70
0
  0
VERTEX
  8
___SYMBOL
 62
7
  6
CONTINUOUS
 10
30.9327208143
 20
21.757916346
  0
VERTEX
  8
___SYMBOL
 62
7
  6
CONTINUOUS
 10
30.9293815015
 20
21.7681652534
  0
VERTEX
  8
___SYMBOL
 62
7
  6
CONTINUOUS
 10
30.9263239237
 20
21.7784952427
  0
VERTEX
  8
___SYMBOL
 62
7
  6
CONTINUOUS
 10
30.923535865
 20
21.7889006937
  0
VERTEX
  8
___SYMBOL
 62
7
  6
CONTINUOUS
 10
30.9210051096
 20
21.7993759867
  0
VERTEX
  8
___SYMBOL
 62
7
  6
CONTINUOUS
 10
30.9187194417
 20
21.8099155014
  0
VERTEX
  8
___SYMBOL
 62
7
  6
CONTINUOUS
 10
30.9166666455
 20
21.820513618
  0
VERTEX
  8
___SYMBOL
 62
7
  6
CONTINUOUS
 10
30.9148345051
 20
21.8311647163
  0
VERTEX
  8
___SYMBOL
 62
7
  6
CONTINUOUS
 10
30.9132108047
 20
21.8418631765
  0
VERTEX
  8
___SYMBOL
 62
7
  6
CONTINUOUS
 10
30.9117833285
 20
21.8526033785
  0
VERTEX
  8
___SYMBOL
 62
7
  6
CONTINUOUS
 10
30.9105398606
 20
21.8633797022
  0
VERTEX
  8
___SYMBOL
 62
7
  6
CONTINUOUS
 10
30.9094681853
 20
21.8741865278
  0
VERTEX
  8
___SYMBOL
 62
7
  6
CONTINUOUS
 10
30.9085560866
 20
21.8850182351
  0
VERTEX
  8
___SYMBOL
 62
7
  6
CONTINUOUS
 10
30.9077913488
 20
21.8958692041
  0
VERTEX
  8
___SYMBOL
 62
7
  6
CONTINUOUS
 10
30.9071617561
 20
21.9067338149
  0
VERTEX
  8
___SYMBOL
 62
7
  6
CONTINUOUS
 10
30.9066550926
 20
21.9176064475
  0
VERTEX
  8
___SYMBOL
 62
7
  6
CONTINUOUS
 10
30.9062591424
 20
21.9284814818
  0
VERTEX
  8
___SYMBOL
 62
7
  6
CONTINUOUS
 10
30.9059616898
 20
21.9393532978
  0
VERTEX
  8
___SYMBOL
 62
7
  6
CONTINUOUS
 10
30.905750519
 20
21.9502162756
  0
VERTEX
  8
___SYMBOL
 62
7
  6
CONTINUOUS
 10
30.905613414
 20
21.961064795
  0
VERTEX
  8
___SYMBOL
 62
7
  6
CONTINUOUS
 10
30.9055381591
 20
21.9718932362
  0
VERTEX
  8
___SYMBOL
 62
7
  6
CONTINUOUS
 10
30.9055079491
 20
21.9878108999
  0
VERTEX
  8
___SYMBOL
 62
7
  6
CONTINUOUS
 10
30.9055088663
 20
22.0036949103
  0
VERTEX
  8
___SYMBOL
 62
7
  6
CONTINUOUS
 10
30.9054642219
 20
22.0195674365
  0
VERTEX
  8
___SYMBOL
 62
7
  6
CONTINUOUS
 10
30.9052973266
 20
22.0354506473
  0
VERTEX
  8
___SYMBOL
 62
7
  6
CONTINUOUS
 10
30.9049314914
 20
22.0513667118
  0
VERTEX
  8
___SYMBOL
 62
7
  6
CONTINUOUS
 10
30.9046733374
 20
22.0586989152
  0
VERTEX
  8
___SYMBOL
 62
7
  6
CONTINUOUS
 10
30.9043366641
 20
22.0660357518
  0
VERTEX
  8
___SYMBOL
 62
7
  6
CONTINUOUS
 10
30.9039011994
 20
22.0733702274
  0
VERTEX
  8
___SYMBOL
 62
7
  6
CONTINUOUS
 10
30.9033466708
 20
22.0806953477
  0
VERTEX
  8
___SYMBOL
 62
7
  6
CONTINUOUS
 10
30.9026528062
 20
22.0880041184
  0
VERTEX
  8
___SYMBOL
 62
7
  6
CONTINUOUS
 10
30.9017993331
 20
22.095289545
  0
VERTEX
  8
___SYMBOL
 62
7
  6
CONTINUOUS
 10
30.9007659792
 20
22.1025446334
  0
VERTEX
  8
___SYMBOL
 62
7
  6
CONTINUOUS
 10
30.8995324724
 20
22.1097623892
  0
VERTEX
  8
___SYMBOL
 62
7
  6
CONTINUOUS
 10
30.8980785402
 20
22.1169358182
  0
VERTEX
  8
___SYMBOL
 62
7
  6
CONTINUOUS
 10
30.8963839104
 20
22.1240579259
  0
VERTEX
  8
___SYMBOL
 62
7
  6
CONTINUOUS
 10
30.8944283106
 20
22.1311217181
  0
VERTEX
  8
___SYMBOL
 62
7
  6
CONTINUOUS
 10
30.8921914686
 20
22.1381202004
  0
VERTEX
  8
___SYMBOL
 62
7
  6
CONTINUOUS
 10
30.8911244525
 20
22.1411258828
  0
VERTEX
  8
___SYMBOL
 62
7
  6
CONTINUOUS
 10
30.8899653555
 20
22.1440938866
  0
VERTEX
  8
___SYMBOL
 62
7
  6
CONTINUOUS
 10
30.8886786756
 20
22.1470001007
  0
VERTEX
  8
___SYMBOL
 62
7
  6
CONTINUOUS
 10
30.887228911
 20
22.1498204145
  0
VERTEX
  8
___SYMBOL
 62
7
  6
CONTINUOUS
 10
30.8855805597
 20
22.152530717
  0
VERTEX
  8
___SYMBOL
 62
7
  6
CONTINUOUS
 10
30.88369812
 20
22.1551068975
  0
VERTEX
  8
___SYMBOL
 62
7
  6
CONTINUOUS
 10
30.8816327315
 20
22.1574481709
  0
VERTEX
  8
___SYMBOL
 62
7
  6
CONTINUOUS
 10
30.8793415954
 20
22.1596297049
  0
VERTEX
  8
___SYMBOL
 62
7
  6
CONTINUOUS
 10
30.8768507664
 20
22.1616395525
  0
VERTEX
  8
___SYMBOL
 62
7
  6
CONTINUOUS
 10
30.8741862991
 20
22.1634657665
  0
VERTEX
  8
___SYMBOL
 62
7
  6
CONTINUOUS
 10
30.8713742482
 20
22.1650964
  0
VERTEX
  8
___SYMBOL
 62
7
  6
CONTINUOUS
 10
30.8684406684
 20
22.166519506
  0
VERTEX
  8
___SYMBOL
 62
7
  6
CONTINUOUS
 10
30.8654116141
 20
22.1677231373
  0
VERTEX
  8
___SYMBOL
 62
7
  6
CONTINUOUS
 10
30.8623131402
 20
22.1686953469
  0
VERTEX
  8
___SYMBOL
 62
7
  6
CONTINUOUS
 10
30.8591713012
 20
22.1694241878
  0
VERTEX
  8
___SYMBOL
 62
7
  6
CONTINUOUS
 10
30.8560121518
 20
22.169897713
  0
VERTEX
  8
___SYMBOL
 62
7
  6
CONTINUOUS
 10
30.8528617465
 20
22.1701039753
  0
VERTEX
  8
___SYMBOL
 62
7
  6
CONTINUOUS
 10
30.8497461401
 20
22.1700310279
  0
VERTEX
  8
___SYMBOL
 62
7
  6
CONTINUOUS
 10
30.8466913871
 20
22.1696669235
  0
SEQEND
  0
POLYLINE
  8
___SYMBOL
 62
7
  6
CONTINUOUS
 66
1
 70
0
  0
VERTEX
  8
___SYMBOL
 62
7
  6
CONTINUOUS
 10
30.955918859
 20
21.9913048911
  0
VERTEX
  8
___SYMBOL
 62
7
  6
CONTINUOUS
 10
30.9552959732
 20
21.9989671755
  0
VERTEX
  8
___SYMBOL
 62
7
  6
CONTINUOUS
 10
30.9548412132
 20
22.0066359736
  0
VERTEX
  8
___SYMBOL
 62
7
  6
CONTINUOUS
 10
30.9545105703
 20
22.0153416113
  0
VERTEX
  8
___SYMBOL
 62
7
  6
CONTINUOUS
 10
30.954358145
 20
22.0240361278
  0
VERTEX
  8
___SYMBOL
 62
7
  6
CONTINUOUS
 10
30.9543628632
 20
22.0327294235
  0
VERTEX
  8
___SYMBOL
 62
7
  6
CONTINUOUS
 10
30.9545036508
 20
22.0414313986
  0
VERTEX
  8
___SYMBOL
 62
7
  6
CONTINUOUS
 10
30.9547594339
 20
22.0501519534
  0
VERTEX
  8
___SYMBOL
 62
7
  6
CONTINUOUS
 10
30.9551091384
 20
22.0589009882
  0
VERTEX
  8
___SYMBOL
 62
7
  6
CONTINUOUS
 10
30.9555316902
 20
22.0676884032
  0
VERTEX
  8
___SYMBOL
 62
7
  6
CONTINUOUS
 10
30.9560060153
 20
22.0765240987
  0
VERTEX
  8
___SYMBOL
 62
7
  6
CONTINUOUS
 10
30.9563209005
 20
22.0821235356
  0
VERTEX
  8
___SYMBOL
 62
7
  6
CONTINUOUS
 10
30.9566347823
 20
22.0877409291
  0
VERTEX
  8
___SYMBOL
 62
7
  6
CONTINUOUS
 10
30.9569344512
 20
22.0933711027
  0
VERTEX
  8
___SYMBOL
 62
7
  6
CONTINUOUS
 10
30.9572066976
 20
22.09900888
  0
VERTEX
  8
___SYMBOL
 62
7
  6
CONTINUOUS
 10
30.957438312
 20
22.1046490845
  0
VERTEX
  8
___SYMBOL
 62
7
  6
CONTINUOUS
 10
30.9576160848
 20
22.11028654
  0
VERTEX
  8
___SYMBOL
 62
7
  6
CONTINUOUS
 10
30.9577268064
 20
22.1159160699
  0
VERTEX
  8
___SYMBOL
 62
7
  6
CONTINUOUS
 10
30.9577572674
 20
22.1215324978
  0
VERTEX
  8
___SYMBOL
 62
7
  6
CONTINUOUS
 10
30.9576942582
 20
22.1271306474
  0
VERTEX
  8
___SYMBOL
 62
7
  6
CONTINUOUS
 10
30.9575245692
 20
22.1327053421
  0
VERTEX
  8
___SYMBOL
 62
7
  6
CONTINUOUS
 10
30.9572349909
 20
22.1382514056
  0
VERTEX
  8
___SYMBOL
 62
7
  6
CONTINUOUS
 10
30.9568123137
 20
22.1437636615
  0
VERTEX
  8
___SYMBOL
 62
7
  6
CONTINUOUS
 10
30.9562433281
 20
22.1492369333
  0
VERTEX
  8
___SYMBOL
 62
7
  6
CONTINUOUS
 10
30.9555148245
 20
22.1546660446
  0
VERTEX
  8
___SYMBOL
 62
7
  6
CONTINUOUS
 10
30.9546135934
 20
22.1600458189
  0
VERTEX
  8
___SYMBOL
 62
7
  6
CONTINUOUS
 10
30.9535264252
 20
22.16537108
  0
VERTEX
  8
___SYMBOL
 62
7
  6
CONTINUOUS
 10
30.9522401104
 20
22.1706366513
  0
VERTEX
  8
___SYMBOL
 62
7
  6
CONTINUOUS
 10
30.9507414395
 20
22.1758373565
  0
VERTEX
  8
___SYMBOL
 62
7
  6
CONTINUOUS
 10
30.9490172028
 20
22.180968019
  0
VERTEX
  8
___SYMBOL
 62
7
  6
CONTINUOUS
 10
30.9471912838
 20
22.1857064451
  0
VERTEX
  8
___SYMBOL
 62
7
  6
CONTINUOUS
 10
30.9451754823
 20
22.1903850342
  0
VERTEX
  8
___SYMBOL
 62
7
  6
CONTINUOUS
 10
30.9429893237
 20
22.195009917
  0
VERTEX
  8
___SYMBOL
 62
7
  6
CONTINUOUS
 10
30.9406523337
 20
22.1995872242
  0
VERTEX
  8
___SYMBOL
 62
7
  6
CONTINUOUS
 10
30.9381840376
 20
22.2041230866
  0
VERTEX
  8
___SYMBOL
 62
7
  6
CONTINUOUS
 10
30.935603961
 20
22.2086236348
  0
VERTEX
  8
___SYMBOL
 62
7
  6
CONTINUOUS
 10
30.9329316293
 20
22.2130949995
  0
VERTEX
  8
___SYMBOL
 62
7
  6
CONTINUOUS
 10
30.9301865681
 20
22.2175433116
  0
VERTEX
  8
___SYMBOL
 62
7
  6
CONTINUOUS
 10
30.9273883028
 20
22.2219747016
  0
VERTEX
  8
___SYMBOL
 62
7
  6
CONTINUOUS
 10
30.924556359
 20
22.2263953003
  0
VERTEX
  8
___SYMBOL
 62
7
  6
CONTINUOUS
 10
30.9225159147
 20
22.2295676624
  0
VERTEX
  8
___SYMBOL
 62
7
  6
CONTINUOUS
 10
30.9204939721
 20
22.2327463176
  0
VERTEX
  8
___SYMBOL
 62
7
  6
CONTINUOUS
 10
30.9185163319
 20
22.2359399624
  0
VERTEX
  8
___SYMBOL
 62
7
  6
CONTINUOUS
 10
30.9166087943
 20
22.2391572934
  0
VERTEX
  8
___SYMBOL
 62
7
  6
CONTINUOUS
 10
30.91479716
 20
22.2424070071
  0
VERTEX
  8
___SYMBOL
 62
7
  6
CONTINUOUS
 10
30.9131072294
 20
22.2456978
  0
VERTEX
  8
___SYMBOL
 62
7
  6
CONTINUOUS
 10
30.911564803
 20
22.2490383688
  0
VERTEX
  8
___SYMBOL
 62
7
  6
CONTINUOUS
 10
30.9101956812
 20
22.2524374099
  0
VERTEX
  8
___SYMBOL
 62
7
  6
CONTINUOUS
 10
30.9090256645
 20
22.2559036198
  0
VERTEX
  8
___SYMBOL
 62
7
  6
CONTINUOUS
 10
30.9081253953
 20
22.259219028
  0
VERTEX
  8
___SYMBOL
 62
7
  6
CONTINUOUS
 10
30.9074010408
 20
22.2625913118
  0
VERTEX
  8
___SYMBOL
 62
7
  6
CONTINUOUS
 10
30.9068308535
 20
22.2660106713
  0
VERTEX
  8
___SYMBOL
 62
7
  6
CONTINUOUS
 10
30.9063930857
 20
22.2694673064
  0
VERTEX
  8
___SYMBOL
 62
7
  6
CONTINUOUS
 10
30.90606599
 20
22.2729514171
  0
VERTEX
  8
___SYMBOL
 62
7
  6
CONTINUOUS
 10
30.9058278185
 20
22.2764532033
  0
VERTEX
  8
___SYMBOL
 62
7
  6
CONTINUOUS
 10
30.9056568238
 20
22.2799628651
  0
VERTEX
  8
___SYMBOL
 62
7
  6
CONTINUOUS
 10
30.9055312583
 20
22.2834706025
  0
VERTEX
  8
___SYMBOL
 62
7
  6
CONTINUOUS
 10
30.9054118273
 20
22.2875830061
  0
VERTEX
  8
___SYMBOL
 62
7
  6
CONTINUOUS
 10
30.9052872139
 20
22.2916800408
  0
VERTEX
  8
___SYMBOL
 62
7
  6
CONTINUOUS
 10
30.9051194807
 20
22.2957625544
  0
VERTEX
  8
___SYMBOL
 62
7
  6
CONTINUOUS
 10
30.9048706904
 20
22.2998313947
  0
VERTEX
  8
___SYMBOL
 62
7
  6
CONTINUOUS
 10
30.9045029055
 20
22.3038874094
  0
VERTEX
  8
___SYMBOL
 62
7
  6
CONTINUOUS
 10
30.9039781888
 20
22.3079314463
  0
SEQEND
  0
POLYLINE
  8
___SYMBOL
 62
7
  6
CONTINUOUS
 66
1
 70
0
  0
VERTEX
  8
___SYMBOL
 62
7
  6
CONTINUOUS
 10
30.6932888198
 20
21.7965729294
  0
VERTEX
  8
___SYMBOL
 62
7
  6
CONTINUOUS
 10
30.6952857788
 20
21.8050651608
  0
VERTEX
  8
___SYMBOL
 62
7
  6
CONTINUOUS
 10
30.6970389973
 20
21.8136063615
  0
VERTEX
  8
___SYMBOL
 62
7
  6
CONTINUOUS
 10
30.6985622487
 20
21.8221920846
  0
VERTEX
  8
___SYMBOL
 62
7
  6
CONTINUOUS
 10
30.6998693068
 20
21.8308178832
  0
VERTEX
  8
___SYMBOL
 62
7
  6
CONTINUOUS
 10
30.7009739452
 20
21.8394793104
  0
VERTEX
  8
___SYMBOL
 62
7
  6
CONTINUOUS
 10
30.7018899373
 20
21.8481719192
  0
VERTEX
  8
___SYMBOL
 62
7
  6
CONTINUOUS
 10
30.702631057
 20
21.8568912628
  0
VERTEX
  8
___SYMBOL
 62
7
  6
CONTINUOUS
 10
30.7032110778
 20
21.8656328942
  0
VERTEX
  8
___SYMBOL
 62
7
  6
CONTINUOUS
 10
30.7036437734
 20
21.8743923665
  0
VERTEX
  8
___SYMBOL
 62
7
  6
CONTINUOUS
 10
30.7039429172
 20
21.8831652328
  0
VERTEX
  8
___SYMBOL
 62
7
  6
CONTINUOUS
 10
30.7041222831
 20
21.8919470461
  0
VERTEX
  8
___SYMBOL
 62
7
  6
CONTINUOUS
 10
30.7041956445
 20
21.9007333595
  0
VERTEX
  8
___SYMBOL
 62
7
  6
CONTINUOUS
 10
30.7041767752
 20
21.9095197262
  0
VERTEX
  8
___SYMBOL
 62
7
  6
CONTINUOUS
 10
30.7040258859
 20
21.9216431944
  0
VERTEX
  8
___SYMBOL
 62
7
  6
CONTINUOUS
 10
30.7037689986
 20
21.9337552226
  0
VERTEX
  8
___SYMBOL
 62
7
  6
CONTINUOUS
 10
30.7034496522
 20
21.9458527452
  0
VERTEX
  8
___SYMBOL
 62
7
  6
CONTINUOUS
 10
30.7031113854
 20
21.9579326966
  0
VERTEX
  8
___SYMBOL
 62
7
  6
CONTINUOUS
 10
30.7027977371
 20
21.9699920111
  0
VERTEX
  8
___SYMBOL
 62
7
  6
CONTINUOUS
 10
30.7025522462
 20
21.982027623
  0
VERTEX
  8
___SYMBOL
 62
7
  6
CONTINUOUS
 10
30.7024184514
 20
21.9940364668
  0
VERTEX
  8
___SYMBOL
 62
7
  6
CONTINUOUS
 10
30.7024398917
 20
22.0060154766
  0
VERTEX
  8
___SYMBOL
 62
7
  6
CONTINUOUS
 10
30.7026601058
 20
22.017961587
  0
VERTEX
  8
___SYMBOL
 62
7
  6
CONTINUOUS
 10
30.7031604876
 20
22.0309877718
  0
VERTEX
  8
___SYMBOL
 62
7
  6
CONTINUOUS
 10
30.7038922548
 20
22.0440096698
  0
VERTEX
  8
___SYMBOL
 62
7
  6
CONTINUOUS
 10
30.704797171
 20
22.0570659809
  0
VERTEX
  8
___SYMBOL
 62
7
  6
CONTINUOUS
 10
30.7058169997
 20
22.0701954054
  0
VERTEX
  8
___SYMBOL
 62
7
  6
CONTINUOUS
 10
30.7068935044
 20
22.0834366433
  0
VERTEX
  8
___SYMBOL
 62
7
  6
CONTINUOUS
 10
30.7079684486
 20
22.0968283948
  0
VERTEX
  8
___SYMBOL
 62
7
  6
CONTINUOUS
 10
30.7082856382
 20
22.1008815951
  0
VERTEX
  8
___SYMBOL
 62
7
  6
CONTINUOUS
 10
30.708617091
 20
22.1049420543
  0
VERTEX
  8
___SYMBOL
 62
7
  6
CONTINUOUS
 10
30.7089824586
 20
22.1089999822
  0
VERTEX
  8
___SYMBOL
 62
7
  6
CONTINUOUS
 10
30.7094013921
 20
22.1130455887
  0
VERTEX
  8
___SYMBOL
 62
7
  6
CONTINUOUS
 10
30.7098935428
 20
22.1170690837
  0
VERTEX
  8
___SYMBOL
 62
7
  6
CONTINUOUS
 10
30.710478562
 20
22.1210606772
  0
VERTEX
  8
___SYMBOL
 62
7
  6
CONTINUOUS
 10
30.7111761011
 20
22.125010579
  0
VERTEX
  8
___SYMBOL
 62
7
  6
CONTINUOUS
 10
30.7120058113
 20
22.1289089991
  0
VERTEX
  8
___SYMBOL
 62
7
  6
CONTINUOUS
 10
30.7129873439
 20
22.1327461473
  0
VERTEX
  8
___SYMBOL
 62
7
  6
CONTINUOUS
 10
30.7141403502
 20
22.1365122337
  0
VERTEX
  8
___SYMBOL
 62
7
  6
CONTINUOUS
 10
30.7154844815
 20
22.140197468
  0
VERTEX
  8
___SYMBOL
 62
7
  6
CONTINUOUS
 10
30.7170393891
 20
22.1437920602
  0
VERTEX
  8
___SYMBOL
 62
7
  6
CONTINUOUS
 10
30.7188247243
 20
22.1472862201
  0
VERTEX
  8
___SYMBOL
 62
7
  6
CONTINUOUS
 10
30.7208601384
 20
22.1506701578
  0
VERTEX
  8
___SYMBOL
 62
7
  6
CONTINUOUS
 10
30.7229076633
 20
22.1535993035
  0
VERTEX
  8
___SYMBOL
 62
7
  6
CONTINUOUS
 10
30.7251565683
 20
22.1564165773
  0
VERTEX
  8
___SYMBOL
 62
7
  6
CONTINUOUS
 10
30.7275916597
 20
22.1591064683
  0
VERTEX
  8
___SYMBOL
 62
7
  6
CONTINUOUS
 10
30.7301977439
 20
22.1616534659
  0
VERTEX
  8
___SYMBOL
 62
7
  6
CONTINUOUS
 10
30.7329596271
 20
22.1640420594
  0
VERTEX
  8
___SYMBOL
 62
7
  6
CONTINUOUS
 10
30.7358621157
 20
22.1662567381
  0
VERTEX
  8
___SYMBOL
 62
7
  6
CONTINUOUS
 10
30.738890016
 20
22.1682819912
  0
VERTEX
  8
___SYMBOL
 62
7
  6
CONTINUOUS
 10
30.7420281343
 20
22.1701023079
  0
VERTEX
  8
___SYMBOL
 62
7
  6
CONTINUOUS
 10
30.745261277
 20
22.1717021777
  0
VERTEX
  8
___SYMBOL
 62
7
  6
CONTINUOUS
 10
30.7485742503
 20
22.1730660897
  0
VERTEX
  8
___SYMBOL
 62
7
  6
CONTINUOUS
 10
30.7519518607
 20
22.1741785333
  0
SEQEND
  0
POLYLINE
  8
___SYMBOL
 62
7
  6
CONTINUOUS
 66
1
 70
0
  0
VERTEX
  8
___SYMBOL
 62
7
  6
CONTINUOUS
 10
30.650411402
 20
21.9849960804
  0
VERTEX
  8
___SYMBOL
 62
7
  6
CONTINUOUS
 10
30.6504510113
 20
21.9999563585
  0
VERTEX
  8
___SYMBOL
 62
7
  6
CONTINUOUS
 10
30.6503350122
 20
22.0149282482
  0
VERTEX
  8
___SYMBOL
 62
7
  6
CONTINUOUS
 10
30.6501993816
 20
22.0258001594
  0
VERTEX
  8
___SYMBOL
 62
7
  6
CONTINUOUS
 10
30.6500527893
 20
22.0366873849
  0
VERTEX
  8
___SYMBOL
 62
7
  6
CONTINUOUS
 10
30.6499232872
 20
22.0475818713
  0
VERTEX
  8
___SYMBOL
 62
7
  6
CONTINUOUS
 10
30.6498389275
 20
22.0584755654
  0
VERTEX
  8
___SYMBOL
 62
7
  6
CONTINUOUS
 10
30.6498277625
 20
22.0693604139
  0
VERTEX
  8
___SYMBOL
 62
7
  6
CONTINUOUS
 10
30.6499178442
 20
22.0802283636
  0
VERTEX
  8
___SYMBOL
 62
7
  6
CONTINUOUS
 10
30.6501372248
 20
22.0910713612
  0
VERTEX
  8
___SYMBOL
 62
7
  6
CONTINUOUS
 10
30.6505139564
 20
22.1018813535
  0
VERTEX
  8
___SYMBOL
 62
7
  6
CONTINUOUS
 10
30.6510760913
 20
22.1126502872
  0
VERTEX
  8
___SYMBOL
 62
7
  6
CONTINUOUS
 10
30.6518516815
 20
22.123370109
  0
VERTEX
  8
___SYMBOL
 62
7
  6
CONTINUOUS
 10
30.6524002568
 20
22.1294435851
  0
VERTEX
  8
___SYMBOL
 62
7
  6
CONTINUOUS
 10
30.6530406429
 20
22.135500201
  0
VERTEX
  8
___SYMBOL
 62
7
  6
CONTINUOUS
 10
30.6537865017
 20
22.1415415943
  0
VERTEX
  8
___SYMBOL
 62
7
  6
CONTINUOUS
 10
30.6546514952
 20
22.1475694028
  0
VERTEX
  8
___SYMBOL
 62
7
  6
CONTINUOUS
 10
30.6556492853
 20
22.1535852641
  0
VERTEX
  8
___SYMBOL
 62
7
  6
CONTINUOUS
 10
30.6567935339
 20
22.159590816
  0
VERTEX
  8
___SYMBOL
 62
7
  6
CONTINUOUS
 10
30.658097903
 20
22.1655876962
  0
VERTEX
  8
___SYMBOL
 62
7
  6
CONTINUOUS
 10
30.6595760544
 20
22.1715775423
  0
VERTEX
  8
___SYMBOL
 62
7
  6
CONTINUOUS
 10
30.6612416501
 20
22.1775619921
  0
VERTEX
  8
___SYMBOL
 62
7
  6
CONTINUOUS
 10
30.663108352
 20
22.1835426833
  0
VERTEX
  8
___SYMBOL
 62
7
  6
CONTINUOUS
 10
30.665189822
 20
22.1895212536
  0
VERTEX
  8
___SYMBOL
 62
7
  6
CONTINUOUS
 10
30.6674997221
 20
22.1954993406
  0
VERTEX
  8
___SYMBOL
 62
7
  6
CONTINUOUS
 10
30.6700517141
 20
22.2014785821
  0
VERTEX
  8
___SYMBOL
 62
7
  6
CONTINUOUS
 10
30.6715102564
 20
22.2046599797
  0
VERTEX
  8
___SYMBOL
 62
7
  6
CONTINUOUS
 10
30.6730297624
 20
22.2078417812
  0
VERTEX
  8
___SYMBOL
 62
7
  6
CONTINUOUS
 10
30.6745988336
 20
22.2110236004
  0
VERTEX
  8
___SYMBOL
 62
7
  6
CONTINUOUS
 10
30.6762060713
 20
22.2142050513
  0
VERTEX
  8
___SYMBOL
 62
7
  6
CONTINUOUS
 10
30.6778400771
 20
22.2173857476
  0
VERTEX
  8
___SYMBOL
 62
7
  6
CONTINUOUS
 10
30.6794894522
 20
22.2205653033
  0
VERTEX
  8
___SYMBOL
 62
7
  6
CONTINUOUS
 10
30.6811427982
 20
22.2237433321
  0
VERTEX
  8
___SYMBOL
 62
7
  6
CONTINUOUS
 10
30.6827887164
 20
22.2269194481
  0
VERTEX
  8
___SYMBOL
 62
7
  6
CONTINUOUS
 10
30.6844158082
 20
22.230093265
  0
VERTEX
  8
___SYMBOL
 62
7
  6
CONTINUOUS
 10
30.6860126751
 20
22.2332643966
  0
VERTEX
  8
___SYMBOL
 62
7
  6
CONTINUOUS
 10
30.6875679185
 20
22.236432457
  0
VERTEX
  8
___SYMBOL
 62
7
  6
CONTINUOUS
 10
30.6890701398
 20
22.2395970599
  0
VERTEX
  8
___SYMBOL
 62
7
  6
CONTINUOUS
 10
30.6905079404
 20
22.2427578192
  0
VERTEX
  8
___SYMBOL
 62
7
  6
CONTINUOUS
 10
30.6918699217
 20
22.2459143488
  0
VERTEX
  8
___SYMBOL
 62
7
  6
CONTINUOUS
 10
30.6931446852
 20
22.2490662625
  0
VERTEX
  8
___SYMBOL
 62
7
  6
CONTINUOUS
 10
30.6943208322
 20
22.2522131742
  0
VERTEX
  8
___SYMBOL
 62
7
  6
CONTINUOUS
 10
30.6953869641
 20
22.2553546978
  0
VERTEX
  8
___SYMBOL
 62
7
  6
CONTINUOUS
 10
30.6963316825
 20
22.2584904471
  0
VERTEX
  8
___SYMBOL
 62
7
  6
CONTINUOUS
 10
30.6971435886
 20
22.261620036
  0
VERTEX
  8
___SYMBOL
 62
7
  6
CONTINUOUS
 10
30.697811284
 20
22.2647430784
  0
VERTEX
  8
___SYMBOL
 62
7
  6
CONTINUOUS
 10
30.69832337
 20
22.2678591881
  0
VERTEX
  8
___SYMBOL
 62
7
  6
CONTINUOUS
 10
30.698668448
 20
22.270967979
  0
VERTEX
  8
___SYMBOL
 62
7
  6
CONTINUOUS
 10
30.6988351195
 20
22.274069065
  0
VERTEX
  8
___SYMBOL
 62
7
  6
CONTINUOUS
 10
30.6988119858
 20
22.2771620599
  0
VERTEX
  8
___SYMBOL
 62
7
  6
CONTINUOUS
 10
30.6985876485
 20
22.2802465776
  0
VERTEX
  8
___SYMBOL
 62
7
  6
CONTINUOUS
 10
30.6981507088
 20
22.283322232
  0
VERTEX
  8
___SYMBOL
 62
7
  6
CONTINUOUS
 10
30.6974897683
 20
22.2863886369
  0
VERTEX
  8
___SYMBOL
 62
7
  6
CONTINUOUS
 10
30.6965934283
 20
22.2894454062
  0
VERTEX
  8
___SYMBOL
 62
7
  6
CONTINUOUS
 10
30.6960807515
 20
22.2909188291
  0
VERTEX
  8
___SYMBOL
 62
7
  6
CONTINUOUS
 10
30.6955537622
 20
22.2924018968
  0
VERTEX
  8
___SYMBOL
 62
7
  6
CONTINUOUS
 10
30.6950556109
 20
22.2939065879
  0
VERTEX
  8
___SYMBOL
 62
7
  6
CONTINUOUS
 10
30.694629448
 20
22.2954448805
  0
VERTEX
  8
___SYMBOL
 62
7
  6
CONTINUOUS
 10
30.6943184242
 20
22.2970287532
  0
VERTEX
  8
___SYMBOL
 62
7
  6
CONTINUOUS
 10
30.6941635317
 20
22.2985691663
  0
VERTEX
  8
___SYMBOL
 62
7
  6
CONTINUOUS
 10
30.6941503697
 20
22.3001373023
  0
VERTEX
  8
___SYMBOL
 62
7
  6
CONTINUOUS
 10
30.6942799313
 20
22.3017097083
  0
VERTEX
  8
___SYMBOL
 62
7
  6
CONTINUOUS
 10
30.6945532092
 20
22.3032629312
  0
VERTEX
  8
___SYMBOL
 62
7
  6
CONTINUOUS
 10
30.6949711965
 20
22.3047735179
  0
VERTEX
  8
___SYMBOL
 62
7
  6
CONTINUOUS
 10
30.6955348861
 20
22.3062180155
  0
VERTEX
  8
___SYMBOL
 62
7
  6
CONTINUOUS
 10
30.6962452709
 20
22.3075729709
  0
VERTEX
  8
___SYMBOL
 62
7
  6
CONTINUOUS
 10
30.6971033438
 20
22.308814931
  0
VERTEX
  8
___SYMBOL
 62
7
  6
CONTINUOUS
 10
30.6981100977
 20
22.3099204429
  0
SEQEND
  0
POLYLINE
  8
___SYMBOL
 62
7
  6
CONTINUOUS
 66
1
 70
0
  0
VERTEX
  8
___SYMBOL
 62
7
  6
CONTINUOUS
 10
31.0584183821
 20
21.7061727674
  0
VERTEX
  8
___SYMBOL
 62
7
  6
CONTINUOUS
 10
31.0794175881
 20
21.7102611724
  0
VERTEX
  8
___SYMBOL
 62
7
  6
CONTINUOUS
 10
31.0994474134
 20
21.7205031798
  0
VERTEX
  8
___SYMBOL
 62
7
  6
CONTINUOUS
 10
31.1167531517
 20
21.7360013746
  0
VERTEX
  8
___SYMBOL
 62
7
  6
CONTINUOUS
 10
31.1311231045
 20
21.7565666862
  0
VERTEX
  8
___SYMBOL
 62
7
  6
CONTINUOUS
 10
31.1412983947
 20
21.78039682
  0
VERTEX
  8
___SYMBOL
 62
7
  6
CONTINUOUS
 10
31.1471544529
 20
21.8072009966
  0
VERTEX
  8
___SYMBOL
 62
7
  6
CONTINUOUS
 10
31.1481784203
 20
21.8346303544
  0
VERTEX
  8
___SYMBOL
 62
7
  6
CONTINUOUS
 10
31.1444766712
 20
21.8618280685
  0
VERTEX
  8
___SYMBOL
 62
7
  6
CONTINUOUS
 10
31.1360270443
 20
21.8879308992
  0
VERTEX
  8
___SYMBOL
 62
7
  6
CONTINUOUS
 10
31.1235699594
 20
21.9106518029
  0
VERTEX
  8
___SYMBOL
 62
7
  6
CONTINUOUS
 10
31.1072575127
 20
21.9297129472
  0
VERTEX
  8
___SYMBOL
 62
7
  6
CONTINUOUS
 10
31.0885189898
 20
21.9434443054
  0
VERTEX
  8
___SYMBOL
 62
7
  6
CONTINUOUS
 10
31.0675833516
 20
21.9516782682
  0
VERTEX
  8
___SYMBOL
 62
7
  6
CONTINUOUS
 10
31.046285085
 20
21.9536931945
  0
VERTEX
  8
___SYMBOL
 62
7
  6
CONTINUOUS
 10
31.0252859956
 20
21.9496049061
  0
VERTEX
  8
___SYMBOL
 62
7
  6
CONTINUOUS
 10
31.0052560537
 20
21.9393628987
  0
VERTEX
  8
___SYMBOL
 62
7
  6
CONTINUOUS
 10
30.987950432
 20
21.9238645872
  0
VERTEX
  8
___SYMBOL
 62
7
  6
CONTINUOUS
 10
30.9735803627
 20
21.9032992756
  0
VERTEX
  8
___SYMBOL
 62
7
  6
CONTINUOUS
 10
30.963405189
 20
21.8794691419
  0
VERTEX
  8
___SYMBOL
 62
7
  6
CONTINUOUS
 10
30.9575490142
 20
21.8526649653
  0
VERTEX
  8
___SYMBOL
 62
7
  6
CONTINUOUS
 10
30.9565250468
 20
21.8252356075
  0
VERTEX
  8
___SYMBOL
 62
7
  6
CONTINUOUS
 10
30.9602267959
 20
21.7980378933
  0
VERTEX
  8
___SYMBOL
 62
7
  6
CONTINUOUS
 10
30.9686764228
 20
21.7719350627
  0
VERTEX
  8
___SYMBOL
 62
7
  6
CONTINUOUS
 10
30.9811336244
 20
21.749214159
  0
VERTEX
  8
___SYMBOL
 62
7
  6
CONTINUOUS
 10
30.9974460711
 20
21.7301530146
  0
VERTEX
  8
___SYMBOL
 62
7
  6
CONTINUOUS
 10
31.016184594
 20
21.7164216564
  0
VERTEX
  8
___SYMBOL
 62
7
  6
CONTINUOUS
 10
31.0371201155
 20
21.7081878103
  0
VERTEX
  8
___SYMBOL
 62
7
  6
CONTINUOUS
 10
31.0584183821
 20
21.7061727674
  0
SEQEND
  0
POLYLINE
  8
___SYMBOL
 62
7
  6
CONTINUOUS
 66
1
 70
0
  0
VERTEX
  8
___SYMBOL
 62
7
  6
CONTINUOUS
 10
30.9327208143
 20
21.757916346
  0
VERTEX
  8
___SYMBOL
 62
7
  6
CONTINUOUS
 10
30.9359562738
 20
21.7476346013
  0
VERTEX
  8
___SYMBOL
 62
7
  6
CONTINUOUS
 10
30.9396302624
 20
21.7376629221
  0
VERTEX
  8
___SYMBOL
 62
7
  6
CONTINUOUS
 10
30.943728938
 20
21.7280388776
  0
VERTEX
  8
___SYMBOL
 62
7
  6
CONTINUOUS
 10
30.9482368587
 20
21.7187987272
  0
VERTEX
  8
___SYMBOL
 62
7
  6
CONTINUOUS
 10
30.9531370404
 20
21.7099772839
  0
VERTEX
  8
___SYMBOL
 62
7
  6
CONTINUOUS
 10
30.9584110214
 20
21.701607783
  0
VERTEX
  8
___SYMBOL
 62
7
  6
CONTINUOUS
 10
30.9640389314
 20
21.6937217575
  0
VERTEX
  8
___SYMBOL
 62
7
  6
CONTINUOUS
 10
30.969999567
 20
21.6863489184
  0
VERTEX
  8
___SYMBOL
 62
7
  6
CONTINUOUS
 10
30.9762704709
 20
21.6795170436
  0
VERTEX
  8
___SYMBOL
 62
7
  6
CONTINUOUS
 10
30.9828280171
 20
21.6732518726
  0
VERTEX
  8
___SYMBOL
 62
7
  6
CONTINUOUS
 10
30.9896474993
 20
21.6675770101
  0
VERTEX
  8
___SYMBOL
 62
7
  6
CONTINUOUS
 10
30.9967032248
 20
21.6625138364
  0
VERTEX
  8
___SYMBOL
 62
7
  6
CONTINUOUS
 10
31.0039686105
 20
21.6580814275
  0
VERTEX
  8
___SYMBOL
 62
7
  6
CONTINUOUS
 10
31.0114162835
 20
21.6542964829
  0
VERTEX
  8
___SYMBOL
 62
7
  6
CONTINUOUS
 10
31.0190181842
 20
21.6511732626
  0
VERTEX
  8
___SYMBOL
 62
7
  6
CONTINUOUS
 10
31.0267456716
 20
21.6487235336
  0
VERTEX
  8
___SYMBOL
 62
7
  6
CONTINUOUS
 10
31.034569632
 20
21.6469565254
  0
VERTEX
  8
___SYMBOL
 62
7
  6
CONTINUOUS
 10
31.042460588
 20
21.6458788954
  0
VERTEX
  8
___SYMBOL
 62
7
  6
CONTINUOUS
 10
31.0503888097
 20
21.6454947037
  0
VERTEX
  8
___SYMBOL
 62
7
  6
CONTINUOUS
 10
31.0583244269
 20
21.6458053976
  0
VERTEX
  8
___SYMBOL
 62
7
  6
CONTINUOUS
 10
31.0662375417
 20
21.6468098067
  0
VERTEX
  8
___SYMBOL
 62
7
  6
CONTINUOUS
 10
31.0740983406
 20
21.6485041468
  0
VERTEX
  8
___SYMBOL
 62
7
  6
CONTINUOUS
 10
31.0818772076
 20
21.6508820343
  0
VERTEX
  8
___SYMBOL
 62
7
  6
CONTINUOUS
 10
31.0895448351
 20
21.6539345103
  0
VERTEX
  8
___SYMBOL
 62
7
  6
CONTINUOUS
 10
31.0970723348
 20
21.6576500744
  0
VERTEX
  8
___SYMBOL
 62
7
  6
CONTINUOUS
 10
31.1044313461
 20
21.6620147278
  0
VERTEX
  8
___SYMBOL
 62
7
  6
CONTINUOUS
 10
31.1115941435
 20
21.6670120265
  0
VERTEX
  8
___SYMBOL
 62
7
  6
CONTINUOUS
 10
31.1185337406
 20
21.6726231427
  0
VERTEX
  8
___SYMBOL
 62
7
  6
CONTINUOUS
 10
31.1252239918
 20
21.6788269361
  0
VERTEX
  8
___SYMBOL
 62
7
  6
CONTINUOUS
 10
31.1316396911
 20
21.6856000334
  0
VERTEX
  8
___SYMBOL
 62
7
  6
CONTINUOUS
 10
31.137756667
 20
21.6929169164
  0
VERTEX
  8
___SYMBOL
 62
7
  6
CONTINUOUS
 10
31.143551873
 20
21.7007500182
  0
VERTEX
  8
___SYMBOL
 62
7
  6
CONTINUOUS
 10
31.1490034755
 20
21.709069827
  0
VERTEX
  8
___SYMBOL
 62
7
  6
CONTINUOUS
 10
31.154090935
 20
21.7178449973
  0
VERTEX
  8
___SYMBOL
 62
7
  6
CONTINUOUS
 10
31.1587950842
 20
21.7270424678
  0
VERTEX
  8
___SYMBOL
 62
7
  6
CONTINUOUS
 10
31.1630981998
 20
21.7366275864
  0
VERTEX
  8
___SYMBOL
 62
7
  6
CONTINUOUS
 10
31.1669840694
 20
21.7465642405
  0
VERTEX
  8
___SYMBOL
 62
7
  6
CONTINUOUS
 10
31.1704380528
 20
21.7568149928
  0
VERTEX
  8
___SYMBOL
 62
7
  6
CONTINUOUS
 10
31.1734471367
 20
21.7673412229
  0
VERTEX
  8
___SYMBOL
 62
7
  6
CONTINUOUS
 10
31.1759999843
 20
21.7781032724
  0
VERTEX
  8
___SYMBOL
 62
7
  6
CONTINUOUS
 10
31.1780869775
 20
21.7890605944
  0
VERTEX
  8
___SYMBOL
 62
7
  6
CONTINUOUS
 10
31.1797002533
 20
21.8001719063
  0
VERTEX
  8
___SYMBOL
 62
7
  6
CONTINUOUS
 10
31.1808337336
 20
21.8113953454
  0
VERTEX
  8
___SYMBOL
 62
7
  6
CONTINUOUS
 10
31.181483148
 20
21.8226886265
  0
VERTEX
  8
___SYMBOL
 62
7
  6
CONTINUOUS
 10
31.1816460498
 20
21.8340092013
  0
VERTEX
  8
___SYMBOL
 62
7
  6
CONTINUOUS
 10
31.1813218251
 20
21.8453144186
  0
VERTEX
  8
___SYMBOL
 62
7
  6
CONTINUOUS
 10
31.1805116955
 20
21.8565616852
  0
VERTEX
  8
___SYMBOL
 62
7
  6
CONTINUOUS
 10
31.1792187133
 20
21.867708626
  0
VERTEX
  8
___SYMBOL
 62
7
  6
CONTINUOUS
 10
31.1774477498
 20
21.8787132441
  0
VERTEX
  8
___SYMBOL
 62
7
  6
CONTINUOUS
 10
31.1752054774
 20
21.8895340787
  0
VERTEX
  8
___SYMBOL
 62
7
  6
CONTINUOUS
 10
31.1725003439
 20
21.9001303615
  0
VERTEX
  8
___SYMBOL
 62
7
  6
CONTINUOUS
 10
31.1693425411
 20
21.9104621702
  0
VERTEX
  8
___SYMBOL
 62
7
  6
CONTINUOUS
 10
31.1657439664
 20
21.9204905788
  0
VERTEX
  8
___SYMBOL
 62
7
  6
CONTINUOUS
 10
31.1617181776
 20
21.9301778046
  0
VERTEX
  8
___SYMBOL
 62
7
  6
CONTINUOUS
 10
31.1572803421
 20
21.9394873501
  0
VERTEX
  8
___SYMBOL
 62
7
  6
CONTINUOUS
 10
31.15244718
 20
21.9483841409
  0
VERTEX
  8
___SYMBOL
 62
7
  6
CONTINUOUS
 10
31.1472369006
 20
21.9568346577
  0
VERTEX
  8
___SYMBOL
 62
7
  6
CONTINUOUS
 10
31.1416691338
 20
21.9648070624
  0
VERTEX
  8
___SYMBOL
 62
7
  6
CONTINUOUS
 10
31.1357648568
 20
21.9722713184
  0
VERTEX
  8
___SYMBOL
 62
7
  6
CONTINUOUS
 10
31.1295463145
 20
21.9791993036
  0
VERTEX
  8
___SYMBOL
 62
7
  6
CONTINUOUS
 10
31.1230369355
 20
21.9855649161
  0
VERTEX
  8
___SYMBOL
 62
7
  6
CONTINUOUS
 10
31.1162612446
 20
21.9913441731
  0
VERTEX
  8
___SYMBOL
 62
7
  6
CONTINUOUS
 10
31.1092447696
 20
21.9965153008
  0
VERTEX
  8
___SYMBOL
 62
7
  6
CONTINUOUS
 10
31.1020139457
 20
22.0010588164
  0
VERTEX
  8
___SYMBOL
 62
7
  6
CONTINUOUS
 10
31.0945960156
 20
22.0049576021
  0
VERTEX
  8
___SYMBOL
 62
7
  6
CONTINUOUS
 10
31.087018927
 20
22.0081969687
  0
VERTEX
  8
___SYMBOL
 62
7
  6
CONTINUOUS
 10
31.0793112271
 20
22.0107647118
  0
VERTEX
  8
___SYMBOL
 62
7
  6
CONTINUOUS
 10
31.0715019552
 20
22.012651157
  0
VERTEX
  8
___SYMBOL
 62
7
  6
CONTINUOUS
 10
31.0636205334
 20
22.0138491972
  0
VERTEX
  8
___SYMBOL
 62
7
  6
CONTINUOUS
 10
31.0556966557
 20
22.0143543186
  0
VERTEX
  8
___SYMBOL
 62
7
  6
CONTINUOUS
 10
31.0477601757
 20
22.0141646182
  0
VERTEX
  8
___SYMBOL
 62
7
  6
CONTINUOUS
 10
31.0398409949
 20
22.0132808105
  0
VERTEX
  8
___SYMBOL
 62
7
  6
CONTINUOUS
 10
31.0319689494
 20
22.0117062255
  0
VERTEX
  8
___SYMBOL
 62
7
  6
CONTINUOUS
 10
31.0241736977
 20
22.0094467955
  0
VERTEX
  8
___SYMBOL
 62
7
  6
CONTINUOUS
 10
31.016484609
 20
22.0065110331
  0
VERTEX
  8
___SYMBOL
 62
7
  6
CONTINUOUS
 10
31.0089306527
 20
22.002909999
  0
VERTEX
  8
___SYMBOL
 62
7
  6
CONTINUOUS
 10
31.0015402887
 20
21.9986572604
  0
VERTEX
  8
___SYMBOL
 62
7
  6
CONTINUOUS
 10
30.994341361
 20
21.9937688398
  0
VERTEX
  8
___SYMBOL
 62
7
  6
CONTINUOUS
 10
30.987360992
 20
21.9882631548
  0
VERTEX
  8
___SYMBOL
 62
7
  6
CONTINUOUS
 10
30.9806254807
 20
21.9821609483
  0
SEQEND
  0
POLYLINE
  8
___SYMBOL
 62
7
  6
CONTINUOUS
 66
1
 70
0
  0
VERTEX
  8
___SYMBOL
 62
7
  6
CONTINUOUS
 10
30.5760182016
 20
21.7199360844
  0
VERTEX
  8
___SYMBOL
 62
7
  6
CONTINUOUS
 10
30.5959820096
 20
21.7254760528
  0
VERTEX
  8
___SYMBOL
 62
7
  6
CONTINUOUS
 10
30.6145472663
 20
21.7370779459
  0
VERTEX
  8
___SYMBOL
 62
7
  6
CONTINUOUS
 10
30.6300872177
 20
21.7537249112
  0
VERTEX
  8
___SYMBOL
 62
7
  6
CONTINUOUS
 10
30.6424120932
 20
21.7752137647
  0
VERTEX
  8
___SYMBOL
 62
7
  6
CONTINUOUS
 10
30.6504419972
 20
21.7996616148
  0
VERTEX
  8
___SYMBOL
 62
7
  6
CONTINUOUS
 10
30.6540787788
 20
21.8267698674
  0
VERTEX
  8
___SYMBOL
 62
7
  6
CONTINUOUS
 10
30.6530037821
 20
21.8541630673
  0
VERTEX
  8
___SYMBOL
 62
7
  6
CONTINUOUS
 10
30.6473842664
 20
21.8809953538
  0
VERTEX
  8
___SYMBOL
 62
7
  6
CONTINUOUS
 10
30.6372637961
 20
21.9064050031
  0
VERTEX
  8
___SYMBOL
 62
7
  6
CONTINUOUS
 10
30.6235291721
 20
21.9281659737
  0
VERTEX
  8
___SYMBOL
 62
7
  6
CONTINUOUS
 10
30.6063480618
 20
21.9460120972
  0
VERTEX
  8
___SYMBOL
 62
7
  6
CONTINUOUS
 10
30.5872260322
 20
21.9583798372
  0
VERTEX
  8
___SYMBOL
 62
7
  6
CONTINUOUS
 10
30.5663965932
 20
21.9651181473
  0
VERTEX
  8
___SYMBOL
 62
7
  6
CONTINUOUS
 10
30.5456848422
 20
21.9656364878
  0
VERTEX
  8
___SYMBOL
 62
7
  6
CONTINUOUS
 10
30.5257210342
 20
21.9600964028
  0
VERTEX
  8
___SYMBOL
 62
7
  6
CONTINUOUS
 10
30.5071557775
 20
21.9484946263
  0
VERTEX
  8
___SYMBOL
 62
7
  6
CONTINUOUS
 10
30.4916158261
 20
21.931847661
  0
VERTEX
  8
___SYMBOL
 62
7
  6
CONTINUOUS
 10
30.4792908923
 20
21.9103586909
  0
VERTEX
  8
___SYMBOL
 62
7
  6
CONTINUOUS
 10
30.4712610466
 20
21.8859108408
  0
VERTEX
  8
___SYMBOL
 62
7
  6
CONTINUOUS
 10
30.467624265
 20
21.8588027048
  0
VERTEX
  8
___SYMBOL
 62
7
  6
CONTINUOUS
 10
30.4686992617
 20
21.8314095049
  0
VERTEX
  8
___SYMBOL
 62
7
  6
CONTINUOUS
 10
30.4743187774
 20
21.8045772185
  0
VERTEX
  8
___SYMBOL
 62
7
  6
CONTINUOUS
 10
30.4844392477
 20
21.7791674525
  0
VERTEX
  8
___SYMBOL
 62
7
  6
CONTINUOUS
 10
30.4981738717
 20
21.7574065985
  0
VERTEX
  8
___SYMBOL
 62
7
  6
CONTINUOUS
 10
30.515354982
 20
21.7395604751
  0
VERTEX
  8
___SYMBOL
 62
7
  6
CONTINUOUS
 10
30.5344770116
 20
21.727192735
  0
VERTEX
  8
___SYMBOL
 62
7
  6
CONTINUOUS
 10
30.5553064506
 20
21.720454425
  0
VERTEX
  8
___SYMBOL
 62
7
  6
CONTINUOUS
 10
30.5760182016
 20
21.7199360844
  0
SEQEND
  0
POLYLINE
  8
___SYMBOL
 62
7
  6
CONTINUOUS
 66
1
 70
0
  0
VERTEX
  8
___SYMBOL
 62
7
  6
CONTINUOUS
 10
30.6270750336
 20
21.9734225539
  0
VERTEX
  8
___SYMBOL
 62
7
  6
CONTINUOUS
 10
30.6194647767
 20
21.9786715898
  0
VERTEX
  8
___SYMBOL
 62
7
  6
CONTINUOUS
 10
30.6116157305
 20
21.9832578934
  0
VERTEX
  8
___SYMBOL
 62
7
  6
CONTINUOUS
 10
30.6035611632
 20
21.9871620257
  0
VERTEX
  8
___SYMBOL
 62
7
  6
CONTINUOUS
 10
30.5953352139
 20
21.9903674392
  0
VERTEX
  8
___SYMBOL
 62
7
  6
CONTINUOUS
 10
30.5869727483
 20
21.9928605477
  0
VERTEX
  8
___SYMBOL
 62
7
  6
CONTINUOUS
 10
30.5785092107
 20
21.9946307841
  0
VERTEX
  8
___SYMBOL
 62
7
  6
CONTINUOUS
 10
30.5699804736
 20
21.9956706454
  0
VERTEX
  8
___SYMBOL
 62
7
  6
CONTINUOUS
 10
30.5614226861
 20
21.9959757241
  0
VERTEX
  8
___SYMBOL
 62
7
  6
CONTINUOUS
 10
30.5528721204
 20
21.9955447271
  0
VERTEX
  8
___SYMBOL
 62
7
  6
CONTINUOUS
 10
30.5443650178
 20
21.9943794812
  0
VERTEX
  8
___SYMBOL
 62
7
  6
CONTINUOUS
 10
30.5359374357
 20
21.9924849253
  0
VERTEX
  8
___SYMBOL
 62
7
  6
CONTINUOUS
 10
30.5276250944
 20
21.9898690894
  0
VERTEX
  8
___SYMBOL
 62
7
  6
CONTINUOUS
 10
30.5194632256
 20
21.9865430608
  0
VERTEX
  8
___SYMBOL
 62
7
  6
CONTINUOUS
 10
30.5114864234
 20
21.9825209368
  0
VERTEX
  8
___SYMBOL
 62
7
  6
CONTINUOUS
 10
30.5037284974
 20
21.9778197651
  0
VERTEX
  8
___SYMBOL
 62
7
  6
CONTINUOUS
 10
30.4962223295
 20
21.9724594716
  0
VERTEX
  8
___SYMBOL
 62
7
  6
CONTINUOUS
 10
30.4889997345
 20
21.966462776
  0
VERTEX
  8
___SYMBOL
 62
7
  6
CONTINUOUS
 10
30.4820913254
 20
21.959855095
  0
VERTEX
  8
___SYMBOL
 62
7
  6
CONTINUOUS
 10
30.4755263834
 20
21.9526644355
  0
VERTEX
  8
___SYMBOL
 62
7
  6
CONTINUOUS
 10
30.469332734
 20
21.9449212748
  0
VERTEX
  8
___SYMBOL
 62
7
  6
CONTINUOUS
 10
30.4635366288
 20
21.9366584324
  0
VERTEX
  8
___SYMBOL
 62
7
  6
CONTINUOUS
 10
30.4581626347
 20
21.9279109302
  0
VERTEX
  8
___SYMBOL
 62
7
  6
CONTINUOUS
 10
30.4532335293
 20
21.9187158444
  0
VERTEX
  8
___SYMBOL
 62
7
  6
CONTINUOUS
 10
30.4487702045
 20
21.9091121485
  0
VERTEX
  8
___SYMBOL
 62
7
  6
CONTINUOUS
 10
30.4447915782
 20
21.8991405474
  0
VERTEX
  8
___SYMBOL
 62
7
  6
CONTINUOUS
 10
30.4413145137
 20
21.888843306
  0
VERTEX
  8
___SYMBOL
 62
7
  6
CONTINUOUS
 10
30.4383537485
 20
21.8782640688
  0
VERTEX
  8
___SYMBOL
 62
7
  6
CONTINUOUS
 10
30.4359218318
 20
21.8674476759
  0
VERTEX
  8
___SYMBOL
 62
7
  6
CONTINUOUS
 10
30.4340290713
 20
21.8564399726
  0
VERTEX
  8
___SYMBOL
 62
7
  6
CONTINUOUS
 10
30.4326834893
 20
21.8452876149
  0
VERTEX
  8
___SYMBOL
 62
7
  6
CONTINUOUS
 10
30.4318907893
 20
21.8340378719
  0
VERTEX
  8
___SYMBOL
 62
7
  6
CONTINUOUS
 10
30.4316543309
 20
21.8227384257
  0
VERTEX
  8
___SYMBOL
 62
7
  6
CONTINUOUS
 10
30.4319751165
 20
21.8114371689
  0
VERTEX
  8
___SYMBOL
 62
7
  6
CONTINUOUS
 10
30.4328517864
 20
21.8001820017
  0
VERTEX
  8
___SYMBOL
 62
7
  6
CONTINUOUS
 10
30.4342806248
 20
21.7890206291
  0
VERTEX
  8
___SYMBOL
 62
7
  6
CONTINUOUS
 10
30.4362555757
 20
21.7780003585
  0
VERTEX
  8
___SYMBOL
 62
7
  6
CONTINUOUS
 10
30.4387682681
 20
21.7671678993
  0
VERTEX
  8
___SYMBOL
 62
7
  6
CONTINUOUS
 10
30.4418080521
 20
21.7565691647
  0
VERTEX
  8
___SYMBOL
 62
7
  6
CONTINUOUS
 10
30.4453620435
 20
21.7462490774
  0
VERTEX
  8
___SYMBOL
 62
7
  6
CONTINUOUS
 10
30.4494151788
 20
21.736251379
  0
VERTEX
  8
___SYMBOL
 62
7
  6
CONTINUOUS
 10
30.4539502789
 20
21.7266184447
  0
VERTEX
  8
___SYMBOL
 62
7
  6
CONTINUOUS
 10
30.4589481217
 20
21.7173911036
  0
VERTEX
  8
___SYMBOL
 62
7
  6
CONTINUOUS
 10
30.4643875239
 20
21.7086084657
  0
VERTEX
  8
___SYMBOL
 62
7
  6
CONTINUOUS
 10
30.4702454306
 20
21.7003077562
  0
VERTEX
  8
___SYMBOL
 62
7
  6
CONTINUOUS
 10
30.4764970131
 20
21.6925241576
  0
VERTEX
  8
___SYMBOL
 62
7
  6
CONTINUOUS
 10
30.4831157742
 20
21.6852906606
  0
VERTEX
  8
___SYMBOL
 62
7
  6
CONTINUOUS
 10
30.4900736603
 20
21.6786379243
  0
VERTEX
  8
___SYMBOL
 62
7
  6
CONTINUOUS
 10
30.4973411804
 20
21.6725941463
  0
VERTEX
  8
___SYMBOL
 62
7
  6
CONTINUOUS
 10
30.5048875313
 20
21.6671849431
  0
VERTEX
  8
___SYMBOL
 62
7
  6
CONTINUOUS
 10
30.5126807276
 20
21.6624332416
  0
VERTEX
  8
___SYMBOL
 62
7
  6
CONTINUOUS
 10
30.5206877381
 20
21.6583591818
  0
VERTEX
  8
___SYMBOL
 62
7
  6
CONTINUOUS
 10
30.5288746251
 20
21.6549800317
  0
VERTEX
  8
___SYMBOL
 62
7
  6
CONTINUOUS
 10
30.5372066885
 20
21.6523101136
  0
VERTEX
  8
___SYMBOL
 62
7
  6
CONTINUOUS
 10
30.5456486129
 20
21.6503607441
  0
VERTEX
  8
___SYMBOL
 62
7
  6
CONTINUOUS
 10
30.5541646174
 20
21.6491401855
  0
VERTEX
  8
___SYMBOL
 62
7
  6
CONTINUOUS
 10
30.5627186068
 20
21.6486536111
  0
VERTEX
  8
___SYMBOL
 62
7
  6
CONTINUOUS
 10
30.5712743251
 20
21.6489030833
  0
VERTEX
  8
___SYMBOL
 62
7
  6
CONTINUOUS
 10
30.5797955091
 20
21.6498875448
  0
VERTEX
  8
___SYMBOL
 62
7
  6
CONTINUOUS
 10
30.5882460417
 20
21.6516028228
  0
VERTEX
  8
___SYMBOL
 62
7
  6
CONTINUOUS
 10
30.5965901053
 20
21.6540416472
  0
VERTEX
  8
___SYMBOL
 62
7
  6
CONTINUOUS
 10
30.6047923338
 20
21.6571936811
  0
VERTEX
  8
___SYMBOL
 62
7
  6
CONTINUOUS
 10
30.6128179621
 20
21.6610455645
  0
VERTEX
  8
___SYMBOL
 62
7
  6
CONTINUOUS
 10
30.6206329736
 20
21.6655809713
  0
VERTEX
  8
___SYMBOL
 62
7
  6
CONTINUOUS
 10
30.6282042444
 20
21.6707806782
  0
VERTEX
  8
___SYMBOL
 62
7
  6
CONTINUOUS
 10
30.6354996837
 20
21.6766226463
  0
VERTEX
  8
___SYMBOL
 62
7
  6
CONTINUOUS
 10
30.6424883699
 20
21.6830821144
  0
VERTEX
  8
___SYMBOL
 62
7
  6
CONTINUOUS
 10
30.6491406815
 20
21.6901317042
  0
VERTEX
  8
___SYMBOL
 62
7
  6
CONTINUOUS
 10
30.6554284227
 20
21.6977415359
  0
VERTEX
  8
___SYMBOL
 62
7
  6
CONTINUOUS
 10
30.661324943
 20
21.7058793555
  0
VERTEX
  8
___SYMBOL
 62
7
  6
CONTINUOUS
 10
30.66680525
 20
21.7145106707
  0
VERTEX
  8
___SYMBOL
 62
7
  6
CONTINUOUS
 10
30.6718461154
 20
21.7235988979
  0
VERTEX
  8
___SYMBOL
 62
7
  6
CONTINUOUS
 10
30.6764261736
 20
21.7331055165
  0
VERTEX
  8
___SYMBOL
 62
7
  6
CONTINUOUS
 10
30.6805260121
 20
21.742990233
  0
VERTEX
  8
___SYMBOL
 62
7
  6
CONTINUOUS
 10
30.6841282537
 20
21.753211151
  0
VERTEX
  8
___SYMBOL
 62
7
  6
CONTINUOUS
 10
30.6872176303
 20
21.7637249492
  0
VERTEX
  8
___SYMBOL
 62
7
  6
CONTINUOUS
 10
30.6897810477
 20
21.774487065
  0
VERTEX
  8
___SYMBOL
 62
7
  6
CONTINUOUS
 10
30.6918076407
 20
21.7854518832
  0
VERTEX
  8
___SYMBOL
 62
7
  6
CONTINUOUS
 10
30.6932888198
 20
21.7965729294
  0
SEQEND
  0
LINE
  8
___SYMBOL
 62
7
  6
CONTINUOUS
 10
30.8025431081
 20
22.3647144008
 11
30.8107346554
 21
22.3649669145
  0
ENDBLK
  8
0
  6
BYBLOCK
 62
0
  0
BLOCK
  8
___SYMBOL
 62
2
  6
CONTINUOUS
  2
SYMBOL_52_BL1
 70
64
 10
30.3934828841
 20
20.679281239
  0
LINE
  8
___SYMBOL
 62
7
  6
CONTINUOUS
 10
30.3628975035
 20
20.7971905811
 11
30.2508177303
 21
21.3508488827
  0
LINE
  8
___SYMBOL
 62
7
  6
CONTINUOUS
 10
30.3145178443
 20
20.7676895056
 11
30.2508177303
 21
21.3508488827
  0
LINE
  8
___SYMBOL
 62
7
  6
CONTINUOUS
 10
30.3901596087
 20
20.701506589
 11
30.3885919948
 21
20.7523599959
  0
LINE
  8
___SYMBOL
 62
7
  6
CONTINUOUS
 10
30.4049696961
 20
20.7530399853
 11
30.4065480968
 21
20.7018366546
  0
LINE
  8
___SYMBOL
 62
7
  6
CONTINUOUS
 10
30.3990516132
 20
20.9304094352
 11
30.5867660028
 21
21.3411134017
  0
LINE
  8
___SYMBOL
 62
7
  6
CONTINUOUS
 10
30.2849427914
 20
20.6721393346
 11
30.3174718853
 21
20.7335519025
  0
LINE
  8
___SYMBOL
 62
7
  6
CONTINUOUS
 10
30.4661988587
 20
20.7399580332
 11
30.5867660028
 21
21.125646646
  0
LINE
  8
___SYMBOL
 62
7
  6
CONTINUOUS
 10
30.4368302432
 20
20.8232569674
 11
30.3628975035
 21
20.7971905811
  0
LINE
  8
___SYMBOL
 62
7
  6
CONTINUOUS
 10
30.4908108825
 20
20.6701503379
 11
30.4335240808
 21
20.5318858152
  0
LINE
  8
___SYMBOL
 62
7
  6
CONTINUOUS
 10
30.3387845544
 20
20.5363974249
 11
30.3828618296
 21
20.5821966268
  0
LINE
  8
___SYMBOL
 62
7
  6
CONTINUOUS
 10
30.2508177303
 20
21.3508488827
 11
30.4908108825
 21
20.6701503379
  0
LINE
  8
___SYMBOL
 62
7
  6
CONTINUOUS
 10
30.3387845544
 20
20.5363974249
 11
30.2849427914
 21
20.6721393346
  0
ARC
  8
___SYMBOL
 62
7
  6
CONTINUOUS
 10
30.2421320034
 20
21.2333800238
 40
0.3610804262
 50
342.6406360869
 51
17.3593639131
  0
ARC
  8
___SYMBOL
 62
7
  6
CONTINUOUS
 10
30.6271698129
 20
20.7775477133
 40
0.3128073492
 50
181.8059909349
 51
231.752660067
  0
CIRCLE
  8
___SYMBOL
 62
7
  6
CONTINUOUS
 10
30.3978398258
 20
20.7271942056
 40
0.0268111801
  0
ARC
  8
___SYMBOL
 62
7
  6
CONTINUOUS
 10
30.5572976362
 20
20.3548766082
 40
0.0146088562
 50
185.3133793157
 51
314.0675041521
  0
ARC
  8
___SYMBOL
 62
7
  6
CONTINUOUS
 10
30.2226360412
 20
20.3473560389
 40
0.0146087357
 50
233.3109272841
 51
359.4467240969
  0
POLYLINE
  8
___SYMBOL
 62
7
  6
CONTINUOUS
 66
1
 70
0
  0
VERTEX
  8
___SYMBOL
 62
7
  6
CONTINUOUS
 10
30.519553508
 20
20.1201352377
  0
VERTEX
  8
___SYMBOL
 62
7
  6
CONTINUOUS
 10
30.5162141952
 20
20.1303841451
  0
VERTEX
  8
___SYMBOL
 62
7
  6
CONTINUOUS
 10
30.5131566174
 20
20.1407141343
  0
VERTEX
  8
___SYMBOL
 62
7
  6
CONTINUOUS
 10
30.5103685587
 20
20.1511195854
  0
VERTEX
  8
___SYMBOL
 62
7
  6
CONTINUOUS
 10
30.5078378033
 20
20.1615948783
  0
VERTEX
  8
___SYMBOL
 62
7
  6
CONTINUOUS
 10
30.5055521354
 20
20.1721343931
  0
VERTEX
  8
___SYMBOL
 62
7
  6
CONTINUOUS
 10
30.5034993392
 20
20.1827325096
  0
VERTEX
  8
___SYMBOL
 62
7
  6
CONTINUOUS
 10
30.5016671988
 20
20.193383608
  0
VERTEX
  8
___SYMBOL
 62
7
  6
CONTINUOUS
 10
30.5000434984
 20
20.2040820682
  0
VERTEX
  8
___SYMBOL
 62
7
  6
CONTINUOUS
 10
30.4986160222
 20
20.2148222701
  0
VERTEX
  8
___SYMBOL
 62
7
  6
CONTINUOUS
 10
30.4973725543
 20
20.2255985939
  0
VERTEX
  8
___SYMBOL
 62
7
  6
CONTINUOUS
 10
30.496300879
 20
20.2364054194
  0
VERTEX
  8
___SYMBOL
 62
7
  6
CONTINUOUS
 10
30.4953887803
 20
20.2472371267
  0
VERTEX
  8
___SYMBOL
 62
7
  6
CONTINUOUS
 10
30.4946240426
 20
20.2580880958
  0
VERTEX
  8
___SYMBOL
 62
7
  6
CONTINUOUS
 10
30.4939944498
 20
20.2689527066
  0
VERTEX
  8
___SYMBOL
 62
7
  6
CONTINUOUS
 10
30.4934877863
 20
20.2798253391
  0
VERTEX
  8
___SYMBOL
 62
7
  6
CONTINUOUS
 10
30.4930918361
 20
20.2907003734
  0
VERTEX
  8
___SYMBOL
 62
7
  6
CONTINUOUS
 10
30.4927943835
 20
20.3015721895
  0
VERTEX
  8
___SYMBOL
 62
7
  6
CONTINUOUS
 10
30.4925832127
 20
20.3124351672
  0
VERTEX
  8
___SYMBOL
 62
7
  6
CONTINUOUS
 10
30.4924461077
 20
20.3232836867
  0
VERTEX
  8
___SYMBOL
 62
7
  6
CONTINUOUS
 10
30.4923708528
 20
20.3341121278
  0
VERTEX
  8
___SYMBOL
 62
7
  6
CONTINUOUS
 10
30.4923406428
 20
20.3500297916
  0
VERTEX
  8
___SYMBOL
 62
7
  6
CONTINUOUS
 10
30.4923415601
 20
20.365913802
  0
VERTEX
  8
___SYMBOL
 62
7
  6
CONTINUOUS
 10
30.4922969156
 20
20.3817863281
  0
VERTEX
  8
___SYMBOL
 62
7
  6
CONTINUOUS
 10
30.4921300203
 20
20.3976695389
  0
VERTEX
  8
___SYMBOL
 62
7
  6
CONTINUOUS
 10
30.4917641851
 20
20.4135856034
  0
VERTEX
  8
___SYMBOL
 62
7
  6
CONTINUOUS
 10
30.4915060311
 20
20.4209178068
  0
VERTEX
  8
___SYMBOL
 62
7
  6
CONTINUOUS
 10
30.4911693579
 20
20.4282546435
  0
VERTEX
  8
___SYMBOL
 62
7
  6
CONTINUOUS
 10
30.4907338931
 20
20.4355891191
  0
VERTEX
  8
___SYMBOL
 62
7
  6
CONTINUOUS
 10
30.4901793646
 20
20.4429142394
  0
VERTEX
  8
___SYMBOL
 62
7
  6
CONTINUOUS
 10
30.4894854999
 20
20.45022301
  0
VERTEX
  8
___SYMBOL
 62
7
  6
CONTINUOUS
 10
30.4886320268
 20
20.4575084367
  0
VERTEX
  8
___SYMBOL
 62
7
  6
CONTINUOUS
 10
30.487598673
 20
20.4647635251
  0
VERTEX
  8
___SYMBOL
 62
7
  6
CONTINUOUS
 10
30.4863651661
 20
20.4719812809
  0
VERTEX
  8
___SYMBOL
 62
7
  6
CONTINUOUS
 10
30.4849112339
 20
20.4791547098
  0
VERTEX
  8
___SYMBOL
 62
7
  6
CONTINUOUS
 10
30.4832166041
 20
20.4862768175
  0
VERTEX
  8
___SYMBOL
 62
7
  6
CONTINUOUS
 10
30.4812610043
 20
20.4933406097
  0
VERTEX
  8
___SYMBOL
 62
7
  6
CONTINUOUS
 10
30.4790241623
 20
20.5003390921
  0
VERTEX
  8
___SYMBOL
 62
7
  6
CONTINUOUS
 10
30.4779571462
 20
20.5033447745
  0
VERTEX
  8
___SYMBOL
 62
7
  6
CONTINUOUS
 10
30.4767980492
 20
20.5063127782
  0
VERTEX
  8
___SYMBOL
 62
7
  6
CONTINUOUS
 10
30.4755113693
 20
20.5092189924
  0
VERTEX
  8
___SYMBOL
 62
7
  6
CONTINUOUS
 10
30.4740616047
 20
20.5120393062
  0
VERTEX
  8
___SYMBOL
 62
7
  6
CONTINUOUS
 10
30.4724132535
 20
20.5147496087
  0
VERTEX
  8
___SYMBOL
 62
7
  6
CONTINUOUS
 10
30.4705308137
 20
20.5173257891
  0
VERTEX
  8
___SYMBOL
 62
7
  6
CONTINUOUS
 10
30.4684654252
 20
20.5196670626
  0
VERTEX
  8
___SYMBOL
 62
7
  6
CONTINUOUS
 10
30.4661742891
 20
20.5218485966
  0
VERTEX
  8
___SYMBOL
 62
7
  6
CONTINUOUS
 10
30.4636834601
 20
20.5238584441
  0
VERTEX
  8
___SYMBOL
 62
7
  6
CONTINUOUS
 10
30.4610189928
 20
20.5256846582
  0
VERTEX
  8
___SYMBOL
 62
7
  6
CONTINUOUS
 10
30.4582069419
 20
20.5273152917
  0
VERTEX
  8
___SYMBOL
 62
7
  6
CONTINUOUS
 10
30.4552733621
 20
20.5287383976
  0
VERTEX
  8
___SYMBOL
 62
7
  6
CONTINUOUS
 10
30.4522443079
 20
20.5299420289
  0
VERTEX
  8
___SYMBOL
 62
7
  6
CONTINUOUS
 10
30.4491458339
 20
20.5309142386
  0
VERTEX
  8
___SYMBOL
 62
7
  6
CONTINUOUS
 10
30.4460039949
 20
20.5316430795
  0
VERTEX
  8
___SYMBOL
 62
7
  6
CONTINUOUS
 10
30.4428448455
 20
20.5321166046
  0
VERTEX
  8
___SYMBOL
 62
7
  6
CONTINUOUS
 10
30.4396944402
 20
20.532322867
  0
VERTEX
  8
___SYMBOL
 62
7
  6
CONTINUOUS
 10
30.4365788338
 20
20.5322499195
  0
VERTEX
  8
___SYMBOL
 62
7
  6
CONTINUOUS
 10
30.4335240808
 20
20.5318858152
  0
SEQEND
  0
POLYLINE
  8
___SYMBOL
 62
7
  6
CONTINUOUS
 66
1
 70
0
  0
VERTEX
  8
___SYMBOL
 62
7
  6
CONTINUOUS
 10
30.5427515527
 20
20.3535237828
  0
VERTEX
  8
___SYMBOL
 62
7
  6
CONTINUOUS
 10
30.5421286669
 20
20.3611860672
  0
VERTEX
  8
___SYMBOL
 62
7
  6
CONTINUOUS
 10
30.5416739069
 20
20.3688548653
  0
VERTEX
  8
___SYMBOL
 62
7
  6
CONTINUOUS
 10
30.541343264
 20
20.3775605029
  0
VERTEX
  8
___SYMBOL
 62
7
  6
CONTINUOUS
 10
30.5411908387
 20
20.3862550195
  0
VERTEX
  8
___SYMBOL
 62
7
  6
CONTINUOUS
 10
30.5411955569
 20
20.3949483152
  0
VERTEX
  8
___SYMBOL
 62
7
  6
CONTINUOUS
 10
30.5413363445
 20
20.4036502903
  0
VERTEX
  8
___SYMBOL
 62
7
  6
CONTINUOUS
 10
30.5415921276
 20
20.4123708451
  0
VERTEX
  8
___SYMBOL
 62
7
  6
CONTINUOUS
 10
30.5419418321
 20
20.4211198799
  0
VERTEX
  8
___SYMBOL
 62
7
  6
CONTINUOUS
 10
30.5423643839
 20
20.4299072949
  0
VERTEX
  8
___SYMBOL
 62
7
  6
CONTINUOUS
 10
30.542838709
 20
20.4387429904
  0
VERTEX
  8
___SYMBOL
 62
7
  6
CONTINUOUS
 10
30.5431535942
 20
20.4443424273
  0
VERTEX
  8
___SYMBOL
 62
7
  6
CONTINUOUS
 10
30.543467476
 20
20.4499598207
  0
VERTEX
  8
___SYMBOL
 62
7
  6
CONTINUOUS
 10
30.5437671449
 20
20.4555899943
  0
VERTEX
  8
___SYMBOL
 62
7
  6
CONTINUOUS
 10
30.5440393913
 20
20.4612277716
  0
VERTEX
  8
___SYMBOL
 62
7
  6
CONTINUOUS
 10
30.5442710057
 20
20.4668679762
  0
VERTEX
  8
___SYMBOL
 62
7
  6
CONTINUOUS
 10
30.5444487785
 20
20.4725054317
  0
VERTEX
  8
___SYMBOL
 62
7
  6
CONTINUOUS
 10
30.5445595002
 20
20.4781349616
  0
VERTEX
  8
___SYMBOL
 62
7
  6
CONTINUOUS
 10
30.5445899612
 20
20.4837513895
  0
VERTEX
  8
___SYMBOL
 62
7
  6
CONTINUOUS
 10
30.5445269519
 20
20.489349539
  0
VERTEX
  8
___SYMBOL
 62
7
  6
CONTINUOUS
 10
30.5443572629
 20
20.4949242338
  0
VERTEX
  8
___SYMBOL
 62
7
  6
CONTINUOUS
 10
30.5440676846
 20
20.5004702973
  0
VERTEX
  8
___SYMBOL
 62
7
  6
CONTINUOUS
 10
30.5436450074
 20
20.5059825531
  0
VERTEX
  8
___SYMBOL
 62
7
  6
CONTINUOUS
 10
30.5430760218
 20
20.5114558249
  0
VERTEX
  8
___SYMBOL
 62
7
  6
CONTINUOUS
 10
30.5423475182
 20
20.5168849362
  0
VERTEX
  8
___SYMBOL
 62
7
  6
CONTINUOUS
 10
30.5414462871
 20
20.5222647106
  0
VERTEX
  8
___SYMBOL
 62
7
  6
CONTINUOUS
 10
30.5403591189
 20
20.5275899717
  0
VERTEX
  8
___SYMBOL
 62
7
  6
CONTINUOUS
 10
30.5390728041
 20
20.532855543
  0
VERTEX
  8
___SYMBOL
 62
7
  6
CONTINUOUS
 10
30.5375741332
 20
20.5380562481
  0
VERTEX
  8
___SYMBOL
 62
7
  6
CONTINUOUS
 10
30.5358498965
 20
20.5431869107
  0
VERTEX
  8
___SYMBOL
 62
7
  6
CONTINUOUS
 10
30.5340239775
 20
20.5479253368
  0
VERTEX
  8
___SYMBOL
 62
7
  6
CONTINUOUS
 10
30.532008176
 20
20.5526039259
  0
VERTEX
  8
___SYMBOL
 62
7
  6
CONTINUOUS
 10
30.5298220174
 20
20.5572288087
  0
VERTEX
  8
___SYMBOL
 62
7
  6
CONTINUOUS
 10
30.5274850274
 20
20.5618061159
  0
VERTEX
  8
___SYMBOL
 62
7
  6
CONTINUOUS
 10
30.5250167313
 20
20.5663419782
  0
VERTEX
  8
___SYMBOL
 62
7
  6
CONTINUOUS
 10
30.5224366547
 20
20.5708425264
  0
VERTEX
  8
___SYMBOL
 62
7
  6
CONTINUOUS
 10
30.5197643231
 20
20.5753138912
  0
VERTEX
  8
___SYMBOL
 62
7
  6
CONTINUOUS
 10
30.5170192618
 20
20.5797622032
  0
VERTEX
  8
___SYMBOL
 62
7
  6
CONTINUOUS
 10
30.5142209966
 20
20.5841935932
  0
VERTEX
  8
___SYMBOL
 62
7
  6
CONTINUOUS
 10
30.5113890527
 20
20.588614192
  0
VERTEX
  8
___SYMBOL
 62
7
  6
CONTINUOUS
 10
30.5093486084
 20
20.5917865541
  0
VERTEX
  8
___SYMBOL
 62
7
  6
CONTINUOUS
 10
30.5073266659
 20
20.5949652093
  0
VERTEX
  8
___SYMBOL
 62
7
  6
CONTINUOUS
 10
30.5053490256
 20
20.5981588541
  0
VERTEX
  8
___SYMBOL
 62
7
  6
CONTINUOUS
 10
30.5034414881
 20
20.6013761851
  0
VERTEX
  8
___SYMBOL
 62
7
  6
CONTINUOUS
 10
30.5016298537
 20
20.6046258988
  0
VERTEX
  8
___SYMBOL
 62
7
  6
CONTINUOUS
 10
30.4999399231
 20
20.6079166917
  0
VERTEX
  8
___SYMBOL
 62
7
  6
CONTINUOUS
 10
30.4983974967
 20
20.6112572605
  0
VERTEX
  8
___SYMBOL
 62
7
  6
CONTINUOUS
 10
30.4970283749
 20
20.6146563015
  0
VERTEX
  8
___SYMBOL
 62
7
  6
CONTINUOUS
 10
30.4958583582
 20
20.6181225115
  0
VERTEX
  8
___SYMBOL
 62
7
  6
CONTINUOUS
 10
30.494958089
 20
20.6214379196
  0
VERTEX
  8
___SYMBOL
 62
7
  6
CONTINUOUS
 10
30.4942337345
 20
20.6248102035
  0
VERTEX
  8
___SYMBOL
 62
7
  6
CONTINUOUS
 10
30.4936635472
 20
20.6282295629
  0
VERTEX
  8
___SYMBOL
 62
7
  6
CONTINUOUS
 10
30.4932257795
 20
20.631686198
  0
VERTEX
  8
___SYMBOL
 62
7
  6
CONTINUOUS
 10
30.4928986837
 20
20.6351703087
  0
VERTEX
  8
___SYMBOL
 62
7
  6
CONTINUOUS
 10
30.4926605122
 20
20.638672095
  0
VERTEX
  8
___SYMBOL
 62
7
  6
CONTINUOUS
 10
30.4924895175
 20
20.6421817568
  0
VERTEX
  8
___SYMBOL
 62
7
  6
CONTINUOUS
 10
30.492363952
 20
20.6456894941
  0
VERTEX
  8
___SYMBOL
 62
7
  6
CONTINUOUS
 10
30.4922445211
 20
20.6498018977
  0
VERTEX
  8
___SYMBOL
 62
7
  6
CONTINUOUS
 10
30.4921199077
 20
20.6538989324
  0
VERTEX
  8
___SYMBOL
 62
7
  6
CONTINUOUS
 10
30.4919521744
 20
20.6579814461
  0
VERTEX
  8
___SYMBOL
 62
7
  6
CONTINUOUS
 10
30.4917033841
 20
20.6620502863
  0
VERTEX
  8
___SYMBOL
 62
7
  6
CONTINUOUS
 10
30.4913355992
 20
20.666106301
  0
VERTEX
  8
___SYMBOL
 62
7
  6
CONTINUOUS
 10
30.4908108825
 20
20.6701503379
  0
SEQEND
  0
POLYLINE
  8
___SYMBOL
 62
7
  6
CONTINUOUS
 66
1
 70
0
  0
VERTEX
  8
___SYMBOL
 62
7
  6
CONTINUOUS
 10
30.2801215135
 20
20.1587918211
  0
VERTEX
  8
___SYMBOL
 62
7
  6
CONTINUOUS
 10
30.2821184725
 20
20.1672840524
  0
VERTEX
  8
___SYMBOL
 62
7
  6
CONTINUOUS
 10
30.283871691
 20
20.1758252531
  0
VERTEX
  8
___SYMBOL
 62
7
  6
CONTINUOUS
 10
30.2853949425
 20
20.1844109762
  0
VERTEX
  8
___SYMBOL
 62
7
  6
CONTINUOUS
 10
30.2867020005
 20
20.1930367748
  0
VERTEX
  8
___SYMBOL
 62
7
  6
CONTINUOUS
 10
30.2878066389
 20
20.201698202
  0
VERTEX
  8
___SYMBOL
 62
7
  6
CONTINUOUS
 10
30.2887226311
 20
20.2103908109
  0
VERTEX
  8
___SYMBOL
 62
7
  6
CONTINUOUS
 10
30.2894637508
 20
20.2191101545
  0
VERTEX
  8
___SYMBOL
 62
7
  6
CONTINUOUS
 10
30.2900437716
 20
20.2278517859
  0
VERTEX
  8
___SYMBOL
 62
7
  6
CONTINUOUS
 10
30.2904764671
 20
20.2366112582
  0
VERTEX
  8
___SYMBOL
 62
7
  6
CONTINUOUS
 10
30.290775611
 20
20.2453841244
  0
VERTEX
  8
___SYMBOL
 62
7
  6
CONTINUOUS
 10
30.2909549768
 20
20.2541659377
  0
VERTEX
  8
___SYMBOL
 62
7
  6
CONTINUOUS
 10
30.2910283383
 20
20.2629522512
  0
VERTEX
  8
___SYMBOL
 62
7
  6
CONTINUOUS
 10
30.2910094689
 20
20.2717386179
  0
VERTEX
  8
___SYMBOL
 62
7
  6
CONTINUOUS
 10
30.2908585796
 20
20.283862086
  0
VERTEX
  8
___SYMBOL
 62
7
  6
CONTINUOUS
 10
30.2906016923
 20
20.2959741142
  0
VERTEX
  8
___SYMBOL
 62
7
  6
CONTINUOUS
 10
30.2902823459
 20
20.3080716369
  0
VERTEX
  8
___SYMBOL
 62
7
  6
CONTINUOUS
 10
30.2899440791
 20
20.3201515883
  0
VERTEX
  8
___SYMBOL
 62
7
  6
CONTINUOUS
 10
30.2896304308
 20
20.3322109028
  0
VERTEX
  8
___SYMBOL
 62
7
  6
CONTINUOUS
 10
30.2893849399
 20
20.3442465147
  0
VERTEX
  8
___SYMBOL
 62
7
  6
CONTINUOUS
 10
30.2892511452
 20
20.3562553584
  0
VERTEX
  8
___SYMBOL
 62
7
  6
CONTINUOUS
 10
30.2892725854
 20
20.3682343683
  0
VERTEX
  8
___SYMBOL
 62
7
  6
CONTINUOUS
 10
30.2894927995
 20
20.3801804786
  0
VERTEX
  8
___SYMBOL
 62
7
  6
CONTINUOUS
 10
30.2899931813
 20
20.3932066635
  0
VERTEX
  8
___SYMBOL
 62
7
  6
CONTINUOUS
 10
30.2907249486
 20
20.4062285614
  0
VERTEX
  8
___SYMBOL
 62
7
  6
CONTINUOUS
 10
30.2916298647
 20
20.4192848726
  0
VERTEX
  8
___SYMBOL
 62
7
  6
CONTINUOUS
 10
30.2926496934
 20
20.4324142971
  0
VERTEX
  8
___SYMBOL
 62
7
  6
CONTINUOUS
 10
30.2937261981
 20
20.445655535
  0
VERTEX
  8
___SYMBOL
 62
7
  6
CONTINUOUS
 10
30.2948011424
 20
20.4590472865
  0
VERTEX
  8
___SYMBOL
 62
7
  6
CONTINUOUS
 10
30.2951183319
 20
20.4631004868
  0
VERTEX
  8
___SYMBOL
 62
7
  6
CONTINUOUS
 10
30.2954497848
 20
20.467160946
  0
VERTEX
  8
___SYMBOL
 62
7
  6
CONTINUOUS
 10
30.2958151523
 20
20.4712188738
  0
VERTEX
  8
___SYMBOL
 62
7
  6
CONTINUOUS
 10
30.2962340858
 20
20.4752644803
  0
VERTEX
  8
___SYMBOL
 62
7
  6
CONTINUOUS
 10
30.2967262365
 20
20.4792879754
  0
VERTEX
  8
___SYMBOL
 62
7
  6
CONTINUOUS
 10
30.2973112557
 20
20.4832795688
  0
VERTEX
  8
___SYMBOL
 62
7
  6
CONTINUOUS
 10
30.2980087948
 20
20.4872294707
  0
VERTEX
  8
___SYMBOL
 62
7
  6
CONTINUOUS
 10
30.298838505
 20
20.4911278907
  0
VERTEX
  8
___SYMBOL
 62
7
  6
CONTINUOUS
 10
30.2998200376
 20
20.494965039
  0
VERTEX
  8
___SYMBOL
 62
7
  6
CONTINUOUS
 10
30.3009730439
 20
20.4987311253
  0
VERTEX
  8
___SYMBOL
 62
7
  6
CONTINUOUS
 10
30.3023171752
 20
20.5024163596
  0
VERTEX
  8
___SYMBOL
 62
7
  6
CONTINUOUS
 10
30.3038720828
 20
20.5060109518
  0
VERTEX
  8
___SYMBOL
 62
7
  6
CONTINUOUS
 10
30.305657418
 20
20.5095051118
  0
VERTEX
  8
___SYMBOL
 62
7
  6
CONTINUOUS
 10
30.3076928321
 20
20.5128890495
  0
VERTEX
  8
___SYMBOL
 62
7
  6
CONTINUOUS
 10
30.309740357
 20
20.5158181952
  0
VERTEX
  8
___SYMBOL
 62
7
  6
CONTINUOUS
 10
30.311989262
 20
20.5186354689
  0
VERTEX
  8
___SYMBOL
 62
7
  6
CONTINUOUS
 10
30.3144243534
 20
20.52132536
  0
VERTEX
  8
___SYMBOL
 62
7
  6
CONTINUOUS
 10
30.3170304376
 20
20.5238723576
  0
VERTEX
  8
___SYMBOL
 62
7
  6
CONTINUOUS
 10
30.3197923208
 20
20.5262609511
  0
VERTEX
  8
___SYMBOL
 62
7
  6
CONTINUOUS
 10
30.3226948094
 20
20.5284756297
  0
VERTEX
  8
___SYMBOL
 62
7
  6
CONTINUOUS
 10
30.3257227097
 20
20.5305008828
  0
VERTEX
  8
___SYMBOL
 62
7
  6
CONTINUOUS
 10
30.328860828
 20
20.5323211996
  0
VERTEX
  8
___SYMBOL
 62
7
  6
CONTINUOUS
 10
30.3320939707
 20
20.5339210694
  0
VERTEX
  8
___SYMBOL
 62
7
  6
CONTINUOUS
 10
30.3354069441
 20
20.5352849814
  0
VERTEX
  8
___SYMBOL
 62
7
  6
CONTINUOUS
 10
30.3387845544
 20
20.5363974249
  0
SEQEND
  0
POLYLINE
  8
___SYMBOL
 62
7
  6
CONTINUOUS
 66
1
 70
0
  0
VERTEX
  8
___SYMBOL
 62
7
  6
CONTINUOUS
 10
30.2372440957
 20
20.347214972
  0
VERTEX
  8
___SYMBOL
 62
7
  6
CONTINUOUS
 10
30.2372837051
 20
20.3621752502
  0
VERTEX
  8
___SYMBOL
 62
7
  6
CONTINUOUS
 10
30.2371677059
 20
20.3771471399
  0
VERTEX
  8
___SYMBOL
 62
7
  6
CONTINUOUS
 10
30.2370320754
 20
20.3880190511
  0
VERTEX
  8
___SYMBOL
 62
7
  6
CONTINUOUS
 10
30.236885483
 20
20.3989062765
  0
VERTEX
  8
___SYMBOL
 62
7
  6
CONTINUOUS
 10
30.2367559809
 20
20.409800763
  0
VERTEX
  8
___SYMBOL
 62
7
  6
CONTINUOUS
 10
30.2366716212
 20
20.420694457
  0
VERTEX
  8
___SYMBOL
 62
7
  6
CONTINUOUS
 10
30.2366604562
 20
20.4315793056
  0
VERTEX
  8
___SYMBOL
 62
7
  6
CONTINUOUS
 10
30.2367505379
 20
20.4424472553
  0
VERTEX
  8
___SYMBOL
 62
7
  6
CONTINUOUS
 10
30.2369699185
 20
20.4532902529
  0
VERTEX
  8
___SYMBOL
 62
7
  6
CONTINUOUS
 10
30.2373466501
 20
20.4641002452
  0
VERTEX
  8
___SYMBOL
 62
7
  6
CONTINUOUS
 10
30.237908785
 20
20.4748691788
  0
VERTEX
  8
___SYMBOL
 62
7
  6
CONTINUOUS
 10
30.2386843753
 20
20.4855890006
  0
VERTEX
  8
___SYMBOL
 62
7
  6
CONTINUOUS
 10
30.2392329505
 20
20.4916624767
  0
VERTEX
  8
___SYMBOL
 62
7
  6
CONTINUOUS
 10
30.2398733366
 20
20.4977190926
  0
VERTEX
  8
___SYMBOL
 62
7
  6
CONTINUOUS
 10
30.2406191954
 20
20.5037604859
  0
VERTEX
  8
___SYMBOL
 62
7
  6
CONTINUOUS
 10
30.2414841889
 20
20.5097882944
  0
VERTEX
  8
___SYMBOL
 62
7
  6
CONTINUOUS
 10
30.242481979
 20
20.5158041558
  0
VERTEX
  8
___SYMBOL
 62
7
  6
CONTINUOUS
 10
30.2436262276
 20
20.5218097077
  0
VERTEX
  8
___SYMBOL
 62
7
  6
CONTINUOUS
 10
30.2449305967
 20
20.5278065879
  0
VERTEX
  8
___SYMBOL
 62
7
  6
CONTINUOUS
 10
30.2464087481
 20
20.533796434
  0
VERTEX
  8
___SYMBOL
 62
7
  6
CONTINUOUS
 10
30.2480743438
 20
20.5397808838
  0
VERTEX
  8
___SYMBOL
 62
7
  6
CONTINUOUS
 10
30.2499410457
 20
20.545761575
  0
VERTEX
  8
___SYMBOL
 62
7
  6
CONTINUOUS
 10
30.2520225157
 20
20.5517401452
  0
VERTEX
  8
___SYMBOL
 62
7
  6
CONTINUOUS
 10
30.2543324158
 20
20.5577182323
  0
VERTEX
  8
___SYMBOL
 62
7
  6
CONTINUOUS
 10
30.2568844078
 20
20.5636974738
  0
VERTEX
  8
___SYMBOL
 62
7
  6
CONTINUOUS
 10
30.2583429501
 20
20.5668788714
  0
VERTEX
  8
___SYMBOL
 62
7
  6
CONTINUOUS
 10
30.2598624561
 20
20.5700606729
  0
VERTEX
  8
___SYMBOL
 62
7
  6
CONTINUOUS
 10
30.2614315273
 20
20.5732424921
  0
VERTEX
  8
___SYMBOL
 62
7
  6
CONTINUOUS
 10
30.2630387651
 20
20.576423943
  0
VERTEX
  8
___SYMBOL
 62
7
  6
CONTINUOUS
 10
30.2646727708
 20
20.5796046393
  0
VERTEX
  8
___SYMBOL
 62
7
  6
CONTINUOUS
 10
30.2663221459
 20
20.5827841949
  0
VERTEX
  8
___SYMBOL
 62
7
  6
CONTINUOUS
 10
30.2679754919
 20
20.5859622238
  0
VERTEX
  8
___SYMBOL
 62
7
  6
CONTINUOUS
 10
30.2696214101
 20
20.5891383397
  0
VERTEX
  8
___SYMBOL
 62
7
  6
CONTINUOUS
 10
30.271248502
 20
20.5923121566
  0
VERTEX
  8
___SYMBOL
 62
7
  6
CONTINUOUS
 10
30.2728453689
 20
20.5954832883
  0
VERTEX
  8
___SYMBOL
 62
7
  6
CONTINUOUS
 10
30.2744006122
 20
20.5986513487
  0
VERTEX
  8
___SYMBOL
 62
7
  6
CONTINUOUS
 10
30.2759028335
 20
20.6018159516
  0
VERTEX
  8
___SYMBOL
 62
7
  6
CONTINUOUS
 10
30.2773406341
 20
20.6049767109
  0
VERTEX
  8
___SYMBOL
 62
7
  6
CONTINUOUS
 10
30.2787026154
 20
20.6081332404
  0
VERTEX
  8
___SYMBOL
 62
7
  6
CONTINUOUS
 10
30.2799773789
 20
20.6112851541
  0
VERTEX
  8
___SYMBOL
 62
7
  6
CONTINUOUS
 10
30.2811535259
 20
20.6144320659
  0
VERTEX
  8
___SYMBOL
 62
7
  6
CONTINUOUS
 10
30.2822196578
 20
20.6175735894
  0
VERTEX
  8
___SYMBOL
 62
7
  6
CONTINUOUS
 10
30.2831643762
 20
20.6207093387
  0
VERTEX
  8
___SYMBOL
 62
7
  6
CONTINUOUS
 10
30.2839762823
 20
20.6238389277
  0
VERTEX
  8
___SYMBOL
 62
7
  6
CONTINUOUS
 10
30.2846439777
 20
20.6269619701
  0
VERTEX
  8
___SYMBOL
 62
7
  6
CONTINUOUS
 10
30.2851560637
 20
20.6300780798
  0
VERTEX
  8
___SYMBOL
 62
7
  6
CONTINUOUS
 10
30.2855011417
 20
20.6331868707
  0
VERTEX
  8
___SYMBOL
 62
7
  6
CONTINUOUS
 10
30.2856678132
 20
20.6362879567
  0
VERTEX
  8
___SYMBOL
 62
7
  6
CONTINUOUS
 10
30.2856446796
 20
20.6393809516
  0
VERTEX
  8
___SYMBOL
 62
7
  6
CONTINUOUS
 10
30.2854203422
 20
20.6424654693
  0
VERTEX
  8
___SYMBOL
 62
7
  6
CONTINUOUS
 10
30.2849834025
 20
20.6455411237
  0
VERTEX
  8
___SYMBOL
 62
7
  6
CONTINUOUS
 10
30.284322462
 20
20.6486075286
  0
VERTEX
  8
___SYMBOL
 62
7
  6
CONTINUOUS
 10
30.283426122
 20
20.6516642979
  0
VERTEX
  8
___SYMBOL
 62
7
  6
CONTINUOUS
 10
30.2829134452
 20
20.6531377207
  0
VERTEX
  8
___SYMBOL
 62
7
  6
CONTINUOUS
 10
30.2823864559
 20
20.6546207885
  0
VERTEX
  8
___SYMBOL
 62
7
  6
CONTINUOUS
 10
30.2818883046
 20
20.6561254795
  0
VERTEX
  8
___SYMBOL
 62
7
  6
CONTINUOUS
 10
30.2814621418
 20
20.6576637722
  0
VERTEX
  8
___SYMBOL
 62
7
  6
CONTINUOUS
 10
30.2811511179
 20
20.6592476448
  0
VERTEX
  8
___SYMBOL
 62
7
  6
CONTINUOUS
 10
30.2809962254
 20
20.6607880579
  0
VERTEX
  8
___SYMBOL
 62
7
  6
CONTINUOUS
 10
30.2809830634
 20
20.662356194
  0
VERTEX
  8
___SYMBOL
 62
7
  6
CONTINUOUS
 10
30.281112625
 20
20.6639286
  0
VERTEX
  8
___SYMBOL
 62
7
  6
CONTINUOUS
 10
30.281385903
 20
20.6654818229
  0
VERTEX
  8
___SYMBOL
 62
7
  6
CONTINUOUS
 10
30.2818038903
 20
20.6669924096
  0
VERTEX
  8
___SYMBOL
 62
7
  6
CONTINUOUS
 10
30.2823675798
 20
20.6684369072
  0
VERTEX
  8
___SYMBOL
 62
7
  6
CONTINUOUS
 10
30.2830779646
 20
20.6697918625
  0
VERTEX
  8
___SYMBOL
 62
7
  6
CONTINUOUS
 10
30.2839360375
 20
20.6710338227
  0
VERTEX
  8
___SYMBOL
 62
7
  6
CONTINUOUS
 10
30.2849427914
 20
20.6721393346
  0
SEQEND
  0
POLYLINE
  8
___SYMBOL
 62
7
  6
CONTINUOUS
 66
1
 70
0
  0
VERTEX
  8
___SYMBOL
 62
7
  6
CONTINUOUS
 10
30.6452510758
 20
20.068391659
  0
VERTEX
  8
___SYMBOL
 62
7
  6
CONTINUOUS
 10
30.6662502819
 20
20.072480064
  0
VERTEX
  8
___SYMBOL
 62
7
  6
CONTINUOUS
 10
30.6862801072
 20
20.0827220714
  0
VERTEX
  8
___SYMBOL
 62
7
  6
CONTINUOUS
 10
30.7035858454
 20
20.0982202663
  0
VERTEX
  8
___SYMBOL
 62
7
  6
CONTINUOUS
 10
30.7179557982
 20
20.1187855779
  0
VERTEX
  8
___SYMBOL
 62
7
  6
CONTINUOUS
 10
30.7281310885
 20
20.1426157116
  0
VERTEX
  8
___SYMBOL
 62
7
  6
CONTINUOUS
 10
30.7339871466
 20
20.1694198882
  0
VERTEX
  8
___SYMBOL
 62
7
  6
CONTINUOUS
 10
30.7350111141
 20
20.196849246
  0
VERTEX
  8
___SYMBOL
 62
7
  6
CONTINUOUS
 10
30.731309365
 20
20.2240469602
  0
VERTEX
  8
___SYMBOL
 62
7
  6
CONTINUOUS
 10
30.722859738
 20
20.2501497908
  0
VERTEX
  8
___SYMBOL
 62
7
  6
CONTINUOUS
 10
30.7104026531
 20
20.2728706945
  0
VERTEX
  8
___SYMBOL
 62
7
  6
CONTINUOUS
 10
30.6940902064
 20
20.2919318389
  0
VERTEX
  8
___SYMBOL
 62
7
  6
CONTINUOUS
 10
30.6753516835
 20
20.3056631971
  0
VERTEX
  8
___SYMBOL
 62
7
  6
CONTINUOUS
 10
30.6544160453
 20
20.3138971598
  0
VERTEX
  8
___SYMBOL
 62
7
  6
CONTINUOUS
 10
30.6331177787
 20
20.3159120861
  0
VERTEX
  8
___SYMBOL
 62
7
  6
CONTINUOUS
 10
30.6121186893
 20
20.3118237978
  0
VERTEX
  8
___SYMBOL
 62
7
  6
CONTINUOUS
 10
30.5920887474
 20
20.3015817904
  0
VERTEX
  8
___SYMBOL
 62
7
  6
CONTINUOUS
 10
30.5747831258
 20
20.2860834789
  0
VERTEX
  8
___SYMBOL
 62
7
  6
CONTINUOUS
 10
30.5604130564
 20
20.2655181673
  0
VERTEX
  8
___SYMBOL
 62
7
  6
CONTINUOUS
 10
30.5502378827
 20
20.2416880335
  0
VERTEX
  8
___SYMBOL
 62
7
  6
CONTINUOUS
 10
30.544381708
 20
20.2148838569
  0
VERTEX
  8
___SYMBOL
 62
7
  6
CONTINUOUS
 10
30.5433577405
 20
20.1874544991
  0
VERTEX
  8
___SYMBOL
 62
7
  6
CONTINUOUS
 10
30.5470594896
 20
20.160256785
  0
VERTEX
  8
___SYMBOL
 62
7
  6
CONTINUOUS
 10
30.5555091165
 20
20.1341539543
  0
VERTEX
  8
___SYMBOL
 62
7
  6
CONTINUOUS
 10
30.5679663181
 20
20.1114330506
  0
VERTEX
  8
___SYMBOL
 62
7
  6
CONTINUOUS
 10
30.5842787648
 20
20.0923719063
  0
VERTEX
  8
___SYMBOL
 62
7
  6
CONTINUOUS
 10
30.6030172877
 20
20.0786405481
  0
VERTEX
  8
___SYMBOL
 62
7
  6
CONTINUOUS
 10
30.6239528092
 20
20.070406702
  0
VERTEX
  8
___SYMBOL
 62
7
  6
CONTINUOUS
 10
30.6452510758
 20
20.068391659
  0
SEQEND
  0
POLYLINE
  8
___SYMBOL
 62
7
  6
CONTINUOUS
 66
1
 70
0
  0
VERTEX
  8
___SYMBOL
 62
7
  6
CONTINUOUS
 10
30.519553508
 20
20.1201352377
  0
VERTEX
  8
___SYMBOL
 62
7
  6
CONTINUOUS
 10
30.5227889675
 20
20.1098534929
  0
VERTEX
  8
___SYMBOL
 62
7
  6
CONTINUOUS
 10
30.5264629561
 20
20.0998818138
  0
VERTEX
  8
___SYMBOL
 62
7
  6
CONTINUOUS
 10
30.5305616317
 20
20.0902577693
  0
VERTEX
  8
___SYMBOL
 62
7
  6
CONTINUOUS
 10
30.5350695524
 20
20.0810176189
  0
VERTEX
  8
___SYMBOL
 62
7
  6
CONTINUOUS
 10
30.5399697341
 20
20.0721961755
  0
VERTEX
  8
___SYMBOL
 62
7
  6
CONTINUOUS
 10
30.5452437151
 20
20.0638266747
  0
VERTEX
  8
___SYMBOL
 62
7
  6
CONTINUOUS
 10
30.5508716252
 20
20.0559406491
  0
VERTEX
  8
___SYMBOL
 62
7
  6
CONTINUOUS
 10
30.5568322607
 20
20.04856781
  0
VERTEX
  8
___SYMBOL
 62
7
  6
CONTINUOUS
 10
30.5631031646
 20
20.0417359352
  0
VERTEX
  8
___SYMBOL
 62
7
  6
CONTINUOUS
 10
30.5696607108
 20
20.0354707643
  0
VERTEX
  8
___SYMBOL
 62
7
  6
CONTINUOUS
 10
30.5764801931
 20
20.0297959017
  0
VERTEX
  8
___SYMBOL
 62
7
  6
CONTINUOUS
 10
30.5835359186
 20
20.0247327281
  0
VERTEX
  8
___SYMBOL
 62
7
  6
CONTINUOUS
 10
30.5908013043
 20
20.0203003192
  0
VERTEX
  8
___SYMBOL
 62
7
  6
CONTINUOUS
 10
30.5982489773
 20
20.0165153746
  0
VERTEX
  8
___SYMBOL
 62
7
  6
CONTINUOUS
 10
30.6058508779
 20
20.0133921542
  0
VERTEX
  8
___SYMBOL
 62
7
  6
CONTINUOUS
 10
30.6135783654
 20
20.0109424252
  0
VERTEX
  8
___SYMBOL
 62
7
  6
CONTINUOUS
 10
30.6214023257
 20
20.0091754171
  0
VERTEX
  8
___SYMBOL
 62
7
  6
CONTINUOUS
 10
30.6292932817
 20
20.0080977871
  0
VERTEX
  8
___SYMBOL
 62
7
  6
CONTINUOUS
 10
30.6372215034
 20
20.0077135953
  0
VERTEX
  8
___SYMBOL
 62
7
  6
CONTINUOUS
 10
30.6451571206
 20
20.0080242893
  0
VERTEX
  8
___SYMBOL
 62
7
  6
CONTINUOUS
 10
30.6530702354
 20
20.0090286984
  0
VERTEX
  8
___SYMBOL
 62
7
  6
CONTINUOUS
 10
30.6609310343
 20
20.0107230385
  0
VERTEX
  8
___SYMBOL
 62
7
  6
CONTINUOUS
 10
30.6687099013
 20
20.0131009259
  0
VERTEX
  8
___SYMBOL
 62
7
  6
CONTINUOUS
 10
30.6763775288
 20
20.0161534019
  0
VERTEX
  8
___SYMBOL
 62
7
  6
CONTINUOUS
 10
30.6839050285
 20
20.019868966
  0
VERTEX
  8
___SYMBOL
 62
7
  6
CONTINUOUS
 10
30.6912640398
 20
20.0242336195
  0
VERTEX
  8
___SYMBOL
 62
7
  6
CONTINUOUS
 10
30.6984268372
 20
20.0292309182
  0
VERTEX
  8
___SYMBOL
 62
7
  6
CONTINUOUS
 10
30.7053664343
 20
20.0348420344
  0
VERTEX
  8
___SYMBOL
 62
7
  6
CONTINUOUS
 10
30.7120566855
 20
20.0410458278
  0
VERTEX
  8
___SYMBOL
 62
7
  6
CONTINUOUS
 10
30.7184723849
 20
20.0478189251
  0
VERTEX
  8
___SYMBOL
 62
7
  6
CONTINUOUS
 10
30.7245893607
 20
20.0551358081
  0
VERTEX
  8
___SYMBOL
 62
7
  6
CONTINUOUS
 10
30.7303845668
 20
20.0629689099
  0
VERTEX
  8
___SYMBOL
 62
7
  6
CONTINUOUS
 10
30.7358361692
 20
20.0712887187
  0
VERTEX
  8
___SYMBOL
 62
7
  6
CONTINUOUS
 10
30.7409236288
 20
20.0800638889
  0
VERTEX
  8
___SYMBOL
 62
7
  6
CONTINUOUS
 10
30.7456277779
 20
20.0892613595
  0
VERTEX
  8
___SYMBOL
 62
7
  6
CONTINUOUS
 10
30.7499308935
 20
20.0988464781
  0
VERTEX
  8
___SYMBOL
 62
7
  6
CONTINUOUS
 10
30.7538167631
 20
20.1087831321
  0
VERTEX
  8
___SYMBOL
 62
7
  6
CONTINUOUS
 10
30.7572707465
 20
20.1190338845
  0
VERTEX
  8
___SYMBOL
 62
7
  6
CONTINUOUS
 10
30.7602798304
 20
20.1295601146
  0
VERTEX
  8
___SYMBOL
 62
7
  6
CONTINUOUS
 10
30.762832678
 20
20.140322164
  0
VERTEX
  8
___SYMBOL
 62
7
  6
CONTINUOUS
 10
30.7649196712
 20
20.151279486
  0
VERTEX
  8
___SYMBOL
 62
7
  6
CONTINUOUS
 10
30.766532947
 20
20.1623907979
  0
VERTEX
  8
___SYMBOL
 62
7
  6
CONTINUOUS
 10
30.7676664274
 20
20.1736142371
  0
VERTEX
  8
___SYMBOL
 62
7
  6
CONTINUOUS
 10
30.7683158418
 20
20.1849075182
  0
VERTEX
  8
___SYMBOL
 62
7
  6
CONTINUOUS
 10
30.7684787435
 20
20.196228093
  0
VERTEX
  8
___SYMBOL
 62
7
  6
CONTINUOUS
 10
30.7681545188
 20
20.2075333103
  0
VERTEX
  8
___SYMBOL
 62
7
  6
CONTINUOUS
 10
30.7673443892
 20
20.2187805768
  0
VERTEX
  8
___SYMBOL
 62
7
  6
CONTINUOUS
 10
30.766051407
 20
20.2299275176
  0
VERTEX
  8
___SYMBOL
 62
7
  6
CONTINUOUS
 10
30.7642804435
 20
20.2409321357
  0
VERTEX
  8
___SYMBOL
 62
7
  6
CONTINUOUS
 10
30.7620381711
 20
20.2517529704
  0
VERTEX
  8
___SYMBOL
 62
7
  6
CONTINUOUS
 10
30.7593330376
 20
20.2623492532
  0
VERTEX
  8
___SYMBOL
 62
7
  6
CONTINUOUS
 10
30.7561752348
 20
20.2726810618
  0
VERTEX
  8
___SYMBOL
 62
7
  6
CONTINUOUS
 10
30.7525766601
 20
20.2827094705
  0
VERTEX
  8
___SYMBOL
 62
7
  6
CONTINUOUS
 10
30.7485508713
 20
20.2923966962
  0
VERTEX
  8
___SYMBOL
 62
7
  6
CONTINUOUS
 10
30.7441130359
 20
20.3017062417
  0
VERTEX
  8
___SYMBOL
 62
7
  6
CONTINUOUS
 10
30.7392798738
 20
20.3106030326
  0
VERTEX
  8
___SYMBOL
 62
7
  6
CONTINUOUS
 10
30.7340695943
 20
20.3190535493
  0
VERTEX
  8
___SYMBOL
 62
7
  6
CONTINUOUS
 10
30.7285018275
 20
20.327025954
  0
VERTEX
  8
___SYMBOL
 62
7
  6
CONTINUOUS
 10
30.7225975506
 20
20.3344902101
  0
VERTEX
  8
___SYMBOL
 62
7
  6
CONTINUOUS
 10
30.7163790082
 20
20.3414181952
  0
VERTEX
  8
___SYMBOL
 62
7
  6
CONTINUOUS
 10
30.7098696292
 20
20.3477838078
  0
VERTEX
  8
___SYMBOL
 62
7
  6
CONTINUOUS
 10
30.7030939383
 20
20.3535630648
  0
VERTEX
  8
___SYMBOL
 62
7
  6
CONTINUOUS
 10
30.6960774633
 20
20.3587341924
  0
VERTEX
  8
___SYMBOL
 62
7
  6
CONTINUOUS
 10
30.6888466394
 20
20.3632777081
  0
VERTEX
  8
___SYMBOL
 62
7
  6
CONTINUOUS
 10
30.6814287094
 20
20.3671764937
  0
VERTEX
  8
___SYMBOL
 62
7
  6
CONTINUOUS
 10
30.6738516207
 20
20.3704158604
  0
VERTEX
  8
___SYMBOL
 62
7
  6
CONTINUOUS
 10
30.6661439208
 20
20.3729836034
  0
VERTEX
  8
___SYMBOL
 62
7
  6
CONTINUOUS
 10
30.6583346489
 20
20.3748700487
  0
VERTEX
  8
___SYMBOL
 62
7
  6
CONTINUOUS
 10
30.6504532272
 20
20.3760680889
  0
VERTEX
  8
___SYMBOL
 62
7
  6
CONTINUOUS
 10
30.6425293494
 20
20.3765732103
  0
VERTEX
  8
___SYMBOL
 62
7
  6
CONTINUOUS
 10
30.6345928695
 20
20.3763835098
  0
VERTEX
  8
___SYMBOL
 62
7
  6
CONTINUOUS
 10
30.6266736887
 20
20.3754997022
  0
VERTEX
  8
___SYMBOL
 62
7
  6
CONTINUOUS
 10
30.6188016431
 20
20.3739251171
  0
VERTEX
  8
___SYMBOL
 62
7
  6
CONTINUOUS
 10
30.6110063914
 20
20.3716656872
  0
VERTEX
  8
___SYMBOL
 62
7
  6
CONTINUOUS
 10
30.6033173028
 20
20.3687299248
  0
VERTEX
  8
___SYMBOL
 62
7
  6
CONTINUOUS
 10
30.5957633464
 20
20.3651288907
  0
VERTEX
  8
___SYMBOL
 62
7
  6
CONTINUOUS
 10
30.5883729825
 20
20.3608761521
  0
VERTEX
  8
___SYMBOL
 62
7
  6
CONTINUOUS
 10
30.5811740547
 20
20.3559877315
  0
VERTEX
  8
___SYMBOL
 62
7
  6
CONTINUOUS
 10
30.5741936857
 20
20.3504820464
  0
VERTEX
  8
___SYMBOL
 62
7
  6
CONTINUOUS
 10
30.5674581745
 20
20.34437984
  0
SEQEND
  0
POLYLINE
  8
___SYMBOL
 62
7
  6
CONTINUOUS
 66
1
 70
0
  0
VERTEX
  8
___SYMBOL
 62
7
  6
CONTINUOUS
 10
30.1628508953
 20
20.0821549761
  0
VERTEX
  8
___SYMBOL
 62
7
  6
CONTINUOUS
 10
30.1828147033
 20
20.0876949445
  0
VERTEX
  8
___SYMBOL
 62
7
  6
CONTINUOUS
 10
30.2013799601
 20
20.0992968376
  0
VERTEX
  8
___SYMBOL
 62
7
  6
CONTINUOUS
 10
30.2169199114
 20
20.1159438028
  0
VERTEX
  8
___SYMBOL
 62
7
  6
CONTINUOUS
 10
30.2292447869
 20
20.1374326564
  0
VERTEX
  8
___SYMBOL
 62
7
  6
CONTINUOUS
 10
30.237274691
 20
20.1618805065
  0
VERTEX
  8
___SYMBOL
 62
7
  6
CONTINUOUS
 10
30.2409114725
 20
20.1889887591
  0
VERTEX
  8
___SYMBOL
 62
7
  6
CONTINUOUS
 10
30.2398364758
 20
20.216381959
  0
VERTEX
  8
___SYMBOL
 62
7
  6
CONTINUOUS
 10
30.2342169601
 20
20.2432142454
  0
VERTEX
  8
___SYMBOL
 62
7
  6
CONTINUOUS
 10
30.2240964898
 20
20.2686238947
  0
VERTEX
  8
___SYMBOL
 62
7
  6
CONTINUOUS
 10
30.2103618658
 20
20.2903848654
  0
VERTEX
  8
___SYMBOL
 62
7
  6
CONTINUOUS
 10
30.1931807555
 20
20.3082309888
  0
VERTEX
  8
___SYMBOL
 62
7
  6
CONTINUOUS
 10
30.174058726
 20
20.3205987288
  0
VERTEX
  8
___SYMBOL
 62
7
  6
CONTINUOUS
 10
30.1532292869
 20
20.3273370389
  0
VERTEX
  8
___SYMBOL
 62
7
  6
CONTINUOUS
 10
30.1325175359
 20
20.3278553794
  0
VERTEX
  8
___SYMBOL
 62
7
  6
CONTINUOUS
 10
30.1125537279
 20
20.3223152944
  0
VERTEX
  8
___SYMBOL
 62
7
  6
CONTINUOUS
 10
30.0939884712
 20
20.310713518
  0
VERTEX
  8
___SYMBOL
 62
7
  6
CONTINUOUS
 10
30.0784485198
 20
20.2940665527
  0
VERTEX
  8
___SYMBOL
 62
7
  6
CONTINUOUS
 10
30.0661235861
 20
20.2725775825
  0
VERTEX
  8
___SYMBOL
 62
7
  6
CONTINUOUS
 10
30.0580937403
 20
20.2481297325
  0
VERTEX
  8
___SYMBOL
 62
7
  6
CONTINUOUS
 10
30.0544569587
 20
20.2210215965
  0
VERTEX
  8
___SYMBOL
 62
7
  6
CONTINUOUS
 10
30.0555319554
 20
20.1936283966
  0
VERTEX
  8
___SYMBOL
 62
7
  6
CONTINUOUS
 10
30.0611514711
 20
20.1667961101
  0
VERTEX
  8
___SYMBOL
 62
7
  6
CONTINUOUS
 10
30.0712719414
 20
20.1413863442
  0
VERTEX
  8
___SYMBOL
 62
7
  6
CONTINUOUS
 10
30.0850065655
 20
20.1196254902
  0
VERTEX
  8
___SYMBOL
 62
7
  6
CONTINUOUS
 10
30.1021876757
 20
20.1017793667
  0
VERTEX
  8
___SYMBOL
 62
7
  6
CONTINUOUS
 10
30.1213097053
 20
20.0894116267
  0
VERTEX
  8
___SYMBOL
 62
7
  6
CONTINUOUS
 10
30.1421391443
 20
20.0826733166
  0
VERTEX
  8
___SYMBOL
 62
7
  6
CONTINUOUS
 10
30.1628508953
 20
20.0821549761
  0
SEQEND
  0
POLYLINE
  8
___SYMBOL
 62
7
  6
CONTINUOUS
 66
1
 70
0
  0
VERTEX
  8
___SYMBOL
 62
7
  6
CONTINUOUS
 10
30.2139077274
 20
20.3356414456
  0
VERTEX
  8
___SYMBOL
 62
7
  6
CONTINUOUS
 10
30.2062974705
 20
20.3408904814
  0
VERTEX
  8
___SYMBOL
 62
7
  6
CONTINUOUS
 10
30.1984484243
 20
20.345476785
  0
VERTEX
  8
___SYMBOL
 62
7
  6
CONTINUOUS
 10
30.1903938569
 20
20.3493809174
  0
VERTEX
  8
___SYMBOL
 62
7
  6
CONTINUOUS
 10
30.1821679076
 20
20.3525863308
  0
VERTEX
  8
___SYMBOL
 62
7
  6
CONTINUOUS
 10
30.173805442
 20
20.3550794393
  0
VERTEX
  8
___SYMBOL
 62
7
  6
CONTINUOUS
 10
30.1653419044
 20
20.3568496758
  0
VERTEX
  8
___SYMBOL
 62
7
  6
CONTINUOUS
 10
30.1568131673
 20
20.357889537
  0
VERTEX
  8
___SYMBOL
 62
7
  6
CONTINUOUS
 10
30.1482553799
 20
20.3581946157
  0
VERTEX
  8
___SYMBOL
 62
7
  6
CONTINUOUS
 10
30.1397048141
 20
20.3577636187
  0
VERTEX
  8
___SYMBOL
 62
7
  6
CONTINUOUS
 10
30.1311977115
 20
20.3565983728
  0
VERTEX
  8
___SYMBOL
 62
7
  6
CONTINUOUS
 10
30.1227701294
 20
20.3547038169
  0
VERTEX
  8
___SYMBOL
 62
7
  6
CONTINUOUS
 10
30.1144577881
 20
20.352087981
  0
VERTEX
  8
___SYMBOL
 62
7
  6
CONTINUOUS
 10
30.1062959194
 20
20.3487619524
  0
VERTEX
  8
___SYMBOL
 62
7
  6
CONTINUOUS
 10
30.0983191172
 20
20.3447398284
  0
VERTEX
  8
___SYMBOL
 62
7
  6
CONTINUOUS
 10
30.0905611911
 20
20.3400386567
  0
VERTEX
  8
___SYMBOL
 62
7
  6
CONTINUOUS
 10
30.0830550232
 20
20.3346783633
  0
VERTEX
  8
___SYMBOL
 62
7
  6
CONTINUOUS
 10
30.0758324283
 20
20.3286816676
  0
VERTEX
  8
___SYMBOL
 62
7
  6
CONTINUOUS
 10
30.0689240192
 20
20.3220739867
  0
VERTEX
  8
___SYMBOL
 62
7
  6
CONTINUOUS
 10
30.0623590771
 20
20.3148833271
  0
VERTEX
  8
___SYMBOL
 62
7
  6
CONTINUOUS
 10
30.0561654277
 20
20.3071401665
  0
VERTEX
  8
___SYMBOL
 62
7
  6
CONTINUOUS
 10
30.0503693225
 20
20.298877324
  0
VERTEX
  8
___SYMBOL
 62
7
  6
CONTINUOUS
 10
30.0449953284
 20
20.2901298218
  0
VERTEX
  8
___SYMBOL
 62
7
  6
CONTINUOUS
 10
30.040066223
 20
20.2809347361
  0
VERTEX
  8
___SYMBOL
 62
7
  6
CONTINUOUS
 10
30.0356028983
 20
20.2713310401
  0
VERTEX
  8
___SYMBOL
 62
7
  6
CONTINUOUS
 10
30.0316242719
 20
20.2613594391
  0
VERTEX
  8
___SYMBOL
 62
7
  6
CONTINUOUS
 10
30.0281472074
 20
20.2510621976
  0
VERTEX
  8
___SYMBOL
 62
7
  6
CONTINUOUS
 10
30.0251864422
 20
20.2404829604
  0
VERTEX
  8
___SYMBOL
 62
7
  6
CONTINUOUS
 10
30.0227545255
 20
20.2296665676
  0
VERTEX
  8
___SYMBOL
 62
7
  6
CONTINUOUS
 10
30.020861765
 20
20.2186588642
  0
VERTEX
  8
___SYMBOL
 62
7
  6
CONTINUOUS
 10
30.0195161831
 20
20.2075065065
  0
VERTEX
  8
___SYMBOL
 62
7
  6
CONTINUOUS
 10
30.018723483
 20
20.1962567636
  0
VERTEX
  8
___SYMBOL
 62
7
  6
CONTINUOUS
 10
30.0184870247
 20
20.1849573174
  0
VERTEX
  8
___SYMBOL
 62
7
  6
CONTINUOUS
 10
30.0188078103
 20
20.1736560605
  0
VERTEX
  8
___SYMBOL
 62
7
  6
CONTINUOUS
 10
30.0196844801
 20
20.1624008933
  0
VERTEX
  8
___SYMBOL
 62
7
  6
CONTINUOUS
 10
30.0211133186
 20
20.1512395208
  0
VERTEX
  8
___SYMBOL
 62
7
  6
CONTINUOUS
 10
30.0230882694
 20
20.1402192502
  0
VERTEX
  8
___SYMBOL
 62
7
  6
CONTINUOUS
 10
30.0256009618
 20
20.1293867909
  0
VERTEX
  8
___SYMBOL
 62
7
  6
CONTINUOUS
 10
30.0286407458
 20
20.1187880563
  0
VERTEX
  8
___SYMBOL
 62
7
  6
CONTINUOUS
 10
30.0321947372
 20
20.108467969
  0
VERTEX
  8
___SYMBOL
 62
7
  6
CONTINUOUS
 10
30.0362478726
 20
20.0984702706
  0
VERTEX
  8
___SYMBOL
 62
7
  6
CONTINUOUS
 10
30.0407829726
 20
20.0888373363
  0
VERTEX
  8
___SYMBOL
 62
7
  6
CONTINUOUS
 10
30.0457808154
 20
20.0796099952
  0
VERTEX
  8
___SYMBOL
 62
7
  6
CONTINUOUS
 10
30.0512202176
 20
20.0708273574
  0
VERTEX
  8
___SYMBOL
 62
7
  6
CONTINUOUS
 10
30.0570781243
 20
20.0625266479
  0
VERTEX
  8
___SYMBOL
 62
7
  6
CONTINUOUS
 10
30.0633297068
 20
20.0547430493
  0
VERTEX
  8
___SYMBOL
 62
7
  6
CONTINUOUS
 10
30.069948468
 20
20.0475095523
  0
VERTEX
  8
___SYMBOL
 62
7
  6
CONTINUOUS
 10
30.076906354
 20
20.040856816
  0
VERTEX
  8
___SYMBOL
 62
7
  6
CONTINUOUS
 10
30.0841738742
 20
20.034813038
  0
VERTEX
  8
___SYMBOL
 62
7
  6
CONTINUOUS
 10
30.091720225
 20
20.0294038348
  0
VERTEX
  8
___SYMBOL
 62
7
  6
CONTINUOUS
 10
30.0995134213
 20
20.0246521333
  0
VERTEX
  8
___SYMBOL
 62
7
  6
CONTINUOUS
 10
30.1075204318
 20
20.0205780735
  0
VERTEX
  8
___SYMBOL
 62
7
  6
CONTINUOUS
 10
30.1157073188
 20
20.0171989233
  0
VERTEX
  8
___SYMBOL
 62
7
  6
CONTINUOUS
 10
30.1240393822
 20
20.0145290053
  0
VERTEX
  8
___SYMBOL
 62
7
  6
CONTINUOUS
 10
30.1324813067
 20
20.0125796357
  0
VERTEX
  8
___SYMBOL
 62
7
  6
CONTINUOUS
 10
30.1409973111
 20
20.0113590771
  0
VERTEX
  8
___SYMBOL
 62
7
  6
CONTINUOUS
 10
30.1495513005
 20
20.0108725028
  0
VERTEX
  8
___SYMBOL
 62
7
  6
CONTINUOUS
 10
30.1581070189
 20
20.011121975
  0
VERTEX
  8
___SYMBOL
 62
7
  6
CONTINUOUS
 10
30.1666282028
 20
20.0121064365
  0
VERTEX
  8
___SYMBOL
 62
7
  6
CONTINUOUS
 10
30.1750787354
 20
20.0138217145
  0
VERTEX
  8
___SYMBOL
 62
7
  6
CONTINUOUS
 10
30.183422799
 20
20.0162605389
  0
VERTEX
  8
___SYMBOL
 62
7
  6
CONTINUOUS
 10
30.1916250276
 20
20.0194125727
  0
VERTEX
  8
___SYMBOL
 62
7
  6
CONTINUOUS
 10
30.1996506558
 20
20.0232644562
  0
VERTEX
  8
___SYMBOL
 62
7
  6
CONTINUOUS
 10
30.2074656673
 20
20.027799863
  0
VERTEX
  8
___SYMBOL
 62
7
  6
CONTINUOUS
 10
30.2150369381
 20
20.0329995699
  0
VERTEX
  8
___SYMBOL
 62
7
  6
CONTINUOUS
 10
30.2223323774
 20
20.038841538
  0
VERTEX
  8
___SYMBOL
 62
7
  6
CONTINUOUS
 10
30.2293210637
 20
20.0453010061
  0
VERTEX
  8
___SYMBOL
 62
7
  6
CONTINUOUS
 10
30.2359733753
 20
20.0523505959
  0
VERTEX
  8
___SYMBOL
 62
7
  6
CONTINUOUS
 10
30.2422611165
 20
20.0599604276
  0
VERTEX
  8
___SYMBOL
 62
7
  6
CONTINUOUS
 10
30.2481576367
 20
20.0680982471
  0
VERTEX
  8
___SYMBOL
 62
7
  6
CONTINUOUS
 10
30.2536379437
 20
20.0767295624
  0
VERTEX
  8
___SYMBOL
 62
7
  6
CONTINUOUS
 10
30.2586788091
 20
20.0858177895
  0
VERTEX
  8
___SYMBOL
 62
7
  6
CONTINUOUS
 10
30.2632588674
 20
20.0953244082
  0
VERTEX
  8
___SYMBOL
 62
7
  6
CONTINUOUS
 10
30.2673587058
 20
20.1052091247
  0
VERTEX
  8
___SYMBOL
 62
7
  6
CONTINUOUS
 10
30.2709609474
 20
20.1154300427
  0
VERTEX
  8
___SYMBOL
 62
7
  6
CONTINUOUS
 10
30.274050324
 20
20.1259438409
  0
VERTEX
  8
___SYMBOL
 62
7
  6
CONTINUOUS
 10
30.2766137414
 20
20.1367059566
  0
VERTEX
  8
___SYMBOL
 62
7
  6
CONTINUOUS
 10
30.2786403344
 20
20.1476707748
  0
VERTEX
  8
___SYMBOL
 62
7
  6
CONTINUOUS
 10
30.2801215135
 20
20.1587918211
  0
SEQEND
  0
LINE
  8
___SYMBOL
 62
7
  6
CONTINUOUS
 10
30.3893758018
 20
20.7269332925
 11
30.3975673491
 21
20.7271858062
  0
ENDBLK
  8
0
  6
BYBLOCK
 62
0
  0
BLOCK
  8
___SYMBOL
 62
2
  6
CONTINUOUS
  2
SYMBOL_51_BL0
 70
64
 10
29.6431909246
 20
19.9690915164
  0
LINE
  8
___SYMBOL
 62
7
  6
CONTINUOUS
 10
29.6126055441
 20
20.0870008584
 11
29.5005257709
 21
20.6406591601
  0
LINE
  8
___SYMBOL
 62
7
  6
CONTINUOUS
 10
29.5642258849
 20
20.0574997829
 11
29.5005257709
 21
20.6406591601
  0
LINE
  8
___SYMBOL
 62
7
  6
CONTINUOUS
 10
29.6398676493
 20
19.9913168664
 11
29.6383000354
 21
20.0421702733
  0
LINE
  8
___SYMBOL
 62
7
  6
CONTINUOUS
 10
29.6546777366
 20
20.0428502627
 11
29.6562561374
 21
19.9916469319
  0
LINE
  8
___SYMBOL
 62
7
  6
CONTINUOUS
 10
29.6487596537
 20
20.2202197125
 11
29.8364740433
 21
20.6309236791
  0
LINE
  8
___SYMBOL
 62
7
  6
CONTINUOUS
 10
29.5346508319
 20
19.9619496119
 11
29.5671799259
 21
20.0233621799
  0
LINE
  8
___SYMBOL
 62
7
  6
CONTINUOUS
 10
29.7159068992
 20
20.0297683106
 11
29.8364740433
 21
20.4154569234
  0
LINE
  8
___SYMBOL
 62
7
  6
CONTINUOUS
 10
29.6865382838
 20
20.1130672448
 11
29.6126055441
 21
20.0870008584
  0
LINE
  8
___SYMBOL
 62
7
  6
CONTINUOUS
 10
29.7405189231
 20
19.9599606153
 11
29.6832321214
 21
19.8216960926
  0
LINE
  8
___SYMBOL
 62
7
  6
CONTINUOUS
 10
29.588492595
 20
19.8262077023
 11
29.6325698701
 21
19.8720069041
  0
LINE
  8
___SYMBOL
 62
7
  6
CONTINUOUS
 10
29.5005257709
 20
20.6406591601
 11
29.7405189231
 21
19.9599606153
  0
LINE
  8
___SYMBOL
 62
7
  6
CONTINUOUS
 10
29.588492595
 20
19.8262077023
 11
29.5346508319
 21
19.9619496119
  0
ARC
  8
___SYMBOL
 62
7
  6
CONTINUOUS
 10
29.491840044
 20
20.5231903012
 40
0.3610804262
 50
342.6406360869
 51
17.3593639131
  0
ARC
  8
___SYMBOL
 62
7
  6
CONTINUOUS
 10
29.8768778535
 20
20.0673579907
 40
0.3128073492
 50
181.8059909349
 51
231.752660067
  0
CIRCLE
  8
___SYMBOL
 62
7
  6
CONTINUOUS
 10
29.6475478664
 20
20.017004483
 40
0.0268111801
  0
ARC
  8
___SYMBOL
 62
7
  6
CONTINUOUS
 10
29.8070056767
 20
19.6446868855
 40
0.0146088562
 50
185.3133793157
 51
314.0675041521
  0
ARC
  8
___SYMBOL
 62
7
  6
CONTINUOUS
 10
29.4723440817
 20
19.6371663163
 40
0.0146087357
 50
233.3109272841
 51
359.4467240969
  0
POLYLINE
  8
___SYMBOL
 62
7
  6
CONTINUOUS
 66
1
 70
0
  0
VERTEX
  8
___SYMBOL
 62
7
  6
CONTINUOUS
 10
29.7692615486
 20
19.409945515
  0
VERTEX
  8
___SYMBOL
 62
7
  6
CONTINUOUS
 10
29.7659222358
 20
19.4201944224
  0
VERTEX
  8
___SYMBOL
 62
7
  6
CONTINUOUS
 10
29.762864658
 20
19.4305244117
  0
VERTEX
  8
___SYMBOL
 62
7
  6
CONTINUOUS
 10
29.7600765993
 20
19.4409298628
  0
VERTEX
  8
___SYMBOL
 62
7
  6
CONTINUOUS
 10
29.7575458439
 20
19.4514051557
  0
VERTEX
  8
___SYMBOL
 62
7
  6
CONTINUOUS
 10
29.755260176
 20
19.4619446704
  0
VERTEX
  8
___SYMBOL
 62
7
  6
CONTINUOUS
 10
29.7532073798
 20
19.472542787
  0
VERTEX
  8
___SYMBOL
 62
7
  6
CONTINUOUS
 10
29.7513752394
 20
19.4831938854
  0
VERTEX
  8
___SYMBOL
 62
7
  6
CONTINUOUS
 10
29.749751539
 20
19.4938923455
  0
VERTEX
  8
___SYMBOL
 62
7
  6
CONTINUOUS
 10
29.7483240628
 20
19.5046325475
  0
VERTEX
  8
___SYMBOL
 62
7
  6
CONTINUOUS
 10
29.7470805949
 20
19.5154088712
  0
VERTEX
  8
___SYMBOL
 62
7
  6
CONTINUOUS
 10
29.7460089195
 20
19.5262156968
  0
VERTEX
  8
___SYMBOL
 62
7
  6
CONTINUOUS
 10
29.7450968209
 20
19.5370474041
  0
VERTEX
  8
___SYMBOL
 62
7
  6
CONTINUOUS
 10
29.7443320831
 20
19.5478983731
  0
VERTEX
  8
___SYMBOL
 62
7
  6
CONTINUOUS
 10
29.7437024904
 20
19.558762984
  0
VERTEX
  8
___SYMBOL
 62
7
  6
CONTINUOUS
 10
29.7431958268
 20
19.5696356165
  0
VERTEX
  8
___SYMBOL
 62
7
  6
CONTINUOUS
 10
29.7427998767
 20
19.5805106508
  0
VERTEX
  8
___SYMBOL
 62
7
  6
CONTINUOUS
 10
29.7425024241
 20
19.5913824668
  0
VERTEX
  8
___SYMBOL
 62
7
  6
CONTINUOUS
 10
29.7422912532
 20
19.6022454446
  0
VERTEX
  8
___SYMBOL
 62
7
  6
CONTINUOUS
 10
29.7421541483
 20
19.613093964
  0
VERTEX
  8
___SYMBOL
 62
7
  6
CONTINUOUS
 10
29.7420788934
 20
19.6239224052
  0
VERTEX
  8
___SYMBOL
 62
7
  6
CONTINUOUS
 10
29.7420486834
 20
19.6398400689
  0
VERTEX
  8
___SYMBOL
 62
7
  6
CONTINUOUS
 10
29.7420496006
 20
19.6557240794
  0
VERTEX
  8
___SYMBOL
 62
7
  6
CONTINUOUS
 10
29.7420049561
 20
19.6715966055
  0
VERTEX
  8
___SYMBOL
 62
7
  6
CONTINUOUS
 10
29.7418380608
 20
19.6874798163
  0
VERTEX
  8
___SYMBOL
 62
7
  6
CONTINUOUS
 10
29.7414722256
 20
19.7033958808
  0
VERTEX
  8
___SYMBOL
 62
7
  6
CONTINUOUS
 10
29.7412140716
 20
19.7107280842
  0
VERTEX
  8
___SYMBOL
 62
7
  6
CONTINUOUS
 10
29.7408773984
 20
19.7180649208
  0
VERTEX
  8
___SYMBOL
 62
7
  6
CONTINUOUS
 10
29.7404419337
 20
19.7253993965
  0
VERTEX
  8
___SYMBOL
 62
7
  6
CONTINUOUS
 10
29.7398874051
 20
19.7327245168
  0
VERTEX
  8
___SYMBOL
 62
7
  6
CONTINUOUS
 10
29.7391935404
 20
19.7400332874
  0
VERTEX
  8
___SYMBOL
 62
7
  6
CONTINUOUS
 10
29.7383400673
 20
19.7473187141
  0
VERTEX
  8
___SYMBOL
 62
7
  6
CONTINUOUS
 10
29.7373067135
 20
19.7545738025
  0
VERTEX
  8
___SYMBOL
 62
7
  6
CONTINUOUS
 10
29.7360732067
 20
19.7617915583
  0
VERTEX
  8
___SYMBOL
 62
7
  6
CONTINUOUS
 10
29.7346192745
 20
19.7689649872
  0
VERTEX
  8
___SYMBOL
 62
7
  6
CONTINUOUS
 10
29.7329246446
 20
19.7760870949
  0
VERTEX
  8
___SYMBOL
 62
7
  6
CONTINUOUS
 10
29.7309690449
 20
19.7831508871
  0
VERTEX
  8
___SYMBOL
 62
7
  6
CONTINUOUS
 10
29.7287322028
 20
19.7901493694
  0
VERTEX
  8
___SYMBOL
 62
7
  6
CONTINUOUS
 10
29.7276651868
 20
19.7931550519
  0
VERTEX
  8
___SYMBOL
 62
7
  6
CONTINUOUS
 10
29.7265060897
 20
19.7961230556
  0
VERTEX
  8
___SYMBOL
 62
7
  6
CONTINUOUS
 10
29.7252194099
 20
19.7990292698
  0
VERTEX
  8
___SYMBOL
 62
7
  6
CONTINUOUS
 10
29.7237696452
 20
19.8018495836
  0
VERTEX
  8
___SYMBOL
 62
7
  6
CONTINUOUS
 10
29.722121294
 20
19.8045598861
  0
VERTEX
  8
___SYMBOL
 62
7
  6
CONTINUOUS
 10
29.7202388543
 20
19.8071360665
  0
VERTEX
  8
___SYMBOL
 62
7
  6
CONTINUOUS
 10
29.7181734657
 20
19.8094773399
  0
VERTEX
  8
___SYMBOL
 62
7
  6
CONTINUOUS
 10
29.7158823296
 20
19.8116588739
  0
VERTEX
  8
___SYMBOL
 62
7
  6
CONTINUOUS
 10
29.7133915006
 20
19.8136687215
  0
VERTEX
  8
___SYMBOL
 62
7
  6
CONTINUOUS
 10
29.7107270334
 20
19.8154949355
  0
VERTEX
  8
___SYMBOL
 62
7
  6
CONTINUOUS
 10
29.7079149825
 20
19.8171255691
  0
VERTEX
  8
___SYMBOL
 62
7
  6
CONTINUOUS
 10
29.7049814026
 20
19.818548675
  0
VERTEX
  8
___SYMBOL
 62
7
  6
CONTINUOUS
 10
29.7019523484
 20
19.8197523063
  0
VERTEX
  8
___SYMBOL
 62
7
  6
CONTINUOUS
 10
29.6988538745
 20
19.8207245159
  0
VERTEX
  8
___SYMBOL
 62
7
  6
CONTINUOUS
 10
29.6957120355
 20
19.8214533568
  0
VERTEX
  8
___SYMBOL
 62
7
  6
CONTINUOUS
 10
29.692552886
 20
19.821926882
  0
VERTEX
  8
___SYMBOL
 62
7
  6
CONTINUOUS
 10
29.6894024808
 20
19.8221331444
  0
VERTEX
  8
___SYMBOL
 62
7
  6
CONTINUOUS
 10
29.6862868743
 20
19.8220601969
  0
VERTEX
  8
___SYMBOL
 62
7
  6
CONTINUOUS
 10
29.6832321214
 20
19.8216960926
  0
SEQEND
  0
POLYLINE
  8
___SYMBOL
 62
7
  6
CONTINUOUS
 66
1
 70
0
  0
VERTEX
  8
___SYMBOL
 62
7
  6
CONTINUOUS
 10
29.7924595933
 20
19.6433340602
  0
VERTEX
  8
___SYMBOL
 62
7
  6
CONTINUOUS
 10
29.7918367075
 20
19.6509963445
  0
VERTEX
  8
___SYMBOL
 62
7
  6
CONTINUOUS
 10
29.7913819475
 20
19.6586651427
  0
VERTEX
  8
___SYMBOL
 62
7
  6
CONTINUOUS
 10
29.7910513046
 20
19.6673707803
  0
VERTEX
  8
___SYMBOL
 62
7
  6
CONTINUOUS
 10
29.7908988792
 20
19.6760652968
  0
VERTEX
  8
___SYMBOL
 62
7
  6
CONTINUOUS
 10
29.7909035974
 20
19.6847585925
  0
VERTEX
  8
___SYMBOL
 62
7
  6
CONTINUOUS
 10
29.7910443851
 20
19.6934605676
  0
VERTEX
  8
___SYMBOL
 62
7
  6
CONTINUOUS
 10
29.7913001682
 20
19.7021811225
  0
VERTEX
  8
___SYMBOL
 62
7
  6
CONTINUOUS
 10
29.7916498727
 20
19.7109301572
  0
VERTEX
  8
___SYMBOL
 62
7
  6
CONTINUOUS
 10
29.7920724245
 20
19.7197175722
  0
VERTEX
  8
___SYMBOL
 62
7
  6
CONTINUOUS
 10
29.7925467496
 20
19.7285532678
  0
VERTEX
  8
___SYMBOL
 62
7
  6
CONTINUOUS
 10
29.7928616348
 20
19.7341527047
  0
VERTEX
  8
___SYMBOL
 62
7
  6
CONTINUOUS
 10
29.7931755166
 20
19.7397700981
  0
VERTEX
  8
___SYMBOL
 62
7
  6
CONTINUOUS
 10
29.7934751855
 20
19.7454002717
  0
VERTEX
  8
___SYMBOL
 62
7
  6
CONTINUOUS
 10
29.7937474319
 20
19.751038049
  0
VERTEX
  8
___SYMBOL
 62
7
  6
CONTINUOUS
 10
29.7939790462
 20
19.7566782536
  0
VERTEX
  8
___SYMBOL
 62
7
  6
CONTINUOUS
 10
29.794156819
 20
19.762315709
  0
VERTEX
  8
___SYMBOL
 62
7
  6
CONTINUOUS
 10
29.7942675407
 20
19.7679452389
  0
VERTEX
  8
___SYMBOL
 62
7
  6
CONTINUOUS
 10
29.7942980017
 20
19.7735616669
  0
VERTEX
  8
___SYMBOL
 62
7
  6
CONTINUOUS
 10
29.7942349925
 20
19.7791598164
  0
VERTEX
  8
___SYMBOL
 62
7
  6
CONTINUOUS
 10
29.7940653035
 20
19.7847345111
  0
VERTEX
  8
___SYMBOL
 62
7
  6
CONTINUOUS
 10
29.7937757252
 20
19.7902805746
  0
VERTEX
  8
___SYMBOL
 62
7
  6
CONTINUOUS
 10
29.793353048
 20
19.7957928305
  0
VERTEX
  8
___SYMBOL
 62
7
  6
CONTINUOUS
 10
29.7927840623
 20
19.8012661023
  0
VERTEX
  8
___SYMBOL
 62
7
  6
CONTINUOUS
 10
29.7920555588
 20
19.8066952136
  0
VERTEX
  8
___SYMBOL
 62
7
  6
CONTINUOUS
 10
29.7911543277
 20
19.812074988
  0
VERTEX
  8
___SYMBOL
 62
7
  6
CONTINUOUS
 10
29.7900671595
 20
19.817400249
  0
VERTEX
  8
___SYMBOL
 62
7
  6
CONTINUOUS
 10
29.7887808447
 20
19.8226658203
  0
VERTEX
  8
___SYMBOL
 62
7
  6
CONTINUOUS
 10
29.7872821737
 20
19.8278665255
  0
VERTEX
  8
___SYMBOL
 62
7
  6
CONTINUOUS
 10
29.785557937
 20
19.832997188
  0
VERTEX
  8
___SYMBOL
 62
7
  6
CONTINUOUS
 10
29.783732018
 20
19.8377356141
  0
VERTEX
  8
___SYMBOL
 62
7
  6
CONTINUOUS
 10
29.7817162165
 20
19.8424142032
  0
VERTEX
  8
___SYMBOL
 62
7
  6
CONTINUOUS
 10
29.779530058
 20
19.847039086
  0
VERTEX
  8
___SYMBOL
 62
7
  6
CONTINUOUS
 10
29.777193068
 20
19.8516163932
  0
VERTEX
  8
___SYMBOL
 62
7
  6
CONTINUOUS
 10
29.7747247719
 20
19.8561522556
  0
VERTEX
  8
___SYMBOL
 62
7
  6
CONTINUOUS
 10
29.7721446953
 20
19.8606528038
  0
VERTEX
  8
___SYMBOL
 62
7
  6
CONTINUOUS
 10
29.7694723636
 20
19.8651241685
  0
VERTEX
  8
___SYMBOL
 62
7
  6
CONTINUOUS
 10
29.7667273024
 20
19.8695724806
  0
VERTEX
  8
___SYMBOL
 62
7
  6
CONTINUOUS
 10
29.7639290371
 20
19.8740038706
  0
VERTEX
  8
___SYMBOL
 62
7
  6
CONTINUOUS
 10
29.7610970933
 20
19.8784244693
  0
VERTEX
  8
___SYMBOL
 62
7
  6
CONTINUOUS
 10
29.759056649
 20
19.8815968314
  0
VERTEX
  8
___SYMBOL
 62
7
  6
CONTINUOUS
 10
29.7570347064
 20
19.8847754866
  0
VERTEX
  8
___SYMBOL
 62
7
  6
CONTINUOUS
 10
29.7550570661
 20
19.8879691314
  0
VERTEX
  8
___SYMBOL
 62
7
  6
CONTINUOUS
 10
29.7531495286
 20
19.8911864624
  0
VERTEX
  8
___SYMBOL
 62
7
  6
CONTINUOUS
 10
29.7513378943
 20
19.8944361761
  0
VERTEX
  8
___SYMBOL
 62
7
  6
CONTINUOUS
 10
29.7496479637
 20
19.8977269691
  0
VERTEX
  8
___SYMBOL
 62
7
  6
CONTINUOUS
 10
29.7481055372
 20
19.9010675378
  0
VERTEX
  8
___SYMBOL
 62
7
  6
CONTINUOUS
 10
29.7467364154
 20
19.9044665789
  0
VERTEX
  8
___SYMBOL
 62
7
  6
CONTINUOUS
 10
29.7455663988
 20
19.9079327888
  0
VERTEX
  8
___SYMBOL
 62
7
  6
CONTINUOUS
 10
29.7446661296
 20
19.911248197
  0
VERTEX
  8
___SYMBOL
 62
7
  6
CONTINUOUS
 10
29.7439417751
 20
19.9146204808
  0
VERTEX
  8
___SYMBOL
 62
7
  6
CONTINUOUS
 10
29.7433715878
 20
19.9180398403
  0
VERTEX
  8
___SYMBOL
 62
7
  6
CONTINUOUS
 10
29.74293382
 20
19.9214964754
  0
VERTEX
  8
___SYMBOL
 62
7
  6
CONTINUOUS
 10
29.7426067242
 20
19.9249805861
  0
VERTEX
  8
___SYMBOL
 62
7
  6
CONTINUOUS
 10
29.7423685528
 20
19.9284823723
  0
VERTEX
  8
___SYMBOL
 62
7
  6
CONTINUOUS
 10
29.7421975581
 20
19.9319920342
  0
VERTEX
  8
___SYMBOL
 62
7
  6
CONTINUOUS
 10
29.7420719926
 20
19.9354997715
  0
VERTEX
  8
___SYMBOL
 62
7
  6
CONTINUOUS
 10
29.7419525616
 20
19.9396121751
  0
VERTEX
  8
___SYMBOL
 62
7
  6
CONTINUOUS
 10
29.7418279482
 20
19.9437092098
  0
VERTEX
  8
___SYMBOL
 62
7
  6
CONTINUOUS
 10
29.741660215
 20
19.9477917234
  0
VERTEX
  8
___SYMBOL
 62
7
  6
CONTINUOUS
 10
29.7414114246
 20
19.9518605637
  0
VERTEX
  8
___SYMBOL
 62
7
  6
CONTINUOUS
 10
29.7410436398
 20
19.9559165784
  0
VERTEX
  8
___SYMBOL
 62
7
  6
CONTINUOUS
 10
29.7405189231
 20
19.9599606153
  0
SEQEND
  0
POLYLINE
  8
___SYMBOL
 62
7
  6
CONTINUOUS
 66
1
 70
0
  0
VERTEX
  8
___SYMBOL
 62
7
  6
CONTINUOUS
 10
29.529829554
 20
19.4486020985
  0
VERTEX
  8
___SYMBOL
 62
7
  6
CONTINUOUS
 10
29.5318265131
 20
19.4570943298
  0
VERTEX
  8
___SYMBOL
 62
7
  6
CONTINUOUS
 10
29.5335797316
 20
19.4656355305
  0
VERTEX
  8
___SYMBOL
 62
7
  6
CONTINUOUS
 10
29.535102983
 20
19.4742212536
  0
VERTEX
  8
___SYMBOL
 62
7
  6
CONTINUOUS
 10
29.5364100411
 20
19.4828470522
  0
VERTEX
  8
___SYMBOL
 62
7
  6
CONTINUOUS
 10
29.5375146794
 20
19.4915084794
  0
VERTEX
  8
___SYMBOL
 62
7
  6
CONTINUOUS
 10
29.5384306716
 20
19.5002010882
  0
VERTEX
  8
___SYMBOL
 62
7
  6
CONTINUOUS
 10
29.5391717913
 20
19.5089204318
  0
VERTEX
  8
___SYMBOL
 62
7
  6
CONTINUOUS
 10
29.5397518121
 20
19.5176620632
  0
VERTEX
  8
___SYMBOL
 62
7
  6
CONTINUOUS
 10
29.5401845076
 20
19.5264215355
  0
VERTEX
  8
___SYMBOL
 62
7
  6
CONTINUOUS
 10
29.5404836515
 20
19.5351944018
  0
VERTEX
  8
___SYMBOL
 62
7
  6
CONTINUOUS
 10
29.5406630174
 20
19.5439762151
  0
VERTEX
  8
___SYMBOL
 62
7
  6
CONTINUOUS
 10
29.5407363788
 20
19.5527625286
  0
VERTEX
  8
___SYMBOL
 62
7
  6
CONTINUOUS
 10
29.5407175095
 20
19.5615488952
  0
VERTEX
  8
___SYMBOL
 62
7
  6
CONTINUOUS
 10
29.5405666202
 20
19.5736723634
  0
VERTEX
  8
___SYMBOL
 62
7
  6
CONTINUOUS
 10
29.5403097329
 20
19.5857843916
  0
VERTEX
  8
___SYMBOL
 62
7
  6
CONTINUOUS
 10
29.5399903864
 20
19.5978819142
  0
VERTEX
  8
___SYMBOL
 62
7
  6
CONTINUOUS
 10
29.5396521197
 20
19.6099618656
  0
VERTEX
  8
___SYMBOL
 62
7
  6
CONTINUOUS
 10
29.5393384714
 20
19.6220211801
  0
VERTEX
  8
___SYMBOL
 62
7
  6
CONTINUOUS
 10
29.5390929805
 20
19.6340567921
  0
VERTEX
  8
___SYMBOL
 62
7
  6
CONTINUOUS
 10
29.5389591857
 20
19.6460656358
  0
VERTEX
  8
___SYMBOL
 62
7
  6
CONTINUOUS
 10
29.538980626
 20
19.6580446457
  0
VERTEX
  8
___SYMBOL
 62
7
  6
CONTINUOUS
 10
29.5392008401
 20
19.669990756
  0
VERTEX
  8
___SYMBOL
 62
7
  6
CONTINUOUS
 10
29.5397012219
 20
19.6830169409
  0
VERTEX
  8
___SYMBOL
 62
7
  6
CONTINUOUS
 10
29.5404329891
 20
19.6960388388
  0
VERTEX
  8
___SYMBOL
 62
7
  6
CONTINUOUS
 10
29.5413379053
 20
19.7090951499
  0
VERTEX
  8
___SYMBOL
 62
7
  6
CONTINUOUS
 10
29.542357734
 20
19.7222245744
  0
VERTEX
  8
___SYMBOL
 62
7
  6
CONTINUOUS
 10
29.5434342387
 20
19.7354658123
  0
VERTEX
  8
___SYMBOL
 62
7
  6
CONTINUOUS
 10
29.5445091829
 20
19.7488575638
  0
VERTEX
  8
___SYMBOL
 62
7
  6
CONTINUOUS
 10
29.5448263724
 20
19.7529107642
  0
VERTEX
  8
___SYMBOL
 62
7
  6
CONTINUOUS
 10
29.5451578253
 20
19.7569712233
  0
VERTEX
  8
___SYMBOL
 62
7
  6
CONTINUOUS
 10
29.5455231929
 20
19.7610291512
  0
VERTEX
  8
___SYMBOL
 62
7
  6
CONTINUOUS
 10
29.5459421263
 20
19.7650747577
  0
VERTEX
  8
___SYMBOL
 62
7
  6
CONTINUOUS
 10
29.546434277
 20
19.7690982527
  0
VERTEX
  8
___SYMBOL
 62
7
  6
CONTINUOUS
 10
29.5470192963
 20
19.7730898462
  0
VERTEX
  8
___SYMBOL
 62
7
  6
CONTINUOUS
 10
29.5477168354
 20
19.777039748
  0
VERTEX
  8
___SYMBOL
 62
7
  6
CONTINUOUS
 10
29.5485465455
 20
19.7809381681
  0
VERTEX
  8
___SYMBOL
 62
7
  6
CONTINUOUS
 10
29.5495280782
 20
19.7847753164
  0
VERTEX
  8
___SYMBOL
 62
7
  6
CONTINUOUS
 10
29.5506810845
 20
19.7885414027
  0
VERTEX
  8
___SYMBOL
 62
7
  6
CONTINUOUS
 10
29.5520252158
 20
19.792226637
  0
VERTEX
  8
___SYMBOL
 62
7
  6
CONTINUOUS
 10
29.5535801234
 20
19.7958212292
  0
VERTEX
  8
___SYMBOL
 62
7
  6
CONTINUOUS
 10
29.5553654586
 20
19.7993153892
  0
VERTEX
  8
___SYMBOL
 62
7
  6
CONTINUOUS
 10
29.5574008727
 20
19.8026993269
  0
VERTEX
  8
___SYMBOL
 62
7
  6
CONTINUOUS
 10
29.5594483976
 20
19.8056284726
  0
VERTEX
  8
___SYMBOL
 62
7
  6
CONTINUOUS
 10
29.5616973026
 20
19.8084457463
  0
VERTEX
  8
___SYMBOL
 62
7
  6
CONTINUOUS
 10
29.564132394
 20
19.8111356373
  0
VERTEX
  8
___SYMBOL
 62
7
  6
CONTINUOUS
 10
29.5667384781
 20
19.813682635
  0
VERTEX
  8
___SYMBOL
 62
7
  6
CONTINUOUS
 10
29.5695003614
 20
19.8160712285
  0
VERTEX
  8
___SYMBOL
 62
7
  6
CONTINUOUS
 10
29.5724028499
 20
19.8182859071
  0
VERTEX
  8
___SYMBOL
 62
7
  6
CONTINUOUS
 10
29.5754307502
 20
19.8203111602
  0
VERTEX
  8
___SYMBOL
 62
7
  6
CONTINUOUS
 10
29.5785688686
 20
19.822131477
  0
VERTEX
  8
___SYMBOL
 62
7
  6
CONTINUOUS
 10
29.5818020113
 20
19.8237313467
  0
VERTEX
  8
___SYMBOL
 62
7
  6
CONTINUOUS
 10
29.5851149846
 20
19.8250952587
  0
VERTEX
  8
___SYMBOL
 62
7
  6
CONTINUOUS
 10
29.588492595
 20
19.8262077023
  0
SEQEND
  0
POLYLINE
  8
___SYMBOL
 62
7
  6
CONTINUOUS
 66
1
 70
0
  0
VERTEX
  8
___SYMBOL
 62
7
  6
CONTINUOUS
 10
29.4869521363
 20
19.6370252494
  0
VERTEX
  8
___SYMBOL
 62
7
  6
CONTINUOUS
 10
29.4869917456
 20
19.6519855275
  0
VERTEX
  8
___SYMBOL
 62
7
  6
CONTINUOUS
 10
29.4868757464
 20
19.6669574172
  0
VERTEX
  8
___SYMBOL
 62
7
  6
CONTINUOUS
 10
29.4867401159
 20
19.6778293285
  0
VERTEX
  8
___SYMBOL
 62
7
  6
CONTINUOUS
 10
29.4865935235
 20
19.6887165539
  0
VERTEX
  8
___SYMBOL
 62
7
  6
CONTINUOUS
 10
29.4864640214
 20
19.6996110403
  0
VERTEX
  8
___SYMBOL
 62
7
  6
CONTINUOUS
 10
29.4863796618
 20
19.7105047344
  0
VERTEX
  8
___SYMBOL
 62
7
  6
CONTINUOUS
 10
29.4863684967
 20
19.7213895829
  0
VERTEX
  8
___SYMBOL
 62
7
  6
CONTINUOUS
 10
29.4864585784
 20
19.7322575327
  0
VERTEX
  8
___SYMBOL
 62
7
  6
CONTINUOUS
 10
29.486677959
 20
19.7431005303
  0
VERTEX
  8
___SYMBOL
 62
7
  6
CONTINUOUS
 10
29.4870546907
 20
19.7539105225
  0
VERTEX
  8
___SYMBOL
 62
7
  6
CONTINUOUS
 10
29.4876168256
 20
19.7646794562
  0
VERTEX
  8
___SYMBOL
 62
7
  6
CONTINUOUS
 10
29.4883924158
 20
19.775399278
  0
VERTEX
  8
___SYMBOL
 62
7
  6
CONTINUOUS
 10
29.4889409911
 20
19.7814727541
  0
VERTEX
  8
___SYMBOL
 62
7
  6
CONTINUOUS
 10
29.4895813771
 20
19.78752937
  0
VERTEX
  8
___SYMBOL
 62
7
  6
CONTINUOUS
 10
29.490327236
 20
19.7935707633
  0
VERTEX
  8
___SYMBOL
 62
7
  6
CONTINUOUS
 10
29.4911922295
 20
19.7995985718
  0
VERTEX
  8
___SYMBOL
 62
7
  6
CONTINUOUS
 10
29.4921900196
 20
19.8056144331
  0
VERTEX
  8
___SYMBOL
 62
7
  6
CONTINUOUS
 10
29.4933342682
 20
19.811619985
  0
VERTEX
  8
___SYMBOL
 62
7
  6
CONTINUOUS
 10
29.4946386373
 20
19.8176168652
  0
VERTEX
  8
___SYMBOL
 62
7
  6
CONTINUOUS
 10
29.4961167887
 20
19.8236067114
  0
VERTEX
  8
___SYMBOL
 62
7
  6
CONTINUOUS
 10
29.4977823844
 20
19.8295911612
  0
VERTEX
  8
___SYMBOL
 62
7
  6
CONTINUOUS
 10
29.4996490863
 20
19.8355718524
  0
VERTEX
  8
___SYMBOL
 62
7
  6
CONTINUOUS
 10
29.5017305563
 20
19.8415504226
  0
VERTEX
  8
___SYMBOL
 62
7
  6
CONTINUOUS
 10
29.5040404563
 20
19.8475285096
  0
VERTEX
  8
___SYMBOL
 62
7
  6
CONTINUOUS
 10
29.5065924484
 20
19.8535077511
  0
VERTEX
  8
___SYMBOL
 62
7
  6
CONTINUOUS
 10
29.5080509907
 20
19.8566891488
  0
VERTEX
  8
___SYMBOL
 62
7
  6
CONTINUOUS
 10
29.5095704967
 20
19.8598709502
  0
VERTEX
  8
___SYMBOL
 62
7
  6
CONTINUOUS
 10
29.5111395679
 20
19.8630527695
  0
VERTEX
  8
___SYMBOL
 62
7
  6
CONTINUOUS
 10
29.5127468056
 20
19.8662342203
  0
VERTEX
  8
___SYMBOL
 62
7
  6
CONTINUOUS
 10
29.5143808114
 20
19.8694149166
  0
VERTEX
  8
___SYMBOL
 62
7
  6
CONTINUOUS
 10
29.5160301865
 20
19.8725944723
  0
VERTEX
  8
___SYMBOL
 62
7
  6
CONTINUOUS
 10
29.5176835325
 20
19.8757725012
  0
VERTEX
  8
___SYMBOL
 62
7
  6
CONTINUOUS
 10
29.5193294507
 20
19.8789486171
  0
VERTEX
  8
___SYMBOL
 62
7
  6
CONTINUOUS
 10
29.5209565425
 20
19.882122434
  0
VERTEX
  8
___SYMBOL
 62
7
  6
CONTINUOUS
 10
29.5225534094
 20
19.8852935657
  0
VERTEX
  8
___SYMBOL
 62
7
  6
CONTINUOUS
 10
29.5241086528
 20
19.888461626
  0
VERTEX
  8
___SYMBOL
 62
7
  6
CONTINUOUS
 10
29.5256108741
 20
19.8916262289
  0
VERTEX
  8
___SYMBOL
 62
7
  6
CONTINUOUS
 10
29.5270486747
 20
19.8947869882
  0
VERTEX
  8
___SYMBOL
 62
7
  6
CONTINUOUS
 10
29.528410656
 20
19.8979435178
  0
VERTEX
  8
___SYMBOL
 62
7
  6
CONTINUOUS
 10
29.5296854194
 20
19.9010954315
  0
VERTEX
  8
___SYMBOL
 62
7
  6
CONTINUOUS
 10
29.5308615664
 20
19.9042423432
  0
VERTEX
  8
___SYMBOL
 62
7
  6
CONTINUOUS
 10
29.5319276984
 20
19.9073838668
  0
VERTEX
  8
___SYMBOL
 62
7
  6
CONTINUOUS
 10
29.5328724167
 20
19.9105196161
  0
VERTEX
  8
___SYMBOL
 62
7
  6
CONTINUOUS
 10
29.5336843229
 20
19.913649205
  0
VERTEX
  8
___SYMBOL
 62
7
  6
CONTINUOUS
 10
29.5343520183
 20
19.9167722474
  0
VERTEX
  8
___SYMBOL
 62
7
  6
CONTINUOUS
 10
29.5348641042
 20
19.9198883571
  0
VERTEX
  8
___SYMBOL
 62
7
  6
CONTINUOUS
 10
29.5352091823
 20
19.9229971481
  0
VERTEX
  8
___SYMBOL
 62
7
  6
CONTINUOUS
 10
29.5353758538
 20
19.926098234
  0
VERTEX
  8
___SYMBOL
 62
7
  6
CONTINUOUS
 10
29.5353527201
 20
19.929191229
  0
VERTEX
  8
___SYMBOL
 62
7
  6
CONTINUOUS
 10
29.5351283828
 20
19.9322757467
  0
VERTEX
  8
___SYMBOL
 62
7
  6
CONTINUOUS
 10
29.5346914431
 20
19.9353514011
  0
VERTEX
  8
___SYMBOL
 62
7
  6
CONTINUOUS
 10
29.5340305026
 20
19.938417806
  0
VERTEX
  8
___SYMBOL
 62
7
  6
CONTINUOUS
 10
29.5331341626
 20
19.9414745753
  0
VERTEX
  8
___SYMBOL
 62
7
  6
CONTINUOUS
 10
29.5326214858
 20
19.9429479981
  0
VERTEX
  8
___SYMBOL
 62
7
  6
CONTINUOUS
 10
29.5320944965
 20
19.9444310658
  0
VERTEX
  8
___SYMBOL
 62
7
  6
CONTINUOUS
 10
29.5315963451
 20
19.9459357569
  0
VERTEX
  8
___SYMBOL
 62
7
  6
CONTINUOUS
 10
29.5311701823
 20
19.9474740495
  0
VERTEX
  8
___SYMBOL
 62
7
  6
CONTINUOUS
 10
29.5308591585
 20
19.9490579222
  0
VERTEX
  8
___SYMBOL
 62
7
  6
CONTINUOUS
 10
29.530704266
 20
19.9505983353
  0
VERTEX
  8
___SYMBOL
 62
7
  6
CONTINUOUS
 10
29.530691104
 20
19.9521664714
  0
VERTEX
  8
___SYMBOL
 62
7
  6
CONTINUOUS
 10
29.5308206655
 20
19.9537388773
  0
VERTEX
  8
___SYMBOL
 62
7
  6
CONTINUOUS
 10
29.5310939435
 20
19.9552921002
  0
VERTEX
  8
___SYMBOL
 62
7
  6
CONTINUOUS
 10
29.5315119308
 20
19.956802687
  0
VERTEX
  8
___SYMBOL
 62
7
  6
CONTINUOUS
 10
29.5320756204
 20
19.9582471845
  0
VERTEX
  8
___SYMBOL
 62
7
  6
CONTINUOUS
 10
29.5327860052
 20
19.9596021399
  0
VERTEX
  8
___SYMBOL
 62
7
  6
CONTINUOUS
 10
29.533644078
 20
19.9608441
  0
VERTEX
  8
___SYMBOL
 62
7
  6
CONTINUOUS
 10
29.5346508319
 20
19.9619496119
  0
SEQEND
  0
POLYLINE
  8
___SYMBOL
 62
7
  6
CONTINUOUS
 66
1
 70
0
  0
VERTEX
  8
___SYMBOL
 62
7
  6
CONTINUOUS
 10
29.8949591164
 20
19.3582019364
  0
VERTEX
  8
___SYMBOL
 62
7
  6
CONTINUOUS
 10
29.9159583224
 20
19.3622903414
  0
VERTEX
  8
___SYMBOL
 62
7
  6
CONTINUOUS
 10
29.9359881477
 20
19.3725323488
  0
VERTEX
  8
___SYMBOL
 62
7
  6
CONTINUOUS
 10
29.953293886
 20
19.3880305436
  0
VERTEX
  8
___SYMBOL
 62
7
  6
CONTINUOUS
 10
29.9676638387
 20
19.4085958553
  0
VERTEX
  8
___SYMBOL
 62
7
  6
CONTINUOUS
 10
29.977839129
 20
19.432425989
  0
VERTEX
  8
___SYMBOL
 62
7
  6
CONTINUOUS
 10
29.9836951871
 20
19.4592301656
  0
VERTEX
  8
___SYMBOL
 62
7
  6
CONTINUOUS
 10
29.9847191546
 20
19.4866595234
  0
VERTEX
  8
___SYMBOL
 62
7
  6
CONTINUOUS
 10
29.9810174055
 20
19.5138572376
  0
VERTEX
  8
___SYMBOL
 62
7
  6
CONTINUOUS
 10
29.9725677786
 20
19.5399600682
  0
VERTEX
  8
___SYMBOL
 62
7
  6
CONTINUOUS
 10
29.9601106936
 20
19.5626809719
  0
VERTEX
  8
___SYMBOL
 62
7
  6
CONTINUOUS
 10
29.943798247
 20
19.5817421163
  0
VERTEX
  8
___SYMBOL
 62
7
  6
CONTINUOUS
 10
29.9250597241
 20
19.5954734744
  0
VERTEX
  8
___SYMBOL
 62
7
  6
CONTINUOUS
 10
29.9041240859
 20
19.6037074372
  0
VERTEX
  8
___SYMBOL
 62
7
  6
CONTINUOUS
 10
29.8828258193
 20
19.6057223635
  0
VERTEX
  8
___SYMBOL
 62
7
  6
CONTINUOUS
 10
29.8618267299
 20
19.6016340751
  0
VERTEX
  8
___SYMBOL
 62
7
  6
CONTINUOUS
 10
29.8417967879
 20
19.5913920677
  0
VERTEX
  8
___SYMBOL
 62
7
  6
CONTINUOUS
 10
29.8244911663
 20
19.5758937563
  0
VERTEX
  8
___SYMBOL
 62
7
  6
CONTINUOUS
 10
29.8101210969
 20
19.5553284446
  0
VERTEX
  8
___SYMBOL
 62
7
  6
CONTINUOUS
 10
29.7999459233
 20
19.5314983109
  0
VERTEX
  8
___SYMBOL
 62
7
  6
CONTINUOUS
 10
29.7940897485
 20
19.5046941343
  0
VERTEX
  8
___SYMBOL
 62
7
  6
CONTINUOUS
 10
29.7930657811
 20
19.4772647765
  0
VERTEX
  8
___SYMBOL
 62
7
  6
CONTINUOUS
 10
29.7967675302
 20
19.4500670623
  0
VERTEX
  8
___SYMBOL
 62
7
  6
CONTINUOUS
 10
29.8052171571
 20
19.4239642317
  0
VERTEX
  8
___SYMBOL
 62
7
  6
CONTINUOUS
 10
29.8176743587
 20
19.401243328
  0
VERTEX
  8
___SYMBOL
 62
7
  6
CONTINUOUS
 10
29.8339868053
 20
19.3821821836
  0
VERTEX
  8
___SYMBOL
 62
7
  6
CONTINUOUS
 10
29.8527253282
 20
19.3684508255
  0
VERTEX
  8
___SYMBOL
 62
7
  6
CONTINUOUS
 10
29.8736608498
 20
19.3602169793
  0
VERTEX
  8
___SYMBOL
 62
7
  6
CONTINUOUS
 10
29.8949591164
 20
19.3582019364
  0
SEQEND
  0
POLYLINE
  8
___SYMBOL
 62
7
  6
CONTINUOUS
 66
1
 70
0
  0
VERTEX
  8
___SYMBOL
 62
7
  6
CONTINUOUS
 10
29.7692615486
 20
19.4099455151
  0
VERTEX
  8
___SYMBOL
 62
7
  6
CONTINUOUS
 10
29.7724970081
 20
19.3996637703
  0
VERTEX
  8
___SYMBOL
 62
7
  6
CONTINUOUS
 10
29.7761709966
 20
19.3896920911
  0
VERTEX
  8
___SYMBOL
 62
7
  6
CONTINUOUS
 10
29.7802696723
 20
19.3800680467
  0
VERTEX
  8
___SYMBOL
 62
7
  6
CONTINUOUS
 10
29.784777593
 20
19.3708278963
  0
VERTEX
  8
___SYMBOL
 62
7
  6
CONTINUOUS
 10
29.7896777747
 20
19.3620064529
  0
VERTEX
  8
___SYMBOL
 62
7
  6
CONTINUOUS
 10
29.7949517557
 20
19.3536369521
  0
VERTEX
  8
___SYMBOL
 62
7
  6
CONTINUOUS
 10
29.8005796657
 20
19.3457509265
  0
VERTEX
  8
___SYMBOL
 62
7
  6
CONTINUOUS
 10
29.8065403013
 20
19.3383780874
  0
VERTEX
  8
___SYMBOL
 62
7
  6
CONTINUOUS
 10
29.8128112052
 20
19.3315462126
  0
VERTEX
  8
___SYMBOL
 62
7
  6
CONTINUOUS
 10
29.8193687513
 20
19.3252810416
  0
VERTEX
  8
___SYMBOL
 62
7
  6
CONTINUOUS
 10
29.8261882336
 20
19.3196061791
  0
VERTEX
  8
___SYMBOL
 62
7
  6
CONTINUOUS
 10
29.8332439591
 20
19.3145430054
  0
VERTEX
  8
___SYMBOL
 62
7
  6
CONTINUOUS
 10
29.8405093448
 20
19.3101105966
  0
VERTEX
  8
___SYMBOL
 62
7
  6
CONTINUOUS
 10
29.8479570178
 20
19.3063256519
  0
VERTEX
  8
___SYMBOL
 62
7
  6
CONTINUOUS
 10
29.8555589184
 20
19.3032024316
  0
VERTEX
  8
___SYMBOL
 62
7
  6
CONTINUOUS
 10
29.8632864059
 20
19.3007527026
  0
VERTEX
  8
___SYMBOL
 62
7
  6
CONTINUOUS
 10
29.8711103663
 20
19.2989856944
  0
VERTEX
  8
___SYMBOL
 62
7
  6
CONTINUOUS
 10
29.8790013222
 20
19.2979080644
  0
VERTEX
  8
___SYMBOL
 62
7
  6
CONTINUOUS
 10
29.8869295439
 20
19.2975238727
  0
VERTEX
  8
___SYMBOL
 62
7
  6
CONTINUOUS
 10
29.8948651612
 20
19.2978345667
  0
VERTEX
  8
___SYMBOL
 62
7
  6
CONTINUOUS
 10
29.9027782759
 20
19.2988389758
  0
VERTEX
  8
___SYMBOL
 62
7
  6
CONTINUOUS
 10
29.9106390749
 20
19.3005333158
  0
VERTEX
  8
___SYMBOL
 62
7
  6
CONTINUOUS
 10
29.9184179419
 20
19.3029112033
  0
VERTEX
  8
___SYMBOL
 62
7
  6
CONTINUOUS
 10
29.9260855694
 20
19.3059636793
  0
VERTEX
  8
___SYMBOL
 62
7
  6
CONTINUOUS
 10
29.933613069
 20
19.3096792434
  0
VERTEX
  8
___SYMBOL
 62
7
  6
CONTINUOUS
 10
29.9409720804
 20
19.3140438968
  0
VERTEX
  8
___SYMBOL
 62
7
  6
CONTINUOUS
 10
29.9481348778
 20
19.3190411955
  0
VERTEX
  8
___SYMBOL
 62
7
  6
CONTINUOUS
 10
29.9550744749
 20
19.3246523117
  0
VERTEX
  8
___SYMBOL
 62
7
  6
CONTINUOUS
 10
29.9617647261
 20
19.3308561051
  0
VERTEX
  8
___SYMBOL
 62
7
  6
CONTINUOUS
 10
29.9681804254
 20
19.3376292024
  0
VERTEX
  8
___SYMBOL
 62
7
  6
CONTINUOUS
 10
29.9742974012
 20
19.3449460855
  0
VERTEX
  8
___SYMBOL
 62
7
  6
CONTINUOUS
 10
29.9800926073
 20
19.3527791873
  0
VERTEX
  8
___SYMBOL
 62
7
  6
CONTINUOUS
 10
29.9855442098
 20
19.3610989961
  0
VERTEX
  8
___SYMBOL
 62
7
  6
CONTINUOUS
 10
29.9906316693
 20
19.3698741663
  0
VERTEX
  8
___SYMBOL
 62
7
  6
CONTINUOUS
 10
29.9953358185
 20
19.3790716368
  0
VERTEX
  8
___SYMBOL
 62
7
  6
CONTINUOUS
 10
29.999638934
 20
19.3886567555
  0
VERTEX
  8
___SYMBOL
 62
7
  6
CONTINUOUS
 10
30.0035248037
 20
19.3985934095
  0
VERTEX
  8
___SYMBOL
 62
7
  6
CONTINUOUS
 10
30.006978787
 20
19.4088441618
  0
VERTEX
  8
___SYMBOL
 62
7
  6
CONTINUOUS
 10
30.009987871
 20
19.4193703919
  0
VERTEX
  8
___SYMBOL
 62
7
  6
CONTINUOUS
 10
30.0125407186
 20
19.4301324414
  0
VERTEX
  8
___SYMBOL
 62
7
  6
CONTINUOUS
 10
30.0146277117
 20
19.4410897634
  0
VERTEX
  8
___SYMBOL
 62
7
  6
CONTINUOUS
 10
30.0162409876
 20
19.4522010753
  0
VERTEX
  8
___SYMBOL
 62
7
  6
CONTINUOUS
 10
30.0173744679
 20
19.4634245144
  0
VERTEX
  8
___SYMBOL
 62
7
  6
CONTINUOUS
 10
30.0180238823
 20
19.4747177955
  0
VERTEX
  8
___SYMBOL
 62
7
  6
CONTINUOUS
 10
30.018186784
 20
19.4860383703
  0
VERTEX
  8
___SYMBOL
 62
7
  6
CONTINUOUS
 10
30.0178625594
 20
19.4973435876
  0
VERTEX
  8
___SYMBOL
 62
7
  6
CONTINUOUS
 10
30.0170524298
 20
19.5085908542
  0
VERTEX
  8
___SYMBOL
 62
7
  6
CONTINUOUS
 10
30.0157594476
 20
19.519737795
  0
VERTEX
  8
___SYMBOL
 62
7
  6
CONTINUOUS
 10
30.0139884841
 20
19.5307424131
  0
VERTEX
  8
___SYMBOL
 62
7
  6
CONTINUOUS
 10
30.0117462117
 20
19.5415632477
  0
VERTEX
  8
___SYMBOL
 62
7
  6
CONTINUOUS
 10
30.0090410781
 20
19.5521595305
  0
VERTEX
  8
___SYMBOL
 62
7
  6
CONTINUOUS
 10
30.0058832754
 20
19.5624913392
  0
VERTEX
  8
___SYMBOL
 62
7
  6
CONTINUOUS
 10
30.0022847006
 20
19.5725197478
  0
VERTEX
  8
___SYMBOL
 62
7
  6
CONTINUOUS
 10
29.9982589118
 20
19.5822069736
  0
VERTEX
  8
___SYMBOL
 62
7
  6
CONTINUOUS
 10
29.9938210764
 20
19.5915165191
  0
VERTEX
  8
___SYMBOL
 62
7
  6
CONTINUOUS
 10
29.9889879143
 20
19.6004133099
  0
VERTEX
  8
___SYMBOL
 62
7
  6
CONTINUOUS
 10
29.9837776348
 20
19.6088638267
  0
VERTEX
  8
___SYMBOL
 62
7
  6
CONTINUOUS
 10
29.9782098681
 20
19.6168362314
  0
VERTEX
  8
___SYMBOL
 62
7
  6
CONTINUOUS
 10
29.9723055911
 20
19.6243004874
  0
VERTEX
  8
___SYMBOL
 62
7
  6
CONTINUOUS
 10
29.9660870487
 20
19.6312284726
  0
VERTEX
  8
___SYMBOL
 62
7
  6
CONTINUOUS
 10
29.9595776698
 20
19.6375940851
  0
VERTEX
  8
___SYMBOL
 62
7
  6
CONTINUOUS
 10
29.9528019788
 20
19.6433733421
  0
VERTEX
  8
___SYMBOL
 62
7
  6
CONTINUOUS
 10
29.9457855039
 20
19.6485444698
  0
VERTEX
  8
___SYMBOL
 62
7
  6
CONTINUOUS
 10
29.93855468
 20
19.6530879855
  0
VERTEX
  8
___SYMBOL
 62
7
  6
CONTINUOUS
 10
29.9311367499
 20
19.6569867711
  0
VERTEX
  8
___SYMBOL
 62
7
  6
CONTINUOUS
 10
29.9235596613
 20
19.6602261377
  0
VERTEX
  8
___SYMBOL
 62
7
  6
CONTINUOUS
 10
29.9158519613
 20
19.6627938808
  0
VERTEX
  8
___SYMBOL
 62
7
  6
CONTINUOUS
 10
29.9080426895
 20
19.6646803261
  0
VERTEX
  8
___SYMBOL
 62
7
  6
CONTINUOUS
 10
29.9001612677
 20
19.6658783663
  0
VERTEX
  8
___SYMBOL
 62
7
  6
CONTINUOUS
 10
29.8922373899
 20
19.6663834877
  0
VERTEX
  8
___SYMBOL
 62
7
  6
CONTINUOUS
 10
29.88430091
 20
19.6661937872
  0
VERTEX
  8
___SYMBOL
 62
7
  6
CONTINUOUS
 10
29.8763817292
 20
19.6653099795
  0
VERTEX
  8
___SYMBOL
 62
7
  6
CONTINUOUS
 10
29.8685096837
 20
19.6637353945
  0
VERTEX
  8
___SYMBOL
 62
7
  6
CONTINUOUS
 10
29.860714432
 20
19.6614759645
  0
VERTEX
  8
___SYMBOL
 62
7
  6
CONTINUOUS
 10
29.8530253433
 20
19.6585402021
  0
VERTEX
  8
___SYMBOL
 62
7
  6
CONTINUOUS
 10
29.845471387
 20
19.654939168
  0
VERTEX
  8
___SYMBOL
 62
7
  6
CONTINUOUS
 10
29.838081023
 20
19.6506864294
  0
VERTEX
  8
___SYMBOL
 62
7
  6
CONTINUOUS
 10
29.8308820953
 20
19.6457980088
  0
VERTEX
  8
___SYMBOL
 62
7
  6
CONTINUOUS
 10
29.8239017262
 20
19.6402923238
  0
VERTEX
  8
___SYMBOL
 62
7
  6
CONTINUOUS
 10
29.817166215
 20
19.6341901174
  0
SEQEND
  0
POLYLINE
  8
___SYMBOL
 62
7
  6
CONTINUOUS
 66
1
 70
0
  0
VERTEX
  8
___SYMBOL
 62
7
  6
CONTINUOUS
 10
29.4125589359
 20
19.3719652535
  0
VERTEX
  8
___SYMBOL
 62
7
  6
CONTINUOUS
 10
29.4325227439
 20
19.3775052219
  0
VERTEX
  8
___SYMBOL
 62
7
  6
CONTINUOUS
 10
29.4510880006
 20
19.389107115
  0
VERTEX
  8
___SYMBOL
 62
7
  6
CONTINUOUS
 10
29.466627952
 20
19.4057540802
  0
VERTEX
  8
___SYMBOL
 62
7
  6
CONTINUOUS
 10
29.4789528274
 20
19.4272429338
  0
VERTEX
  8
___SYMBOL
 62
7
  6
CONTINUOUS
 10
29.4869827315
 20
19.4516907838
  0
VERTEX
  8
___SYMBOL
 62
7
  6
CONTINUOUS
 10
29.4906195131
 20
19.4787990364
  0
VERTEX
  8
___SYMBOL
 62
7
  6
CONTINUOUS
 10
29.4895445164
 20
19.5061922363
  0
VERTEX
  8
___SYMBOL
 62
7
  6
CONTINUOUS
 10
29.4839250007
 20
19.5330245228
  0
VERTEX
  8
___SYMBOL
 62
7
  6
CONTINUOUS
 10
29.4738045304
 20
19.5584341721
  0
VERTEX
  8
___SYMBOL
 62
7
  6
CONTINUOUS
 10
29.4600699063
 20
19.5801951428
  0
VERTEX
  8
___SYMBOL
 62
7
  6
CONTINUOUS
 10
29.4428887961
 20
19.5980412662
  0
VERTEX
  8
___SYMBOL
 62
7
  6
CONTINUOUS
 10
29.4237667665
 20
19.6104090062
  0
VERTEX
  8
___SYMBOL
 62
7
  6
CONTINUOUS
 10
29.4029373275
 20
19.6171473163
  0
VERTEX
  8
___SYMBOL
 62
7
  6
CONTINUOUS
 10
29.3822255765
 20
19.6176656568
  0
VERTEX
  8
___SYMBOL
 62
7
  6
CONTINUOUS
 10
29.3622617685
 20
19.6121255718
  0
VERTEX
  8
___SYMBOL
 62
7
  6
CONTINUOUS
 10
29.3436965117
 20
19.6005237953
  0
VERTEX
  8
___SYMBOL
 62
7
  6
CONTINUOUS
 10
29.3281565604
 20
19.5838768301
  0
VERTEX
  8
___SYMBOL
 62
7
  6
CONTINUOUS
 10
29.3158316266
 20
19.5623878599
  0
VERTEX
  8
___SYMBOL
 62
7
  6
CONTINUOUS
 10
29.3078017808
 20
19.5379400098
  0
VERTEX
  8
___SYMBOL
 62
7
  6
CONTINUOUS
 10
29.3041649993
 20
19.5108318739
  0
VERTEX
  8
___SYMBOL
 62
7
  6
CONTINUOUS
 10
29.305239996
 20
19.4834386739
  0
VERTEX
  8
___SYMBOL
 62
7
  6
CONTINUOUS
 10
29.3108595117
 20
19.4566063875
  0
VERTEX
  8
___SYMBOL
 62
7
  6
CONTINUOUS
 10
29.320979982
 20
19.4311966215
  0
VERTEX
  8
___SYMBOL
 62
7
  6
CONTINUOUS
 10
29.334714606
 20
19.4094357675
  0
VERTEX
  8
___SYMBOL
 62
7
  6
CONTINUOUS
 10
29.3518957163
 20
19.3915896441
  0
VERTEX
  8
___SYMBOL
 62
7
  6
CONTINUOUS
 10
29.3710177458
 20
19.3792219041
  0
VERTEX
  8
___SYMBOL
 62
7
  6
CONTINUOUS
 10
29.3918471849
 20
19.372483594
  0
VERTEX
  8
___SYMBOL
 62
7
  6
CONTINUOUS
 10
29.4125589359
 20
19.3719652535
  0
SEQEND
  0
POLYLINE
  8
___SYMBOL
 62
7
  6
CONTINUOUS
 66
1
 70
0
  0
VERTEX
  8
___SYMBOL
 62
7
  6
CONTINUOUS
 10
29.4636157679
 20
19.625451723
  0
VERTEX
  8
___SYMBOL
 62
7
  6
CONTINUOUS
 10
29.456005511
 20
19.6307007588
  0
VERTEX
  8
___SYMBOL
 62
7
  6
CONTINUOUS
 10
29.4481564648
 20
19.6352870624
  0
VERTEX
  8
___SYMBOL
 62
7
  6
CONTINUOUS
 10
29.4401018975
 20
19.6391911947
  0
VERTEX
  8
___SYMBOL
 62
7
  6
CONTINUOUS
 10
29.4318759482
 20
19.6423966082
  0
VERTEX
  8
___SYMBOL
 62
7
  6
CONTINUOUS
 10
29.4235134826
 20
19.6448897167
  0
VERTEX
  8
___SYMBOL
 62
7
  6
CONTINUOUS
 10
29.4150499449
 20
19.6466599531
  0
VERTEX
  8
___SYMBOL
 62
7
  6
CONTINUOUS
 10
29.4065212079
 20
19.6476998144
  0
VERTEX
  8
___SYMBOL
 62
7
  6
CONTINUOUS
 10
29.3979634204
 20
19.6480048931
  0
VERTEX
  8
___SYMBOL
 62
7
  6
CONTINUOUS
 10
29.3894128546
 20
19.6475738961
  0
VERTEX
  8
___SYMBOL
 62
7
  6
CONTINUOUS
 10
29.3809057521
 20
19.6464086502
  0
VERTEX
  8
___SYMBOL
 62
7
  6
CONTINUOUS
 10
29.37247817
 20
19.6445140943
  0
VERTEX
  8
___SYMBOL
 62
7
  6
CONTINUOUS
 10
29.3641658287
 20
19.6418982584
  0
VERTEX
  8
___SYMBOL
 62
7
  6
CONTINUOUS
 10
29.3560039599
 20
19.6385722298
  0
VERTEX
  8
___SYMBOL
 62
7
  6
CONTINUOUS
 10
29.3480271577
 20
19.6345501058
  0
VERTEX
  8
___SYMBOL
 62
7
  6
CONTINUOUS
 10
29.3402692317
 20
19.6298489341
  0
VERTEX
  8
___SYMBOL
 62
7
  6
CONTINUOUS
 10
29.3327630638
 20
19.6244886407
  0
VERTEX
  8
___SYMBOL
 62
7
  6
CONTINUOUS
 10
29.3255404688
 20
19.618491945
  0
VERTEX
  8
___SYMBOL
 62
7
  6
CONTINUOUS
 10
29.3186320597
 20
19.6118842641
  0
VERTEX
  8
___SYMBOL
 62
7
  6
CONTINUOUS
 10
29.3120671177
 20
19.6046936045
  0
VERTEX
  8
___SYMBOL
 62
7
  6
CONTINUOUS
 10
29.3058734683
 20
19.5969504438
  0
VERTEX
  8
___SYMBOL
 62
7
  6
CONTINUOUS
 10
29.3000773631
 20
19.5886876014
  0
VERTEX
  8
___SYMBOL
 62
7
  6
CONTINUOUS
 10
29.294703369
 20
19.5799400992
  0
VERTEX
  8
___SYMBOL
 62
7
  6
CONTINUOUS
 10
29.2897742636
 20
19.5707450135
  0
VERTEX
  8
___SYMBOL
 62
7
  6
CONTINUOUS
 10
29.2853109388
 20
19.5611413175
  0
VERTEX
  8
___SYMBOL
 62
7
  6
CONTINUOUS
 10
29.2813323125
 20
19.5511697165
  0
VERTEX
  8
___SYMBOL
 62
7
  6
CONTINUOUS
 10
29.277855248
 20
19.540872475
  0
VERTEX
  8
___SYMBOL
 62
7
  6
CONTINUOUS
 10
29.2748944828
 20
19.5302932378
  0
VERTEX
  8
___SYMBOL
 62
7
  6
CONTINUOUS
 10
29.2724625661
 20
19.5194768449
  0
VERTEX
  8
___SYMBOL
 62
7
  6
CONTINUOUS
 10
29.2705698055
 20
19.5084691416
  0
VERTEX
  8
___SYMBOL
 62
7
  6
CONTINUOUS
 10
29.2692242236
 20
19.4973167839
  0
VERTEX
  8
___SYMBOL
 62
7
  6
CONTINUOUS
 10
29.2684315236
 20
19.4860670409
  0
VERTEX
  8
___SYMBOL
 62
7
  6
CONTINUOUS
 10
29.2681950652
 20
19.4747675947
  0
VERTEX
  8
___SYMBOL
 62
7
  6
CONTINUOUS
 10
29.2685158508
 20
19.4634663379
  0
VERTEX
  8
___SYMBOL
 62
7
  6
CONTINUOUS
 10
29.2693925207
 20
19.4522111707
  0
VERTEX
  8
___SYMBOL
 62
7
  6
CONTINUOUS
 10
29.2708213591
 20
19.4410497981
  0
VERTEX
  8
___SYMBOL
 62
7
  6
CONTINUOUS
 10
29.2727963099
 20
19.4300295275
  0
VERTEX
  8
___SYMBOL
 62
7
  6
CONTINUOUS
 10
29.2753090023
 20
19.4191970683
  0
VERTEX
  8
___SYMBOL
 62
7
  6
CONTINUOUS
 10
29.2783487863
 20
19.4085983337
  0
VERTEX
  8
___SYMBOL
 62
7
  6
CONTINUOUS
 10
29.2819027778
 20
19.3982782464
  0
VERTEX
  8
___SYMBOL
 62
7
  6
CONTINUOUS
 10
29.2859559131
 20
19.388280548
  0
VERTEX
  8
___SYMBOL
 62
7
  6
CONTINUOUS
 10
29.2904910132
 20
19.3786476137
  0
VERTEX
  8
___SYMBOL
 62
7
  6
CONTINUOUS
 10
29.295488856
 20
19.3694202726
  0
VERTEX
  8
___SYMBOL
 62
7
  6
CONTINUOUS
 10
29.3009282581
 20
19.3606376347
  0
VERTEX
  8
___SYMBOL
 62
7
  6
CONTINUOUS
 10
29.3067861648
 20
19.3523369253
  0
VERTEX
  8
___SYMBOL
 62
7
  6
CONTINUOUS
 10
29.3130377474
 20
19.3445533266
  0
VERTEX
  8
___SYMBOL
 62
7
  6
CONTINUOUS
 10
29.3196565085
 20
19.3373198296
  0
VERTEX
  8
___SYMBOL
 62
7
  6
CONTINUOUS
 10
29.3266143946
 20
19.3306670933
  0
VERTEX
  8
___SYMBOL
 62
7
  6
CONTINUOUS
 10
29.3338819147
 20
19.3246233153
  0
VERTEX
  8
___SYMBOL
 62
7
  6
CONTINUOUS
 10
29.3414282655
 20
19.3192141122
  0
VERTEX
  8
___SYMBOL
 62
7
  6
CONTINUOUS
 10
29.3492214619
 20
19.3144624106
  0
VERTEX
  8
___SYMBOL
 62
7
  6
CONTINUOUS
 10
29.3572284724
 20
19.3103883509
  0
VERTEX
  8
___SYMBOL
 62
7
  6
CONTINUOUS
 10
29.3654153594
 20
19.3070092007
  0
VERTEX
  8
___SYMBOL
 62
7
  6
CONTINUOUS
 10
29.3737474228
 20
19.3043392826
  0
VERTEX
  8
___SYMBOL
 62
7
  6
CONTINUOUS
 10
29.3821893472
 20
19.3023899131
  0
VERTEX
  8
___SYMBOL
 62
7
  6
CONTINUOUS
 10
29.3907053517
 20
19.3011693545
  0
VERTEX
  8
___SYMBOL
 62
7
  6
CONTINUOUS
 10
29.3992593411
 20
19.3006827801
  0
VERTEX
  8
___SYMBOL
 62
7
  6
CONTINUOUS
 10
29.4078150594
 20
19.3009322524
  0
VERTEX
  8
___SYMBOL
 62
7
  6
CONTINUOUS
 10
29.4163362434
 20
19.3019167138
  0
VERTEX
  8
___SYMBOL
 62
7
  6
CONTINUOUS
 10
29.4247867759
 20
19.3036319918
  0
VERTEX
  8
___SYMBOL
 62
7
  6
CONTINUOUS
 10
29.4331308396
 20
19.3060708163
  0
VERTEX
  8
___SYMBOL
 62
7
  6
CONTINUOUS
 10
29.4413330681
 20
19.3092228501
  0
VERTEX
  8
___SYMBOL
 62
7
  6
CONTINUOUS
 10
29.4493586964
 20
19.3130747335
  0
VERTEX
  8
___SYMBOL
 62
7
  6
CONTINUOUS
 10
29.4571737079
 20
19.3176101403
  0
VERTEX
  8
___SYMBOL
 62
7
  6
CONTINUOUS
 10
29.4647449787
 20
19.3228098472
  0
VERTEX
  8
___SYMBOL
 62
7
  6
CONTINUOUS
 10
29.472040418
 20
19.3286518153
  0
VERTEX
  8
___SYMBOL
 62
7
  6
CONTINUOUS
 10
29.4790291042
 20
19.3351112835
  0
VERTEX
  8
___SYMBOL
 62
7
  6
CONTINUOUS
 10
29.4856814158
 20
19.3421608732
  0
VERTEX
  8
___SYMBOL
 62
7
  6
CONTINUOUS
 10
29.491969157
 20
19.349770705
  0
VERTEX
  8
___SYMBOL
 62
7
  6
CONTINUOUS
 10
29.4978656773
 20
19.3579085245
  0
VERTEX
  8
___SYMBOL
 62
7
  6
CONTINUOUS
 10
29.5033459843
 20
19.3665398397
  0
VERTEX
  8
___SYMBOL
 62
7
  6
CONTINUOUS
 10
29.5083868497
 20
19.3756280669
  0
VERTEX
  8
___SYMBOL
 62
7
  6
CONTINUOUS
 10
29.5129669079
 20
19.3851346856
  0
VERTEX
  8
___SYMBOL
 62
7
  6
CONTINUOUS
 10
29.5170667464
 20
19.3950194021
  0
VERTEX
  8
___SYMBOL
 62
7
  6
CONTINUOUS
 10
29.520668988
 20
19.40524032
  0
VERTEX
  8
___SYMBOL
 62
7
  6
CONTINUOUS
 10
29.5237583646
 20
19.4157541182
  0
VERTEX
  8
___SYMBOL
 62
7
  6
CONTINUOUS
 10
29.5263217819
 20
19.426516234
  0
VERTEX
  8
___SYMBOL
 62
7
  6
CONTINUOUS
 10
29.528348375
 20
19.4374810522
  0
VERTEX
  8
___SYMBOL
 62
7
  6
CONTINUOUS
 10
29.5298295541
 20
19.4486020985
  0
SEQEND
  0
LINE
  8
___SYMBOL
 62
7
  6
CONTINUOUS
 10
29.6390838423
 20
20.0167435698
 11
29.6472753897
 21
20.0169960836
  0
ENDBLK
  8
0
  6
BYBLOCK
 62
0
  0
BLOCK
  8
0
  2
_FILLED
 70
64
 10
0.0
 20
0.0
  0
SOLID
  8
0
  6
BYBLOCK
 62
0
 10
0.0
 20
0.0
 11
-1.0
 21
0.1666666667
 12
-1.0
 22
-0.1666666667
 13
-1.0
 23
-0.1666666667
  0
ENDBLK
  8
0
  6
BYBLOCK
 62
0
  0
BLOCK
  8
0
 62
2
  6
CONTINUOUS
  2
*D0
 70
65
 10
0.0
 20
0.0
  0
TEXT
  8
0
 62
2
  6
CONTINUOUS
 10
19.8095987586
 20
20.5510461951
  7
STANDARD
 40
0.15625
  1
14
 41
0.8
 72
1
 11
19.9345987586
 21
20.5510461951
  0
TEXT
  8
0
 62
2
  6
CONTINUOUS
 10
19.3720987586
 20
20.3166711951
  7
STANDARD
 40
0.15625
  1
[35,6 cm]
 41
0.8
 72
1
 11
19.9345987586
 21
20.3166711951
  0
LINE
  8
0
 62
2
  6
CONTINUOUS
 10
19.9345987586
 20
25.8348563949
 11
19.9345987586
 21
20.7854211951
  0
LINE
  8
0
 62
2
  6
CONTINUOUS
 10
19.9345987586
 20
11.8348563951
 11
19.9345987586
 21
20.2385461951
  0
INSERT
  8
0
 62
2
  6
CONTINUOUS
  2
_FILLED
 10
19.9345987586
 20
25.8348563949
 41
0.1875
 42
0.1875
 43
0.1875
 50
90.0
  0
INSERT
  8
0
 62
2
  6
CONTINUOUS
  2
_FILLED
 10
19.9345987586
 20
11.8348563951
 41
0.1875
 42
0.1875
 43
0.1875
 50
270.0
  0
ENDBLK
  8
0
  6
BYBLOCK
 62
0
  0
BLOCK
  8
0
 62
2
  6
CONTINUOUS
  2
*D1
 70
65
 10
0.0
 20
0.0
  0
TEXT
  8
0
 62
2
  6
CONTINUOUS
 10
20.3286308186
 20
19.0692313951
  7
STANDARD
 40
0.15625
  1
13-1/8
 41
0.8
 72
1
 11
20.7036308186
 21
19.0692313951
  0
TEXT
  8
0
 62
2
  6
CONTINUOUS
 10
20.1411308186
 20
18.8348563951
  7
STANDARD
 40
0.15625
  1
[33,4 cm]
 41
0.8
 72
1
 11
20.7036308186
 21
18.8348563951
  0
LINE
  8
0
 62
2
  6
CONTINUOUS
 10
20.7036308186
 20
12.579856395
 11
20.7036308186
 21
18.7567313951
  0
LINE
  8
0
 62
2
  6
CONTINUOUS
 10
20.7036308186
 20
25.7148563953
 11
20.7036308186
 21
19.3036063951
  0
INSERT
  8
0
 62
2
  6
CONTINUOUS
  2
_FILLED
 10
20.7036308186
 20
12.579856395
 41
0.1875
 42
0.1875
 43
0.1875
 50
270.0
  0
INSERT
  8
0
 62
2
  6
CONTINUOUS
  2
_FILLED
 10
20.7036308186
 20
25.7148563953
 41
0.1875
 42
0.1875
 43
0.1875
 50
90.0
  0
ENDBLK
  8
0
  6
BYBLOCK
 62
0
  0
BLOCK
  8
0
 62
2
  6
CONTINUOUS
  2
*D2
 70
65
 10
0.0
 20
0.0
  0
TEXT
  8
0
 62
2
  6
CONTINUOUS
 10
21.3953711329
 20
17.587541988
  7
STANDARD
 40
0.15625
  1
16-3/4
 41
0.8
 72
1
 11
21.7703711329
 21
17.587541988
  0
TEXT
  8
0
 62
2
  6
CONTINUOUS
 10
21.2078711329
 20
17.353166988
  7
STANDARD
 40
0.15625
  1
[42,5 cm]
 41
0.8
 72
1
 11
21.7703711329
 21
17.353166988
  0
LINE
  8
0
 62
2
  6
CONTINUOUS
 10
13.6457360662
 20
17.665666988
 11
21.3172461329
 21
17.665666988
  0
LINE
  8
0
 62
2
  6
CONTINUOUS
 10
30.3957360661
 20
17.665666988
 11
22.2234961329
 21
17.665666988
  0
INSERT
  8
0
 62
2
  6
CONTINUOUS
  2
_FILLED
 10
13.6457360662
 20
17.665666988
 41
0.1875
 42
0.1875
 43
0.1875
 50
180.0
  0
INSERT
  8
0
 62
2
  6
CONTINUOUS
  2
_FILLED
 10
30.3957360661
 20
17.665666988
 41
0.1875
 42
0.1875
 43
0.1875
  0
ENDBLK
  8
0
  6
BYBLOCK
 62
0
  0
BLOCK
  8
0
 62
2
  6
CONTINUOUS
  2
*D3
 70
65
 10
0.0
 20
0.0
  0
TEXT
  8
0
 62
2
  6
CONTINUOUS
 10
22.2936954604
 20
18.3196725781
  7
STANDARD
 40
0.15625
  1
15-1/4
 41
0.8
 72
1
 11
22.6686954604
 21
18.3196725781
  0
TEXT
  8
0
 62
2
  6
CONTINUOUS
 10
22.1061954604
 20
18.0852975781
  7
STANDARD
 40
0.15625
  1
[38,8 cm]
 41
0.8
 72
1
 11
22.6686954604
 21
18.0852975781
  0
LINE
  8
0
 62
2
  6
CONTINUOUS
 10
14.3907360661
 20
18.3977975781
 11
22.2155704604
 21
18.3977975781
  0
LINE
  8
0
 62
2
  6
CONTINUOUS
 10
29.6507360661
 20
18.3977975781
 11
23.1218204604
 21
18.3977975781
  0
INSERT
  8
0
 62
2
  6
CONTINUOUS
  2
_FILLED
 10
14.3907360661
 20
18.3977975781
 41
0.1875
 42
0.1875
 43
0.1875
 50
180.0
  0
INSERT
  8
0
 62
2
  6
CONTINUOUS
  2
_FILLED
 10
29.6507360661
 20
18.3977975781
 41
0.1875
 42
0.1875
 43
0.1875
  0
ENDBLK
  8
0
  6
BYBLOCK
 62
0
  0
BLOCK
  8
0
 62
2
  6
CONTINUOUS
  2
*D4
 70
65
 10
0.0
 20
0.0
  0
TEXT
  8
0
 62
2
  6
CONTINUOUS
 10
18.4744358084
 20
19.4427068992
  7
STANDARD
 40
0.15625
  1
15-1/32
 41
0.8
 72
0
  0
TEXT
  8
0
 62
2
  6
CONTINUOUS
 10
19.3494358084
 20
19.4427068992
  7
STANDARD
 40
0.15625
  1
"
 41
0.8
 72
0
  0
TEXT
  8
0
 62
2
  6
CONTINUOUS
 10
18.4744358084
 20
19.2083318992
  7
STANDARD
 40
0.15625
  1
[38 cm]
 41
0.8
 72
0
  0
LINE
  8
0
 62
2
  6
CONTINUOUS
 10
18.9744358084
 20
26.4720349115
 11
18.9744358084
 21
19.6770818992
  0
LINE
  8
0
 62
2
  6
CONTINUOUS
 10
18.9744358084
 20
11.4261711325
 11
18.9744358084
 21
19.1302068992
  0
INSERT
  8
0
 62
2
  6
CONTINUOUS
  2
_FILLED
 10
18.9744358084
 20
26.4720349115
 41
0.1875
 42
0.1875
 43
0.1875
 50
90.0
  0
INSERT
  8
0
 62
2
  6
CONTINUOUS
  2
_FILLED
 10
18.9744358084
 20
11.4261711325
 41
0.1875
 42
0.1875
 43
0.1875
 50
270.0
  0
ENDBLK
  8
0
  6
BYBLOCK
 62
0
  0
BLOCK
  8
0
 62
2
  6
CONTINUOUS
  2
*D5
 70
65
 10
0.0
 20
0.0
  0
TEXT
  8
0
 62
2
  6
CONTINUOUS
 10
23.717991112
 20
16.8073373198
  7
STANDARD
 40
0.15625
  1
17-9/16
 41
0.8
 72
0
  0
TEXT
  8
0
 62
2
  6
CONTINUOUS
 10
24.592991112
 20
16.8073373198
  7
STANDARD
 40
0.15625
  1
"
 41
0.8
 72
0
  0
TEXT
  8
0
 62
2
  6
CONTINUOUS
 10
23.717991112
 20
16.5729623198
  7
STANDARD
 40
0.15625
  1
[45 cm]
 41
0.8
 72
0
  0
LINE
  8
0
 62
2
  6
CONTINUOUS
 10
13.2370508036
 20
16.8854623198
 11
23.639866112
 21
16.8854623198
  0
LINE
  8
0
 62
2
  6
CONTINUOUS
 10
30.8044213287
 20
16.8854623198
 11
24.796116112
 21
16.8854623198
  0
INSERT
  8
0
 62
2
  6
CONTINUOUS
  2
_FILLED
 10
13.2370508036
 20
16.8854623198
 41
0.1875
 42
0.1875
 43
0.1875
 50
180.0
  0
INSERT
  8
0
 62
2
  6
CONTINUOUS
  2
_FILLED
 10
30.8044213287
 20
16.8854623198
 41
0.1875
 42
0.1875
 43
0.1875
  0
ENDBLK
  8
0
  6
BYBLOCK
 62
0
  0
ENDSEC
  0
SECTION
  2
ENTITIES
  0
SOLID
  8
0
 62
2
  6
CONTINUOUS
 10
15.2475191872
 20
24.8909616848
 11
15.3852833539
 21
25.0547828745
 12
15.577345166
 22
25.0547828745
 13
15.577345166
 23
25.0547828745
  0
SOLID
  8
0
 62
2
  6
CONTINUOUS
 10
15.577345166
 20
25.0547828745
 11
15.3640417141
 21
24.8011346015
 12
15.2475191872
 22
24.8909616848
 13
15.2475191872
 23
24.8909616848
  0
SOLID
  8
0
 62
2
  6
CONTINUOUS
 10
15.2475191872
 20
24.6703690591
 11
15.3640417141
 21
24.8011346015
 12
15.4012571272
 22
24.4688692251
 13
15.4012571272
 23
24.4688692251
  0
SOLID
  8
0
 62
2
  6
CONTINUOUS
 10
15.3640417141
 20
24.8011346015
 11
15.6175495488
 21
24.4688692251
 12
15.4012571272
 22
24.4688692251
 13
15.4012571272
 23
24.4688692251
  0
SOLID
  8
0
 62
2
  6
CONTINUOUS
 10
15.2475191872
 20
24.4688692251
 11
15.0730189602
 21
24.4688452216
 12
15.2475191872
 22
24.6703690591
 13
15.2475191872
 23
24.6703690591
  0
SOLID
  8
0
 62
2
  6
CONTINUOUS
 10
15.3640417141
 20
24.8011346015
 11
15.2475191872
 21
24.6703690591
 12
15.2475191872
 22
24.8909616848
 13
15.2475191872
 23
24.8909616848
  0
SOLID
  8
0
 62
2
  6
CONTINUOUS
 10
15.2475191872
 20
24.6703690591
 11
15.0730189602
 21
24.4688452216
 12
15.2475191872
 22
24.8909616848
 13
15.2475191872
 23
24.8909616848
  0
SOLID
  8
0
 62
2
  6
CONTINUOUS
 10
15.2475191872
 20
24.8909616848
 11
15.0730189602
 21
24.4688452216
 12
15.2475191872
 22
25.0547828745
 13
15.2475191872
 23
25.0547828745
  0
SOLID
  8
0
 62
2
  6
CONTINUOUS
 10
15.0730189602
 20
24.4688452216
 11
15.0730189602
 21
25.0547828745
 12
15.2475191872
 22
25.0547828745
 13
15.2475191872
 23
25.0547828745
  0
SOLID
  8
0
 62
2
  6
CONTINUOUS
 10
15.7019538335
 20
25.044173461
 11
15.762902988
 21
25.0571286037
 12
15.8252137829
 22
25.0571286037
 13
15.8252137829
 23
25.0571286037
  0
SOLID
  8
0
 62
2
  6
CONTINUOUS
 10
15.8252137829
 20
25.0571286037
 11
15.8861629373
 21
25.044173461
 12
15.7019538335
 22
25.044173461
 13
15.7019538335
 23
25.044173461
  0
SOLID
  8
0
 62
2
  6
CONTINUOUS
 10
15.6450300899
 20
25.0188293775
 11
15.7019538335
 21
25.044173461
 12
15.8861629373
 22
25.044173461
 13
15.8861629373
 23
25.044173461
  0
SOLID
  8
0
 62
2
  6
CONTINUOUS
 10
15.8861629373
 20
25.044173461
 11
15.9430866809
 21
25.0188293775
 12
15.6450300899
 22
25.0188293775
 13
15.6450300899
 23
25.0188293775
  0
SOLID
  8
0
 62
2
  6
CONTINUOUS
 10
15.594619598
 20
24.9822040112
 11
15.6450300899
 21
25.0188293775
 12
15.9430866809
 22
25.0188293775
 13
15.9430866809
 23
25.0188293775
  0
SOLID
  8
0
 62
2
  6
CONTINUOUS
 10
15.9430866809
 20
25.0188293775
 11
15.9934971729
 21
24.9822040112
 12
15.594619598
 22
24.9822040112
 13
15.594619598
 23
24.9822040112
  0
SOLID
  8
0
 62
2
  6
CONTINUOUS
 10
15.552925538
 20
24.9358980665
 11
15.594619598
 21
24.9822040112
 12
15.9934971729
 22
24.9822040112
 13
15.9934971729
 23
24.9822040112
  0
SOLID
  8
0
 62
2
  6
CONTINUOUS
 10
15.9934971729
 20
24.9822040112
 11
16.0351912328
 21
24.9358980665
 12
15.552925538
 22
24.9358980665
 13
15.552925538
 23
24.9358980665
  0
SOLID
  8
0
 62
2
  6
CONTINUOUS
 10
15.7940583854
 20
24.885474213
 11
15.5217701406
 21
24.8819353352
 12
16.0351912328
 22
24.9358980665
 13
16.0351912328
 23
24.9358980665
  0
SOLID
  8
0
 62
2
  6
CONTINUOUS
 10
15.5217701406
 20
24.8819353352
 11
15.552925538
 21
24.9358980665
 12
16.0351912328
 22
24.9358980665
 13
16.0351912328
 23
24.9358980665
  0
SOLID
  8
0
 62
2
  6
CONTINUOUS
 10
16.0351912328
 20
24.9358980665
 11
16.0663466303
 21
24.8819353352
 12
15.7940583854
 22
24.885474213
 13
15.7940583854
 23
24.885474213
  0
SOLID
  8
0
 62
2
  6
CONTINUOUS
 10
15.7940583854
 20
24.885474213
 11
15.7555025158
 21
24.8793675632
 12
15.5217701406
 22
24.8819353352
 13
15.5217701406
 23
24.8819353352
  0
SOLID
  8
0
 62
2
  6
CONTINUOUS
 10
15.8326142551
 20
24.8793675632
 11
15.7940583854
 21
24.885474213
 12
16.0663466303
 22
24.8819353352
 13
16.0663466303
 23
24.8819353352
  0
SOLID
  8
0
 62
2
  6
CONTINUOUS
 10
15.6931178083
 20
24.8340424201
 11
15.5025150461
 21
24.8226742477
 12
15.7207207633
 22
24.8616453751
 13
15.7207207633
 23
24.8616453751
  0
SOLID
  8
0
 62
2
  6
CONTINUOUS
 10
15.7207207633
 20
24.8616453751
 11
15.5025150461
 21
24.8226742477
 12
15.7555025158
 22
24.8793675632
 13
15.7555025158
 23
24.8793675632
  0
SOLID
  8
0
 62
2
  6
CONTINUOUS
 10
15.5025150461
 20
24.8226742477
 11
15.5217701406
 21
24.8819353352
 12
15.7555025158
 22
24.8793675632
 13
15.7555025158
 23
24.8793675632
  0
SOLID
  8
0
 62
2
  6
CONTINUOUS
 10
15.8326142551
 20
24.8793675632
 11
16.0663466303
 21
24.8819353352
 12
15.8673960076
 22
24.8616453751
 13
15.8673960076
 23
24.8616453751
  0
SOLID
  8
0
 62
2
  6
CONTINUOUS
 10
15.8673960076
 20
24.8616453751
 11
16.0663466303
 21
24.8819353352
 12
15.8949989626
 22
24.8340424201
 13
15.8949989626
 23
24.8340424201
  0
SOLID
  8
0
 62
2
  6
CONTINUOUS
 10
16.0663466303
 20
24.8819353352
 11
16.0856017248
 21
24.8226742477
 12
15.8949989626
 22
24.8340424201
 13
15.8949989626
 23
24.8340424201
  0
SOLID
  8
0
 62
2
  6
CONTINUOUS
 10
15.6931178083
 20
24.8340424201
 11
15.6753956202
 21
24.7992606676
 12
15.5025150461
 22
24.8226742477
 13
15.5025150461
 23
24.8226742477
  0
SOLID
  8
0
 62
2
  6
CONTINUOUS
 10
15.9127211507
 20
24.7992606676
 11
15.8949989626
 21
24.8340424201
 12
16.0856017248
 22
24.8226742477
 13
16.0856017248
 23
24.8226742477
  0
SOLID
  8
0
 62
2
  6
CONTINUOUS
 10
15.4960017944
 20
24.7607047979
 11
15.5025150461
 21
24.8226742477
 12
15.6753956202
 22
24.7992606676
 13
15.6753956202
 23
24.7992606676
  0
SOLID
  8
0
 62
2
  6
CONTINUOUS
 10
15.6753956202
 20
24.7992606676
 11
15.6692889704
 21
24.7607047979
 12
15.4960017944
 22
24.7607047979
 13
15.4960017944
 23
24.7607047979
  0
SOLID
  8
0
 62
2
  6
CONTINUOUS
 10
15.9127211507
 20
24.7992606676
 11
16.0856017248
 21
24.8226742477
 12
15.9188278005
 22
24.7607047979
 13
15.9188278005
 23
24.7607047979
  0
SOLID
  8
0
 62
2
  6
CONTINUOUS
 10
16.0856017248
 20
24.8226742477
 11
16.0921149764
 21
24.7607047979
 12
15.9188278005
 22
24.7607047979
 13
15.9188278005
 23
24.7607047979
  0
SOLID
  8
0
 62
2
  6
CONTINUOUS
 10
15.9127211507
 20
24.7221489283
 11
15.9188278005
 21
24.7607047979
 12
16.0921149764
 22
24.7607047979
 13
16.0921149764
 23
24.7607047979
  0
SOLID
  8
0
 62
2
  6
CONTINUOUS
 10
15.6753956202
 20
24.7221489283
 11
15.5025150461
 21
24.6987353481
 12
15.6692889704
 22
24.7607047979
 13
15.6692889704
 23
24.7607047979
  0
SOLID
  8
0
 62
2
  6
CONTINUOUS
 10
15.5025150461
 20
24.6987353481
 11
15.4960017944
 21
24.7607047979
 12
15.6692889704
 22
24.7607047979
 13
15.6692889704
 23
24.7607047979
  0
SOLID
  8
0
 62
2
  6
CONTINUOUS
 10
16.0921149764
 20
24.7607047979
 11
16.0856017248
 21
24.6987353481
 12
15.9127211507
 22
24.7221489283
 13
15.9127211507
 23
24.7221489283
  0
SOLID
  8
0
 62
2
  6
CONTINUOUS
 10
15.6753956202
 20
24.7221489283
 11
15.6931178083
 21
24.6873671758
 12
15.5025150461
 22
24.6987353481
 13
15.5025150461
 23
24.6987353481
  0
SOLID
  8
0
 62
2
  6
CONTINUOUS
 10
15.8949989626
 20
24.6873671758
 11
15.9127211507
 21
24.7221489283
 12
16.0856017248
 22
24.6987353481
 13
16.0856017248
 23
24.6987353481
  0
SOLID
  8
0
 62
2
  6
CONTINUOUS
 10
15.7555025158
 20
24.6420420327
 11
15.5217701406
 21
24.6394742607
 12
15.7207207633
 22
24.6597642208
 13
15.7207207633
 23
24.6597642208
  0
SOLID
  8
0
 62
2
  6
CONTINUOUS
 10
15.7207207633
 20
24.6597642208
 11
15.5217701406
 21
24.6394742607
 12
15.6931178083
 22
24.6873671758
 13
15.6931178083
 23
24.6873671758
  0
SOLID
  8
0
 62
2
  6
CONTINUOUS
 10
15.5217701406
 20
24.6394742607
 11
15.5025150461
 21
24.6987353481
 12
15.6931178083
 22
24.6873671758
 13
15.6931178083
 23
24.6873671758
  0
SOLID
  8
0
 62
2
  6
CONTINUOUS
 10
15.8949989626
 20
24.6873671758
 11
16.0856017248
 21
24.6987353481
 12
15.8673960076
 22
24.6597642208
 13
15.8673960076
 23
24.6597642208
  0
SOLID
  8
0
 62
2
  6
CONTINUOUS
 10
15.8673960076
 20
24.6597642208
 11
16.0856017248
 21
24.6987353481
 12
15.8326142551
 22
24.6420420327
 13
15.8326142551
 23
24.6420420327
  0
SOLID
  8
0
 62
2
  6
CONTINUOUS
 10
16.0856017248
 20
24.6987353481
 11
16.0663466303
 21
24.6394742607
 12
15.8326142551
 22
24.6420420327
 13
15.8326142551
 23
24.6420420327
  0
SOLID
  8
0
 62
2
  6
CONTINUOUS
 10
15.7555025158
 20
24.6420420327
 11
15.7940583854
 21
24.6359353829
 12
15.5217701406
 22
24.6394742607
 13
15.5217701406
 23
24.6394742607
  0
SOLID
  8
0
 62
2
  6
CONTINUOUS
 10
15.7940583854
 20
24.6359353829
 11
15.8326142551
 21
24.6420420327
 12
16.0663466303
 22
24.6394742607
 13
16.0663466303
 23
24.6394742607
  0
SOLID
  8
0
 62
2
  6
CONTINUOUS
 10
15.552925538
 20
24.5855115294
 11
15.5217701406
 21
24.6394742607
 12
15.7940583854
 22
24.6359353829
 13
15.7940583854
 23
24.6359353829
  0
SOLID
  8
0
 62
2
  6
CONTINUOUS
 10
15.7940583854
 20
24.6359353829
 11
16.0663466303
 21
24.6394742607
 12
15.552925538
 22
24.5855115294
 13
15.552925538
 23
24.5855115294
  0
SOLID
  8
0
 62
2
  6
CONTINUOUS
 10
16.0663466303
 20
24.6394742607
 11
16.0351912328
 21
24.5855115294
 12
15.552925538
 22
24.5855115294
 13
15.552925538
 23
24.5855115294
  0
SOLID
  8
0
 62
2
  6
CONTINUOUS
 10
15.594619598
 20
24.5392055846
 11
15.552925538
 21
24.5855115294
 12
16.0351912328
 22
24.5855115294
 13
16.0351912328
 23
24.5855115294
  0
SOLID
  8
0
 62
2
  6
CONTINUOUS
 10
16.0351912328
 20
24.5855115294
 11
15.9934971729
 21
24.5392055846
 12
15.594619598
 22
24.5392055846
 13
15.594619598
 23
24.5392055846
  0
SOLID
  8
0
 62
2
  6
CONTINUOUS
 10
15.6450300899
 20
24.5025802184
 11
15.594619598
 21
24.5392055846
 12
15.9934971729
 22
24.5392055846
 13
15.9934971729
 23
24.5392055846
  0
SOLID
  8
0
 62
2
  6
CONTINUOUS
 10
15.9934971729
 20
24.5392055846
 11
15.9430866809
 21
24.5025802184
 12
15.6450300899
 22
24.5025802184
 13
15.6450300899
 23
24.5025802184
  0
SOLID
  8
0
 62
2
  6
CONTINUOUS
 10
15.7019538335
 20
24.4772361348
 11
15.6450300899
 21
24.5025802184
 12
15.9430866809
 22
24.5025802184
 13
15.9430866809
 23
24.5025802184
  0
SOLID
  8
0
 62
2
  6
CONTINUOUS
 10
15.9430866809
 20
24.5025802184
 11
15.8861629373
 21
24.4772361348
 12
15.7019538335
 22
24.4772361348
 13
15.7019538335
 23
24.4772361348
  0
SOLID
  8
0
 62
2
  6
CONTINUOUS
 10
15.762902988
 20
24.4642809921
 11
15.7019538335
 21
24.4772361348
 12
15.8861629373
 22
24.4772361348
 13
15.8861629373
 23
24.4772361348
  0
SOLID
  8
0
 62
2
  6
CONTINUOUS
 10
15.8861629373
 20
24.4772361348
 11
15.8252137829
 21
24.4642809921
 12
15.762902988
 22
24.4642809921
 13
15.762902988
 23
24.4642809921
  0
SOLID
  8
0
 62
2
  6
CONTINUOUS
 10
16.4219607148
 20
24.8343991148
 11
16.4219607148
 21
25.0547828745
 12
16.5866943946
 22
25.0547828745
 13
16.5866943946
 23
25.0547828745
  0
SOLID
  8
0
 62
2
  6
CONTINUOUS
 10
16.4219607148
 20
24.8343991148
 11
16.2739639037
 21
24.6971938349
 12
16.2739639037
 22
24.8343991148
 13
16.2739639037
 23
24.8343991148
  0
SOLID
  8
0
 62
2
  6
CONTINUOUS
 10
16.2739639037
 20
24.6971938349
 11
16.1092302238
 21
24.4688692251
 12
16.2739639037
 22
24.8343991148
 13
16.2739639037
 23
24.8343991148
  0
SOLID
  8
0
 62
2
  6
CONTINUOUS
 10
16.2739639037
 20
24.8343991148
 11
16.1092302238
 21
24.4688692251
 12
16.2739639037
 22
25.0547828745
 13
16.2739639037
 23
25.0547828745
  0
SOLID
  8
0
 62
2
  6
CONTINUOUS
 10
16.1092302238
 20
24.4688692251
 11
16.1092302238
 21
25.0547828745
 12
16.2739639037
 22
25.0547828745
 13
16.2739639037
 23
25.0547828745
  0
SOLID
  8
0
 62
2
  6
CONTINUOUS
 10
16.2739639037
 20
24.6971938349
 11
16.2739639037
 21
24.4688692251
 12
16.1092302238
 22
24.4688692251
 13
16.1092302238
 23
24.4688692251
  0
SOLID
  8
0
 62
2
  6
CONTINUOUS
 10
16.2739639037
 20
24.6971938349
 11
16.4219607148
 21
24.8343991148
 12
16.4219607148
 22
24.6971938349
 13
16.4219607148
 23
24.6971938349
  0
SOLID
  8
0
 62
2
  6
CONTINUOUS
 10
16.4219607148
 20
24.8343991148
 11
16.5866943946
 21
25.0547828745
 12
16.4219607148
 22
24.6971938349
 13
16.4219607148
 23
24.6971938349
  0
SOLID
  8
0
 62
2
  6
CONTINUOUS
 10
16.4219607148
 20
24.6971938349
 11
16.5866943946
 21
25.0547828745
 12
16.4219607148
 22
24.4688692251
 13
16.4219607148
 23
24.4688692251
  0
SOLID
  8
0
 62
2
  6
CONTINUOUS
 10
16.5866943946
 20
25.0547828745
 11
16.5866943946
 21
24.4688692251
 12
16.4219607148
 22
24.4688692251
 13
16.4219607148
 23
24.4688692251
  0
SOLID
  8
0
 62
2
  6
CONTINUOUS
 10
16.9444693715
 20
24.6100959823
 11
16.6317392388
 21
24.4688692251
 12
16.7817853016
 22
24.6100959823
 13
16.7817853016
 23
24.6100959823
  0
SOLID
  8
0
 62
2
  6
CONTINUOUS
 10
16.7817853016
 20
24.6100959823
 11
16.6317392388
 21
24.4688692251
 12
16.7817853016
 22
25.0547828745
 13
16.7817853016
 23
25.0547828745
  0
SOLID
  8
0
 62
2
  6
CONTINUOUS
 10
16.6317392388
 20
24.4688692251
 11
16.6317392388
 21
25.0547828745
 12
16.7817853016
 22
25.0547828745
 13
16.7817853016
 23
25.0547828745
  0
SOLID
  8
0
 62
2
  6
CONTINUOUS
 10
16.6317392388
 20
24.4688692251
 11
16.9444693715
 21
24.6100959823
 12
16.7817853016
 22
24.4688692251
 13
16.7817853016
 23
24.4688692251
  0
SOLID
  8
0
 62
2
  6
CONTINUOUS
 10
16.9444693715
 20
24.6100959823
 11
16.9444693715
 21
24.4688692251
 12
16.7817853016
 22
24.4688692251
 13
16.7817853016
 23
24.4688692251
  0
SOLID
  8
0
 62
2
  6
CONTINUOUS
 10
17.2827212856
 20
25.0547828745
 11
17.2827212856
 21
24.9120234777
 12
17.1318637622
 22
24.9120234777
 13
17.1318637622
 23
24.9120234777
  0
SOLID
  8
0
 62
2
  6
CONTINUOUS
 10
17.2827212856
 20
24.8343991148
 11
17.2827212856
 21
24.6900175133
 12
17.1318637622
 22
24.6900175133
 13
17.1318637622
 23
24.6900175133
  0
SOLID
  8
0
 62
2
  6
CONTINUOUS
 10
17.2827212856
 20
24.6100959823
 11
16.9736171102
 21
24.4688692251
 12
17.1318637622
 22
24.6100959823
 13
17.1318637622
 23
24.6100959823
  0
SOLID
  8
0
 62
2
  6
CONTINUOUS
 10
17.1318637622
 20
24.6100959823
 11
16.9736171102
 21
24.4688692251
 12
17.1318637622
 22
24.6900175133
 13
17.1318637622
 23
24.6900175133
  0
SOLID
  8
0
 62
2
  6
CONTINUOUS
 10
17.2827212856
 20
24.8343991148
 11
17.1318637622
 21
24.6900175133
 12
17.1318637622
 22
24.8343991148
 13
17.1318637622
 23
24.8343991148
  0
SOLID
  8
0
 62
2
  6
CONTINUOUS
 10
17.1318637622
 20
24.6900175133
 11
16.9736171102
 21
24.4688692251
 12
17.1318637622
 22
24.8343991148
 13
17.1318637622
 23
24.8343991148
  0
SOLID
  8
0
 62
2
  6
CONTINUOUS
 10
17.1318637622
 20
24.8343991148
 11
16.9736171102
 21
24.4688692251
 12
17.1318637622
 22
24.9120234777
 13
17.1318637622
 23
24.9120234777
  0
SOLID
  8
0
 62
2
  6
CONTINUOUS
 10
17.2827212856
 20
25.0547828745
 11
17.1318637622
 21
24.9120234777
 12
17.1460680855
 22
25.0547828745
 13
17.1460680855
 23
25.0547828745
  0
SOLID
  8
0
 62
2
  6
CONTINUOUS
 10
17.1318637622
 20
24.9120234777
 11
16.9736171102
 21
24.4688692251
 12
17.1460680855
 22
25.0547828745
 13
17.1460680855
 23
25.0547828745
  0
SOLID
  8
0
 62
2
  6
CONTINUOUS
 10
16.9736171102
 20
24.4688692251
 11
16.9736171102
 21
25.0547828745
 12
17.1460680855
 22
25.0547828745
 13
17.1460680855
 23
25.0547828745
  0
SOLID
  8
0
 62
2
  6
CONTINUOUS
 10
17.2827212856
 20
24.6100959823
 11
17.2827212856
 21
24.4688692251
 12
16.9736171102
 22
24.4688692251
 13
16.9736171102
 23
24.4688692251
  0
SOLID
  8
0
 62
2
  6
CONTINUOUS
 10
17.5610892009
 20
25.0547899801
 11
17.6080222245
 21
25.0483797316
 12
17.3275415003
 22
25.0547828745
 13
17.3275415003
 23
25.0547828745
  0
SOLID
  8
0
 62
2
  6
CONTINUOUS
 10
17.4781973228
 20
24.9122040411
 11
17.7321370639
 21
24.9168333767
 12
17.5341272043
 22
24.9122040411
 13
17.5341272043
 23
24.9122040411
  0
SOLID
  8
0
 62
2
  6
CONTINUOUS
 10
17.5341272043
 20
24.9122040411
 11
17.7321370639
 21
24.9168333767
 12
17.5578497859
 22
24.9066698728
 13
17.5578497859
 23
24.9066698728
  0
SOLID
  8
0
 62
2
  6
CONTINUOUS
 10
17.5578497859
 20
24.9066698728
 11
17.7321370639
 21
24.9168333767
 12
17.5766747735
 22
24.8912099978
 13
17.5766747735
 23
24.8912099978
  0
SOLID
  8
0
 62
2
  6
CONTINUOUS
 10
17.7321370639
 20
24.9168333767
 11
17.7358103103
 21
24.8696072478
 12
17.5766747735
 22
24.8912099978
 13
17.5766747735
 23
24.8912099978
  0
SOLID
  8
0
 62
2
  6
CONTINUOUS
 10
17.5867157121
 20
24.8690161371
 11
17.5766747735
 21
24.8912099978
 12
17.7358103103
 22
24.8696072478
 13
17.7358103103
 23
24.8696072478
  0
SOLID
  8
0
 62
2
  6
CONTINUOUS
 10
17.5867157121
 20
24.8690161371
 11
17.7358103103
 21
24.8696072478
 12
17.5858996304
 22
24.8446702564
 13
17.5858996304
 23
24.8446702564
  0
SOLID
  8
0
 62
2
  6
CONTINUOUS
 10
17.5858996304
 20
24.8446702564
 11
17.7358103103
 21
24.8696072478
 12
17.5743950101
 22
24.8231986098
 13
17.5743950101
 23
24.8231986098
  0
SOLID
  8
0
 62
2
  6
CONTINUOUS
 10
17.7358103103
 20
24.8696072478
 11
17.7266847067
 21
24.8231258178
 12
17.5743950101
 22
24.8231986098
 13
17.5743950101
 23
24.8231986098
  0
SOLID
  8
0
 62
2
  6
CONTINUOUS
 10
17.5545770023
 20
24.8090340603
 11
17.5743950101
 21
24.8231986098
 12
17.7266847067
 22
24.8231258178
 13
17.7266847067
 23
24.8231258178
  0
SOLID
  8
0
 62
2
  6
CONTINUOUS
 10
17.5545770023
 20
24.8090340603
 11
17.7266847067
 21
24.8231258178
 12
17.530537073
 22
24.8051009066
 13
17.530537073
 23
24.8051009066
  0
SOLID
  8
0
 62
2
  6
CONTINUOUS
 10
17.7266847067
 20
24.8231258178
 11
17.705428731
 21
24.7807939919
 12
17.530537073
 22
24.8051009066
 13
17.530537073
 23
24.8051009066
  0
SOLID
  8
0
 62
2
  6
CONTINUOUS
 10
17.6335284486
 20
24.7204517664
 11
17.4781973228
 21
24.6658255959
 12
17.6735994479
 22
24.7457127046
 13
17.6735994479
 23
24.7457127046
  0
SOLID
  8
0
 62
2
  6
CONTINUOUS
 10
17.6735994479
 20
24.7457127046
 11
17.4781973228
 21
24.6658255959
 12
17.705428731
 22
24.7807939919
 13
17.705428731
 23
24.7807939919
  0
SOLID
  8
0
 62
2
  6
CONTINUOUS
 10
17.705428731
 20
24.7807939919
 11
17.4781973228
 21
24.6658255959
 12
17.530537073
 22
24.8051009066
 13
17.530537073
 23
24.8051009066
  0
SOLID
  8
0
 62
2
  6
CONTINUOUS
 10
17.4781973228
 20
24.6658255959
 11
17.3275415003
 21
24.4688692251
 12
17.530537073
 22
24.8051009066
 13
17.530537073
 23
24.8051009066
  0
SOLID
  8
0
 62
2
  6
CONTINUOUS
 10
17.530537073
 20
24.8051009066
 11
17.3275415003
 21
24.4688692251
 12
17.4781973228
 22
24.8051009066
 13
17.4781973228
 23
24.8051009066
  0
SOLID
  8
0
 62
2
  6
CONTINUOUS
 10
17.4781973228
 20
24.8051009066
 11
17.3275415003
 21
24.4688692251
 12
17.4781973228
 22
24.9122040411
 13
17.4781973228
 23
24.9122040411
  0
SOLID
  8
0
 62
2
  6
CONTINUOUS
 10
17.7321370639
 20
24.9168333767
 11
17.4781973228
 21
24.9122040411
 12
17.7159340438
 22
24.9613447474
 13
17.7159340438
 23
24.9613447474
  0
SOLID
  8
0
 62
2
  6
CONTINUOUS
 10
17.7159340438
 20
24.9613447474
 11
17.4781973228
 21
24.9122040411
 12
17.6883881703
 22
24.9998807673
 13
17.6883881703
 23
24.9998807673
  0
SOLID
  8
0
 62
2
  6
CONTINUOUS
 10
17.6883881703
 20
24.9998807673
 11
17.4781973228
 21
24.9122040411
 12
17.651517262
 22
25.0296185564
 13
17.651517262
 23
25.0296185564
  0
SOLID
  8
0
 62
2
  6
CONTINUOUS
 10
17.651517262
 20
25.0296185564
 11
17.4781973228
 21
24.9122040411
 12
17.6080222245
 22
25.0483797316
 13
17.6080222245
 23
25.0483797316
  0
SOLID
  8
0
 62
2
  6
CONTINUOUS
 10
17.6080222245
 20
25.0483797316
 11
17.4781973228
 21
24.9122040411
 12
17.3275415003
 22
25.0547828745
 13
17.3275415003
 23
25.0547828745
  0
SOLID
  8
0
 62
2
  6
CONTINUOUS
 10
17.3275415003
 20
24.4688692251
 11
17.3275415003
 21
25.0547828745
 12
17.4781973228
 22
24.9122040411
 13
17.4781973228
 23
24.9122040411
  0
SOLID
  8
0
 62
2
  6
CONTINUOUS
 10
17.4781973228
 20
24.6658255959
 11
17.4781973228
 21
24.4688692251
 12
17.3275415003
 22
24.4688692251
 13
17.3275415003
 23
24.4688692251
  0
SOLID
  8
0
 62
2
  6
CONTINUOUS
 10
17.4781973228
 20
24.6658255959
 11
17.6335284486
 21
24.7204517664
 12
17.603020752
 22
24.4688692251
 13
17.603020752
 23
24.4688692251
  0
SOLID
  8
0
 62
2
  6
CONTINUOUS
 10
17.6335284486
 20
24.7204517664
 11
17.7929716915
 21
24.4688692251
 12
17.603020752
 22
24.4688692251
 13
17.603020752
 23
24.4688692251
  0
DIMENSION
  8
0
 62
2
  6
CONTINUOUS
  2
*D0
 10
19.9345987586
 20
11.8348563951
 11
19.9345987586
 21
20.5119836951
 70
128
 13
22.0207360661
 23
25.8348563949
 14
22.0207360661
 24
11.8348563951
 50
270.0
  0
DIMENSION
  8
0
 62
2
  6
CONTINUOUS
  2
*D1
 10
20.7036308186
 20
25.7148563953
 11
20.7036308186
 21
19.0301688951
 70
128
 13
16.2707360661
 23
12.579856395
 14
21.0784481971
 24
25.7148563953
 50
90.0
  0
DIMENSION
  8
0
 62
2
  6
CONTINUOUS
  2
*D2
 10
30.3957360661
 20
17.665666988
 11
21.7703711329
 21
17.548479488
 70
128
 13
13.6457360662
 23
13.0848563951
 14
30.3957360661
 24
13.0848563951
  0
DIMENSION
  8
0
 62
2
  6
CONTINUOUS
  2
*D3
 10
29.6507360661
 20
18.3977975781
 11
22.6686954604
 21
18.2806100781
 70
128
 13
14.3907360661
 23
14.459856395
 14
29.6507360661
 24
14.459856395
  0
DIMENSION
  8
0
 62
2
  6
CONTINUOUS
  2
*D4
 10
18.9744358084
 20
11.4261711325
 11
18.9744358084
 21
19.4036443992
 70
128
 13
16.2707360661
 23
26.4720349115
 14
16.2674197563
 24
11.4261711325
 50
270.0
  0
DIMENSION
  8
0
 62
2
  6
CONTINUOUS
  2
*D5
 10
30.8044213287
 20
16.8854623198
 11
24.217991112
 21
16.7682748198
 70
128
 13
13.2370508036
 23
14.062856395
 14
30.8044213287
 24
14.062856395
  0
TEXT
  8
___NOTE
 62
2
  6
CONTINUOUS
 10
15.0708561996
 20
24.0619729158
  7
STANDARD
 40
0.25
  1
CUT-OUT TEMPLATE
 41
0.8
 72
0
  0
TEXT
  8
___NOTE
 62
2
  6
CONTINUOUS
 10
15.0708561996
 20
23.6869729158
  7
STANDARD
 40
0.25
  1
PLAN DE DÉCOUPE
 41
0.8
 72
0
  0
TEXT
  8
___NOTE
 62
2
  6
CONTINUOUS
 10
15.0708561996
 20
23.3119729158
  7
STANDARD
 40
0.25
  1
PLANTILLA DE CORTE
 41
0.8
 72
0
  0
TEXT
  8
___NOTE
 62
2
  6
CONTINUOUS
 10
15.0708561996
 20
22.9369729158
  7
STANDARD
 40
0.25
  1
5400
 41
0.8
 72
0
  0
TEXT
  8
___NOTE
 62
2
  6
CONTINUOUS
 10
23.9241562772
 20
24.3338875054
  7
STANDARD
 40
0.15625
  1
FOR SELF-RIMMING INSTALLATION
 41
0.8
 72
2
 11
27.5491562772
 21
24.3338875054
  0
TEXT
  8
___NOTE
 62
2
  6
CONTINUOUS
 10
25.1741562772
 20
24.0995125054
  7
STANDARD
 40
0.15625
  1
CUT ALONG THIS LINE
 41
0.8
 72
2
 11
27.5491562772
 21
24.0995125054
  0
TEXT
  8
___NOTE
 62
2
  6
CONTINUOUS
 10
23.1741562772
 20
23.8651375054
  7
STANDARD
 40
0.15625
  1
POUR INSTALLATION À REBORD INTÉGRÉ 
 41
0.8
 72
2
 11
27.5491562772
 21
23.8651375054
  0
TEXT
  8
___NOTE
 62
2
  6
CONTINUOUS
 10
23.6741562772
 20
23.6307625054
  7
STANDARD
 40
0.15625
  1
DÉCOUPER LE LONG DE CETTE LIGNE
 41
0.8
 72
2
 11
27.5491562772
 21
23.6307625054
  0
TEXT
  8
___NOTE
 62
2
  6
CONTINUOUS
 10
22.9241562772
 20
23.3963875054
  7
STANDARD
 40
0.15625
  1
PARA INSTALACIÓN DE BORDE TERMINADO, 
 41
0.8
 72
2
 11
27.5491562772
 21
23.3963875054
  0
TEXT
  8
___NOTE
 62
2
  6
CONTINUOUS
 10
25.0491562772
 20
23.1620125054
  7
STANDARD
 40
0.15625
  1
CORTE POR ESTA LÍNEA
 41
0.8
 72
2
 11
27.5491562772
 21
23.1620125054
  0
LINE
  8
___NOTE
 62
2
  6
CONTINUOUS
 10
30.7874994827
 20
24.9443035853
 11
27.7991562772
 21
24.4120125054
  0
LINE
  8
___NOTE
 62
2
  6
CONTINUOUS
 10
27.7991562772
 20
24.4120125054
 11
27.5491562772
 21
24.4120125054
  0
SOLID
  8
___NOTE
 62
2
  6
CONTINUOUS
 10
30.6083850593
 20
24.8806574084
 11
30.7874994827
 21
24.9443035853
 12
30.5974249167
 22
24.9421889066
 13
30.5974249167
 23
24.9421889066
  0
TEXT
  8
___NOTE
 62
2
  6
CONTINUOUS
 10
23.9223696244
 20
22.2879715994
  7
STANDARD
 40
0.15625
  1
FOR UNDERCOUNTER INSTALLATION
 41
0.8
 72
2
 11
27.5473696244
 21
22.2879715994
  0
TEXT
  8
___NOTE
 62
2
  6
CONTINUOUS
 10
25.1723696244
 20
22.0535965994
  7
STANDARD
 40
0.15625
  1
CUT ALONG THIS LINE
 41
0.8
 72
2
 11
27.5473696244
 21
22.0535965994
  0
TEXT
  8
___NOTE
 62
2
  6
CONTINUOUS
 10
23.5473696244
 20
21.8192215994
  7
STANDARD
 40
0.15625
  1
POUR INSTALLATION SOUS COMPTOIR 
 41
0.8
 72
2
 11
27.5473696244
 21
21.8192215994
  0
TEXT
  8
___NOTE
 62
2
  6
CONTINUOUS
 10
23.6723696244
 20
21.5848465994
  7
STANDARD
 40
0.15625
  1
DÉCOUPER LE LONG DE CETTE LIGNE
 41
0.8
 72
2
 11
27.5473696244
 21
21.5848465994
  0
TEXT
  8
___NOTE
 62
2
  6
CONTINUOUS
 10
23.5473696244
 20
21.3504715994
  7
STANDARD
 40
0.15625
  1
PARA INSTALACIÓN BAJO CUBIERTA, 
 41
0.8
 72
2
 11
27.5473696244
 21
21.3504715994
  0
TEXT
  8
___NOTE
 62
2
  6
CONTINUOUS
 10
25.0473696244
 20
21.1160965994
  7
STANDARD
 40
0.15625
  1
CORTE POR ESTA LÍNEA
 41
0.8
 72
2
 11
27.5473696244
 21
21.1160965994
  0
LINE
  8
___NOTE
 62
2
  6
CONTINUOUS
 10
30.3957360661
 20
23.2219754
 11
27.7973696244
 21
22.3660965994
  0
LINE
  8
___NOTE
 62
2
  6
CONTINUOUS
 10
27.7973696244
 20
22.3660965994
 11
27.5473696244
 21
22.3660965994
  0
SOLID
  8
___NOTE
 62
2
  6
CONTINUOUS
 10
30.2274251976
 20
23.1336336542
 11
30.3957360661
 21
23.2219754
 12
30.2078717053
 22
23.1929961924
 13
30.2078717053
 23
23.1929961924
  0
TEXT
  8
___NOTE
 62
2
  6
CONTINUOUS
 10
26.1417980109
 20
20.4016633383
  7
STANDARD
 40
0.15625
  1
FOR VESSELS
 41
0.8
 72
2
 11
27.5167980109
 21
20.4016633383
  0
TEXT
  8
___NOTE
 62
2
  6
CONTINUOUS
 10
25.1417980109
 20
20.1672883383
  7
STANDARD
 40
0.15625
  1
CUT ALONG THIS LINE
 41
0.8
 72
2
 11
27.5167980109
 21
20.1672883383
  0
TEXT
  8
___NOTE
 62
2
  6
CONTINUOUS
 10
25.8917980109
 20
19.9329133383
  7
STANDARD
 40
0.15625
  1
POUR VASQUES,
 41
0.8
 72
2
 11
27.5167980109
 21
19.9329133383
  0
TEXT
  8
___NOTE
 62
2
  6
CONTINUOUS
 10
23.6417980109
 20
19.6985383383
  7
STANDARD
 40
0.15625
  1
DÉCOUPER LE LONG DE CETTE LIGNE
 41
0.8
 72
2
 11
27.5167980109
 21
19.6985383383
  0
TEXT
  8
___NOTE
 62
2
  6
CONTINUOUS
 10
24.8917980109
 20
19.4641633383
  7
STANDARD
 40
0.15625
  1
PARA LAVABOS VESSELS,
 41
0.8
 72
2
 11
27.5167980109
 21
19.4641633383
  0
TEXT
  8
___NOTE
 62
2
  6
CONTINUOUS
 10
25.0167980109
 20
19.2297883383
  7
STANDARD
 40
0.15625
  1
CORTE POR ESTA LÍNEA
 41
0.8
 72
2
 11
27.5167980109
 21
19.2297883383
  0
LINE
  8
___NOTE
 62
2
  6
CONTINUOUS
 10
29.6507360661
 20
22.0405804843
 11
27.7667980109
 21
20.4797883383
  0
LINE
  8
___NOTE
 62
2
  6
CONTINUOUS
 10
27.7667980109
 20
20.4797883383
 11
27.5167980109
 21
20.4797883383
  0
SOLID
  8
___NOTE
 62
2
  6
CONTINUOUS
 10
29.5262867106
 20
21.8968962109
 11
29.6507360661
 21
22.0405804843
 12
29.4864133979
 22
21.9450248816
 13
29.4864133979
 23
21.9450248816
  0
TEXT
  8
___NOTE
 62
2
  6
CONTINUOUS
 10
26.2975638487
 20
25.3088468601
  7
STANDARD
 40
0.15625
  1
RIM OF LAV
 41
0.8
 72
2
 11
27.5475638487
 21
25.3088468601
  0
TEXT
  8
___NOTE
 62
2
  6
CONTINUOUS
 10
25.5475638487
 20
25.0744718601
  7
STANDARD
 40
0.15625
  1
REBORD DU LAVABO
 41
0.8
 72
2
 11
27.5475638487
 21
25.0744718601
  0
TEXT
  8
___NOTE
 62
2
  6
CONTINUOUS
 10
25.5475638487
 20
24.8400968601
  7
STANDARD
 40
0.15625
  1
BORDE DEL LAVABO
 41
0.8
 72
2
 11
27.5475638487
 21
24.8400968601
  0
LINE
  8
___NOTE
 62
2
  6
CONTINUOUS
 10
28.4524395743
 20
26.7177060557
 11
27.7975638487
 21
25.3869718601
  0
LINE
  8
___NOTE
 62
2
  6
CONTINUOUS
 10
27.7975638487
 20
25.3869718601
 11
27.5475638487
 21
25.3869718601
  0
SOLID
  8
___NOTE
 62
2
  6
CONTINUOUS
 10
28.3976884763
 20
26.535675482
 11
28.4524395743
 21
26.7177060557
 12
28.3416110523
 22
26.5632720853
 13
28.3416110523
 23
26.5632720853
  0
INSERT
  8
___SYMBOL
 62
2
  6
CONTINUOUS
  2
SYMBOL_51_BL0
 10
29.6431909246
 20
19.9690915164
  0
INSERT
  8
___SYMBOL
 62
2
  6
CONTINUOUS
  2
SYMBOL_52_BL1
 10
30.3934828841
 20
20.679281239
  0
INSERT
  8
___SYMBOL
 62
2
  6
CONTINUOUS
  2
SYMBOL_53_BL2
 10
30.8066501904
 20
22.3170623474
  0
INSERT
  8
___SYMBOL
 62
2
  6
CONTINUOUS
  2
SYMBOL_3_BL3
 10
27.3665519728
 20
13.0171041212
  0
INSERT
  8
___SYMBOL
 62
2
  6
CONTINUOUS
  2
SYMBOL_9_BL4
 10
16.4672296569
 20
12.9581043811
  0
INSERT
  8
___SYMBOL
 62
2
  6
CONTINUOUS
  2
SYMBOL_10_BL5
 10
16.5030471772
 20
10.4788415294
  0
INSERT
  8
___SYMBOL
 62
2
  6
CONTINUOUS
  2
SYMBOL_12_BL6
 10
25.0621761411
 20
14.8265612239
  0
LINE
  8
0
 62
2
  6
CONTINUOUS
 10
15.3852833539
 20
25.0547828745
 11
15.2475191872
 21
24.8909616848
  0
LINE
  8
0
 62
2
  6
CONTINUOUS
 10
15.577345166
 20
25.0547828745
 11
15.3640417141
 21
24.8011346015
  0
LINE
  8
0
 62
2
  6
CONTINUOUS
 10
15.0730189602
 20
25.0547828745
 11
15.0730189602
 21
24.4688452216
  0
LINE
  8
0
 62
2
  6
CONTINUOUS
 10
15.2475191872
 20
25.0547828745
 11
15.2475191872
 21
24.8909616848
  0
LINE
  8
0
 62
2
  6
CONTINUOUS
 10
15.2475191872
 20
24.6703690591
 11
15.2475191872
 21
24.4688692251
  0
LINE
  8
0
 62
2
  6
CONTINUOUS
 10
16.1092302238
 20
25.0547828745
 11
16.1092302238
 21
24.4688692251
  0
LINE
  8
0
 62
2
  6
CONTINUOUS
 10
16.2739639037
 20
25.0547828745
 11
16.2739639037
 21
24.8343991148
  0
LINE
  8
0
 62
2
  6
CONTINUOUS
 10
16.2739639037
 20
24.6971938349
 11
16.2739639037
 21
24.4688692251
  0
LINE
  8
0
 62
2
  6
CONTINUOUS
 10
16.4219607148
 20
25.0547828745
 11
16.4219607148
 21
24.8343991148
  0
LINE
  8
0
 62
2
  6
CONTINUOUS
 10
16.4219607148
 20
24.6971938349
 11
16.4219607148
 21
24.4688692251
  0
LINE
  8
0
 62
2
  6
CONTINUOUS
 10
16.5866943946
 20
25.0547828745
 11
16.5866943946
 21
24.4688692251
  0
LINE
  8
0
 62
2
  6
CONTINUOUS
 10
16.6317392388
 20
24.4688692251
 11
16.6317392388
 21
25.0547828745
  0
LINE
  8
0
 62
2
  6
CONTINUOUS
 10
16.7817853016
 20
25.0547828745
 11
16.7817853016
 21
24.6100959823
  0
LINE
  8
0
 62
2
  6
CONTINUOUS
 10
16.9444693715
 20
24.6100959823
 11
16.9444693715
 21
24.4688692251
  0
LINE
  8
0
 62
2
  6
CONTINUOUS
 10
16.9736171102
 20
24.4688692251
 11
16.9736171102
 21
25.0547828745
  0
LINE
  8
0
 62
2
  6
CONTINUOUS
 10
17.1318637622
 20
24.9120234777
 11
17.1318637622
 21
24.8343991148
  0
LINE
  8
0
 62
2
  6
CONTINUOUS
 10
17.1318637622
 20
24.6900175133
 11
17.1318637622
 21
24.6100959823
  0
LINE
  8
0
 62
2
  6
CONTINUOUS
 10
17.2827212856
 20
24.4688692251
 11
17.2827212856
 21
24.6100959823
  0
LINE
  8
0
 62
2
  6
CONTINUOUS
 10
17.2827212856
 20
24.6900175133
 11
17.2827212856
 21
24.8343991148
  0
LINE
  8
0
 62
2
  6
CONTINUOUS
 10
17.2827212856
 20
24.9120234777
 11
17.2827212856
 21
25.0547828745
  0
LINE
  8
0
 62
2
  6
CONTINUOUS
 10
17.3275415003
 20
24.4688692251
 11
17.3275415003
 21
25.0547828745
  0
LINE
  8
0
 62
2
  6
CONTINUOUS
 10
17.4781973228
 20
24.9122040411
 11
17.4781973228
 21
24.8051009066
  0
LINE
  8
0
 62
2
  6
CONTINUOUS
 10
17.4781973228
 20
24.6658255959
 11
17.4781973228
 21
24.4688692251
  0
LINE
  8
0
 62
2
  6
CONTINUOUS
 10
17.9178556668
 20
24.4360285343
 11
17.9178556668
 21
24.5019947332
  0
LINE
  8
DEFAULT_1
 62
2
  6
CENTER
 10
22.0208072807
 20
13.050763598
 11
22.0208072807
 21
10.7357019708
  0
LINE
  8
DEFAULT_1
 62
2
  6
CENTER
 10
22.0210855888
 20
27.3556095236
 11
22.0210855888
 21
25.0405478964
  0
LINE
  8
0
 62
2
  6
CONTINUOUS
 10
15.4012571272
 20
24.4688692251
 11
15.2475191872
 21
24.6703690591
  0
LINE
  8
0
 62
2
  6
CONTINUOUS
 10
15.6175495488
 20
24.4688692251
 11
15.3640417141
 21
24.8011346015
  0
LINE
  8
0
 62
2
  6
CONTINUOUS
 10
17.603020752
 20
24.4688692251
 11
17.4781973228
 21
24.6658255959
  0
LINE
  8
0
 62
2
  6
CONTINUOUS
 10
17.7929716915
 20
24.4688692251
 11
17.6335284486
 21
24.7204517664
  0
LINE
  8
DEFAULT_1
 62
2
  6
CENTER
 10
14.7296127057
 20
18.8300708925
 11
12.4145510785
 21
18.8300708925
  0
LINE
  8
DEFAULT_1
 62
2
  6
CENTER
 10
31.4001337932
 20
18.8316299364
 11
29.085072166
 21
18.8316299364
  0
LINE
  8
0
 62
2
  6
CONTINUOUS
 10
17.9294536429
 20
24.4683314757
 11
17.9613216557
 21
24.4360285343
  0
LINE
  8
0
 62
2
  6
CONTINUOUS
 10
15.2475191872
 20
24.4688692251
 11
15.0730189602
 21
24.4688452216
  0
LINE
  8
0
 62
2
  6
CONTINUOUS
 10
17.9421349997
 20
24.4683314757
 11
17.9178556668
 21
24.4683314757
  0
LINE
  8
0
 62
2
  6
CONTINUOUS
 10
16.5866943946
 20
24.4688692251
 11
16.4219607148
 21
24.4688692251
  0
LINE
  8
0
 62
2
  6
CONTINUOUS
 10
16.2739639037
 20
24.4688692251
 11
16.1092302238
 21
24.4688692251
  0
LINE
  8
0
 62
2
  6
CONTINUOUS
 10
15.4012571272
 20
24.4688692251
 11
15.6175495488
 21
24.4688692251
  0
LINE
  8
0
 62
2
  6
CONTINUOUS
 10
16.6317392388
 20
24.4688692251
 11
16.9444693715
 21
24.4688692251
  0
LINE
  8
0
 62
2
  6
CONTINUOUS
 10
16.9736171102
 20
24.4688692251
 11
17.2827212856
 21
24.4688692251
  0
LINE
  8
0
 62
2
  6
CONTINUOUS
 10
17.3275415003
 20
24.4688692251
 11
17.4781973228
 21
24.4688692251
  0
LINE
  8
0
 62
2
  6
CONTINUOUS
 10
17.603020752
 20
24.4688692251
 11
17.7929716915
 21
24.4688692251
  0
LINE
  8
0
 62
2
  6
CONTINUOUS
 10
17.9178556668
 20
24.5019947332
 11
17.9421349997
 21
24.5019947332
  0
LINE
  8
0
 62
2
  6
CONTINUOUS
 10
16.7817853016
 20
24.6100959823
 11
16.9444693715
 21
24.6100959823
  0
LINE
  8
0
 62
2
  6
CONTINUOUS
 10
17.1318637622
 20
24.6100959823
 11
17.2827212856
 21
24.6100959823
  0
LINE
  8
0
 62
2
  6
CONTINUOUS
 10
17.1318637622
 20
24.6900175133
 11
17.2827212856
 21
24.6900175133
  0
LINE
  8
0
 62
2
  6
CONTINUOUS
 10
16.2739639037
 20
24.6971938349
 11
16.4219607148
 21
24.6971938349
  0
LINE
  8
0
 62
2
  6
CONTINUOUS
 10
17.4781973228
 20
24.8051009066
 11
17.530537073
 21
24.8051009066
  0
LINE
  8
0
 62
2
  6
CONTINUOUS
 10
16.2739639037
 20
24.8343991148
 11
16.4219607148
 21
24.8343991148
  0
LINE
  8
0
 62
2
  6
CONTINUOUS
 10
17.1318637622
 20
24.8343991148
 11
17.2827212856
 21
24.8343991148
  0
LINE
  8
0
 62
2
  6
CONTINUOUS
 10
17.1318637622
 20
24.9120234777
 11
17.2827212856
 21
24.9120234777
  0
LINE
  8
0
 62
2
  6
CONTINUOUS
 10
17.5341272043
 20
24.9122040411
 11
17.4781973228
 21
24.9122040411
  0
LINE
  8
0
 62
2
  6
CONTINUOUS
 10
15.0730189602
 20
25.0547828745
 11
15.2475191872
 21
25.0547828745
  0
LINE
  8
0
 62
2
  6
CONTINUOUS
 10
15.3852833539
 20
25.0547828745
 11
15.577345166
 21
25.0547828745
  0
LINE
  8
0
 62
2
  6
CONTINUOUS
 10
16.1092302238
 20
25.0547828745
 11
16.2739639037
 21
25.0547828745
  0
LINE
  8
0
 62
2
  6
CONTINUOUS
 10
16.4219607148
 20
25.0547828745
 11
16.5866943946
 21
25.0547828745
  0
LINE
  8
0
 62
2
  6
CONTINUOUS
 10
16.6317392388
 20
25.0547828745
 11
16.7817853016
 21
25.0547828745
  0
LINE
  8
0
 62
2
  6
CONTINUOUS
 10
16.9736171102
 20
25.0547828745
 11
17.2827212856
 21
25.0547828745
  0
LINE
  8
0
 62
2
  6
CONTINUOUS
 10
17.3275415003
 20
25.0547828745
 11
17.5610892009
 21
25.0547828745
  0
POLYLINE
  8
_CURVE
 62
8
  6
PHANTOM
 66
1
 70
0
  0
VERTEX
  8
_CURVE
 62
8
  6
PHANTOM
 10
12.7628864054
 20
12.4746186076
  0
VERTEX
  8
_CURVE
 62
8
  6
PHANTOM
 10
12.7634944167
 20
12.4249500079
  0
VERTEX
  8
_CURVE
 62
8
  6
PHANTOM
 10
12.7653380993
 20
12.3752844138
  0
VERTEX
  8
_CURVE
 62
8
  6
PHANTOM
 10
12.768446926
 20
12.3256643427
  0
VERTEX
  8
_CURVE
 62
8
  6
PHANTOM
 10
12.7728503696
 20
12.276132312
  0
VERTEX
  8
_CURVE
 62
8
  6
PHANTOM
 10
12.7785779032
 20
12.2267308392
  0
VERTEX
  8
_CURVE
 62
8
  6
PHANTOM
 10
12.7856589996
 20
12.1775024415
  0
VERTEX
  8
_CURVE
 62
8
  6
PHANTOM
 10
12.7941219408
 20
12.1284909777
  0
VERTEX
  8
_CURVE
 62
8
  6
PHANTOM
 10
12.8039902461
 20
12.079745671
  0
VERTEX
  8
_CURVE
 62
8
  6
PHANTOM
 10
12.8152862438
 20
12.0313170861
  0
VERTEX
  8
_CURVE
 62
8
  6
PHANTOM
 10
12.8280322624
 20
11.9832557873
  0
VERTEX
  8
_CURVE
 62
8
  6
PHANTOM
 10
12.8422506301
 20
11.9356123394
  0
VERTEX
  8
_CURVE
 62
8
  6
PHANTOM
 10
12.8579636754
 20
11.8884373068
  0
VERTEX
  8
_CURVE
 62
8
  6
PHANTOM
 10
12.8726365574
 20
11.8484142858
  0
VERTEX
  8
_CURVE
 62
8
  6
PHANTOM
 10
12.8884259799
 20
11.8088138312
  0
VERTEX
  8
_CURVE
 62
8
  6
PHANTOM
 10
12.9053339485
 20
11.769677218
  0
VERTEX
  8
_CURVE
 62
8
  6
PHANTOM
 10
12.9233624687
 20
11.7310457214
  0
VERTEX
  8
_CURVE
 62
8
  6
PHANTOM
 10
12.9425135462
 20
11.6929606163
  0
VERTEX
  8
_CURVE
 62
8
  6
PHANTOM
 10
12.9627891864
 20
11.6554631778
  0
VERTEX
  8
_CURVE
 62
8
  6
PHANTOM
 10
12.984191395
 20
11.618594681
  0
VERTEX
  8
_CURVE
 62
8
  6
PHANTOM
 10
13.0067189458
 20
11.5823963714
  0
VERTEX
  8
_CURVE
 62
8
  6
PHANTOM
 10
13.0303576863
 20
11.546909376
  0
VERTEX
  8
_CURVE
 62
8
  6
PHANTOM
 10
13.0550902322
 20
11.5121747924
  0
VERTEX
  8
_CURVE
 62
8
  6
PHANTOM
 10
13.0808991994
 20
11.4782337182
  0
VERTEX
  8
_CURVE
 62
8
  6
PHANTOM
 10
13.1077672036
 20
11.445127251
  0
VERTEX
  8
_CURVE
 62
8
  6
PHANTOM
 10
13.1356768606
 20
11.4128964882
  0
VERTEX
  8
_CURVE
 62
8
  6
PHANTOM
 10
13.1646107863
 20
11.3815825274
  0
VERTEX
  8
_CURVE
 62
8
  6
PHANTOM
 10
13.1945484703
 20
11.3512242114
  0
VERTEX
  8
_CURVE
 62
8
  6
PHANTOM
 10
13.2254568975
 20
11.3218513642
  0
VERTEX
  8
_CURVE
 62
8
  6
PHANTOM
 10
13.257299927
 20
11.2934915549
  0
VERTEX
  8
_CURVE
 62
8
  6
PHANTOM
 10
13.2900414175
 20
11.2661723527
  0
VERTEX
  8
_CURVE
 62
8
  6
PHANTOM
 10
13.323645228
 20
11.2399213269
  0
VERTEX
  8
_CURVE
 62
8
  6
PHANTOM
 10
13.3580752173
 20
11.2147660465
  0
VERTEX
  8
_CURVE
 62
8
  6
PHANTOM
 10
13.3932952444
 20
11.1907340808
  0
VERTEX
  8
_CURVE
 62
8
  6
PHANTOM
 10
13.4292678813
 20
11.1678493738
  0
VERTEX
  8
_CURVE
 62
8
  6
PHANTOM
 10
13.4659505535
 20
11.1461213688
  0
VERTEX
  8
_CURVE
 62
8
  6
PHANTOM
 10
13.5032993996
 20
11.1255558838
  0
VERTEX
  8
_CURVE
 62
8
  6
PHANTOM
 10
13.5412705582
 20
11.1061587371
  0
VERTEX
  8
_CURVE
 62
8
  6
PHANTOM
 10
13.579820168
 20
11.0879357467
  0
VERTEX
  8
_CURVE
 62
8
  6
PHANTOM
 10
13.6189043676
 20
11.0708927308
  0
VERTEX
  8
_CURVE
 62
8
  6
PHANTOM
 10
13.6584792956
 20
11.0550355074
  0
VERTEX
  8
_CURVE
 62
8
  6
PHANTOM
 10
13.698502223
 20
11.04036687
  0
VERTEX
  8
_CURVE
 62
8
  6
PHANTOM
 10
13.7389349505
 20
11.0268775132
  0
VERTEX
  8
_CURVE
 62
8
  6
PHANTOM
 10
13.7797404108
 20
11.0145551069
  0
VERTEX
  8
_CURVE
 62
8
  6
PHANTOM
 10
13.820881537
 20
11.003387321
  0
VERTEX
  8
_CURVE
 62
8
  6
PHANTOM
 10
13.8623212618
 20
10.9933618254
  0
VERTEX
  8
_CURVE
 62
8
  6
PHANTOM
 10
13.9040225183
 20
10.9844662901
  0
VERTEX
  8
_CURVE
 62
8
  6
PHANTOM
 10
13.9459482394
 20
10.9766883849
  0
VERTEX
  8
_CURVE
 62
8
  6
PHANTOM
 10
13.995097264
 20
10.9690079847
  0
VERTEX
  8
_CURVE
 62
8
  6
PHANTOM
 10
14.044451116
 20
10.9627987123
  0
VERTEX
  8
_CURVE
 62
8
  6
PHANTOM
 10
14.0939595537
 20
10.9580272594
  0
VERTEX
  8
_CURVE
 62
8
  6
PHANTOM
 10
14.1435723358
 20
10.9546603177
  0
VERTEX
  8
_CURVE
 62
8
  6
PHANTOM
 10
14.1932392209
 20
10.9526645787
  0
VERTEX
  8
_CURVE
 62
8
  6
PHANTOM
 10
14.2429099673
 20
10.9520067343
  0
SEQEND
  0
LINE
  8
_CURVE
 62
8
  6
PHANTOM
 10
12.7628864054
 20
25.1950941824
 11
12.7628864054
 21
12.4746186076
  0
POLYLINE
  8
_CURVE
 62
4
  6
CONTINUOUS
 66
1
 70
0
  0
VERTEX
  8
_CURVE
 62
4
  6
CONTINUOUS
 10
13.237448041
 20
13.6421803916
  0
VERTEX
  8
_CURVE
 62
4
  6
CONTINUOUS
 10
13.2377859667
 20
13.5712898453
  0
VERTEX
  8
_CURVE
 62
4
  6
CONTINUOUS
 10
13.2382785558
 20
13.4991878179
  0
VERTEX
  8
_CURVE
 62
4
  6
CONTINUOUS
 10
13.2387621913
 20
13.4462171655
  0
VERTEX
  8
_CURVE
 62
4
  6
CONTINUOUS
 10
13.2393751245
 20
13.3932713249
  0
VERTEX
  8
_CURVE
 62
4
  6
CONTINUOUS
 10
13.2410914668
 20
13.2876589612
  0
VERTEX
  8
_CURVE
 62
4
  6
CONTINUOUS
 10
13.2436471382
 20
13.1826505061
  0
VERTEX
  8
_CURVE
 62
4
  6
CONTINUOUS
 10
13.2472912735
 20
13.0783580194
  0
VERTEX
  8
_CURVE
 62
4
  6
CONTINUOUS
 10
13.2522807751
 20
12.9748078421
  0
VERTEX
  8
_CURVE
 62
4
  6
CONTINUOUS
 10
13.2588758813
 20
12.8719327753
  0
VERTEX
  8
_CURVE
 62
4
  6
CONTINUOUS
 10
13.2642950038
 20
12.8036563787
  0
VERTEX
  8
_CURVE
 62
4
  6
CONTINUOUS
 10
13.2706298623
 20
12.7354728477
  0
VERTEX
  8
_CURVE
 62
4
  6
CONTINUOUS
 10
13.2779665591
 20
12.6672152581
  0
VERTEX
  8
_CURVE
 62
4
  6
CONTINUOUS
 10
13.2864283848
 20
12.5987919255
  0
VERTEX
  8
_CURVE
 62
4
  6
CONTINUOUS
 10
13.2962873847
 20
12.5304121252
  0
VERTEX
  8
_CURVE
 62
4
  6
CONTINUOUS
 10
13.3078527929
 20
12.462360372
  0
VERTEX
  8
_CURVE
 62
4
  6
CONTINUOUS
 10
13.3178327315
 20
12.4117204746
  0
VERTEX
  8
_CURVE
 62
4
  6
CONTINUOUS
 10
13.3290770979
 20
12.3616200712
  0
VERTEX
  8
_CURVE
 62
4
  6
CONTINUOUS
 10
13.3417165212
 20
12.3122540894
  0
VERTEX
  8
_CURVE
 62
4
  6
CONTINUOUS
 10
13.3558816305
 20
12.2638174567
  0
VERTEX
  8
_CURVE
 62
4
  6
CONTINUOUS
 10
13.3683905541
 20
12.2258632978
  0
VERTEX
  8
_CURVE
 62
4
  6
CONTINUOUS
 10
13.3819697588
 20
12.1886986251
  0
VERTEX
  8
_CURVE
 62
4
  6
CONTINUOUS
 10
13.3966294842
 20
12.1523933875
  0
VERTEX
  8
_CURVE
 62
4
  6
CONTINUOUS
 10
13.4123799697
 20
12.1170175339
  0
VERTEX
  8
_CURVE
 62
4
  6
CONTINUOUS
 10
13.429231455
 20
12.0826410134
  0
VERTEX
  8
_CURVE
 62
4
  6
CONTINUOUS
 10
13.4441176063
 20
12.0548065412
  0
VERTEX
  8
_CURVE
 62
4
  6
CONTINUOUS
 10
13.4597502856
 20
12.027747811
  0
VERTEX
  8
_CURVE
 62
4
  6
CONTINUOUS
 10
13.4761043271
 20
12.0014980079
  0
VERTEX
  8
_CURVE
 62
4
  6
CONTINUOUS
 10
13.4931641862
 20
11.9760790774
  0
VERTEX
  8
_CURVE
 62
4
  6
CONTINUOUS
 10
13.5109528045
 20
11.951468008
  0
VERTEX
  8
_CURVE
 62
4
  6
CONTINUOUS
 10
13.5295027447
 20
11.9276305487
  0
VERTEX
  8
_CURVE
 62
4
  6
CONTINUOUS
 10
13.5551913442
 20
11.8973161527
  0
VERTEX
  8
_CURVE
 62
4
  6
CONTINUOUS
 10
13.5822479291
 20
11.8683361123
  0
VERTEX
  8
_CURVE
 62
4
  6
CONTINUOUS
 10
13.6106575619
 20
11.8407368425
  0
VERTEX
  8
_CURVE
 62
4
  6
CONTINUOUS
 10
13.6403854183
 20
11.8145554355
  0
VERTEX
  8
_CURVE
 62
4
  6
CONTINUOUS
 10
13.671317126
 20
11.7897916941
  0
VERTEX
  8
_CURVE
 62
4
  6
CONTINUOUS
 10
13.7033184257
 20
11.7664360985
  0
VERTEX
  8
_CURVE
 62
4
  6
CONTINUOUS
 10
13.7362705165
 20
11.7444676134
  0
VERTEX
  8
_CURVE
 62
4
  6
CONTINUOUS
 10
13.7701164312
 20
11.7238191404
  0
VERTEX
  8
_CURVE
 62
4
  6
CONTINUOUS
 10
13.8048146611
 20
11.7044120659
  0
VERTEX
  8
_CURVE
 62
4
  6
CONTINUOUS
 10
13.8403236975
 20
11.6861677759
  0
VERTEX
  8
_CURVE
 62
4
  6
CONTINUOUS
 10
13.8766020318
 20
11.6690076567
  0
VERTEX
  8
_CURVE
 62
4
  6
CONTINUOUS
 10
13.9136081551
 20
11.6528530944
  0
VERTEX
  8
_CURVE
 62
4
  6
CONTINUOUS
 10
13.9589223323
 20
11.6346919581
  0
VERTEX
  8
_CURVE
 62
4
  6
CONTINUOUS
 10
14.0051805774
 20
11.6177759252
  0
VERTEX
  8
_CURVE
 62
4
  6
CONTINUOUS
 10
14.0523387147
 20
11.6020153011
  0
VERTEX
  8
_CURVE
 62
4
  6
CONTINUOUS
 10
14.1003525682
 20
11.5873203911
  0
VERTEX
  8
_CURVE
 62
4
  6
CONTINUOUS
 10
14.1491779623
 20
11.5736015006
  0
VERTEX
  8
_CURVE
 62
4
  6
CONTINUOUS
 10
14.2112732554
 20
11.5577056121
  0
VERTEX
  8
_CURVE
 62
4
  6
CONTINUOUS
 10
14.2744189989
 20
11.5431204698
  0
VERTEX
  8
_CURVE
 62
4
  6
CONTINUOUS
 10
14.338466636
 20
11.5297719373
  0
VERTEX
  8
_CURVE
 62
4
  6
CONTINUOUS
 10
14.4032676099
 20
11.5175858783
  0
VERTEX
  8
_CURVE
 62
4
  6
CONTINUOUS
 10
14.4905971519
 20
11.5030197348
  0
VERTEX
  8
_CURVE
 62
4
  6
CONTINUOUS
 10
14.5787286299
 20
11.4902233638
  0
VERTEX
  8
_CURVE
 62
4
  6
CONTINUOUS
 10
14.6673888159
 20
11.4790317163
  0
VERTEX
  8
_CURVE
 62
4
  6
CONTINUOUS
 10
14.7564092923
 20
11.469288987
  0
VERTEX
  8
_CURVE
 62
4
  6
CONTINUOUS
 10
14.8460408851
 20
11.4608763455
  0
VERTEX
  8
_CURVE
 62
4
  6
CONTINUOUS
 10
14.9366392307
 20
11.4536842053
  0
VERTEX
  8
_CURVE
 62
4
  6
CONTINUOUS
 10
15.0285394867
 20
11.4476040813
  0
VERTEX
  8
_CURVE
 62
4
  6
CONTINUOUS
 10
15.1219948947
 20
11.4425318959
  0
VERTEX
  8
_CURVE
 62
4
  6
CONTINUOUS
 10
15.2172382175
 20
11.4383646729
  0
VERTEX
  8
_CURVE
 62
4
  6
CONTINUOUS
 10
15.2899796658
 20
11.4357718603
  0
VERTEX
  8
_CURVE
 62
4
  6
CONTINUOUS
 10
15.3639296373
 20
11.4335907382
  0
VERTEX
  8
_CURVE
 62
4
  6
CONTINUOUS
 10
15.43920491
 20
11.4317813797
  0
VERTEX
  8
_CURVE
 62
4
  6
CONTINUOUS
 10
15.5158719456
 20
11.4303056757
  0
VERTEX
  8
_CURVE
 62
4
  6
CONTINUOUS
 10
15.6075987693
 20
11.428951025
  0
VERTEX
  8
_CURVE
 62
4
  6
CONTINUOUS
 10
15.6996248774
 20
11.4279625306
  0
VERTEX
  8
_CURVE
 62
4
  6
CONTINUOUS
 10
15.792145362
 20
11.4272625072
  0
VERTEX
  8
_CURVE
 62
4
  6
CONTINUOUS
 10
15.8852858623
 20
11.4267912103
  0
VERTEX
  8
_CURVE
 62
4
  6
CONTINUOUS
 10
15.9791400333
 20
11.4264939169
  0
VERTEX
  8
_CURVE
 62
4
  6
CONTINUOUS
 10
16.0739386214
 20
11.4263147847
  0
VERTEX
  8
_CURVE
 62
4
  6
CONTINUOUS
 10
16.2674197563
 20
11.4261711325
  0
SEQEND
  0
LINE
  8
_CURVE
 62
4
  6
CONTINUOUS
 10
13.2370943869
 20
13.781502195
 11
13.237448041
 21
13.6421803916
  0
LINE
  8
_CURVE
 62
4
  6
CONTINUOUS
 10
13.6457360662
 20
13.0848563951
 11
13.6457360662
 21
24.5848563949
  0
POLYLINE
  8
_CURVE
 62
4
  6
CONTINUOUS
 66
1
 70
0
  0
VERTEX
  8
_CURVE
 62
4
  6
CONTINUOUS
 10
13.2370508036
 20
14.062856395
  0
VERTEX
  8
_CURVE
 62
4
  6
CONTINUOUS
 10
13.2370317014
 20
13.9908892275
  0
VERTEX
  8
_CURVE
 62
4
  6
CONTINUOUS
 10
13.2370943869
 20
13.781502195
  0
SEQEND
  0
LINE
  8
_CURVE
 62
4
  6
CONTINUOUS
 10
13.2372208258
 20
24.1164084916
 11
13.2370508036
 21
14.062856395
  0
POLYLINE
  8
_CURVE
 62
4
  6
CONTINUOUS
 66
1
 70
0
  0
VERTEX
  8
_CURVE
 62
4
  6
CONTINUOUS
 10
14.390972411
 20
14.226601545
  0
VERTEX
  8
_CURVE
 62
4
  6
CONTINUOUS
 10
14.3914468448
 20
14.1095219287
  0
VERTEX
  8
_CURVE
 62
4
  6
CONTINUOUS
 10
14.3918353904
 20
14.0515214281
  0
VERTEX
  8
_CURVE
 62
4
  6
CONTINUOUS
 10
14.392372156
 20
13.9941532875
  0
VERTEX
  8
_CURVE
 62
4
  6
CONTINUOUS
 10
14.3931006656
 20
13.937611
  0
VERTEX
  8
_CURVE
 62
4
  6
CONTINUOUS
 10
14.3940609803
 20
13.8820641224
  0
VERTEX
  8
_CURVE
 62
4
  6
CONTINUOUS
 10
14.3952922956
 20
13.8276762269
  0
VERTEX
  8
_CURVE
 62
4
  6
CONTINUOUS
 10
14.3968338067
 20
13.7746108859
  0
VERTEX
  8
_CURVE
 62
4
  6
CONTINUOUS
 10
14.398315373
 20
13.7332261949
  0
VERTEX
  8
_CURVE
 62
4
  6
CONTINUOUS
 10
14.4000326804
 20
13.6929089048
  0
VERTEX
  8
_CURVE
 62
4
  6
CONTINUOUS
 10
14.4019978598
 20
13.6537752954
  0
VERTEX
  8
_CURVE
 62
4
  6
CONTINUOUS
 10
14.4042230419
 20
13.6159416462
  0
VERTEX
  8
_CURVE
 62
4
  6
CONTINUOUS
 10
14.4067203576
 20
13.5795242371
  0
VERTEX
  8
_CURVE
 62
4
  6
CONTINUOUS
 10
14.4090170768
 20
13.5503325989
  0
VERTEX
  8
_CURVE
 62
4
  6
CONTINUOUS
 10
14.4115121701
 20
13.5222152772
  0
VERTEX
  8
_CURVE
 62
4
  6
CONTINUOUS
 10
14.4142066058
 20
13.4951823392
  0
VERTEX
  8
_CURVE
 62
4
  6
CONTINUOUS
 10
14.4171021078
 20
13.4692280443
  0
VERTEX
  8
_CURVE
 62
4
  6
CONTINUOUS
 10
14.4202034227
 20
13.4442834228
  0
VERTEX
  8
_CURVE
 62
4
  6
CONTINUOUS
 10
14.4235160525
 20
13.4202636975
  0
VERTEX
  8
_CURVE
 62
4
  6
CONTINUOUS
 10
14.4288921455
 20
13.3857963249
  0
VERTEX
  8
_CURVE
 62
4
  6
CONTINUOUS
 10
14.43476803
 20
13.3530140058
  0
VERTEX
  8
_CURVE
 62
4
  6
CONTINUOUS
 10
14.4411556591
 20
13.3217115257
  0
VERTEX
  8
_CURVE
 62
4
  6
CONTINUOUS
 10
14.4480669862
 20
13.2916836701
  0
VERTEX
  8
_CURVE
 62
4
  6
CONTINUOUS
 10
14.4555256159
 20
13.262711137
  0
VERTEX
  8
_CURVE
 62
4
  6
CONTINUOUS
 10
14.4636017593
 20
13.2345182748
  0
VERTEX
  8
_CURVE
 62
4
  6
CONTINUOUS
 10
14.4723575093
 20
13.2068772708
  0
VERTEX
  8
_CURVE
 62
4
  6
CONTINUOUS
 10
14.4817758816
 20
13.1798080186
  0
VERTEX
  8
_CURVE
 62
4
  6
CONTINUOUS
 10
14.4918241437
 20
13.1534056407
  0
VERTEX
  8
_CURVE
 62
4
  6
CONTINUOUS
 10
14.502485646
 20
13.1278184689
  0
VERTEX
  8
_CURVE
 62
4
  6
CONTINUOUS
 10
14.5137981221
 20
13.1030972703
  0
VERTEX
  8
_CURVE
 62
4
  6
CONTINUOUS
 10
14.5260007537
 20
13.0788493435
  0
VERTEX
  8
_CURVE
 62
4
  6
CONTINUOUS
 10
14.5393786762
 20
13.0546091263
  0
VERTEX
  8
_CURVE
 62
4
  6
CONTINUOUS
 10
14.5541993908
 20
13.0300630806
  0
VERTEX
  8
_CURVE
 62
4
  6
CONTINUOUS
 10
14.5650140199
 20
13.0133950173
  0
VERTEX
  8
_CURVE
 62
4
  6
CONTINUOUS
 10
14.5766808481
 20
12.9963985554
  0
VERTEX
  8
_CURVE
 62
4
  6
CONTINUOUS
 10
14.5892939038
 20
12.9790036785
  0
VERTEX
  8
_CURVE
 62
4
  6
CONTINUOUS
 10
14.6029273422
 20
12.9611681349
  0
VERTEX
  8
_CURVE
 62
4
  6
CONTINUOUS
 10
14.6175758281
 20
12.94296073
  0
VERTEX
  8
_CURVE
 62
4
  6
CONTINUOUS
 10
14.6332141532
 20
12.9244780335
  0
VERTEX
  8
_CURVE
 62
4
  6
CONTINUOUS
 10
14.6498110434
 20
12.9058239924
  0
VERTEX
  8
_CURVE
 62
4
  6
CONTINUOUS
 10
14.667310961
 20
12.8871320628
  0
VERTEX
  8
_CURVE
 62
4
  6
CONTINUOUS
 10
14.6856523023
 20
12.8685430779
  0
VERTEX
  8
_CURVE
 62
4
  6
CONTINUOUS
 10
14.7146180929
 20
12.8411271219
  0
VERTEX
  8
_CURVE
 62
4
  6
CONTINUOUS
 10
14.7451957695
 20
12.8145335423
  0
VERTEX
  8
_CURVE
 62
4
  6
CONTINUOUS
 10
14.7772426229
 20
12.7890362151
  0
VERTEX
  8
_CURVE
 62
4
  6
CONTINUOUS
 10
14.8106159442
 20
12.7649090164
  0
VERTEX
  8
_CURVE
 62
4
  6
CONTINUOUS
 10
14.8335537206
 20
12.7497050795
  0
VERTEX
  8
_CURVE
 62
4
  6
CONTINUOUS
 10
14.8571099828
 20
12.7352195535
  0
VERTEX
  8
_CURVE
 62
4
  6
CONTINUOUS
 10
14.881377102
 20
12.7214401807
  0
VERTEX
  8
_CURVE
 62
4
  6
CONTINUOUS
 10
14.9064607476
 20
12.7083484993
  0
VERTEX
  8
_CURVE
 62
4
  6
CONTINUOUS
 10
14.9325197838
 20
12.6959012316
  0
VERTEX
  8
_CURVE
 62
4
  6
CONTINUOUS
 10
14.9597263735
 20
12.6840488958
  0
VERTEX
  8
_CURVE
 62
4
  6
CONTINUOUS
 10
14.9882224306
 20
12.6727590025
  0
VERTEX
  8
_CURVE
 62
4
  6
CONTINUOUS
 10
15.0180288733
 20
12.662067032
  0
VERTEX
  8
_CURVE
 62
4
  6
CONTINUOUS
 10
15.0491363708
 20
12.652025457
  0
VERTEX
  8
_CURVE
 62
4
  6
CONTINUOUS
 10
15.081542928
 20
12.6426829865
  0
VERTEX
  8
_CURVE
 62
4
  6
CONTINUOUS
 10
15.1152758923
 20
12.6340732759
  0
VERTEX
  8
_CURVE
 62
4
  6
CONTINUOUS
 10
15.1503699466
 20
12.6262262169
  0
VERTEX
  8
_CURVE
 62
4
  6
CONTINUOUS
 10
15.1776265158
 20
12.6208552982
  0
VERTEX
  8
_CURVE
 62
4
  6
CONTINUOUS
 10
15.205814534
 20
12.6159182179
  0
VERTEX
  8
_CURVE
 62
4
  6
CONTINUOUS
 10
15.2350803279
 20
12.6114030087
  0
VERTEX
  8
_CURVE
 62
4
  6
CONTINUOUS
 10
15.2655702242
 20
12.6072977033
  0
VERTEX
  8
_CURVE
 62
4
  6
CONTINUOUS
 10
15.2974271272
 20
12.6035881301
  0
VERTEX
  8
_CURVE
 62
4
  6
CONTINUOUS
 10
15.3307802511
 20
12.6002513002
  0
VERTEX
  8
_CURVE
 62
4
  6
CONTINUOUS
 10
15.3657553878
 20
12.5972620202
  0
VERTEX
  8
_CURVE
 62
4
  6
CONTINUOUS
 10
15.4024783291
 20
12.594595097
  0
VERTEX
  8
_CURVE
 62
4
  6
CONTINUOUS
 10
15.4410556968
 20
12.5922258192
  0
VERTEX
  8
_CURVE
 62
4
  6
CONTINUOUS
 10
15.4815174324
 20
12.5901314038
  0
VERTEX
  8
_CURVE
 62
4
  6
CONTINUOUS
 10
15.5238743077
 20
12.5882895496
  0
VERTEX
  8
_CURVE
 62
4
  6
CONTINUOUS
 10
15.5681370942
 20
12.5866779556
  0
VERTEX
  8
_CURVE
 62
4
  6
CONTINUOUS
 10
15.6049319756
 20
12.5855404035
  0
VERTEX
  8
_CURVE
 62
4
  6
CONTINUOUS
 10
15.6429899941
 20
12.5845300596
  0
VERTEX
  8
_CURVE
 62
4
  6
CONTINUOUS
 10
15.6823476102
 20
12.5836410384
  0
VERTEX
  8
_CURVE
 62
4
  6
CONTINUOUS
 10
15.7230412841
 20
12.5828674543
  0
VERTEX
  8
_CURVE
 62
4
  6
CONTINUOUS
 10
15.7651074759
 20
12.5822034216
  0
VERTEX
  8
_CURVE
 62
4
  6
CONTINUOUS
 10
15.8085841029
 20
12.5816426177
  0
VERTEX
  8
_CURVE
 62
4
  6
CONTINUOUS
 10
15.899945099
 20
12.5807979723
  0
SEQEND
  0
LINE
  8
_CURVE
 62
4
  6
CONTINUOUS
 10
14.3907508175
 20
14.3826602284
 11
14.390972411
 21
14.226601545
  0
LINE
  8
_CURVE
 62
4
  6
CONTINUOUS
 10
14.3909213049
 20
24.1178369834
 11
14.3907508175
 21
14.3826602284
  0
LINE
  8
_CURVE
 62
4
  6
CONTINUOUS
 10
14.3912388506
 20
24.2117866169
 11
14.3909213049
 21
24.1178369834
  0
LINE
  8
_CURVE
 62
4
  6
CONTINUOUS
 10
14.391738619
 20
24.2872003541
 11
14.3912388506
 21
24.2117866169
  0
POLYLINE
  8
_CURVE
 62
4
  6
CONTINUOUS
 66
1
 70
0
  0
VERTEX
  8
_CURVE
 62
4
  6
CONTINUOUS
 10
14.393640802
 20
24.420933353
  0
VERTEX
  8
_CURVE
 62
4
  6
CONTINUOUS
 10
14.393041531
 20
24.3895290566
  0
VERTEX
  8
_CURVE
 62
4
  6
CONTINUOUS
 10
14.3925259746
 20
24.3568769114
  0
VERTEX
  8
_CURVE
 62
4
  6
CONTINUOUS
 10
14.391738619
 20
24.2872003541
  0
SEQEND
  0
LINE
  8
_CURVE
 62
4
  6
CONTINUOUS
 10
14.3949962774
 20
24.476579555
 11
14.393640802
 21
24.420933353
  0
POLYLINE
  8
_CURVE
 62
8
  6
PHANTOM
 66
1
 70
0
  0
VERTEX
  8
_CURVE
 62
8
  6
PHANTOM
 10
29.7985621649
 20
10.9520067343
  0
VERTEX
  8
_CURVE
 62
8
  6
PHANTOM
 10
29.8482329114
 20
10.9526645787
  0
VERTEX
  8
_CURVE
 62
8
  6
PHANTOM
 10
29.8978997964
 20
10.9546603177
  0
VERTEX
  8
_CURVE
 62
8
  6
PHANTOM
 10
29.9475125785
 20
10.9580272594
  0
VERTEX
  8
_CURVE
 62
8
  6
PHANTOM
 10
29.9970210163
 20
10.9627987123
  0
VERTEX
  8
_CURVE
 62
8
  6
PHANTOM
 10
30.0463748682
 20
10.9690079847
  0
VERTEX
  8
_CURVE
 62
8
  6
PHANTOM
 10
30.0955238929
 20
10.9766883849
  0
VERTEX
  8
_CURVE
 62
8
  6
PHANTOM
 10
30.1374496139
 20
10.9844662901
  0
VERTEX
  8
_CURVE
 62
8
  6
PHANTOM
 10
30.1791508704
 20
10.9933618254
  0
VERTEX
  8
_CURVE
 62
8
  6
PHANTOM
 10
30.2205905953
 20
11.003387321
  0
VERTEX
  8
_CURVE
 62
8
  6
PHANTOM
 10
30.2617317214
 20
11.0145551069
  0
VERTEX
  8
_CURVE
 62
8
  6
PHANTOM
 10
30.3025371818
 20
11.0268775132
  0
VERTEX
  8
_CURVE
 62
8
  6
PHANTOM
 10
30.3429699092
 20
11.04036687
  0
VERTEX
  8
_CURVE
 62
8
  6
PHANTOM
 10
30.3829928367
 20
11.0550355074
  0
VERTEX
  8
_CURVE
 62
8
  6
PHANTOM
 10
30.4225677647
 20
11.0708927308
  0
VERTEX
  8
_CURVE
 62
8
  6
PHANTOM
 10
30.4616519643
 20
11.0879357467
  0
VERTEX
  8
_CURVE
 62
8
  6
PHANTOM
 10
30.500201574
 20
11.1061587371
  0
VERTEX
  8
_CURVE
 62
8
  6
PHANTOM
 10
30.5381727327
 20
11.1255558838
  0
VERTEX
  8
_CURVE
 62
8
  6
PHANTOM
 10
30.5755215787
 20
11.1461213688
  0
VERTEX
  8
_CURVE
 62
8
  6
PHANTOM
 10
30.6122042509
 20
11.1678493738
  0
VERTEX
  8
_CURVE
 62
8
  6
PHANTOM
 10
30.6481768879
 20
11.1907340808
  0
VERTEX
  8
_CURVE
 62
8
  6
PHANTOM
 10
30.6833969149
 20
11.2147660465
  0
VERTEX
  8
_CURVE
 62
8
  6
PHANTOM
 10
30.7178269043
 20
11.2399213269
  0
VERTEX
  8
_CURVE
 62
8
  6
PHANTOM
 10
30.7514307147
 20
11.2661723527
  0
VERTEX
  8
_CURVE
 62
8
  6
PHANTOM
 10
30.7841722053
 20
11.2934915549
  0
VERTEX
  8
_CURVE
 62
8
  6
PHANTOM
 10
30.8160152347
 20
11.3218513642
  0
VERTEX
  8
_CURVE
 62
8
  6
PHANTOM
 10
30.846923662
 20
11.3512242114
  0
VERTEX
  8
_CURVE
 62
8
  6
PHANTOM
 10
30.8768613459
 20
11.3815825274
  0
VERTEX
  8
_CURVE
 62
8
  6
PHANTOM
 10
30.9057952716
 20
11.4128964882
  0
VERTEX
  8
_CURVE
 62
8
  6
PHANTOM
 10
30.9337049287
 20
11.445127251
  0
VERTEX
  8
_CURVE
 62
8
  6
PHANTOM
 10
30.9605729329
 20
11.4782337182
  0
VERTEX
  8
_CURVE
 62
8
  6
PHANTOM
 10
30.9863819001
 20
11.5121747924
  0
VERTEX
  8
_CURVE
 62
8
  6
PHANTOM
 10
31.011114446
 20
11.546909376
  0
VERTEX
  8
_CURVE
 62
8
  6
PHANTOM
 10
31.0347531865
 20
11.5823963714
  0
VERTEX
  8
_CURVE
 62
8
  6
PHANTOM
 10
31.0572807373
 20
11.618594681
  0
VERTEX
  8
_CURVE
 62
8
  6
PHANTOM
 10
31.0786829458
 20
11.6554631778
  0
VERTEX
  8
_CURVE
 62
8
  6
PHANTOM
 10
31.098958586
 20
11.6929606163
  0
VERTEX
  8
_CURVE
 62
8
  6
PHANTOM
 10
31.1181096635
 20
11.7310457214
  0
VERTEX
  8
_CURVE
 62
8
  6
PHANTOM
 10
31.1361381838
 20
11.769677218
  0
VERTEX
  8
_CURVE
 62
8
  6
PHANTOM
 10
31.1530461524
 20
11.8088138312
  0
VERTEX
  8
_CURVE
 62
8
  6
PHANTOM
 10
31.1688355749
 20
11.8484142858
  0
VERTEX
  8
_CURVE
 62
8
  6
PHANTOM
 10
31.1835084568
 20
11.8884373068
  0
VERTEX
  8
_CURVE
 62
8
  6
PHANTOM
 10
31.1992215021
 20
11.9356123394
  0
VERTEX
  8
_CURVE
 62
8
  6
PHANTOM
 10
31.2134398699
 20
11.9832557873
  0
VERTEX
  8
_CURVE
 62
8
  6
PHANTOM
 10
31.2261858884
 20
12.0313170861
  0
VERTEX
  8
_CURVE
 62
8
  6
PHANTOM
 10
31.2374818861
 20
12.079745671
  0
VERTEX
  8
_CURVE
 62
8
  6
PHANTOM
 10
31.2473501914
 20
12.1284909777
  0
VERTEX
  8
_CURVE
 62
8
  6
PHANTOM
 10
31.2558131327
 20
12.1775024415
  0
VERTEX
  8
_CURVE
 62
8
  6
PHANTOM
 10
31.262894229
 20
12.2267308392
  0
VERTEX
  8
_CURVE
 62
8
  6
PHANTOM
 10
31.2686217626
 20
12.276132312
  0
VERTEX
  8
_CURVE
 62
8
  6
PHANTOM
 10
31.2730252063
 20
12.3256643427
  0
VERTEX
  8
_CURVE
 62
8
  6
PHANTOM
 10
31.276134033
 20
12.3752844138
  0
VERTEX
  8
_CURVE
 62
8
  6
PHANTOM
 10
31.2779777155
 20
12.4249500079
  0
VERTEX
  8
_CURVE
 62
8
  6
PHANTOM
 10
31.2785857268
 20
12.4746186076
  0
SEQEND
  0
POLYLINE
  8
_CURVE
 62
4
  6
CONTINUOUS
 66
1
 70
0
  0
VERTEX
  8
_CURVE
 62
4
  6
CONTINUOUS
 10
28.0623320989
 20
11.4264939169
  0
VERTEX
  8
_CURVE
 62
4
  6
CONTINUOUS
 10
28.1561862699
 20
11.4267912103
  0
VERTEX
  8
_CURVE
 62
4
  6
CONTINUOUS
 10
28.2493267702
 20
11.4272625072
  0
VERTEX
  8
_CURVE
 62
4
  6
CONTINUOUS
 10
28.3418472549
 20
11.4279625306
  0
VERTEX
  8
_CURVE
 62
4
  6
CONTINUOUS
 10
28.433873363
 20
11.428951025
  0
VERTEX
  8
_CURVE
 62
4
  6
CONTINUOUS
 10
28.5256001866
 20
11.4303056757
  0
VERTEX
  8
_CURVE
 62
4
  6
CONTINUOUS
 10
28.6022672222
 20
11.4317813797
  0
VERTEX
  8
_CURVE
 62
4
  6
CONTINUOUS
 10
28.677542495
 20
11.4335907382
  0
VERTEX
  8
_CURVE
 62
4
  6
CONTINUOUS
 10
28.7514924665
 20
11.4357718603
  0
VERTEX
  8
_CURVE
 62
4
  6
CONTINUOUS
 10
28.8242339148
 20
11.4383646729
  0
VERTEX
  8
_CURVE
 62
4
  6
CONTINUOUS
 10
28.9194772375
 20
11.4425318959
  0
VERTEX
  8
_CURVE
 62
4
  6
CONTINUOUS
 10
29.0129326456
 20
11.4476040813
  0
VERTEX
  8
_CURVE
 62
4
  6
CONTINUOUS
 10
29.1048329016
 20
11.4536842053
  0
VERTEX
  8
_CURVE
 62
4
  6
CONTINUOUS
 10
29.1954312472
 20
11.4608763455
  0
VERTEX
  8
_CURVE
 62
4
  6
CONTINUOUS
 10
29.2850628399
 20
11.469288987
  0
VERTEX
  8
_CURVE
 62
4
  6
CONTINUOUS
 10
29.3740833164
 20
11.4790317163
  0
VERTEX
  8
_CURVE
 62
4
  6
CONTINUOUS
 10
29.4627435023
 20
11.4902233638
  0
VERTEX
  8
_CURVE
 62
4
  6
CONTINUOUS
 10
29.5508749804
 20
11.5030197348
  0
VERTEX
  8
_CURVE
 62
4
  6
CONTINUOUS
 10
29.6382045223
 20
11.5175858783
  0
VERTEX
  8
_CURVE
 62
4
  6
CONTINUOUS
 10
29.7030054962
 20
11.5297719373
  0
VERTEX
  8
_CURVE
 62
4
  6
CONTINUOUS
 10
29.7670531334
 20
11.5431204698
  0
VERTEX
  8
_CURVE
 62
4
  6
CONTINUOUS
 10
29.8301988769
 20
11.5577056121
  0
VERTEX
  8
_CURVE
 62
4
  6
CONTINUOUS
 10
29.8922941699
 20
11.5736015006
  0
VERTEX
  8
_CURVE
 62
4
  6
CONTINUOUS
 10
29.941119564
 20
11.5873203911
  0
VERTEX
  8
_CURVE
 62
4
  6
CONTINUOUS
 10
29.9891334176
 20
11.6020153011
  0
VERTEX
  8
_CURVE
 62
4
  6
CONTINUOUS
 10
30.0362915549
 20
11.6177759252
  0
VERTEX
  8
_CURVE
 62
4
  6
CONTINUOUS
 10
30.0825498
 20
11.6346919581
  0
VERTEX
  8
_CURVE
 62
4
  6
CONTINUOUS
 10
30.1278639772
 20
11.6528530944
  0
VERTEX
  8
_CURVE
 62
4
  6
CONTINUOUS
 10
30.1648701005
 20
11.6690076567
  0
VERTEX
  8
_CURVE
 62
4
  6
CONTINUOUS
 10
30.2011484347
 20
11.6861677759
  0
VERTEX
  8
_CURVE
 62
4
  6
CONTINUOUS
 10
30.2366574711
 20
11.7044120659
  0
VERTEX
  8
_CURVE
 62
4
  6
CONTINUOUS
 10
30.271355701
 20
11.7238191404
  0
VERTEX
  8
_CURVE
 62
4
  6
CONTINUOUS
 10
30.3052016157
 20
11.7444676134
  0
VERTEX
  8
_CURVE
 62
4
  6
CONTINUOUS
 10
30.3381537065
 20
11.7664360985
  0
VERTEX
  8
_CURVE
 62
4
  6
CONTINUOUS
 10
30.3701550062
 20
11.7897916941
  0
VERTEX
  8
_CURVE
 62
4
  6
CONTINUOUS
 10
30.4010867139
 20
11.8145554355
  0
VERTEX
  8
_CURVE
 62
4
  6
CONTINUOUS
 10
30.4308145704
 20
11.8407368425
  0
VERTEX
  8
_CURVE
 62
4
  6
CONTINUOUS
 10
30.4592242032
 20
11.8683361123
  0
VERTEX
  8
_CURVE
 62
4
  6
CONTINUOUS
 10
30.486280788
 20
11.8973161527
  0
VERTEX
  8
_CURVE
 62
4
  6
CONTINUOUS
 10
30.5119693876
 20
11.9276305487
  0
VERTEX
  8
_CURVE
 62
4
  6
CONTINUOUS
 10
30.5305193278
 20
11.951468008
  0
VERTEX
  8
_CURVE
 62
4
  6
CONTINUOUS
 10
30.548307946
 20
11.9760790774
  0
VERTEX
  8
_CURVE
 62
4
  6
CONTINUOUS
 10
30.5653678052
 20
12.0014980079
  0
VERTEX
  8
_CURVE
 62
4
  6
CONTINUOUS
 10
30.5817218466
 20
12.027747811
  0
VERTEX
  8
_CURVE
 62
4
  6
CONTINUOUS
 10
30.5973545259
 20
12.0548065412
  0
VERTEX
  8
_CURVE
 62
4
  6
CONTINUOUS
 10
30.6122406772
 20
12.0826410134
  0
VERTEX
  8
_CURVE
 62
4
  6
CONTINUOUS
 10
30.6290921625
 20
12.1170175339
  0
VERTEX
  8
_CURVE
 62
4
  6
CONTINUOUS
 10
30.6448426481
 20
12.1523933875
  0
VERTEX
  8
_CURVE
 62
4
  6
CONTINUOUS
 10
30.6595023735
 20
12.1886986251
  0
VERTEX
  8
_CURVE
 62
4
  6
CONTINUOUS
 10
30.6730815782
 20
12.2258632978
  0
VERTEX
  8
_CURVE
 62
4
  6
CONTINUOUS
 10
30.6855905018
 20
12.2638174567
  0
VERTEX
  8
_CURVE
 62
4
  6
CONTINUOUS
 10
30.699755611
 20
12.3122540893
  0
VERTEX
  8
_CURVE
 62
4
  6
CONTINUOUS
 10
30.7123950343
 20
12.3616200712
  0
VERTEX
  8
_CURVE
 62
4
  6
CONTINUOUS
 10
30.7236394008
 20
12.4117204746
  0
VERTEX
  8
_CURVE
 62
4
  6
CONTINUOUS
 10
30.7336193394
 20
12.462360372
  0
VERTEX
  8
_CURVE
 62
4
  6
CONTINUOUS
 10
30.7451847475
 20
12.5304121252
  0
VERTEX
  8
_CURVE
 62
4
  6
CONTINUOUS
 10
30.7550437475
 20
12.5987919255
  0
VERTEX
  8
_CURVE
 62
4
  6
CONTINUOUS
 10
30.7635055731
 20
12.6672152581
  0
VERTEX
  8
_CURVE
 62
4
  6
CONTINUOUS
 10
30.7708422699
 20
12.7354728477
  0
VERTEX
  8
_CURVE
 62
4
  6
CONTINUOUS
 10
30.7771771285
 20
12.8036563787
  0
VERTEX
  8
_CURVE
 62
4
  6
CONTINUOUS
 10
30.7825962509
 20
12.8719327753
  0
VERTEX
  8
_CURVE
 62
4
  6
CONTINUOUS
 10
30.7891913571
 20
12.9748078421
  0
VERTEX
  8
_CURVE
 62
4
  6
CONTINUOUS
 10
30.7941808588
 20
13.0783580194
  0
VERTEX
  8
_CURVE
 62
4
  6
CONTINUOUS
 10
30.7978249941
 20
13.1826505061
  0
VERTEX
  8
_CURVE
 62
4
  6
CONTINUOUS
 10
30.8003806654
 20
13.2876589612
  0
VERTEX
  8
_CURVE
 62
4
  6
CONTINUOUS
 10
30.8020970078
 20
13.3932713249
  0
VERTEX
  8
_CURVE
 62
4
  6
CONTINUOUS
 10
30.8027099409
 20
13.4462171655
  0
VERTEX
  8
_CURVE
 62
4
  6
CONTINUOUS
 10
30.8031935765
 20
13.4991878179
  0
VERTEX
  8
_CURVE
 62
4
  6
CONTINUOUS
 10
30.8036861655
 20
13.5712898453
  0
VERTEX
  8
_CURVE
 62
4
  6
CONTINUOUS
 10
30.8040240912
 20
13.6421803916
  0
VERTEX
  8
_CURVE
 62
4
  6
CONTINUOUS
 10
30.8043777453
 20
13.781502195
  0
SEQEND
  0
LINE
  8
_CURVE
 62
4
  6
CONTINUOUS
 10
27.8715266577
 20
11.4262082689
 11
28.0623320989
 21
11.4264939169
  0
LINE
  8
_CURVE
 62
8
  6
PHANTOM
 10
14.2429099673
 20
10.9520067343
 11
29.7985621649
 21
10.9520067343
  0
LINE
  8
_CURVE
 62
4
  6
CONTINUOUS
 10
27.8715266577
 20
11.4262082689
 11
16.2674197563
 21
11.4261711325
  0
LINE
  8
_CURVE
 62
4
  6
CONTINUOUS
 10
14.8957360662
 20
11.8348563951
 11
29.1457360661
 21
11.8348563951
  0
POLYLINE
  8
_CURVE
 62
4
  6
CONTINUOUS
 66
1
 70
0
  0
VERTEX
  8
_CURVE
 62
4
  6
CONTINUOUS
 10
28.2328881033
 20
12.5816426432
  0
VERTEX
  8
_CURVE
 62
4
  6
CONTINUOUS
 10
28.2763646974
 20
12.5822034222
  0
VERTEX
  8
_CURVE
 62
4
  6
CONTINUOUS
 10
28.3184308385
 20
12.5828674203
  0
VERTEX
  8
_CURVE
 62
4
  6
CONTINUOUS
 10
28.3591244546
 20
12.583640972
  0
VERTEX
  8
_CURVE
 62
4
  6
CONTINUOUS
 10
28.3984820196
 20
12.5845299776
  0
VERTEX
  8
_CURVE
 62
4
  6
CONTINUOUS
 10
28.4365400075
 20
12.5855403371
  0
VERTEX
  8
_CURVE
 62
4
  6
CONTINUOUS
 10
28.4733348923
 20
12.5866779508
  0
VERTEX
  8
_CURVE
 62
4
  6
CONTINUOUS
 10
28.5175977486
 20
12.5882896856
  0
VERTEX
  8
_CURVE
 62
4
  6
CONTINUOUS
 10
28.5599547741
 20
12.5901316668
  0
VERTEX
  8
_CURVE
 62
4
  6
CONTINUOUS
 10
28.6004167461
 20
12.5922260872
  0
VERTEX
  8
_CURVE
 62
4
  6
CONTINUOUS
 10
28.6389944421
 20
12.5945951397
  0
VERTEX
  8
_CURVE
 62
4
  6
CONTINUOUS
 10
28.6742832198
 20
12.5971489048
  0
VERTEX
  8
_CURVE
 62
4
  6
CONTINUOUS
 10
28.70795639
 20
12.5999988604
  0
VERTEX
  8
_CURVE
 62
4
  6
CONTINUOUS
 10
28.7401249616
 20
12.6031676431
  0
VERTEX
  8
_CURVE
 62
4
  6
CONTINUOUS
 10
28.7708999437
 20
12.6066778894
  0
VERTEX
  8
_CURVE
 62
4
  6
CONTINUOUS
 10
28.8027993918
 20
12.6108897345
  0
VERTEX
  8
_CURVE
 62
4
  6
CONTINUOUS
 10
28.8333572942
 20
12.615542622
  0
VERTEX
  8
_CURVE
 62
4
  6
CONTINUOUS
 10
28.8627373561
 20
12.6206502822
  0
VERTEX
  8
_CURVE
 62
4
  6
CONTINUOUS
 10
28.8911032826
 20
12.6262264454
  0
VERTEX
  8
_CURVE
 62
4
  6
CONTINUOUS
 10
28.9248195289
 20
12.6337442482
  0
VERTEX
  8
_CURVE
 62
4
  6
CONTINUOUS
 10
28.9572797812
 20
12.6419664252
  0
VERTEX
  8
_CURVE
 62
4
  6
CONTINUOUS
 10
28.9885162711
 20
12.6508668667
  0
VERTEX
  8
_CURVE
 62
4
  6
CONTINUOUS
 10
29.0210037989
 20
12.6612399451
  0
VERTEX
  8
_CURVE
 62
4
  6
CONTINUOUS
 10
29.05208349
 20
12.6723200809
  0
VERTEX
  8
_CURVE
 62
4
  6
CONTINUOUS
 10
29.0817459014
 20
12.6840489551
  0
VERTEX
  8
_CURVE
 62
4
  6
CONTINUOUS
 10
29.1089521484
 20
12.6959010759
  0
VERTEX
  8
_CURVE
 62
4
  6
CONTINUOUS
 10
29.1350112174
 20
12.7083483795
  0
VERTEX
  8
_CURVE
 62
4
  6
CONTINUOUS
 10
29.1600950155
 20
12.7214401726
  0
VERTEX
  8
_CURVE
 62
4
  6
CONTINUOUS
 10
29.1843622029
 20
12.7352195941
  0
VERTEX
  8
_CURVE
 62
4
  6
CONTINUOUS
 10
29.2079184512
 20
12.749705109
  0
VERTEX
  8
_CURVE
 62
4
  6
CONTINUOUS
 10
29.2308561848
 20
12.7649090142
  0
VERTEX
  8
_CURVE
 62
4
  6
CONTINUOUS
 10
29.2642294722
 20
12.7890361881
  0
VERTEX
  8
_CURVE
 62
4
  6
CONTINUOUS
 10
29.2962763283
 20
12.8145335175
  0
VERTEX
  8
_CURVE
 62
4
  6
CONTINUOUS
 10
29.3268540247
 20
12.841127112
  0
VERTEX
  8
_CURVE
 62
4
  6
CONTINUOUS
 10
29.3558198327
 20
12.8685430807
  0
VERTEX
  8
_CURVE
 62
4
  6
CONTINUOUS
 10
29.3741611765
 20
12.887132067
  0
VERTEX
  8
_CURVE
 62
4
  6
CONTINUOUS
 10
29.3916610914
 20
12.9058239941
  0
VERTEX
  8
_CURVE
 62
4
  6
CONTINUOUS
 10
29.408257978
 20
12.9244780323
  0
VERTEX
  8
_CURVE
 62
4
  6
CONTINUOUS
 10
29.4238963022
 20
12.9429607282
  0
VERTEX
  8
_CURVE
 62
4
  6
CONTINUOUS
 10
29.438544789
 20
12.9611681342
  0
VERTEX
  8
_CURVE
 62
4
  6
CONTINUOUS
 10
29.4521782288
 20
12.979003679
  0
VERTEX
  8
_CURVE
 62
4
  6
CONTINUOUS
 10
29.4647912848
 20
12.9963985561
  0
VERTEX
  8
_CURVE
 62
4
  6
CONTINUOUS
 10
29.4764581128
 20
13.0133950176
  0
VERTEX
  8
_CURVE
 62
4
  6
CONTINUOUS
 10
29.4872727413
 20
13.0300630804
  0
VERTEX
  8
_CURVE
 62
4
  6
CONTINUOUS
 10
29.5020934558
 20
13.0546091261
  0
VERTEX
  8
_CURVE
 62
4
  6
CONTINUOUS
 10
29.5154713786
 20
13.0788493436
  0
VERTEX
  8
_CURVE
 62
4
  6
CONTINUOUS
 10
29.5276740102
 20
13.1030972703
  0
VERTEX
  8
_CURVE
 62
4
  6
CONTINUOUS
 10
29.5389864863
 20
13.1278184689
  0
VERTEX
  8
_CURVE
 62
4
  6
CONTINUOUS
 10
29.5496479888
 20
13.1534056408
  0
VERTEX
  8
_CURVE
 62
4
  6
CONTINUOUS
 10
29.5596962506
 20
13.1798080187
  0
VERTEX
  8
_CURVE
 62
4
  6
CONTINUOUS
 10
29.5691146223
 20
13.2068772703
  0
VERTEX
  8
_CURVE
 62
4
  6
CONTINUOUS
 10
29.577870373
 20
13.2345182748
  0
VERTEX
  8
_CURVE
 62
4
  6
CONTINUOUS
 10
29.5859465189
 20
13.2627111388
  0
VERTEX
  8
_CURVE
 62
4
  6
CONTINUOUS
 10
29.5934051461
 20
13.2916836701
  0
VERTEX
  8
_CURVE
 62
4
  6
CONTINUOUS
 10
29.6003164601
 20
13.3217115166
  0
VERTEX
  8
_CURVE
 62
4
  6
CONTINUOUS
 10
29.6067040758
 20
13.3530139872
  0
VERTEX
  8
_CURVE
 62
4
  6
CONTINUOUS
 10
29.61257996
 20
13.3857963061
  0
VERTEX
  8
_CURVE
 62
4
  6
CONTINUOUS
 10
29.6179560798
 20
13.4202636975
  0
VERTEX
  8
_CURVE
 62
4
  6
CONTINUOUS
 10
29.6212687421
 20
13.4442834456
  0
VERTEX
  8
_CURVE
 62
4
  6
CONTINUOUS
 10
29.6243700696
 20
13.4692280761
  0
VERTEX
  8
_CURVE
 62
4
  6
CONTINUOUS
 10
29.6272655265
 20
13.4951823392
  0
VERTEX
  8
_CURVE
 62
4
  6
CONTINUOUS
 10
29.6299598531
 20
13.5222152006
  0
VERTEX
  8
_CURVE
 62
4
  6
CONTINUOUS
 10
29.6324548952
 20
13.5503324862
  0
VERTEX
  8
_CURVE
 62
4
  6
CONTINUOUS
 10
29.6347517747
 20
13.5795242371
  0
VERTEX
  8
_CURVE
 62
4
  6
CONTINUOUS
 10
29.6368525446
 20
13.6097709
  0
VERTEX
  8
_CURVE
 62
4
  6
CONTINUOUS
 10
29.6387629815
 20
13.6410145434
  0
VERTEX
  8
_CURVE
 62
4
  6
CONTINUOUS
 10
29.640489793
 20
13.6731876417
  0
VERTEX
  8
_CURVE
 62
4
  6
CONTINUOUS
 10
29.6427507323
 20
13.723042614
  0
VERTEX
  8
_CURVE
 62
4
  6
CONTINUOUS
 10
29.6446383256
 20
13.7746108859
  0
VERTEX
  8
_CURVE
 62
4
  6
CONTINUOUS
 10
29.6461796307
 20
13.8276766434
  0
VERTEX
  8
_CURVE
 62
4
  6
CONTINUOUS
 10
29.6474110611
 20
13.8820649792
  0
VERTEX
  8
_CURVE
 62
4
  6
CONTINUOUS
 10
29.6483714527
 20
13.9376115409
  0
VERTEX
  8
_CURVE
 62
4
  6
CONTINUOUS
 10
29.6490999763
 20
13.9941532875
  0
VERTEX
  8
_CURVE
 62
4
  6
CONTINUOUS
 10
29.6496367425
 20
14.0515213113
  0
VERTEX
  8
_CURVE
 62
4
  6
CONTINUOUS
 10
29.6500252875
 20
14.1095219287
  0
VERTEX
  8
_CURVE
 62
4
  6
CONTINUOUS
 10
29.6504997212
 20
14.226601545
  0
VERTEX
  8
_CURVE
 62
4
  6
CONTINUOUS
 10
29.6506540424
 20
14.3047964016
  0
VERTEX
  8
_CURVE
 62
4
  6
CONTINUOUS
 10
29.6507084117
 20
23.9845157311
  0
SEQEND
  0
LINE
  8
_CURVE
 62
4
  6
CONTINUOUS
 10
28.1415271245
 20
12.5807980181
 11
28.2328881033
 21
12.5816426432
  0
LINE
  8
_CURVE
 62
4
  6
CONTINUOUS
 10
28.043987769
 20
12.5802659237
 11
28.1415271245
 21
12.5807980181
  0
LINE
  8
_CURVE
 62
4
  6
CONTINUOUS
 10
27.9399084496
 20
12.5799783045
 11
28.043987769
 21
12.5802659237
  0
LINE
  8
_CURVE
 62
4
  6
CONTINUOUS
 10
27.7707360661
 20
12.579856395
 11
27.9399084496
 21
12.5799783045
  0
LINE
  8
_CURVE
 62
4
  6
CONTINUOUS
 10
16.1015637097
 20
12.5799782849
 11
27.7707360661
 21
12.579856395
  0
LINE
  8
_CURVE
 62
4
  6
CONTINUOUS
 10
15.9974844297
 20
12.5802658849
 11
16.1015637097
 21
12.5799782849
  0
LINE
  8
_CURVE
 62
4
  6
CONTINUOUS
 10
15.899945099
 20
12.5807979723
 11
15.9974844297
 21
12.5802658849
  0
LINE
  8
_CURVE
 62
4
  6
CONTINUOUS
 10
21.0784481971
 20
25.7148563953
 11
21.2887941748
 21
25.9252023729
  0
LINE
  8
_CURVE
 62
4
  6
CONTINUOUS
 10
22.9630239364
 20
25.7148563951
 11
22.7526779587
 21
25.9252023729
  0
POLYLINE
  8
_CURVE
 62
4
  6
CONTINUOUS
 66
1
 70
0
  0
VERTEX
  8
_CURVE
 62
4
  6
CONTINUOUS
 10
15.7735534007
 20
25.7137304517
  0
VERTEX
  8
_CURVE
 62
4
  6
CONTINUOUS
 10
15.7330923001
 20
25.7132822711
  0
VERTEX
  8
_CURVE
 62
4
  6
CONTINUOUS
 10
15.693327054
 20
25.7126942587
  0
VERTEX
  8
_CURVE
 62
4
  6
CONTINUOUS
 10
15.6543804026
 20
25.7119464665
  0
VERTEX
  8
_CURVE
 62
4
  6
CONTINUOUS
 10
15.6163457137
 20
25.711027172
  0
VERTEX
  8
_CURVE
 62
4
  6
CONTINUOUS
 10
15.5892945612
 20
25.7102450952
  0
VERTEX
  8
_CURVE
 62
4
  6
CONTINUOUS
 10
15.5627799501
 20
25.7093632366
  0
VERTEX
  8
_CURVE
 62
4
  6
CONTINUOUS
 10
15.5367989601
 20
25.7083770947
  0
VERTEX
  8
_CURVE
 62
4
  6
CONTINUOUS
 10
15.5113034299
 20
25.707279779
  0
VERTEX
  8
_CURVE
 62
4
  6
CONTINUOUS
 10
15.4616354995
 20
25.7047265099
  0
VERTEX
  8
_CURVE
 62
4
  6
CONTINUOUS
 10
15.4138235632
 20
25.7016677002
  0
VERTEX
  8
_CURVE
 62
4
  6
CONTINUOUS
 10
15.369803097
 20
25.6982279153
  0
VERTEX
  8
_CURVE
 62
4
  6
CONTINUOUS
 10
15.3277182031
 20
25.6942721965
  0
VERTEX
  8
_CURVE
 62
4
  6
CONTINUOUS
 10
15.2985640737
 20
25.691083984
  0
VERTEX
  8
_CURVE
 62
4
  6
CONTINUOUS
 10
15.2704287193
 20
25.6876176516
  0
VERTEX
  8
_CURVE
 62
4
  6
CONTINUOUS
 10
15.2432769906
 20
25.6838754362
  0
VERTEX
  8
_CURVE
 62
4
  6
CONTINUOUS
 10
15.2057812363
 20
25.6780007087
  0
VERTEX
  8
_CURVE
 62
4
  6
CONTINUOUS
 10
15.1701770202
 20
25.6715879475
  0
VERTEX
  8
_CURVE
 62
4
  6
CONTINUOUS
 10
15.1363828116
 20
25.6646683713
  0
VERTEX
  8
_CURVE
 62
4
  6
CONTINUOUS
 10
15.1043170797
 20
25.6572731988
  0
VERTEX
  8
_CURVE
 62
4
  6
CONTINUOUS
 10
15.0738955316
 20
25.649430707
  0
VERTEX
  8
_CURVE
 62
4
  6
CONTINUOUS
 10
15.0450228273
 20
25.6411574078
  0
VERTEX
  8
_CURVE
 62
4
  6
CONTINUOUS
 10
15.0176008648
 20
25.6324668712
  0
VERTEX
  8
_CURVE
 62
4
  6
CONTINUOUS
 10
14.991531542
 20
25.6233726674
  0
VERTEX
  8
_CURVE
 62
4
  6
CONTINUOUS
 10
14.9667135403
 20
25.6138848959
  0
VERTEX
  8
_CURVE
 62
4
  6
CONTINUOUS
 10
14.9430326743
 20
25.6039997726
  0
VERTEX
  8
_CURVE
 62
4
  6
CONTINUOUS
 10
14.920371542
 20
25.593710043
  0
VERTEX
  8
_CURVE
 62
4
  6
CONTINUOUS
 10
14.8986127412
 20
25.5830084522
  0
VERTEX
  8
_CURVE
 62
4
  6
CONTINUOUS
 10
14.8784634017
 20
25.5723384327
  0
VERTEX
  8
_CURVE
 62
4
  6
CONTINUOUS
 10
14.8589286326
 20
25.5612620628
  0
VERTEX
  8
_CURVE
 62
4
  6
CONTINUOUS
 10
14.8383487722
 20
25.5487864185
  0
VERTEX
  8
_CURVE
 62
4
  6
CONTINUOUS
 10
14.8183170657
 20
25.5358184463
  0
VERTEX
  8
_CURVE
 62
4
  6
CONTINUOUS
 10
14.7933712793
 20
25.5184859056
  0
VERTEX
  8
_CURVE
 62
4
  6
CONTINUOUS
 10
14.7691962384
 20
25.5003760618
  0
VERTEX
  8
_CURVE
 62
4
  6
CONTINUOUS
 10
14.7457363337
 20
25.4815074319
  0
VERTEX
  8
_CURVE
 62
4
  6
CONTINUOUS
 10
14.728585682
 20
25.466875577
  0
VERTEX
  8
_CURVE
 62
4
  6
CONTINUOUS
 10
14.7118330823
 20
25.4518737241
  0
VERTEX
  8
_CURVE
 62
4
  6
CONTINUOUS
 10
14.695507342
 20
25.4365509817
  0
VERTEX
  8
_CURVE
 62
4
  6
CONTINUOUS
 10
14.6796442265
 20
25.4209672784
  0
VERTEX
  8
_CURVE
 62
4
  6
CONTINUOUS
 10
14.6594725924
 20
25.4000944574
  0
VERTEX
  8
_CURVE
 62
4
  6
CONTINUOUS
 10
14.6402182977
 20
25.378951275
  0
VERTEX
  8
_CURVE
 62
4
  6
CONTINUOUS
 10
14.6219258746
 20
25.3576094349
  0
VERTEX
  8
_CURVE
 62
4
  6
CONTINUOUS
 10
14.6046334648
 20
25.3361269813
  0
VERTEX
  8
_CURVE
 62
4
  6
CONTINUOUS
 10
14.5889855466
 20
25.315393699
  0
VERTEX
  8
_CURVE
 62
4
  6
CONTINUOUS
 10
14.5741936132
 20
25.2944582201
  0
VERTEX
  8
_CURVE
 62
4
  6
CONTINUOUS
 10
14.5590338786
 20
25.2714250356
  0
VERTEX
  8
_CURVE
 62
4
  6
CONTINUOUS
 10
14.5447204266
 20
25.2479600933
  0
VERTEX
  8
_CURVE
 62
4
  6
CONTINUOUS
 10
14.5322358083
 20
25.2258940876
  0
VERTEX
  8
_CURVE
 62
4
  6
CONTINUOUS
 10
14.5204805154
 20
25.2035012184
  0
VERTEX
  8
_CURVE
 62
4
  6
CONTINUOUS
 10
14.5085997865
 20
25.178944375
  0
VERTEX
  8
_CURVE
 62
4
  6
CONTINUOUS
 10
14.4975641037
 20
25.1540515492
  0
VERTEX
  8
_CURVE
 62
4
  6
CONTINUOUS
 10
14.4845549413
 20
25.1215224914
  0
VERTEX
  8
_CURVE
 62
4
  6
CONTINUOUS
 10
14.4727172468
 20
25.0879956126
  0
VERTEX
  8
_CURVE
 62
4
  6
CONTINUOUS
 10
14.4619359614
 20
25.0531086269
  0
VERTEX
  8
_CURVE
 62
4
  6
CONTINUOUS
 10
14.4547641598
 20
25.0269436544
  0
VERTEX
  8
_CURVE
 62
4
  6
CONTINUOUS
 10
14.4480445498
 20
24.9997459239
  0
VERTEX
  8
_CURVE
 62
4
  6
CONTINUOUS
 10
14.441241213
 20
24.96898255
  0
VERTEX
  8
_CURVE
 62
4
  6
CONTINUOUS
 10
14.4349259207
 20
24.9368361131
  0
VERTEX
  8
_CURVE
 62
4
  6
CONTINUOUS
 10
14.4293118584
 20
24.9046096419
  0
VERTEX
  8
_CURVE
 62
4
  6
CONTINUOUS
 10
14.4241399149
 20
24.8710574566
  0
VERTEX
  8
_CURVE
 62
4
  6
CONTINUOUS
 10
14.419401569
 20
24.8361388994
  0
VERTEX
  8
_CURVE
 62
4
  6
CONTINUOUS
 10
14.4150882995
 20
24.799813313
  0
VERTEX
  8
_CURVE
 62
4
  6
CONTINUOUS
 10
14.4111906033
 20
24.762035776
  0
VERTEX
  8
_CURVE
 62
4
  6
CONTINUOUS
 10
14.4076950503
 20
24.7227443133
  0
VERTEX
  8
_CURVE
 62
4
  6
CONTINUOUS
 10
14.4045872289
 20
24.681872686
  0
VERTEX
  8
_CURVE
 62
4
  6
CONTINUOUS
 10
14.4018527272
 20
24.6393546551
  0
VERTEX
  8
_CURVE
 62
4
  6
CONTINUOUS
 10
14.3994767768
 20
24.5951264552
  0
VERTEX
  8
_CURVE
 62
4
  6
CONTINUOUS
 10
14.397443182
 20
24.549134214
  0
VERTEX
  8
_CURVE
 62
4
  6
CONTINUOUS
 10
14.396549504
 20
24.5254544766
  0
VERTEX
  8
_CURVE
 62
4
  6
CONTINUOUS
 10
14.3949962774
 20
24.476579555
  0
SEQEND
  0
POLYLINE
  8
_CURVE
 62
4
  6
CONTINUOUS
 66
1
 70
0
  0
VERTEX
  8
_CURVE
 62
4
  6
CONTINUOUS
 10
15.9395409904
 20
25.7146016587
  0
VERTEX
  8
_CURVE
 62
4
  6
CONTINUOUS
 10
15.8560087761
 20
25.7143019329
  0
VERTEX
  8
_CURVE
 62
4
  6
CONTINUOUS
 10
15.7735534007
 20
25.7137304517
  0
SEQEND
  0
LINE
  8
_CURVE
 62
4
  6
CONTINUOUS
 10
16.1066177236
 20
25.7148212522
 11
15.9395409904
 21
25.7146016587
  0
LINE
  8
_CURVE
 62
4
  6
CONTINUOUS
 10
16.2707360661
 20
25.714856395
 11
21.0784481971
 21
25.7148563953
  0
LINE
  8
_CURVE
 62
4
  6
CONTINUOUS
 10
16.2707360661
 20
25.714856395
 11
16.1066177236
 21
25.7148212522
  0
LINE
  8
_CURVE
 62
4
  6
CONTINUOUS
 10
14.8957360662
 20
25.8348563949
 11
29.1457360661
 21
25.8348563949
  0
LINE
  8
_CURVE
 62
4
  6
CONTINUOUS
 10
21.2887941748
 20
25.9252023729
 11
22.7526779587
 21
25.9252023729
  0
POLYLINE
  8
_CURVE
 62
4
  6
CONTINUOUS
 66
1
 70
0
  0
VERTEX
  8
_CURVE
 62
4
  6
CONTINUOUS
 10
29.6466635625
 20
24.4697894038
  0
VERTEX
  8
_CURVE
 62
4
  6
CONTINUOUS
 10
29.6455467045
 20
24.5071952818
  0
VERTEX
  8
_CURVE
 62
4
  6
CONTINUOUS
 10
29.6442523723
 20
24.5434513782
  0
VERTEX
  8
_CURVE
 62
4
  6
CONTINUOUS
 10
29.6422366743
 20
24.5901313653
  0
VERTEX
  8
_CURVE
 62
4
  6
CONTINUOUS
 10
29.6398738739
 20
24.6349913898
  0
VERTEX
  8
_CURVE
 62
4
  6
CONTINUOUS
 10
29.6371470964
 20
24.6781017303
  0
VERTEX
  8
_CURVE
 62
4
  6
CONTINUOUS
 10
29.6340399506
 20
24.7195315345
  0
VERTEX
  8
_CURVE
 62
4
  6
CONTINUOUS
 10
29.6305379811
 20
24.7593454255
  0
VERTEX
  8
_CURVE
 62
4
  6
CONTINUOUS
 10
29.6266272162
 20
24.7976068954
  0
VERTEX
  8
_CURVE
 62
4
  6
CONTINUOUS
 10
29.6222942361
 20
24.8343772346
  0
VERTEX
  8
_CURVE
 62
4
  6
CONTINUOUS
 10
29.6175278284
 20
24.8697089262
  0
VERTEX
  8
_CURVE
 62
4
  6
CONTINUOUS
 10
29.6123173326
 20
24.9036522515
  0
VERTEX
  8
_CURVE
 62
4
  6
CONTINUOUS
 10
29.6066536075
 20
24.9362511021
  0
VERTEX
  8
_CURVE
 62
4
  6
CONTINUOUS
 10
29.6005335896
 20
24.9675238107
  0
VERTEX
  8
_CURVE
 62
4
  6
CONTINUOUS
 10
29.5939557349
 20
24.99748232
  0
VERTEX
  8
_CURVE
 62
4
  6
CONTINUOUS
 10
29.5869116992
 20
25.0261628938
  0
VERTEX
  8
_CURVE
 62
4
  6
CONTINUOUS
 10
29.5793659391
 20
25.0536990776
  0
VERTEX
  8
_CURVE
 62
4
  6
CONTINUOUS
 10
29.5712761113
 20
25.0802487381
  0
VERTEX
  8
_CURVE
 62
4
  6
CONTINUOUS
 10
29.5625977396
 20
25.1059703114
  0
VERTEX
  8
_CURVE
 62
4
  6
CONTINUOUS
 10
29.5532778175
 20
25.131024513
  0
VERTEX
  8
_CURVE
 62
4
  6
CONTINUOUS
 10
29.5432612056
 20
25.155572628
  0
VERTEX
  8
_CURVE
 62
4
  6
CONTINUOUS
 10
29.5268209483
 20
25.191713955
  0
VERTEX
  8
_CURVE
 62
4
  6
CONTINUOUS
 10
29.5085701472
 20
25.227122192
  0
VERTEX
  8
_CURVE
 62
4
  6
CONTINUOUS
 10
29.4954916851
 20
25.2500973009
  0
VERTEX
  8
_CURVE
 62
4
  6
CONTINUOUS
 10
29.4816469327
 20
25.27266461
  0
VERTEX
  8
_CURVE
 62
4
  6
CONTINUOUS
 10
29.4670737792
 20
25.2947597443
  0
VERTEX
  8
_CURVE
 62
4
  6
CONTINUOUS
 10
29.4516500074
 20
25.3165370961
  0
VERTEX
  8
_CURVE
 62
4
  6
CONTINUOUS
 10
29.429553427
 20
25.3453445707
  0
VERTEX
  8
_CURVE
 62
4
  6
CONTINUOUS
 10
29.4057039528
 20
25.3738781371
  0
VERTEX
  8
_CURVE
 62
4
  6
CONTINUOUS
 10
29.3801493353
 20
25.4020571293
  0
VERTEX
  8
_CURVE
 62
4
  6
CONTINUOUS
 10
29.3529578415
 20
25.4297657509
  0
VERTEX
  8
_CURVE
 62
4
  6
CONTINUOUS
 10
29.3242798033
 20
25.4567476838
  0
VERTEX
  8
_CURVE
 62
4
  6
CONTINUOUS
 10
29.2942860689
 20
25.4827114796
  0
VERTEX
  8
_CURVE
 62
4
  6
CONTINUOUS
 10
29.2630982583
 20
25.5074076734
  0
VERTEX
  8
_CURVE
 62
4
  6
CONTINUOUS
 10
29.2306410779
 20
25.5307547355
  0
VERTEX
  8
_CURVE
 62
4
  6
CONTINUOUS
 10
29.1967900063
 20
25.5527131198
  0
VERTEX
  8
_CURVE
 62
4
  6
CONTINUOUS
 10
29.1703766162
 20
25.5682549667
  0
VERTEX
  8
_CURVE
 62
4
  6
CONTINUOUS
 10
29.1428439615
 20
25.5830257617
  0
VERTEX
  8
_CURVE
 62
4
  6
CONTINUOUS
 10
29.1139268848
 20
25.5970578288
  0
VERTEX
  8
_CURVE
 62
4
  6
CONTINUOUS
 10
29.0833602289
 20
25.6103834919
  0
VERTEX
  8
_CURVE
 62
4
  6
CONTINUOUS
 10
29.061936532
 20
25.6188880219
  0
VERTEX
  8
_CURVE
 62
4
  6
CONTINUOUS
 10
29.0395919674
 20
25.6270859704
  0
VERTEX
  8
_CURVE
 62
4
  6
CONTINUOUS
 10
29.0162566614
 20
25.634970347
  0
VERTEX
  8
_CURVE
 62
4
  6
CONTINUOUS
 10
28.9918607404
 20
25.6425341615
  0
VERTEX
  8
_CURVE
 62
4
  6
CONTINUOUS
 10
28.9663343305
 20
25.6497704234
  0
VERTEX
  8
_CURVE
 62
4
  6
CONTINUOUS
 10
28.9396075582
 20
25.6566721423
  0
VERTEX
  8
_CURVE
 62
4
  6
CONTINUOUS
 10
28.9116124995
 20
25.6632301137
  0
VERTEX
  8
_CURVE
 62
4
  6
CONTINUOUS
 10
28.8822890297
 20
25.6694262757
  0
VERTEX
  8
_CURVE
 62
4
  6
CONTINUOUS
 10
28.851578974
 20
25.6752403525
  0
VERTEX
  8
_CURVE
 62
4
  6
CONTINUOUS
 10
28.8194241574
 20
25.680652068
  0
VERTEX
  8
_CURVE
 62
4
  6
CONTINUOUS
 10
28.7857664051
 20
25.6856411462
  0
VERTEX
  8
_CURVE
 62
4
  6
CONTINUOUS
 10
28.750547542
 20
25.6901873111
  0
VERTEX
  8
_CURVE
 62
4
  6
CONTINUOUS
 10
28.7137154325
 20
25.6942763837
  0
VERTEX
  8
_CURVE
 62
4
  6
CONTINUOUS
 10
28.6752420966
 20
25.6979185727
  0
VERTEX
  8
_CURVE
 62
4
  6
CONTINUOUS
 10
28.6351055936
 20
25.7011301837
  0
VERTEX
  8
_CURVE
 62
4
  6
CONTINUOUS
 10
28.603922668
 20
25.7032657244
  0
VERTEX
  8
_CURVE
 62
4
  6
CONTINUOUS
 10
28.571927236
 20
25.7051726581
  0
VERTEX
  8
_CURVE
 62
4
  6
CONTINUOUS
 10
28.5392131248
 20
25.7068574718
  0
VERTEX
  8
_CURVE
 62
4
  6
CONTINUOUS
 10
28.5057080048
 20
25.7083349156
  0
VERTEX
  8
_CURVE
 62
4
  6
CONTINUOUS
 10
28.4648372065
 20
25.7098390317
  0
VERTEX
  8
_CURVE
 62
4
  6
CONTINUOUS
 10
28.422680229
 20
25.7110923916
  0
VERTEX
  8
_CURVE
 62
4
  6
CONTINUOUS
 10
28.3792476728
 20
25.7121117176
  0
VERTEX
  8
_CURVE
 62
4
  6
CONTINUOUS
 10
28.3346507718
 20
25.7129125081
  0
VERTEX
  8
_CURVE
 62
4
  6
CONTINUOUS
 10
28.2736434756
 20
25.7136748706
  0
VERTEX
  8
_CURVE
 62
4
  6
CONTINUOUS
 10
28.2113162175
 20
25.7141617119
  0
VERTEX
  8
_CURVE
 62
4
  6
CONTINUOUS
 10
28.1481765065
 20
25.7144590098
  0
VERTEX
  8
_CURVE
 62
4
  6
CONTINUOUS
 10
28.0529119799
 20
25.7147044094
  0
VERTEX
  8
_CURVE
 62
4
  6
CONTINUOUS
 10
27.9578234498
 20
25.7148075823
  0
VERTEX
  8
_CURVE
 62
4
  6
CONTINUOUS
 10
22.9630239364
 20
25.7148563951
  0
SEQEND
  0
LINE
  8
_CURVE
 62
4
  6
CONTINUOUS
 10
29.6480233844
 20
24.4114729226
 11
29.6466635625
 21
24.4697894038
  0
LINE
  8
_CURVE
 62
4
  6
CONTINUOUS
 10
29.6488591274
 20
24.3628402009
 11
29.6480233844
 21
24.4114729226
  0
LINE
  8
_CURVE
 62
4
  6
CONTINUOUS
 10
29.6495962027
 20
24.302347267
 11
29.6488591274
 21
24.3628402009
  0
LINE
  8
_CURVE
 62
4
  6
CONTINUOUS
 10
29.6501019955
 20
24.2373586245
 11
29.6495962027
 21
24.302347267
  0
LINE
  8
_CURVE
 62
4
  6
CONTINUOUS
 10
29.6505103893
 20
24.1328004423
 11
29.6501019955
 21
24.2373586245
  0
LINE
  8
_CURVE
 62
4
  6
CONTINUOUS
 10
29.6507084117
 20
23.9845157311
 11
29.6505103893
 21
24.1328004423
  0
POLYLINE
  8
_CURVE
 62
8
  6
PHANTOM
 66
1
 70
0
  0
VERTEX
  8
_CURVE
 62
8
  6
PHANTOM
 10
14.2429099673
 20
26.7177060557
  0
VERTEX
  8
_CURVE
 62
8
  6
PHANTOM
 10
14.1932392209
 20
26.7170482113
  0
VERTEX
  8
_CURVE
 62
8
  6
PHANTOM
 10
14.1435723358
 20
26.7150524723
  0
VERTEX
  8
_CURVE
 62
8
  6
PHANTOM
 10
14.0939595537
 20
26.7116855306
  0
VERTEX
  8
_CURVE
 62
8
  6
PHANTOM
 10
14.044451116
 20
26.7069140777
  0
VERTEX
  8
_CURVE
 62
8
  6
PHANTOM
 10
13.995097264
 20
26.7007048053
  0
VERTEX
  8
_CURVE
 62
8
  6
PHANTOM
 10
13.9459482394
 20
26.6930244051
  0
VERTEX
  8
_CURVE
 62
8
  6
PHANTOM
 10
13.9040225183
 20
26.6852464999
  0
VERTEX
  8
_CURVE
 62
8
  6
PHANTOM
 10
13.8623212618
 20
26.6763509646
  0
VERTEX
  8
_CURVE
 62
8
  6
PHANTOM
 10
13.820881537
 20
26.666325469
  0
VERTEX
  8
_CURVE
 62
8
  6
PHANTOM
 10
13.7797404108
 20
26.6551576831
  0
VERTEX
  8
_CURVE
 62
8
  6
PHANTOM
 10
13.7389349505
 20
26.6428352768
  0
VERTEX
  8
_CURVE
 62
8
  6
PHANTOM
 10
13.698502223
 20
26.62934592
  0
VERTEX
  8
_CURVE
 62
8
  6
PHANTOM
 10
13.6584792956
 20
26.6146772826
  0
VERTEX
  8
_CURVE
 62
8
  6
PHANTOM
 10
13.6189043676
 20
26.5988200592
  0
VERTEX
  8
_CURVE
 62
8
  6
PHANTOM
 10
13.579820168
 20
26.5817770433
  0
VERTEX
  8
_CURVE
 62
8
  6
PHANTOM
 10
13.5412705582
 20
26.5635540529
  0
VERTEX
  8
_CURVE
 62
8
  6
PHANTOM
 10
13.5032993996
 20
26.5441569062
  0
VERTEX
  8
_CURVE
 62
8
  6
PHANTOM
 10
13.4659505535
 20
26.5235914212
  0
VERTEX
  8
_CURVE
 62
8
  6
PHANTOM
 10
13.4292678813
 20
26.5018634162
  0
VERTEX
  8
_CURVE
 62
8
  6
PHANTOM
 10
13.3932952444
 20
26.4789787092
  0
VERTEX
  8
_CURVE
 62
8
  6
PHANTOM
 10
13.3580752173
 20
26.4549467435
  0
VERTEX
  8
_CURVE
 62
8
  6
PHANTOM
 10
13.323645228
 20
26.4297914631
  0
VERTEX
  8
_CURVE
 62
8
  6
PHANTOM
 10
13.2900414175
 20
26.4035404373
  0
VERTEX
  8
_CURVE
 62
8
  6
PHANTOM
 10
13.257299927
 20
26.3762212351
  0
VERTEX
  8
_CURVE
 62
8
  6
PHANTOM
 10
13.2254568975
 20
26.3478614258
  0
VERTEX
  8
_CURVE
 62
8
  6
PHANTOM
 10
13.1945484703
 20
26.3184885786
  0
VERTEX
  8
_CURVE
 62
8
  6
PHANTOM
 10
13.1646107863
 20
26.2881302626
  0
VERTEX
  8
_CURVE
 62
8
  6
PHANTOM
 10
13.1356768606
 20
26.2568163018
  0
VERTEX
  8
_CURVE
 62
8
  6
PHANTOM
 10
13.1077672036
 20
26.224585539
  0
VERTEX
  8
_CURVE
 62
8
  6
PHANTOM
 10
13.0808991994
 20
26.1914790718
  0
VERTEX
  8
_CURVE
 62
8
  6
PHANTOM
 10
13.0550902322
 20
26.1575379976
  0
VERTEX
  8
_CURVE
 62
8
  6
PHANTOM
 10
13.0303576863
 20
26.122803414
  0
VERTEX
  8
_CURVE
 62
8
  6
PHANTOM
 10
13.0067189458
 20
26.0873164186
  0
VERTEX
  8
_CURVE
 62
8
  6
PHANTOM
 10
12.984191395
 20
26.051118109
  0
VERTEX
  8
_CURVE
 62
8
  6
PHANTOM
 10
12.9627891864
 20
26.0142496122
  0
VERTEX
  8
_CURVE
 62
8
  6
PHANTOM
 10
12.9425135462
 20
25.9767521737
  0
VERTEX
  8
_CURVE
 62
8
  6
PHANTOM
 10
12.9233624687
 20
25.9386670686
  0
VERTEX
  8
_CURVE
 62
8
  6
PHANTOM
 10
12.9053339485
 20
25.900035572
  0
VERTEX
  8
_CURVE
 62
8
  6
PHANTOM
 10
12.8884259799
 20
25.8608989588
  0
VERTEX
  8
_CURVE
 62
8
  6
PHANTOM
 10
12.8726365574
 20
25.8212985042
  0
VERTEX
  8
_CURVE
 62
8
  6
PHANTOM
 10
12.8579636754
 20
25.7812754832
  0
VERTEX
  8
_CURVE
 62
8
  6
PHANTOM
 10
12.8422506301
 20
25.7341004506
  0
VERTEX
  8
_CURVE
 62
8
  6
PHANTOM
 10
12.8280322624
 20
25.6864570027
  0
VERTEX
  8
_CURVE
 62
8
  6
PHANTOM
 10
12.8152862438
 20
25.6383957039
  0
VERTEX
  8
_CURVE
 62
8
  6
PHANTOM
 10
12.8039902461
 20
25.589967119
  0
VERTEX
  8
_CURVE
 62
8
  6
PHANTOM
 10
12.7941219408
 20
25.5412218123
  0
VERTEX
  8
_CURVE
 62
8
  6
PHANTOM
 10
12.7856589996
 20
25.4922103485
  0
VERTEX
  8
_CURVE
 62
8
  6
PHANTOM
 10
12.7785779032
 20
25.4429819508
  0
VERTEX
  8
_CURVE
 62
8
  6
PHANTOM
 10
12.7728503696
 20
25.393580478
  0
VERTEX
  8
_CURVE
 62
8
  6
PHANTOM
 10
12.768446926
 20
25.3440484473
  0
VERTEX
  8
_CURVE
 62
8
  6
PHANTOM
 10
12.7653380993
 20
25.2944283762
  0
VERTEX
  8
_CURVE
 62
8
  6
PHANTOM
 10
12.7634944167
 20
25.2447627821
  0
VERTEX
  8
_CURVE
 62
8
  6
PHANTOM
 10
12.7628864054
 20
25.1950941824
  0
SEQEND
  0
POLYLINE
  8
_CURVE
 62
4
  6
CONTINUOUS
 66
1
 70
0
  0
VERTEX
  8
_CURVE
 62
4
  6
CONTINUOUS
 10
15.9822534111
 20
26.4718451471
  0
VERTEX
  8
_CURVE
 62
4
  6
CONTINUOUS
 10
15.8883330848
 20
26.4715860844
  0
VERTEX
  8
_CURVE
 62
4
  6
CONTINUOUS
 10
15.7951268537
 20
26.4711553874
  0
VERTEX
  8
_CURVE
 62
4
  6
CONTINUOUS
 10
15.702540972
 20
26.4704973549
  0
VERTEX
  8
_CURVE
 62
4
  6
CONTINUOUS
 10
15.6104496848
 20
26.4695495111
  0
VERTEX
  8
_CURVE
 62
4
  6
CONTINUOUS
 10
15.5186577281
 20
26.4682351189
  0
VERTEX
  8
_CURVE
 62
4
  6
CONTINUOUS
 10
15.4419360987
 20
26.4667928223
  0
VERTEX
  8
_CURVE
 62
4
  6
CONTINUOUS
 10
15.3666070613
 20
26.465016011
  0
VERTEX
  8
_CURVE
 62
4
  6
CONTINUOUS
 10
15.2926040904
 20
26.4628665803
  0
VERTEX
  8
_CURVE
 62
4
  6
CONTINUOUS
 10
15.2198103079
 20
26.4603046244
  0
VERTEX
  8
_CURVE
 62
4
  6
CONTINUOUS
 10
15.1244981147
 20
26.4561772607
  0
VERTEX
  8
_CURVE
 62
4
  6
CONTINUOUS
 10
15.0309746875
 20
26.4511434956
  0
VERTEX
  8
_CURVE
 62
4
  6
CONTINUOUS
 10
14.9390070533
 20
26.4451003845
  0
VERTEX
  8
_CURVE
 62
4
  6
CONTINUOUS
 10
14.8483417458
 20
26.4379438897
  0
VERTEX
  8
_CURVE
 62
4
  6
CONTINUOUS
 10
14.7586433228
 20
26.4295656006
  0
VERTEX
  8
_CURVE
 62
4
  6
CONTINUOUS
 10
14.6695558484
 20
26.4198560133
  0
VERTEX
  8
_CURVE
 62
4
  6
CONTINUOUS
 10
14.580828267
 20
26.4086963267
  0
VERTEX
  8
_CURVE
 62
4
  6
CONTINUOUS
 10
14.4926290444
 20
26.3959305503
  0
VERTEX
  8
_CURVE
 62
4
  6
CONTINUOUS
 10
14.4052315269
 20
26.3813933964
  0
VERTEX
  8
_CURVE
 62
4
  6
CONTINUOUS
 10
14.3403794943
 20
26.3692278792
  0
VERTEX
  8
_CURVE
 62
4
  6
CONTINUOUS
 10
14.2762808061
 20
26.3558987325
  0
VERTEX
  8
_CURVE
 62
4
  6
CONTINUOUS
 10
14.2130840904
 20
26.3413317009
  0
VERTEX
  8
_CURVE
 62
4
  6
CONTINUOUS
 10
14.1509379751
 20
26.325452529
  0
VERTEX
  8
_CURVE
 62
4
  6
CONTINUOUS
 10
14.1020720716
 20
26.3117459246
  0
VERTEX
  8
_CURVE
 62
4
  6
CONTINUOUS
 10
14.0540178409
 20
26.2970622495
  0
VERTEX
  8
_CURVE
 62
4
  6
CONTINUOUS
 10
14.0068194496
 20
26.2813117261
  0
VERTEX
  8
_CURVE
 62
4
  6
CONTINUOUS
 10
13.9605210644
 20
26.2644045769
  0
VERTEX
  8
_CURVE
 62
4
  6
CONTINUOUS
 10
13.9151668518
 20
26.2462510243
  0
VERTEX
  8
_CURVE
 62
4
  6
CONTINUOUS
 10
13.8781274389
 20
26.2301017245
  0
VERTEX
  8
_CURVE
 62
4
  6
CONTINUOUS
 10
13.8418158752
 20
26.2129458335
  0
VERTEX
  8
_CURVE
 62
4
  6
CONTINUOUS
 10
13.8062736634
 20
26.1947046634
  0
VERTEX
  8
_CURVE
 62
4
  6
CONTINUOUS
 10
13.771542306
 20
26.1752995265
  0
VERTEX
  8
_CURVE
 62
4
  6
CONTINUOUS
 10
13.7376633056
 20
26.1546517351
  0
VERTEX
  8
_CURVE
 62
4
  6
CONTINUOUS
 10
13.7046781649
 20
26.1326826013
  0
VERTEX
  8
_CURVE
 62
4
  6
CONTINUOUS
 10
13.6726438608
 20
26.1093249541
  0
VERTEX
  8
_CURVE
 62
4
  6
CONTINUOUS
 10
13.6416792685
 20
26.08455769
  0
VERTEX
  8
_CURVE
 62
4
  6
CONTINUOUS
 10
13.6119187373
 20
26.0583712223
  0
VERTEX
  8
_CURVE
 62
4
  6
CONTINUOUS
 10
13.5834767201
 20
26.0307653019
  0
VERTEX
  8
_CURVE
 62
4
  6
CONTINUOUS
 10
13.5563880822
 20
26.0017770319
  0
VERTEX
  8
_CURVE
 62
4
  6
CONTINUOUS
 10
13.5306677924
 20
25.971452853
  0
VERTEX
  8
_CURVE
 62
4
  6
CONTINUOUS
 10
13.5120940936
 20
25.9476069597
  0
VERTEX
  8
_CURVE
 62
4
  6
CONTINUOUS
 10
13.4942819047
 20
25.9229865701
  0
VERTEX
  8
_CURVE
 62
4
  6
CONTINUOUS
 10
13.4771986246
 20
25.8975574236
  0
VERTEX
  8
_CURVE
 62
4
  6
CONTINUOUS
 10
13.4608212854
 20
25.8712965028
  0
VERTEX
  8
_CURVE
 62
4
  6
CONTINUOUS
 10
13.4451654524
 20
25.8442257619
  0
VERTEX
  8
_CURVE
 62
4
  6
CONTINUOUS
 10
13.430256324
 20
25.816378398
  0
VERTEX
  8
_CURVE
 62
4
  6
CONTINUOUS
 10
13.4133775398
 20
25.7819852667
  0
VERTEX
  8
_CURVE
 62
4
  6
CONTINUOUS
 10
13.3976000808
 20
25.7465916048
  0
VERTEX
  8
_CURVE
 62
4
  6
CONTINUOUS
 10
13.3829137318
 20
25.7102674149
  0
VERTEX
  8
_CURVE
 62
4
  6
CONTINUOUS
 10
13.3693082773
 20
25.6730827
  0
VERTEX
  8
_CURVE
 62
4
  6
CONTINUOUS
 10
13.3567735022
 20
25.6351074626
  0
VERTEX
  8
_CURVE
 62
4
  6
CONTINUOUS
 10
13.3425766668
 20
25.5866431218
  0
VERTEX
  8
_CURVE
 62
4
  6
CONTINUOUS
 10
13.329906173
 20
25.5372480926
  0
VERTEX
  8
_CURVE
 62
4
  6
CONTINUOUS
 10
13.3186313875
 20
25.4871174984
  0
VERTEX
  8
_CURVE
 62
4
  6
CONTINUOUS
 10
13.3086216768
 20
25.4364464627
  0
VERTEX
  8
_CURVE
 62
4
  6
CONTINUOUS
 10
13.2970175584
 20
25.3683520353
  0
VERTEX
  8
_CURVE
 62
4
  6
CONTINUOUS
 10
13.2871209013
 20
25.2999285633
  0
VERTEX
  8
_CURVE
 62
4
  6
CONTINUOUS
 10
13.2786223816
 20
25.2314609007
  0
VERTEX
  8
_CURVE
 62
4
  6
CONTINUOUS
 10
13.2712498568
 20
25.1631585921
  0
VERTEX
  8
_CURVE
 62
4
  6
CONTINUOUS
 10
13.2648799082
 20
25.0949299441
  0
VERTEX
  8
_CURVE
 62
4
  6
CONTINUOUS
 10
13.2594262981
 20
25.0266079539
  0
VERTEX
  8
_CURVE
 62
4
  6
CONTINUOUS
 10
13.2527803324
 20
24.9236634836
  0
VERTEX
  8
_CURVE
 62
4
  6
CONTINUOUS
 10
13.2477407974
 20
24.8200427065
  0
VERTEX
  8
_CURVE
 62
4
  6
CONTINUOUS
 10
13.2440472417
 20
24.7156784934
  0
VERTEX
  8
_CURVE
 62
4
  6
CONTINUOUS
 10
13.2414425938
 20
24.6105973193
  0
VERTEX
  8
_CURVE
 62
4
  6
CONTINUOUS
 10
13.2396775941
 20
24.5049114346
  0
VERTEX
  8
_CURVE
 62
4
  6
CONTINUOUS
 10
13.239040442
 20
24.4519286251
  0
VERTEX
  8
_CURVE
 62
4
  6
CONTINUOUS
 10
13.2385326673
 20
24.3989209282
  0
VERTEX
  8
_CURVE
 62
4
  6
CONTINUOUS
 10
13.2380073373
 20
24.3267684026
  0
VERTEX
  8
_CURVE
 62
4
  6
CONTINUOUS
 10
13.2376373239
 20
24.2558281408
  0
VERTEX
  8
_CURVE
 62
4
  6
CONTINUOUS
 10
13.2372208258
 20
24.1164084916
  0
SEQEND
  0
LINE
  8
_CURVE
 62
4
  6
CONTINUOUS
 10
16.1731931971
 20
26.4720275486
 11
15.9822534111
 21
26.4718451471
  0
LINE
  8
_CURVE
 62
8
  6
PHANTOM
 10
29.7985621649
 20
26.7177060557
 11
14.2429099673
 21
26.7177060557
  0
POLYLINE
  8
_CURVE
 62
4
  6
CONTINUOUS
 66
1
 70
0
  0
VERTEX
  8
_CURVE
 62
4
  6
CONTINUOUS
 10
30.8038348084
 20
24.2558281408
  0
VERTEX
  8
_CURVE
 62
4
  6
CONTINUOUS
 10
30.8034647949
 20
24.3267684026
  0
VERTEX
  8
_CURVE
 62
4
  6
CONTINUOUS
 10
30.802939465
 20
24.3989209282
  0
VERTEX
  8
_CURVE
 62
4
  6
CONTINUOUS
 10
30.8024316903
 20
24.4519286251
  0
VERTEX
  8
_CURVE
 62
4
  6
CONTINUOUS
 10
30.8017945382
 20
24.5049114346
  0
VERTEX
  8
_CURVE
 62
4
  6
CONTINUOUS
 10
30.8000295385
 20
24.6105973193
  0
VERTEX
  8
_CURVE
 62
4
  6
CONTINUOUS
 10
30.7974248905
 20
24.7156784934
  0
VERTEX
  8
_CURVE
 62
4
  6
CONTINUOUS
 10
30.7937313348
 20
24.8200427065
  0
VERTEX
  8
_CURVE
 62
4
  6
CONTINUOUS
 10
30.7886917999
 20
24.9236634836
  0
VERTEX
  8
_CURVE
 62
4
  6
CONTINUOUS
 10
30.7820458341
 20
25.0266079539
  0
VERTEX
  8
_CURVE
 62
4
  6
CONTINUOUS
 10
30.7765922241
 20
25.0949299441
  0
VERTEX
  8
_CURVE
 62
4
  6
CONTINUOUS
 10
30.7702222755
 20
25.1631585921
  0
VERTEX
  8
_CURVE
 62
4
  6
CONTINUOUS
 10
30.7628497507
 20
25.2314609007
  0
VERTEX
  8
_CURVE
 62
4
  6
CONTINUOUS
 10
30.754351231
 20
25.2999285633
  0
VERTEX
  8
_CURVE
 62
4
  6
CONTINUOUS
 10
30.7444545738
 20
25.3683520353
  0
VERTEX
  8
_CURVE
 62
4
  6
CONTINUOUS
 10
30.7328504555
 20
25.4364464627
  0
VERTEX
  8
_CURVE
 62
4
  6
CONTINUOUS
 10
30.7228407448
 20
25.4871174984
  0
VERTEX
  8
_CURVE
 62
4
  6
CONTINUOUS
 10
30.7115659593
 20
25.5372480926
  0
VERTEX
  8
_CURVE
 62
4
  6
CONTINUOUS
 10
30.6988954655
 20
25.5866431218
  0
VERTEX
  8
_CURVE
 62
4
  6
CONTINUOUS
 10
30.68469863
 20
25.6351074626
  0
VERTEX
  8
_CURVE
 62
4
  6
CONTINUOUS
 10
30.6721638549
 20
25.6730827
  0
VERTEX
  8
_CURVE
 62
4
  6
CONTINUOUS
 10
30.6585584005
 20
25.7102674149
  0
VERTEX
  8
_CURVE
 62
4
  6
CONTINUOUS
 10
30.6438720515
 20
25.7465916048
  0
VERTEX
  8
_CURVE
 62
4
  6
CONTINUOUS
 10
30.6280945925
 20
25.7819852667
  0
VERTEX
  8
_CURVE
 62
4
  6
CONTINUOUS
 10
30.6112158083
 20
25.816378398
  0
VERTEX
  8
_CURVE
 62
4
  6
CONTINUOUS
 10
30.5963066799
 20
25.8442257619
  0
VERTEX
  8
_CURVE
 62
4
  6
CONTINUOUS
 10
30.5806508468
 20
25.8712965028
  0
VERTEX
  8
_CURVE
 62
4
  6
CONTINUOUS
 10
30.5642735076
 20
25.8975574236
  0
VERTEX
  8
_CURVE
 62
4
  6
CONTINUOUS
 10
30.5471902275
 20
25.9229865701
  0
VERTEX
  8
_CURVE
 62
4
  6
CONTINUOUS
 10
30.5293780387
 20
25.9476069597
  0
VERTEX
  8
_CURVE
 62
4
  6
CONTINUOUS
 10
30.5108043399
 20
25.971452853
  0
VERTEX
  8
_CURVE
 62
4
  6
CONTINUOUS
 10
30.4850840501
 20
26.0017770319
  0
VERTEX
  8
_CURVE
 62
4
  6
CONTINUOUS
 10
30.4579954122
 20
26.0307653019
  0
VERTEX
  8
_CURVE
 62
4
  6
CONTINUOUS
 10
30.4295533949
 20
26.0583712223
  0
VERTEX
  8
_CURVE
 62
4
  6
CONTINUOUS
 10
30.3997928638
 20
26.08455769
  0
VERTEX
  8
_CURVE
 62
4
  6
CONTINUOUS
 10
30.3688282714
 20
26.1093249541
  0
VERTEX
  8
_CURVE
 62
4
  6
CONTINUOUS
 10
30.3367939674
 20
26.1326826013
  0
VERTEX
  8
_CURVE
 62
4
  6
CONTINUOUS
 10
30.3038088267
 20
26.1546517351
  0
VERTEX
  8
_CURVE
 62
4
  6
CONTINUOUS
 10
30.2699298263
 20
26.1752995265
  0
VERTEX
  8
_CURVE
 62
4
  6
CONTINUOUS
 10
30.2351984689
 20
26.1947046634
  0
VERTEX
  8
_CURVE
 62
4
  6
CONTINUOUS
 10
30.1996562571
 20
26.2129458335
  0
VERTEX
  8
_CURVE
 62
4
  6
CONTINUOUS
 10
30.1633446934
 20
26.2301017245
  0
VERTEX
  8
_CURVE
 62
4
  6
CONTINUOUS
 10
30.1263052804
 20
26.2462510243
  0
VERTEX
  8
_CURVE
 62
4
  6
CONTINUOUS
 10
30.0809510679
 20
26.2644045769
  0
VERTEX
  8
_CURVE
 62
4
  6
CONTINUOUS
 10
30.0346526827
 20
26.2813117261
  0
VERTEX
  8
_CURVE
 62
4
  6
CONTINUOUS
 10
29.9874542914
 20
26.2970622495
  0
VERTEX
  8
_CURVE
 62
4
  6
CONTINUOUS
 10
29.9394000607
 20
26.3117459246
  0
VERTEX
  8
_CURVE
 62
4
  6
CONTINUOUS
 10
29.8905341571
 20
26.325452529
  0
VERTEX
  8
_CURVE
 62
4
  6
CONTINUOUS
 10
29.8283880419
 20
26.3413317009
  0
VERTEX
  8
_CURVE
 62
4
  6
CONTINUOUS
 10
29.7651913262
 20
26.3558987325
  0
VERTEX
  8
_CURVE
 62
4
  6
CONTINUOUS
 10
29.701092638
 20
26.3692278792
  0
VERTEX
  8
_CURVE
 62
4
  6
CONTINUOUS
 10
29.6362406054
 20
26.3813933964
  0
VERTEX
  8
_CURVE
 62
4
  6
CONTINUOUS
 10
29.5488430879
 20
26.3959305503
  0
VERTEX
  8
_CURVE
 62
4
  6
CONTINUOUS
 10
29.4606438653
 20
26.4086963267
  0
VERTEX
  8
_CURVE
 62
4
  6
CONTINUOUS
 10
29.3719162839
 20
26.4198560133
  0
VERTEX
  8
_CURVE
 62
4
  6
CONTINUOUS
 10
29.2828288095
 20
26.4295656006
  0
VERTEX
  8
_CURVE
 62
4
  6
CONTINUOUS
 10
29.1931303865
 20
26.4379438897
  0
VERTEX
  8
_CURVE
 62
4
  6
CONTINUOUS
 10
29.1024650789
 20
26.4451003845
  0
VERTEX
  8
_CURVE
 62
4
  6
CONTINUOUS
 10
29.0104974448
 20
26.4511434956
  0
VERTEX
  8
_CURVE
 62
4
  6
CONTINUOUS
 10
28.9169740175
 20
26.4561772607
  0
VERTEX
  8
_CURVE
 62
4
  6
CONTINUOUS
 10
28.8216618244
 20
26.4603046244
  0
VERTEX
  8
_CURVE
 62
4
  6
CONTINUOUS
 10
28.7488680418
 20
26.4628665803
  0
VERTEX
  8
_CURVE
 62
4
  6
CONTINUOUS
 10
28.6748650709
 20
26.465016011
  0
VERTEX
  8
_CURVE
 62
4
  6
CONTINUOUS
 10
28.5995360335
 20
26.4667928223
  0
VERTEX
  8
_CURVE
 62
4
  6
CONTINUOUS
 10
28.5228144042
 20
26.4682351189
  0
VERTEX
  8
_CURVE
 62
4
  6
CONTINUOUS
 10
28.4310224474
 20
26.4695495111
  0
VERTEX
  8
_CURVE
 62
4
  6
CONTINUOUS
 10
28.3389311603
 20
26.4704973549
  0
VERTEX
  8
_CURVE
 62
4
  6
CONTINUOUS
 10
28.2463452786
 20
26.4711553874
  0
VERTEX
  8
_CURVE
 62
4
  6
CONTINUOUS
 10
28.1531390475
 20
26.4715860844
  0
VERTEX
  8
_CURVE
 62
4
  6
CONTINUOUS
 10
28.0592187212
 20
26.4718451471
  0
VERTEX
  8
_CURVE
 62
4
  6
CONTINUOUS
 10
27.9643533682
 20
26.4719780863
  0
VERTEX
  8
_CURVE
 62
4
  6
CONTINUOUS
 10
16.1731931971
 20
26.4720275486
  0
SEQEND
  0
LINE
  8
_CURVE
 62
4
  6
CONTINUOUS
 10
30.8042513064
 20
24.1164084916
 11
30.8038348084
 21
24.2558281408
  0
LINE
  8
_CURVE
 62
4
  6
CONTINUOUS
 10
30.3957360661
 20
13.0848563951
 11
30.3957360661
 21
24.5848563949
  0
LINE
  8
_CURVE
 62
4
  6
CONTINUOUS
 10
30.8044213287
 20
23.834856395
 11
30.8042513064
 21
24.1164084916
  0
LINE
  8
_CURVE
 62
4
  6
CONTINUOUS
 10
30.8043777453
 20
13.781502195
 11
30.8044213287
 21
23.834856395
  0
POLYLINE
  8
_CURVE
 62
8
  6
PHANTOM
 66
1
 70
0
  0
VERTEX
  8
_CURVE
 62
8
  6
PHANTOM
 10
31.2785857268
 20
25.1950941824
  0
VERTEX
  8
_CURVE
 62
8
  6
PHANTOM
 10
31.2779777155
 20
25.2447627821
  0
VERTEX
  8
_CURVE
 62
8
  6
PHANTOM
 10
31.276134033
 20
25.2944283762
  0
VERTEX
  8
_CURVE
 62
8
  6
PHANTOM
 10
31.2730252063
 20
25.3440484473
  0
VERTEX
  8
_CURVE
 62
8
  6
PHANTOM
 10
31.2686217626
 20
25.393580478
  0
VERTEX
  8
_CURVE
 62
8
  6
PHANTOM
 10
31.262894229
 20
25.4429819508
  0
VERTEX
  8
_CURVE
 62
8
  6
PHANTOM
 10
31.2558131327
 20
25.4922103485
  0
VERTEX
  8
_CURVE
 62
8
  6
PHANTOM
 10
31.2473501914
 20
25.5412218123
  0
VERTEX
  8
_CURVE
 62
8
  6
PHANTOM
 10
31.2374818861
 20
25.589967119
  0
VERTEX
  8
_CURVE
 62
8
  6
PHANTOM
 10
31.2261858884
 20
25.6383957039
  0
VERTEX
  8
_CURVE
 62
8
  6
PHANTOM
 10
31.2134398699
 20
25.6864570027
  0
VERTEX
  8
_CURVE
 62
8
  6
PHANTOM
 10
31.1992215021
 20
25.7341004506
  0
VERTEX
  8
_CURVE
 62
8
  6
PHANTOM
 10
31.1835084568
 20
25.7812754832
  0
VERTEX
  8
_CURVE
 62
8
  6
PHANTOM
 10
31.1688355749
 20
25.8212985042
  0
VERTEX
  8
_CURVE
 62
8
  6
PHANTOM
 10
31.1530461524
 20
25.8608989588
  0
VERTEX
  8
_CURVE
 62
8
  6
PHANTOM
 10
31.1361381838
 20
25.900035572
  0
VERTEX
  8
_CURVE
 62
8
  6
PHANTOM
 10
31.1181096635
 20
25.9386670686
  0
VERTEX
  8
_CURVE
 62
8
  6
PHANTOM
 10
31.098958586
 20
25.9767521737
  0
VERTEX
  8
_CURVE
 62
8
  6
PHANTOM
 10
31.0786829458
 20
26.0142496122
  0
VERTEX
  8
_CURVE
 62
8
  6
PHANTOM
 10
31.0572807373
 20
26.051118109
  0
VERTEX
  8
_CURVE
 62
8
  6
PHANTOM
 10
31.0347531865
 20
26.0873164186
  0
VERTEX
  8
_CURVE
 62
8
  6
PHANTOM
 10
31.011114446
 20
26.122803414
  0
VERTEX
  8
_CURVE
 62
8
  6
PHANTOM
 10
30.9863819001
 20
26.1575379976
  0
VERTEX
  8
_CURVE
 62
8
  6
PHANTOM
 10
30.9605729329
 20
26.1914790718
  0
VERTEX
  8
_CURVE
 62
8
  6
PHANTOM
 10
30.9337049287
 20
26.224585539
  0
VERTEX
  8
_CURVE
 62
8
  6
PHANTOM
 10
30.9057952716
 20
26.2568163018
  0
VERTEX
  8
_CURVE
 62
8
  6
PHANTOM
 10
30.8768613459
 20
26.2881302626
  0
VERTEX
  8
_CURVE
 62
8
  6
PHANTOM
 10
30.846923662
 20
26.3184885786
  0
VERTEX
  8
_CURVE
 62
8
  6
PHANTOM
 10
30.8160152347
 20
26.3478614258
  0
VERTEX
  8
_CURVE
 62
8
  6
PHANTOM
 10
30.7841722053
 20
26.3762212351
  0
VERTEX
  8
_CURVE
 62
8
  6
PHANTOM
 10
30.7514307147
 20
26.4035404373
  0
VERTEX
  8
_CURVE
 62
8
  6
PHANTOM
 10
30.7178269043
 20
26.4297914631
  0
VERTEX
  8
_CURVE
 62
8
  6
PHANTOM
 10
30.6833969149
 20
26.4549467435
  0
VERTEX
  8
_CURVE
 62
8
  6
PHANTOM
 10
30.6481768879
 20
26.4789787092
  0
VERTEX
  8
_CURVE
 62
8
  6
PHANTOM
 10
30.6122042509
 20
26.5018634162
  0
VERTEX
  8
_CURVE
 62
8
  6
PHANTOM
 10
30.5755215787
 20
26.5235914212
  0
VERTEX
  8
_CURVE
 62
8
  6
PHANTOM
 10
30.5381727327
 20
26.5441569062
  0
VERTEX
  8
_CURVE
 62
8
  6
PHANTOM
 10
30.500201574
 20
26.5635540529
  0
VERTEX
  8
_CURVE
 62
8
  6
PHANTOM
 10
30.4616519643
 20
26.5817770433
  0
VERTEX
  8
_CURVE
 62
8
  6
PHANTOM
 10
30.4225677647
 20
26.5988200592
  0
VERTEX
  8
_CURVE
 62
8
  6
PHANTOM
 10
30.3829928367
 20
26.6146772826
  0
VERTEX
  8
_CURVE
 62
8
  6
PHANTOM
 10
30.3429699092
 20
26.62934592
  0
VERTEX
  8
_CURVE
 62
8
  6
PHANTOM
 10
30.3025371818
 20
26.6428352768
  0
VERTEX
  8
_CURVE
 62
8
  6
PHANTOM
 10
30.2617317214
 20
26.6551576831
  0
VERTEX
  8
_CURVE
 62
8
  6
PHANTOM
 10
30.2205905953
 20
26.666325469
  0
VERTEX
  8
_CURVE
 62
8
  6
PHANTOM
 10
30.1791508704
 20
26.6763509646
  0
VERTEX
  8
_CURVE
 62
8
  6
PHANTOM
 10
30.1374496139
 20
26.6852464999
  0
VERTEX
  8
_CURVE
 62
8
  6
PHANTOM
 10
30.0955238929
 20
26.6930244051
  0
VERTEX
  8
_CURVE
 62
8
  6
PHANTOM
 10
30.0463748682
 20
26.7007048053
  0
VERTEX
  8
_CURVE
 62
8
  6
PHANTOM
 10
29.9970210163
 20
26.7069140777
  0
VERTEX
  8
_CURVE
 62
8
  6
PHANTOM
 10
29.9475125785
 20
26.7116855306
  0
VERTEX
  8
_CURVE
 62
8
  6
PHANTOM
 10
29.8978997964
 20
26.7150524723
  0
VERTEX
  8
_CURVE
 62
8
  6
PHANTOM
 10
29.8482329114
 20
26.7170482113
  0
VERTEX
  8
_CURVE
 62
8
  6
PHANTOM
 10
29.7985621649
 20
26.7177060557
  0
SEQEND
  0
LINE
  8
_CURVE
 62
8
  6
PHANTOM
 10
31.2785857268
 20
25.1950941824
 11
31.2785857268
 21
12.4746186076
  0
CIRCLE
  8
0
 62
2
  6
CONTINUOUS
 10
15.7940583854
 20
24.7607047979
 40
0.298056591
  0
ARC
  8
0
 62
2
  6
CONTINUOUS
 10
17.5610892009
 20
24.8797733638
 40
0.1750166163
 50
294.4500166359
 51
90.0
  0
CIRCLE
  8
0
 62
2
  6
CONTINUOUS
 10
15.7940583854
 20
24.7607047979
 40
0.1247694151
  0
CIRCLE
  8
0
 62
2
  6
CONTINUOUS
 10
17.9337416662
 20
24.4688692251
 40
0.0653578721
  0
ARC
  8
0
 62
2
  6
CONTINUOUS
 10
17.5341271023
 20
24.8585923061
 40
0.053611735
 50
266.1604009902
 51
89.9998910512
  0
ARC
  8
0
 62
2
  6
CONTINUOUS
 10
17.9421349997
 20
24.4851632836
 40
0.0168314496
 50
270.0
 51
90.0
  0
ARC
  8
_CURVE
 62
4
  6
CONTINUOUS
 10
14.8957360662
 20
24.5848563949
 40
1.25
 50
90.0
 51
180.0
  0
ARC
  8
_CURVE
 62
4
  6
CONTINUOUS
 10
14.8957360662
 20
13.0848563951
 40
1.25
 50
180.0
 51
270.0
  0
ARC
  8
_CURVE
 62
4
  6
CONTINUOUS
 10
29.1457360661
 20
13.0848563951
 40
1.25
 50
270.0
 51
360.0
  0
ARC
  8
_CURVE
 62
4
  6
CONTINUOUS
 10
29.1457360661
 20
24.5848563949
 40
1.25
 50
0.0
 51
90.0
  0
ENDSEC
  0
EOF
