999
DXF file: 115888_7_ae.dxf
999
Pro/ENGINEER 2013150 by Parametric Technology Corporation
  0
SECTION
  2
HEADER
  9
$EXTMAX
 10
34.0
 20
22.0
 30
0.0
  9
$EXTMIN
 10
0.0
 20
0.0
 30
0.0
  9
$LIMMIN
 10
0.0
 20
0.0
  9
$LIMMAX
 10
34.0
 20
22.0
  9
$VIEWCTR
 10
17.0
 20
11.0
  9
$VIEWSIZE
 40
22.0
  9
$CLAYER
  8
0
  9
$LTSCALE
 40
1.87
  9
$CELTYPE
  6
BYLAYER
  9
$DIMSCALE
 40
1.0
  9
$DIMASZ
 40
0.1875
  9
$DIMEXO
 40
0.0625
  9
$DIMDLI
 40
1.292
  9
$DIMEXE
 40
0.125
  9
$DIMCEN
 40
0.306
  9
$DIMLFAC
 40
1.0
  9
$DIMBLK
  1
_FILLED
  9
$DIMTXT
 40
0.15625
  9
$PDMODE
 70
3
  9
$PDSIZE
 40
0.3125
  9
$TILEMODE
 70
1
  0
ENDSEC
  0
SECTION
  2
TABLES
  0
TABLE
  2
LTYPE
 70
6
  0
LTYPE
  2
BYBLOCK
 70
0
  3

 72
65
 73
0
 40
0.0
  0
LTYPE
  2
BYLAYER
 70
0
  3

 72
65
 73
0
 40
0.0
  0
LTYPE
  2
CONTINUOUS
 70
64
  3
Solid line
 72
65
 73
0
 40
0.0
  0
LTYPE
  2
CENTER
 70
64
  3
____ _ ____ _ ____ _ ____ _ ____ _ ____ _ ____
 72
65
 73
4
 40
0.6
 49
0.375
 49
-0.075
 49
0.075
 49
-0.075
  0
LTYPE
  2
HIDDEN
 70
64
  3
- - - - - - - - - - - - - - - - - - - -
 72
65
 73
2
 40
0.2
 49
0.1
 49
-0.1
  0
LTYPE
  2
PHANTOM
 70
64
  3
_____ _ _ _____ _ _ _____ _ _ _____
 72
65
 73
6
 40
0.8
 49
0.45
 49
-0.05
 49
0.1
 49
-0.05
 49
0.1
 49
-0.05
  0
LTYPE
  2
DOT
 70
64
  3
. . . . . . . . . . . . . . . . . . . .
 72
65
 73
2
 40
0.2
 49
0.1
 49
-0.1
  0
LTYPE
  2
DASHED
 70
64
  3
- - - - - - - - - - - - - - - - - - - -
 72
65
 73
2
 40
0.2
 49
0.1
 49
-0.1
  0
ENDTAB
  0
TABLE
  2
LAYER
 70
36
  0
LAYER
  2
0
 70
0
 62
7
  6
CONTINUOUS
  0
LAYER
  2
DEFAULT_1
 70
0
 62
7
  6
CENTER
  0
LAYER
  2
DEFAULT_2
 70
0
 62
8
  6
HIDDEN
  0
LAYER
  2
DEFAULT_3
 70
0
 62
7
  6
PHANTOM
  0
LAYER
  2
___NOTE
 70
0
 62
7
  6
CONTINUOUS
  0
LAYER
  2
___SYMBOL
 70
0
 62
7
  6
CONTINUOUS
  0
ENDTAB
  0
TABLE
  2
STYLE
 70
1
  0
STYLE
  2
STANDARD
 70
0
 40
0.0
 41
0.8
 50
0.0
 71
0
 42
0.2
  3
txt
  4

  0
STYLE
  2
TEXTSTYLE_1
 70
0
 40
0.0
 41
0.8
 50
0.0
 71
0
 42
0.2
  3
gdt
  4

  0
ENDTAB
  0
ENDSEC
  0
SECTION
  2
BLOCKS
  0
BLOCK
  8
___SYMBOL
 62
2
  6
CONTINUOUS
  2
SYMBOL_45_BL4
 70
64
 10
21.3649697553
 20
6.9560409944
  0
LINE
  8
___SYMBOL
 62
7
  6
CONTINUOUS
 10
21.4397359568
 20
7.0974153046
 11
21.5237777127
 21
7.6560174652
  0
LINE
  8
___SYMBOL
 62
7
  6
CONTINUOUS
 10
21.384183986
 20
7.0862401797
 11
21.5237777127
 21
7.6560174652
  0
LINE
  8
___SYMBOL
 62
7
  6
CONTINUOUS
 10
21.4326281032
 20
6.9981775742
 11
21.4485479175
 21
7.046500301
  0
LINE
  8
___SYMBOL
 62
7
  6
CONTINUOUS
 10
21.4641704926
 20
7.0415377783
 11
21.4481411336
 21
6.9928825414
  0
LINE
  8
___SYMBOL
 62
7
  6
CONTINUOUS
 10
21.5192732384
 20
7.210234645
 11
21.8361360947
 21
7.5319680293
  0
LINE
  8
___SYMBOL
 62
7
  6
CONTINUOUS
 10
21.3237124438
 20
7.0065676529
 11
21.3752841286
 21
7.0531509845
  0
LINE
  8
___SYMBOL
 62
7
  6
CONTINUOUS
 10
21.5172327937
 20
7.0083031574
 11
21.762442124
 21
7.3294955089
  0
LINE
  8
___SYMBOL
 62
7
  6
CONTINUOUS
 10
21.5181252359
 20
7.0966232093
 11
21.4397359568
 21
7.0974153046
  0
LINE
  8
___SYMBOL
 62
7
  6
CONTINUOUS
 10
21.516484893
 20
6.9342875734
 11
21.4153636563
 21
6.8239546618
  0
LINE
  8
___SYMBOL
 62
7
  6
CONTINUOUS
 10
21.3278806838
 20
6.8605970145
 11
21.3849640236
 21
6.8885588706
  0
LINE
  8
___SYMBOL
 62
7
  6
CONTINUOUS
 10
21.5237777127
 20
7.6560174652
 11
21.516484893
 21
6.9342875734
  0
LINE
  8
___SYMBOL
 62
7
  6
CONTINUOUS
 10
21.3278806838
 20
6.8605970145
 11
21.3237124438
 21
7.0065676529
  0
ARC
  8
___SYMBOL
 62
7
  6
CONTINUOUS
 10
21.4754390833
 20
7.5486035389
 40
0.3610804262
 50
322.6406360869
 51
357.3593639131
  0
ARC
  8
___SYMBOL
 62
7
  6
CONTINUOUS
 10
21.6813524394
 20
6.9885705936
 40
0.3128073492
 50
161.8059909349
 51
211.752660067
  0
CIRCLE
  8
___SYMBOL
 62
7
  6
CONTINUOUS
 10
21.4486308289
 20
7.019689249
 40
0.0268111801
  0
ARC
  8
___SYMBOL
 62
7
  6
CONTINUOUS
 10
21.4711320385
 20
6.615287367
 40
0.0146088562
 50
165.3133793157
 51
294.0675041521
  0
ARC
  8
___SYMBOL
 62
7
  6
CONTINUOUS
 10
21.1540808211
 20
6.7226813503
 40
0.0146087357
 50
213.3109272841
 51
339.4467240969
  0
POLYLINE
  8
___SYMBOL
 62
7
  6
CONTINUOUS
 66
1
 70
0
  0
VERTEX
  8
___SYMBOL
 62
7
  6
CONTINUOUS
 10
21.3553778827
 20
6.4076118855
  0
VERTEX
  8
___SYMBOL
 62
7
  6
CONTINUOUS
 10
21.3557452879
 20
6.4183848204
  0
VERTEX
  8
___SYMBOL
 62
7
  6
CONTINUOUS
 10
21.3564051689
 20
6.4291375882
  0
VERTEX
  8
___SYMBOL
 62
7
  6
CONTINUOUS
 10
21.3573441246
 20
6.4398690861
  0
VERTEX
  8
___SYMBOL
 62
7
  6
CONTINUOUS
 10
21.3585487536
 20
6.4505782108
  0
VERTEX
  8
___SYMBOL
 62
7
  6
CONTINUOUS
 10
21.3600056547
 20
6.4612638595
  0
VERTEX
  8
___SYMBOL
 62
7
  6
CONTINUOUS
 10
21.3617014266
 20
6.4719249291
  0
VERTEX
  8
___SYMBOL
 62
7
  6
CONTINUOUS
 10
21.363622668
 20
6.4825603166
  0
VERTEX
  8
___SYMBOL
 62
7
  6
CONTINUOUS
 10
21.3657559776
 20
6.4931689189
  0
VERTEX
  8
___SYMBOL
 62
7
  6
CONTINUOUS
 10
21.3680879541
 20
6.5037496331
  0
VERTEX
  8
___SYMBOL
 62
7
  6
CONTINUOUS
 10
21.3706051964
 20
6.514301356
  0
VERTEX
  8
___SYMBOL
 62
7
  6
CONTINUOUS
 10
21.373294303
 20
6.5248229848
  0
VERTEX
  8
___SYMBOL
 62
7
  6
CONTINUOUS
 10
21.3761418727
 20
6.5353134163
  0
VERTEX
  8
___SYMBOL
 62
7
  6
CONTINUOUS
 10
21.3791345042
 20
6.5457715476
  0
VERTEX
  8
___SYMBOL
 62
7
  6
CONTINUOUS
 10
21.3822587963
 20
6.5561962756
  0
VERTEX
  8
___SYMBOL
 62
7
  6
CONTINUOUS
 10
21.3855013477
 20
6.5665864973
  0
VERTEX
  8
___SYMBOL
 62
7
  6
CONTINUOUS
 10
21.388848757
 20
6.5769411097
  0
VERTEX
  8
___SYMBOL
 62
7
  6
CONTINUOUS
 10
21.3922876231
 20
6.5872590098
  0
VERTEX
  8
___SYMBOL
 62
7
  6
CONTINUOUS
 10
21.3958045446
 20
6.5975390945
  0
VERTEX
  8
___SYMBOL
 62
7
  6
CONTINUOUS
 10
21.3993861203
 20
6.6077802609
  0
VERTEX
  8
___SYMBOL
 62
7
  6
CONTINUOUS
 10
21.4030189488
 20
6.6179814058
  0
VERTEX
  8
___SYMBOL
 62
7
  6
CONTINUOUS
 10
21.4084347223
 20
6.6329494494
  0
VERTEX
  8
___SYMBOL
 62
7
  6
CONTINUOUS
 10
21.4138682358
 20
6.6478752231
  0
VERTEX
  8
___SYMBOL
 62
7
  6
CONTINUOUS
 10
21.4192550073
 20
6.662805788
  0
VERTEX
  8
___SYMBOL
 62
7
  6
CONTINUOUS
 10
21.4245305551
 20
6.6777882056
  0
VERTEX
  8
___SYMBOL
 62
7
  6
CONTINUOUS
 10
21.4296303971
 20
6.692869537
  0
VERTEX
  8
___SYMBOL
 62
7
  6
CONTINUOUS
 10
21.4318955729
 20
6.6998478482
  0
VERTEX
  8
___SYMBOL
 62
7
  6
CONTINUOUS
 10
21.4340885495
 20
6.7068573685
  0
VERTEX
  8
___SYMBOL
 62
7
  6
CONTINUOUS
 10
21.4361878849
 20
6.7138984589
  0
VERTEX
  8
___SYMBOL
 62
7
  6
CONTINUOUS
 10
21.4381721372
 20
6.7209714803
  0
VERTEX
  8
___SYMBOL
 62
7
  6
CONTINUOUS
 10
21.4400198645
 20
6.7280767938
  0
VERTEX
  8
___SYMBOL
 62
7
  6
CONTINUOUS
 10
21.4417096248
 20
6.7352147605
  0
VERTEX
  8
___SYMBOL
 62
7
  6
CONTINUOUS
 10
21.4432199762
 20
6.7423857413
  0
VERTEX
  8
___SYMBOL
 62
7
  6
CONTINUOUS
 10
21.4445294768
 20
6.7495900974
  0
VERTEX
  8
___SYMBOL
 62
7
  6
CONTINUOUS
 10
21.4456166846
 20
6.7568281897
  0
VERTEX
  8
___SYMBOL
 62
7
  6
CONTINUOUS
 10
21.4464601578
 20
6.7641003793
  0
VERTEX
  8
___SYMBOL
 62
7
  6
CONTINUOUS
 10
21.4470384543
 20
6.7714070272
  0
VERTEX
  8
___SYMBOL
 62
7
  6
CONTINUOUS
 10
21.4473301323
 20
6.7787484945
  0
VERTEX
  8
___SYMBOL
 62
7
  6
CONTINUOUS
 10
21.4473554691
 20
6.7819378531
  0
VERTEX
  8
___SYMBOL
 62
7
  6
CONTINUOUS
 10
21.4472813913
 20
6.7851232988
  0
VERTEX
  8
___SYMBOL
 62
7
  6
CONTINUOUS
 10
21.4470662915
 20
6.7882943173
  0
VERTEX
  8
___SYMBOL
 62
7
  6
CONTINUOUS
 10
21.4466685625
 20
6.791440394
  0
VERTEX
  8
___SYMBOL
 62
7
  6
CONTINUOUS
 10
21.446046597
 20
6.7945510146
  0
VERTEX
  8
___SYMBOL
 62
7
  6
CONTINUOUS
 10
21.4451587879
 20
6.7976156646
  0
VERTEX
  8
___SYMBOL
 62
7
  6
CONTINUOUS
 10
21.4440187202
 20
6.8005221465
  0
VERTEX
  8
___SYMBOL
 62
7
  6
CONTINUOUS
 10
21.4426118851
 20
6.8033557326
  0
VERTEX
  8
___SYMBOL
 62
7
  6
CONTINUOUS
 10
21.4409586798
 20
6.8060962852
  0
VERTEX
  8
___SYMBOL
 62
7
  6
CONTINUOUS
 10
21.4390795016
 20
6.8087236666
  0
VERTEX
  8
___SYMBOL
 62
7
  6
CONTINUOUS
 10
21.4369947476
 20
6.8112177389
  0
VERTEX
  8
___SYMBOL
 62
7
  6
CONTINUOUS
 10
21.4347248152
 20
6.8135583644
  0
VERTEX
  8
___SYMBOL
 62
7
  6
CONTINUOUS
 10
21.4322901014
 20
6.8157254054
  0
VERTEX
  8
___SYMBOL
 62
7
  6
CONTINUOUS
 10
21.4297110036
 20
6.8176987241
  0
VERTEX
  8
___SYMBOL
 62
7
  6
CONTINUOUS
 10
21.427007919
 20
6.8194581828
  0
VERTEX
  8
___SYMBOL
 62
7
  6
CONTINUOUS
 10
21.4242012447
 20
6.8209836437
  0
VERTEX
  8
___SYMBOL
 62
7
  6
CONTINUOUS
 10
21.421311378
 20
6.8222549689
  0
VERTEX
  8
___SYMBOL
 62
7
  6
CONTINUOUS
 10
21.4183587161
 20
6.8232520209
  0
VERTEX
  8
___SYMBOL
 62
7
  6
CONTINUOUS
 10
21.4153636563
 20
6.8239546618
  0
SEQEND
  0
POLYLINE
  8
___SYMBOL
 62
7
  6
CONTINUOUS
 66
1
 70
0
  0
VERTEX
  8
___SYMBOL
 62
7
  6
CONTINUOUS
 10
21.4570004977
 20
6.6189911805
  0
VERTEX
  8
___SYMBOL
 62
7
  6
CONTINUOUS
 10
21.4590358322
 20
6.6264044121
  0
VERTEX
  8
___SYMBOL
 62
7
  6
CONTINUOUS
 10
21.4612313809
 20
6.6337662622
  0
VERTEX
  8
___SYMBOL
 62
7
  6
CONTINUOUS
 10
21.4638981817
 20
6.6420599722
  0
VERTEX
  8
___SYMBOL
 62
7
  6
CONTINUOUS
 10
21.4667286485
 20
6.6502822777
  0
VERTEX
  8
___SYMBOL
 62
7
  6
CONTINUOUS
 10
21.4697063644
 20
6.6584496898
  0
VERTEX
  8
___SYMBOL
 62
7
  6
CONTINUOUS
 10
21.4728149123
 20
6.6665787194
  0
VERTEX
  8
___SYMBOL
 62
7
  6
CONTINUOUS
 10
21.4760378752
 20
6.6746858774
  0
VERTEX
  8
___SYMBOL
 62
7
  6
CONTINUOUS
 10
21.4793588361
 20
6.6827876749
  0
VERTEX
  8
___SYMBOL
 62
7
  6
CONTINUOUS
 10
21.4827613778
 20
6.6909006227
  0
VERTEX
  8
___SYMBOL
 62
7
  6
CONTINUOUS
 10
21.4862290834
 20
6.6990412318
  0
VERTEX
  8
___SYMBOL
 62
7
  6
CONTINUOUS
 10
21.4884400989
 20
6.7041952843
  0
VERTEX
  8
___SYMBOL
 62
7
  6
CONTINUOUS
 10
21.4906563131
 20
6.7093665536
  0
VERTEX
  8
___SYMBOL
 62
7
  6
CONTINUOUS
 10
21.4928635425
 20
6.7145546933
  0
VERTEX
  8
___SYMBOL
 62
7
  6
CONTINUOUS
 10
21.4950476038
 20
6.7197593573
  0
VERTEX
  8
___SYMBOL
 62
7
  6
CONTINUOUS
 10
21.4971943137
 20
6.7249801992
  0
VERTEX
  8
___SYMBOL
 62
7
  6
CONTINUOUS
 10
21.4992894888
 20
6.7302168726
  0
VERTEX
  8
___SYMBOL
 62
7
  6
CONTINUOUS
 10
21.5013189458
 20
6.7354690312
  0
VERTEX
  8
___SYMBOL
 62
7
  6
CONTINUOUS
 10
21.5032685013
 20
6.7407363288
  0
VERTEX
  8
___SYMBOL
 62
7
  6
CONTINUOUS
 10
21.5051239719
 20
6.7460184191
  0
VERTEX
  8
___SYMBOL
 62
7
  6
CONTINUOUS
 10
21.5068711743
 20
6.7513149556
  0
VERTEX
  8
___SYMBOL
 62
7
  6
CONTINUOUS
 10
21.5084959251
 20
6.7566255922
  0
VERTEX
  8
___SYMBOL
 62
7
  6
CONTINUOUS
 10
21.509984041
 20
6.7619499825
  0
VERTEX
  8
___SYMBOL
 62
7
  6
CONTINUOUS
 10
21.5113213386
 20
6.7672877801
  0
VERTEX
  8
___SYMBOL
 62
7
  6
CONTINUOUS
 10
21.5124936346
 20
6.7726386389
  0
VERTEX
  8
___SYMBOL
 62
7
  6
CONTINUOUS
 10
21.5134867456
 20
6.7780022123
  0
VERTEX
  8
___SYMBOL
 62
7
  6
CONTINUOUS
 10
21.5142864882
 20
6.7833781543
  0
VERTEX
  8
___SYMBOL
 62
7
  6
CONTINUOUS
 10
21.5148786791
 20
6.7887661184
  0
VERTEX
  8
___SYMBOL
 62
7
  6
CONTINUOUS
 10
21.515249135
 20
6.7941657583
  0
VERTEX
  8
___SYMBOL
 62
7
  6
CONTINUOUS
 10
21.5153836725
 20
6.7995767277
  0
VERTEX
  8
___SYMBOL
 62
7
  6
CONTINUOUS
 10
21.515288507
 20
6.8046538928
  0
VERTEX
  8
___SYMBOL
 62
7
  6
CONTINUOUS
 10
21.5149944449
 20
6.8097397732
  0
VERTEX
  8
___SYMBOL
 62
7
  6
CONTINUOUS
 10
21.514521931
 20
6.8148334517
  0
VERTEX
  8
___SYMBOL
 62
7
  6
CONTINUOUS
 10
21.51389141
 20
6.8199340111
  0
VERTEX
  8
___SYMBOL
 62
7
  6
CONTINUOUS
 10
21.5131233266
 20
6.8250405345
  0
VERTEX
  8
___SYMBOL
 62
7
  6
CONTINUOUS
 10
21.5122381258
 20
6.8301521046
  0
VERTEX
  8
___SYMBOL
 62
7
  6
CONTINUOUS
 10
21.5112562523
 20
6.8352678043
  0
VERTEX
  8
___SYMBOL
 62
7
  6
CONTINUOUS
 10
21.5101981509
 20
6.8403867165
  0
VERTEX
  8
___SYMBOL
 62
7
  6
CONTINUOUS
 10
21.5090842663
 20
6.8455079241
  0
VERTEX
  8
___SYMBOL
 62
7
  6
CONTINUOUS
 10
21.5079350433
 20
6.85063051
  0
VERTEX
  8
___SYMBOL
 62
7
  6
CONTINUOUS
 10
21.5071026646
 20
6.8543094283
  0
VERTEX
  8
___SYMBOL
 62
7
  6
CONTINUOUS
 10
21.5062898242
 20
6.8579879322
  0
VERTEX
  8
___SYMBOL
 62
7
  6
CONTINUOUS
 10
21.5055237411
 20
6.8616653695
  0
VERTEX
  8
___SYMBOL
 62
7
  6
CONTINUOUS
 10
21.5048316342
 20
6.8653410879
  0
VERTEX
  8
___SYMBOL
 62
7
  6
CONTINUOUS
 10
21.5042407223
 20
6.8690144353
  0
VERTEX
  8
___SYMBOL
 62
7
  6
CONTINUOUS
 10
21.5037782245
 20
6.8726847595
  0
VERTEX
  8
___SYMBOL
 62
7
  6
CONTINUOUS
 10
21.5034713595
 20
6.8763514082
  0
VERTEX
  8
___SYMBOL
 62
7
  6
CONTINUOUS
 10
21.5033473464
 20
6.8800137293
  0
VERTEX
  8
___SYMBOL
 62
7
  6
CONTINUOUS
 10
21.503433404
 20
6.8836710704
  0
VERTEX
  8
___SYMBOL
 62
7
  6
CONTINUOUS
 10
21.503721364
 20
6.8870944452
  0
VERTEX
  8
___SYMBOL
 62
7
  6
CONTINUOUS
 10
21.5041940825
 20
6.8905110993
  0
VERTEX
  8
___SYMBOL
 62
7
  6
CONTINUOUS
 10
21.5048277715
 20
6.8939192617
  0
VERTEX
  8
___SYMBOL
 62
7
  6
CONTINUOUS
 10
21.5055986432
 20
6.8973171616
  0
VERTEX
  8
___SYMBOL
 62
7
  6
CONTINUOUS
 10
21.5064829097
 20
6.900703028
  0
VERTEX
  8
___SYMBOL
 62
7
  6
CONTINUOUS
 10
21.5074567832
 20
6.9040750902
  0
VERTEX
  8
___SYMBOL
 62
7
  6
CONTINUOUS
 10
21.5084964758
 20
6.9074315771
  0
VERTEX
  8
___SYMBOL
 62
7
  6
CONTINUOUS
 10
21.5095781996
 20
6.9107707179
  0
VERTEX
  8
___SYMBOL
 62
7
  6
CONTINUOUS
 10
21.5108724961
 20
6.914675961
  0
VERTEX
  8
___SYMBOL
 62
7
  6
CONTINUOUS
 10
21.5121566662
 20
6.9185685346
  0
VERTEX
  8
___SYMBOL
 62
7
  6
CONTINUOUS
 10
21.5133953504
 20
6.9224622107
  0
VERTEX
  8
___SYMBOL
 62
7
  6
CONTINUOUS
 10
21.5145531893
 20
6.9263707612
  0
VERTEX
  8
___SYMBOL
 62
7
  6
CONTINUOUS
 10
21.5155948233
 20
6.9303079581
  0
VERTEX
  8
___SYMBOL
 62
7
  6
CONTINUOUS
 10
21.516484893
 20
6.9342875734
  0
SEQEND
  0
POLYLINE
  8
___SYMBOL
 62
7
  6
CONTINUOUS
 66
1
 70
0
  0
VERTEX
  8
___SYMBOL
 62
7
  6
CONTINUOUS
 10
21.1436067344
 20
6.5258277567
  0
VERTEX
  8
___SYMBOL
 62
7
  6
CONTINUOUS
 10
21.1483877763
 20
6.5331248436
  0
VERTEX
  8
___SYMBOL
 62
7
  6
CONTINUOUS
 10
21.1529565254
 20
6.5405513109
  0
VERTEX
  8
___SYMBOL
 62
7
  6
CONTINUOUS
 10
21.1573244038
 20
6.5480982688
  0
VERTEX
  8
___SYMBOL
 62
7
  6
CONTINUOUS
 10
21.1615028335
 20
6.5557568279
  0
VERTEX
  8
___SYMBOL
 62
7
  6
CONTINUOUS
 10
21.1655032366
 20
6.5635180986
  0
VERTEX
  8
___SYMBOL
 62
7
  6
CONTINUOUS
 10
21.169337035
 20
6.5713731912
  0
VERTEX
  8
___SYMBOL
 62
7
  6
CONTINUOUS
 10
21.1730156509
 20
6.5793132162
  0
VERTEX
  8
___SYMBOL
 62
7
  6
CONTINUOUS
 10
21.1765505061
 20
6.5873292839
  0
VERTEX
  8
___SYMBOL
 62
7
  6
CONTINUOUS
 10
21.1799530229
 20
6.5954125048
  0
VERTEX
  8
___SYMBOL
 62
7
  6
CONTINUOUS
 10
21.1832346232
 20
6.6035539893
  0
VERTEX
  8
___SYMBOL
 62
7
  6
CONTINUOUS
 10
21.186406729
 20
6.6117448477
  0
VERTEX
  8
___SYMBOL
 62
7
  6
CONTINUOUS
 10
21.1894807624
 20
6.6199761905
  0
VERTEX
  8
___SYMBOL
 62
7
  6
CONTINUOUS
 10
21.1924681454
 20
6.6282391281
  0
VERTEX
  8
___SYMBOL
 62
7
  6
CONTINUOUS
 10
21.1964728262
 20
6.6396830689
  0
VERTEX
  8
___SYMBOL
 62
7
  6
CONTINUOUS
 10
21.2003739887
 20
6.651152513
  0
VERTEX
  8
___SYMBOL
 62
7
  6
CONTINUOUS
 10
21.2042114976
 20
6.6626296887
  0
VERTEX
  8
___SYMBOL
 62
7
  6
CONTINUOUS
 10
21.2080252175
 20
6.674096824
  0
VERTEX
  8
___SYMBOL
 62
7
  6
CONTINUOUS
 10
21.211855013
 20
6.6855361468
  0
VERTEX
  8
___SYMBOL
 62
7
  6
CONTINUOUS
 10
21.2157407488
 20
6.6969298854
  0
VERTEX
  8
___SYMBOL
 62
7
  6
CONTINUOUS
 10
21.2197222893
 20
6.7082602677
  0
VERTEX
  8
___SYMBOL
 62
7
  6
CONTINUOUS
 10
21.2238394992
 20
6.7195095219
  0
VERTEX
  8
___SYMBOL
 62
7
  6
CONTINUOUS
 10
21.2281322431
 20
6.730659876
  0
VERTEX
  8
___SYMBOL
 62
7
  6
CONTINUOUS
 10
21.2330576658
 20
6.7427293451
  0
VERTEX
  8
___SYMBOL
 62
7
  6
CONTINUOUS
 10
21.2381990535
 20
6.7547156474
  0
VERTEX
  8
___SYMBOL
 62
7
  6
CONTINUOUS
 10
21.243514918
 20
6.766675067
  0
VERTEX
  8
___SYMBOL
 62
7
  6
CONTINUOUS
 10
21.2489637711
 20
6.7786638884
  0
VERTEX
  8
___SYMBOL
 62
7
  6
CONTINUOUS
 10
21.2545041247
 20
6.7907383957
  0
VERTEX
  8
___SYMBOL
 62
7
  6
CONTINUOUS
 10
21.2600944906
 20
6.8029548731
  0
VERTEX
  8
___SYMBOL
 62
7
  6
CONTINUOUS
 10
21.2617788275
 20
6.8066551504
  0
VERTEX
  8
___SYMBOL
 62
7
  6
CONTINUOUS
 10
21.2634790501
 20
6.8103573703
  0
VERTEX
  8
___SYMBOL
 62
7
  6
CONTINUOUS
 10
21.2652102763
 20
6.8140456121
  0
VERTEX
  8
___SYMBOL
 62
7
  6
CONTINUOUS
 10
21.266987624
 20
6.817703955
  0
VERTEX
  8
___SYMBOL
 62
7
  6
CONTINUOUS
 10
21.2688262107
 20
6.8213164782
  0
VERTEX
  8
___SYMBOL
 62
7
  6
CONTINUOUS
 10
21.2707411543
 20
6.8248672607
  0
VERTEX
  8
___SYMBOL
 62
7
  6
CONTINUOUS
 10
21.2727475726
 20
6.8283403819
  0
VERTEX
  8
___SYMBOL
 62
7
  6
CONTINUOUS
 10
21.2748605834
 20
6.8317199209
  0
VERTEX
  8
___SYMBOL
 62
7
  6
CONTINUOUS
 10
21.2770953043
 20
6.8349899569
  0
VERTEX
  8
___SYMBOL
 62
7
  6
CONTINUOUS
 10
21.2794668532
 20
6.838134569
  0
VERTEX
  8
___SYMBOL
 62
7
  6
CONTINUOUS
 10
21.2819903479
 20
6.8411378365
  0
VERTEX
  8
___SYMBOL
 62
7
  6
CONTINUOUS
 10
21.284680906
 20
6.8439838385
  0
VERTEX
  8
___SYMBOL
 62
7
  6
CONTINUOUS
 10
21.2875536454
 20
6.8466566543
  0
VERTEX
  8
___SYMBOL
 62
7
  6
CONTINUOUS
 10
21.2906236839
 20
6.849140363
  0
VERTEX
  8
___SYMBOL
 62
7
  6
CONTINUOUS
 10
21.2935495548
 20
6.8511925648
  0
VERTEX
  8
___SYMBOL
 62
7
  6
CONTINUOUS
 10
21.2966263986
 20
6.8530707653
  0
VERTEX
  8
___SYMBOL
 62
7
  6
CONTINUOUS
 10
21.2998346329
 20
6.8547655858
  0
VERTEX
  8
___SYMBOL
 62
7
  6
CONTINUOUS
 10
21.3031546755
 20
6.8562676474
  0
VERTEX
  8
___SYMBOL
 62
7
  6
CONTINUOUS
 10
21.3065669438
 20
6.8575675714
  0
VERTEX
  8
___SYMBOL
 62
7
  6
CONTINUOUS
 10
21.3100518556
 20
6.858655979
  0
VERTEX
  8
___SYMBOL
 62
7
  6
CONTINUOUS
 10
21.3135898285
 20
6.8595234915
  0
VERTEX
  8
___SYMBOL
 62
7
  6
CONTINUOUS
 10
21.3171612802
 20
6.86016073
  0
VERTEX
  8
___SYMBOL
 62
7
  6
CONTINUOUS
 10
21.3207466282
 20
6.8605583159
  0
VERTEX
  8
___SYMBOL
 62
7
  6
CONTINUOUS
 10
21.3243262902
 20
6.8607068703
  0
VERTEX
  8
___SYMBOL
 62
7
  6
CONTINUOUS
 10
21.3278806838
 20
6.8605970145
  0
SEQEND
  0
POLYLINE
  8
___SYMBOL
 62
7
  6
CONTINUOUS
 66
1
 70
0
  0
VERTEX
  8
___SYMBOL
 62
7
  6
CONTINUOUS
 10
21.1677596544
 20
6.7175525418
  0
VERTEX
  8
___SYMBOL
 62
7
  6
CONTINUOUS
 10
21.1729135915
 20
6.7315970576
  0
VERTEX
  8
___SYMBOL
 62
7
  6
CONTINUOUS
 10
21.1779252758
 20
6.7457057059
  0
VERTEX
  8
___SYMBOL
 62
7
  6
CONTINUOUS
 10
21.1815162374
 20
6.7559683491
  0
VERTEX
  8
___SYMBOL
 62
7
  6
CONTINUOUS
 10
21.1851021361
 20
6.766249132
  0
VERTEX
  8
___SYMBOL
 62
7
  6
CONTINUOUS
 10
21.1887065777
 20
6.7765308928
  0
VERTEX
  8
___SYMBOL
 62
7
  6
CONTINUOUS
 10
21.1923531684
 20
6.7867964695
  0
VERTEX
  8
___SYMBOL
 62
7
  6
CONTINUOUS
 10
21.1960655141
 20
6.7970287
  0
VERTEX
  8
___SYMBOL
 62
7
  6
CONTINUOUS
 10
21.1998672209
 20
6.8072104224
  0
VERTEX
  8
___SYMBOL
 62
7
  6
CONTINUOUS
 10
21.2037818949
 20
6.8173244747
  0
VERTEX
  8
___SYMBOL
 62
7
  6
CONTINUOUS
 10
21.2078331419
 20
6.8273536948
  0
VERTEX
  8
___SYMBOL
 62
7
  6
CONTINUOUS
 10
21.2120445682
 20
6.8372809209
  0
VERTEX
  8
___SYMBOL
 62
7
  6
CONTINUOUS
 10
21.2164397796
 20
6.8470889908
  0
VERTEX
  8
___SYMBOL
 62
7
  6
CONTINUOUS
 10
21.2190325229
 20
6.8526085677
  0
VERTEX
  8
___SYMBOL
 62
7
  6
CONTINUOUS
 10
21.2217057736
 20
6.8580809
  0
VERTEX
  8
___SYMBOL
 62
7
  6
CONTINUOUS
 10
21.2244729298
 20
6.863502854
  0
VERTEX
  8
___SYMBOL
 62
7
  6
CONTINUOUS
 10
21.2273473898
 20
6.8688712959
  0
VERTEX
  8
___SYMBOL
 62
7
  6
CONTINUOUS
 10
21.2303425515
 20
6.8741830921
  0
VERTEX
  8
___SYMBOL
 62
7
  6
CONTINUOUS
 10
21.2334718132
 20
6.8794351089
  0
VERTEX
  8
___SYMBOL
 62
7
  6
CONTINUOUS
 10
21.236748573
 20
6.8846242124
  0
VERTEX
  8
___SYMBOL
 62
7
  6
CONTINUOUS
 10
21.240186229
 20
6.8897472691
  0
VERTEX
  8
___SYMBOL
 62
7
  6
CONTINUOUS
 10
21.2437981794
 20
6.8948011451
  0
VERTEX
  8
___SYMBOL
 62
7
  6
CONTINUOUS
 10
21.2475978222
 20
6.8997827069
  0
VERTEX
  8
___SYMBOL
 62
7
  6
CONTINUOUS
 10
21.2515985557
 20
6.9046888205
  0
VERTEX
  8
___SYMBOL
 62
7
  6
CONTINUOUS
 10
21.2558137779
 20
6.9095163525
  0
VERTEX
  8
___SYMBOL
 62
7
  6
CONTINUOUS
 10
21.260256887
 20
6.9142621689
  0
VERTEX
  8
___SYMBOL
 62
7
  6
CONTINUOUS
 10
21.2627155705
 20
6.9167528539
  0
VERTEX
  8
___SYMBOL
 62
7
  6
CONTINUOUS
 10
21.2652316793
 20
6.9192230676
  0
VERTEX
  8
___SYMBOL
 62
7
  6
CONTINUOUS
 10
21.2677943702
 20
6.9216763457
  0
VERTEX
  8
___SYMBOL
 62
7
  6
CONTINUOUS
 10
21.2703927999
 20
6.9241162239
  0
VERTEX
  8
___SYMBOL
 62
7
  6
CONTINUOUS
 10
21.2730161253
 20
6.9265462379
  0
VERTEX
  8
___SYMBOL
 62
7
  6
CONTINUOUS
 10
21.275653503
 20
6.9289699234
  0
VERTEX
  8
___SYMBOL
 62
7
  6
CONTINUOUS
 10
21.2782940899
 20
6.931390816
  0
VERTEX
  8
___SYMBOL
 62
7
  6
CONTINUOUS
 10
21.2809270427
 20
6.9338124515
  0
VERTEX
  8
___SYMBOL
 62
7
  6
CONTINUOUS
 10
21.2835415182
 20
6.9362383657
  0
VERTEX
  8
___SYMBOL
 62
7
  6
CONTINUOUS
 10
21.2861266732
 20
6.9386720941
  0
VERTEX
  8
___SYMBOL
 62
7
  6
CONTINUOUS
 10
21.2886716644
 20
6.9411171724
  0
VERTEX
  8
___SYMBOL
 62
7
  6
CONTINUOUS
 10
21.2911656486
 20
6.9435771365
  0
VERTEX
  8
___SYMBOL
 62
7
  6
CONTINUOUS
 10
21.2935977825
 20
6.9460555219
  0
VERTEX
  8
___SYMBOL
 62
7
  6
CONTINUOUS
 10
21.295957223
 20
6.9485558644
  0
VERTEX
  8
___SYMBOL
 62
7
  6
CONTINUOUS
 10
21.2982331268
 20
6.9510816997
  0
VERTEX
  8
___SYMBOL
 62
7
  6
CONTINUOUS
 10
21.3004146506
 20
6.9536365634
  0
VERTEX
  8
___SYMBOL
 62
7
  6
CONTINUOUS
 10
21.3024909513
 20
6.9562239914
  0
VERTEX
  8
___SYMBOL
 62
7
  6
CONTINUOUS
 10
21.3044511856
 20
6.9588475192
  0
VERTEX
  8
___SYMBOL
 62
7
  6
CONTINUOUS
 10
21.3062845103
 20
6.9615106825
  0
VERTEX
  8
___SYMBOL
 62
7
  6
CONTINUOUS
 10
21.3079800821
 20
6.9642170171
  0
VERTEX
  8
___SYMBOL
 62
7
  6
CONTINUOUS
 10
21.3095270578
 20
6.9669700587
  0
VERTEX
  8
___SYMBOL
 62
7
  6
CONTINUOUS
 10
21.3109145942
 20
6.969773343
  0
VERTEX
  8
___SYMBOL
 62
7
  6
CONTINUOUS
 10
21.3121318481
 20
6.9726304056
  0
VERTEX
  8
___SYMBOL
 62
7
  6
CONTINUOUS
 10
21.3131679761
 20
6.9755447822
  0
VERTEX
  8
___SYMBOL
 62
7
  6
CONTINUOUS
 10
21.3140121351
 20
6.9785200087
  0
VERTEX
  8
___SYMBOL
 62
7
  6
CONTINUOUS
 10
21.3146534819
 20
6.9815596206
  0
VERTEX
  8
___SYMBOL
 62
7
  6
CONTINUOUS
 10
21.3150811732
 20
6.9846671536
  0
VERTEX
  8
___SYMBOL
 62
7
  6
CONTINUOUS
 10
21.3152843658
 20
6.9878461435
  0
VERTEX
  8
___SYMBOL
 62
7
  6
CONTINUOUS
 10
21.3153065475
 20
6.9894060538
  0
VERTEX
  8
___SYMBOL
 62
7
  6
CONTINUOUS
 10
21.3153185786
 20
6.9909799226
  0
VERTEX
  8
___SYMBOL
 62
7
  6
CONTINUOUS
 10
21.3153651041
 20
6.9925642475
  0
VERTEX
  8
___SYMBOL
 62
7
  6
CONTINUOUS
 10
21.3154907691
 20
6.994155526
  0
VERTEX
  8
___SYMBOL
 62
7
  6
CONTINUOUS
 10
21.3157402187
 20
6.9957502559
  0
VERTEX
  8
___SYMBOL
 62
7
  6
CONTINUOUS
 10
21.3161215196
 20
6.9972507471
  0
VERTEX
  8
___SYMBOL
 62
7
  6
CONTINUOUS
 10
21.3166454855
 20
6.9987288146
  0
VERTEX
  8
___SYMBOL
 62
7
  6
CONTINUOUS
 10
21.3173050281
 20
7.0001620803
  0
VERTEX
  8
___SYMBOL
 62
7
  6
CONTINUOUS
 10
21.3180930589
 20
7.0015281658
  0
VERTEX
  8
___SYMBOL
 62
7
  6
CONTINUOUS
 10
21.3190024896
 20
7.0028046929
  0
VERTEX
  8
___SYMBOL
 62
7
  6
CONTINUOUS
 10
21.3200262318
 20
7.0039692834
  0
VERTEX
  8
___SYMBOL
 62
7
  6
CONTINUOUS
 10
21.3211571971
 20
7.0049995591
  0
VERTEX
  8
___SYMBOL
 62
7
  6
CONTINUOUS
 10
21.3223882973
 20
7.0058731416
  0
VERTEX
  8
___SYMBOL
 62
7
  6
CONTINUOUS
 10
21.3237124438
 20
7.0065676529
  0
SEQEND
  0
POLYLINE
  8
___SYMBOL
 62
7
  6
CONTINUOUS
 66
1
 70
0
  0
VERTEX
  8
___SYMBOL
 62
7
  6
CONTINUOUS
 10
21.4557976134
 20
6.3159977263
  0
VERTEX
  8
___SYMBOL
 62
7
  6
CONTINUOUS
 10
21.4769287292
 20
6.3126574188
  0
VERTEX
  8
___SYMBOL
 62
7
  6
CONTINUOUS
 10
21.4992535811
 20
6.3154311539
  0
VERTEX
  8
___SYMBOL
 62
7
  6
CONTINUOUS
 10
21.5208163504
 20
6.3240757821
  0
VERTEX
  8
___SYMBOL
 62
7
  6
CONTINUOUS
 10
21.5413534398
 20
6.3384860404
  0
VERTEX
  8
___SYMBOL
 62
7
  6
CONTINUOUS
 10
21.5590654708
 20
6.357398887
  0
VERTEX
  8
___SYMBOL
 62
7
  6
CONTINUOUS
 10
21.5737359337
 20
6.3805836841
  0
VERTEX
  8
___SYMBOL
 62
7
  6
CONTINUOUS
 10
21.5840795413
 20
6.4060086317
  0
VERTEX
  8
___SYMBOL
 62
7
  6
CONTINUOUS
 10
21.5899032011
 20
6.4328321958
  0
VERTEX
  8
___SYMBOL
 62
7
  6
CONTINUOUS
 10
21.5908908429
 20
6.4602507757
  0
VERTEX
  8
___SYMBOL
 62
7
  6
CONTINUOUS
 10
21.5869560188
 20
6.4858620153
  0
VERTEX
  8
___SYMBOL
 62
7
  6
CONTINUOUS
 10
21.5781466284
 20
6.5093528173
  0
VERTEX
  8
___SYMBOL
 62
7
  6
CONTINUOUS
 10
21.5652345778
 20
6.5286650256
  0
VERTEX
  8
___SYMBOL
 62
7
  6
CONTINUOUS
 10
21.5483776942
 20
6.5435628296
  0
VERTEX
  8
___SYMBOL
 62
7
  6
CONTINUOUS
 10
21.5290530156
 20
6.5527406771
  0
VERTEX
  8
___SYMBOL
 62
7
  6
CONTINUOUS
 10
21.5079220493
 20
6.5560810543
  0
VERTEX
  8
___SYMBOL
 62
7
  6
CONTINUOUS
 10
21.4855970878
 20
6.5533073591
  0
VERTEX
  8
___SYMBOL
 62
7
  6
CONTINUOUS
 10
21.4640343881
 20
6.5446625814
  0
VERTEX
  8
___SYMBOL
 62
7
  6
CONTINUOUS
 10
21.4434971891
 20
6.530252363
  0
VERTEX
  8
___SYMBOL
 62
7
  6
CONTINUOUS
 10
21.4257852678
 20
6.5113394765
  0
VERTEX
  8
___SYMBOL
 62
7
  6
CONTINUOUS
 10
21.4111146953
 20
6.4881547193
  0
VERTEX
  8
___SYMBOL
 62
7
  6
CONTINUOUS
 10
21.4007710877
 20
6.4627297717
  0
VERTEX
  8
___SYMBOL
 62
7
  6
CONTINUOUS
 10
21.3949474279
 20
6.4359062076
  0
VERTEX
  8
___SYMBOL
 62
7
  6
CONTINUOUS
 10
21.3939597861
 20
6.4084876277
  0
VERTEX
  8
___SYMBOL
 62
7
  6
CONTINUOUS
 10
21.3978947198
 20
6.3828763483
  0
VERTEX
  8
___SYMBOL
 62
7
  6
CONTINUOUS
 10
21.4067041102
 20
6.3593855462
  0
VERTEX
  8
___SYMBOL
 62
7
  6
CONTINUOUS
 10
21.4196161608
 20
6.340073338
  0
VERTEX
  8
___SYMBOL
 62
7
  6
CONTINUOUS
 10
21.4364729747
 20
6.3251756835
  0
VERTEX
  8
___SYMBOL
 62
7
  6
CONTINUOUS
 10
21.4557976134
 20
6.3159977263
  0
SEQEND
  0
POLYLINE
  8
___SYMBOL
 62
7
  6
CONTINUOUS
 66
1
 70
0
  0
VERTEX
  8
___SYMBOL
 62
7
  6
CONTINUOUS
 10
21.3553778827
 20
6.4076118855
  0
VERTEX
  8
___SYMBOL
 62
7
  6
CONTINUOUS
 10
21.3550820867
 20
6.3825073263
  0
VERTEX
  8
___SYMBOL
 62
7
  6
CONTINUOUS
 10
21.3576469946
 20
6.358482991
  0
VERTEX
  8
___SYMBOL
 62
7
  6
CONTINUOUS
 10
21.3630191823
 20
6.3360392792
  0
VERTEX
  8
___SYMBOL
 62
7
  6
CONTINUOUS
 10
21.3710867533
 20
6.3156436678
  0
VERTEX
  8
___SYMBOL
 62
7
  6
CONTINUOUS
 10
21.3816816692
 20
6.2977209745
  0
VERTEX
  8
___SYMBOL
 62
7
  6
CONTINUOUS
 10
21.3945832499
 20
6.2826445084
  0
VERTEX
  8
___SYMBOL
 62
7
  6
CONTINUOUS
 10
21.4095227702
 20
6.2707282953
  0
VERTEX
  8
___SYMBOL
 62
7
  6
CONTINUOUS
 10
21.4261890568
 20
6.2622205363
  0
VERTEX
  8
___SYMBOL
 62
7
  6
CONTINUOUS
 10
21.4442349698
 20
6.2572984385
  0
VERTEX
  8
___SYMBOL
 62
7
  6
CONTINUOUS
 10
21.4632846335
 20
6.2560645235
  0
VERTEX
  8
___SYMBOL
 62
7
  6
CONTINUOUS
 10
21.4829412649
 20
6.2585444924
  0
VERTEX
  8
___SYMBOL
 62
7
  6
CONTINUOUS
 10
21.5027954387
 20
6.2646866902
  0
VERTEX
  8
___SYMBOL
 62
7
  6
CONTINUOUS
 10
21.522433615
 20
6.274363182
  0
VERTEX
  8
___SYMBOL
 62
7
  6
CONTINUOUS
 10
21.5414467529
 20
6.2873724173
  0
VERTEX
  8
___SYMBOL
 62
7
  6
CONTINUOUS
 10
21.5594388304
 20
6.3034434287
  0
VERTEX
  8
___SYMBOL
 62
7
  6
CONTINUOUS
 10
21.5760350928
 20
6.3222414751
  0
VERTEX
  8
___SYMBOL
 62
7
  6
CONTINUOUS
 10
21.5908898589
 20
6.3433750146
  0
VERTEX
  8
___SYMBOL
 62
7
  6
CONTINUOUS
 10
21.6036937208
 20
6.3664038596
  0
VERTEX
  8
___SYMBOL
 62
7
  6
CONTINUOUS
 10
21.6141799886
 20
6.3908483454
  0
VERTEX
  8
___SYMBOL
 62
7
  6
CONTINUOUS
 10
21.6221302451
 20
6.4161993211
  0
VERTEX
  8
___SYMBOL
 62
7
  6
CONTINUOUS
 10
21.6273788956
 20
6.4419287546
  0
VERTEX
  8
___SYMBOL
 62
7
  6
CONTINUOUS
 10
21.6298166167
 20
6.4675007311
  0
VERTEX
  8
___SYMBOL
 62
7
  6
CONTINUOUS
 10
21.6293926334
 20
6.4923826154
  0
VERTEX
  8
___SYMBOL
 62
7
  6
CONTINUOUS
 10
21.6261157768
 20
6.5160561459
  0
VERTEX
  8
___SYMBOL
 62
7
  6
CONTINUOUS
 10
21.6200543
 20
6.53802823
  0
VERTEX
  8
___SYMBOL
 62
7
  6
CONTINUOUS
 10
21.6113344568
 20
6.5578412142
  0
VERTEX
  8
___SYMBOL
 62
7
  6
CONTINUOUS
 10
21.6001378717
 20
6.5750824163
  0
VERTEX
  8
___SYMBOL
 62
7
  6
CONTINUOUS
 10
21.5866977566
 20
6.5893927218
  0
VERTEX
  8
___SYMBOL
 62
7
  6
CONTINUOUS
 10
21.5712940541
 20
6.6004740633
  0
VERTEX
  8
___SYMBOL
 62
7
  6
CONTINUOUS
 10
21.5542476057
 20
6.6080956289
  0
VERTEX
  8
___SYMBOL
 62
7
  6
CONTINUOUS
 10
21.5359134696
 20
6.6120986702
  0
VERTEX
  8
___SYMBOL
 62
7
  6
CONTINUOUS
 10
21.5166735251
 20
6.6123998083
  0
VERTEX
  8
___SYMBOL
 62
7
  6
CONTINUOUS
 10
21.4969285182
 20
6.6089927709
  0
VERTEX
  8
___SYMBOL
 62
7
  6
CONTINUOUS
 10
21.4770897152
 20
6.6019485226
  0
SEQEND
  0
POLYLINE
  8
___SYMBOL
 62
7
  6
CONTINUOUS
 66
1
 70
0
  0
VERTEX
  8
___SYMBOL
 62
7
  6
CONTINUOUS
 10
21.0071970552
 20
6.4939215927
  0
VERTEX
  8
___SYMBOL
 62
7
  6
CONTINUOUS
 10
21.027851679
 20
6.4922994356
  0
VERTEX
  8
___SYMBOL
 62
7
  6
CONTINUOUS
 10
21.0492653949
 20
6.4968519571
  0
VERTEX
  8
___SYMBOL
 62
7
  6
CONTINUOUS
 10
21.06956177
 20
6.5071800112
  0
VERTEX
  8
___SYMBOL
 62
7
  6
CONTINUOUS
 10
21.0884929853
 20
6.5231575726
  0
VERTEX
  8
___SYMBOL
 62
7
  6
CONTINUOUS
 10
21.1044002841
 20
6.543384648
  0
VERTEX
  8
___SYMBOL
 62
7
  6
CONTINUOUS
 10
21.1170893093
 20
6.5676142203
  0
VERTEX
  8
___SYMBOL
 62
7
  6
CONTINUOUS
 10
21.125448169
 20
6.5937230787
  0
VERTEX
  8
___SYMBOL
 62
7
  6
CONTINUOUS
 10
21.129344734
 20
6.6208591678
  0
VERTEX
  8
___SYMBOL
 62
7
  6
CONTINUOUS
 10
21.1285252147
 20
6.6481978325
  0
VERTEX
  8
___SYMBOL
 62
7
  6
CONTINUOUS
 10
21.1230615801
 20
6.6733439741
  0
VERTEX
  8
___SYMBOL
 62
7
  6
CONTINUOUS
 10
21.1130203513
 20
6.6959901304
  0
VERTEX
  8
___SYMBOL
 62
7
  6
CONTINUOUS
 10
21.0992815374
 20
6.7141521237
  0
VERTEX
  8
___SYMBOL
 62
7
  6
CONTINUOUS
 10
21.082012905
 20
6.7276081517
  0
VERTEX
  8
___SYMBOL
 62
7
  6
CONTINUOUS
 10
21.0627275084
 20
6.7351790685
  0
VERTEX
  8
___SYMBOL
 62
7
  6
CONTINUOUS
 10
21.0420728446
 20
6.736801116
  0
VERTEX
  8
___SYMBOL
 62
7
  6
CONTINUOUS
 10
21.0206591686
 20
6.732248704
  0
VERTEX
  8
___SYMBOL
 62
7
  6
CONTINUOUS
 10
21.0003627936
 20
6.72192065
  0
VERTEX
  8
___SYMBOL
 62
7
  6
CONTINUOUS
 10
20.9814314836
 20
6.7059429989
  0
VERTEX
  8
___SYMBOL
 62
7
  6
CONTINUOUS
 10
20.9655242396
 20
6.6857159036
  0
VERTEX
  8
___SYMBOL
 62
7
  6
CONTINUOUS
 10
20.9528352542
 20
6.6614864408
  0
VERTEX
  8
___SYMBOL
 62
7
  6
CONTINUOUS
 10
20.9444763945
 20
6.6353775825
  0
VERTEX
  8
___SYMBOL
 62
7
  6
CONTINUOUS
 10
20.9405798295
 20
6.6082414934
  0
VERTEX
  8
___SYMBOL
 62
7
  6
CONTINUOUS
 10
20.941399309
 20
6.5809027191
  0
VERTEX
  8
___SYMBOL
 62
7
  6
CONTINUOUS
 10
20.9468629834
 20
6.5557566871
  0
VERTEX
  8
___SYMBOL
 62
7
  6
CONTINUOUS
 10
20.9569042123
 20
6.5331105308
  0
VERTEX
  8
___SYMBOL
 62
7
  6
CONTINUOUS
 10
20.9706430261
 20
6.5149485374
  0
VERTEX
  8
___SYMBOL
 62
7
  6
CONTINUOUS
 10
20.9879116585
 20
6.5014925095
  0
VERTEX
  8
___SYMBOL
 62
7
  6
CONTINUOUS
 10
21.0071970552
 20
6.4939215927
  0
SEQEND
  0
POLYLINE
  8
___SYMBOL
 62
7
  6
CONTINUOUS
 66
1
 70
0
  0
VERTEX
  8
___SYMBOL
 62
7
  6
CONTINUOUS
 10
21.1418722621
 20
6.7146584925
  0
VERTEX
  8
___SYMBOL
 62
7
  6
CONTINUOUS
 10
21.1289188813
 20
6.7311378613
  0
VERTEX
  8
___SYMBOL
 62
7
  6
CONTINUOUS
 10
21.1137643956
 20
6.7445745388
  0
VERTEX
  8
___SYMBOL
 62
7
  6
CONTINUOUS
 10
21.0967463484
 20
6.7546692429
  0
VERTEX
  8
___SYMBOL
 62
7
  6
CONTINUOUS
 10
21.0782437913
 20
6.7611971292
  0
VERTEX
  8
___SYMBOL
 62
7
  6
CONTINUOUS
 10
21.0586688411
 20
6.764012799
  0
VERTEX
  8
___SYMBOL
 62
7
  6
CONTINUOUS
 10
21.0384575005
 20
6.7630535373
  0
VERTEX
  8
___SYMBOL
 62
7
  6
CONTINUOUS
 10
21.0180599468
 20
6.7583407102
  0
VERTEX
  8
___SYMBOL
 62
7
  6
CONTINUOUS
 10
20.9979305049
 20
6.749979289
  0
VERTEX
  8
___SYMBOL
 62
7
  6
CONTINUOUS
 10
20.9785175281
 20
6.7381555118
  0
VERTEX
  8
___SYMBOL
 62
7
  6
CONTINUOUS
 10
20.9602534114
 20
6.7231327354
  0
VERTEX
  8
___SYMBOL
 62
7
  6
CONTINUOUS
 10
20.9435449605
 20
6.7052455699
  0
VERTEX
  8
___SYMBOL
 62
7
  6
CONTINUOUS
 10
20.9287643313
 20
6.6848924249
  0
VERTEX
  8
___SYMBOL
 62
7
  6
CONTINUOUS
 10
20.9162407401
 20
6.6625266363
  0
VERTEX
  8
___SYMBOL
 62
7
  6
CONTINUOUS
 10
20.9062531312
 20
6.6386463686
  0
VERTEX
  8
___SYMBOL
 62
7
  6
CONTINUOUS
 10
20.8990239636
 20
6.613783519
  0
VERTEX
  8
___SYMBOL
 62
7
  6
CONTINUOUS
 10
20.8947142561
 20
6.5884918702
  0
VERTEX
  8
___SYMBOL
 62
7
  6
CONTINUOUS
 10
20.8934200012
 20
6.5633347559
  0
VERTEX
  8
___SYMBOL
 62
7
  6
CONTINUOUS
 10
20.8951700262
 20
6.538872513
  0
VERTEX
  8
___SYMBOL
 62
7
  6
CONTINUOUS
 10
20.8999253522
 20
6.5156500015
  0
VERTEX
  8
___SYMBOL
 62
7
  6
CONTINUOUS
 10
20.9075800612
 20
6.494184468
  0
VERTEX
  8
___SYMBOL
 62
7
  6
CONTINUOUS
 10
20.9179636562
 20
6.4749540251
  0
VERTEX
  8
___SYMBOL
 62
7
  6
CONTINUOUS
 10
20.930844858
 20
6.4583870021
  0
VERTEX
  8
___SYMBOL
 62
7
  6
CONTINUOUS
 10
20.9459367572
 20
6.4448524048
  0
VERTEX
  8
___SYMBOL
 62
7
  6
CONTINUOUS
 10
20.9629032044
 20
6.4346516959
  0
VERTEX
  8
___SYMBOL
 62
7
  6
CONTINUOUS
 10
20.9813662973
 20
6.428012081
  0
VERTEX
  8
___SYMBOL
 62
7
  6
CONTINUOUS
 10
21.0009147982
 20
6.4250814475
  0
VERTEX
  8
___SYMBOL
 62
7
  6
CONTINUOUS
 10
21.0211132935
 20
6.425925071
  0
VERTEX
  8
___SYMBOL
 62
7
  6
CONTINUOUS
 10
21.041511892
 20
6.430524161
  0
VERTEX
  8
___SYMBOL
 62
7
  6
CONTINUOUS
 10
21.0616562453
 20
6.4387762797
  0
VERTEX
  8
___SYMBOL
 62
7
  6
CONTINUOUS
 10
21.0810976683
 20
6.4504976234
  0
VERTEX
  8
___SYMBOL
 62
7
  6
CONTINUOUS
 10
21.0994031323
 20
6.4654271167
  0
VERTEX
  8
___SYMBOL
 62
7
  6
CONTINUOUS
 10
21.1161649105
 20
6.4832322277
  0
VERTEX
  8
___SYMBOL
 62
7
  6
CONTINUOUS
 10
21.1310096594
 20
6.503516374
  0
VERTEX
  8
___SYMBOL
 62
7
  6
CONTINUOUS
 10
21.1436067344
 20
6.5258277567
  0
SEQEND
  0
LINE
  8
___SYMBOL
 62
7
  6
CONTINUOUS
 10
21.4405880104
 20
7.0223389376
 11
21.4483719117
 21
7.0197745487
  0
ENDBLK
  8
0
  6
BYBLOCK
 62
0
  0
BLOCK
  8
___SYMBOL
 62
2
  6
CONTINUOUS
  2
SYMBOL_45_BL3
 70
64
 10
19.0070930223
 20
7.9638488869
  0
LINE
  8
___SYMBOL
 62
7
  6
CONTINUOUS
 10
19.0818592238
 20
8.1052231971
 11
19.1659009797
 21
8.6638253577
  0
LINE
  8
___SYMBOL
 62
7
  6
CONTINUOUS
 10
19.026307253
 20
8.0940480722
 11
19.1659009797
 21
8.6638253577
  0
LINE
  8
___SYMBOL
 62
7
  6
CONTINUOUS
 10
19.0747513702
 20
8.0059854667
 11
19.0906711845
 21
8.0543081934
  0
LINE
  8
___SYMBOL
 62
7
  6
CONTINUOUS
 10
19.1062937596
 20
8.0493456708
 11
19.0902644006
 21
8.0006904338
  0
LINE
  8
___SYMBOL
 62
7
  6
CONTINUOUS
 10
19.1613965054
 20
8.2180425375
 11
19.4782593616
 21
8.5397759218
  0
LINE
  8
___SYMBOL
 62
7
  6
CONTINUOUS
 10
18.9658357108
 20
8.0143755454
 11
19.0174073956
 21
8.0609588769
  0
LINE
  8
___SYMBOL
 62
7
  6
CONTINUOUS
 10
19.1593560607
 20
8.0161110499
 11
19.404565391
 21
8.3373034014
  0
LINE
  8
___SYMBOL
 62
7
  6
CONTINUOUS
 10
19.1602485029
 20
8.1044311018
 11
19.0818592238
 21
8.1052231971
  0
LINE
  8
___SYMBOL
 62
7
  6
CONTINUOUS
 10
19.15860816
 20
7.9420954659
 11
19.0574869233
 21
7.8317625543
  0
LINE
  8
___SYMBOL
 62
7
  6
CONTINUOUS
 10
18.9700039508
 20
7.868404907
 11
19.0270872906
 21
7.8963667631
  0
LINE
  8
___SYMBOL
 62
7
  6
CONTINUOUS
 10
19.1659009797
 20
8.6638253577
 11
19.15860816
 21
7.9420954659
  0
LINE
  8
___SYMBOL
 62
7
  6
CONTINUOUS
 10
18.9700039508
 20
7.868404907
 11
18.9658357108
 21
8.0143755454
  0
ARC
  8
___SYMBOL
 62
7
  6
CONTINUOUS
 10
19.1175623503
 20
8.5564114314
 40
0.3610804262
 50
322.6406360869
 51
357.3593639131
  0
ARC
  8
___SYMBOL
 62
7
  6
CONTINUOUS
 10
19.3234757064
 20
7.9963784861
 40
0.3128073492
 50
161.8059909349
 51
211.752660067
  0
CIRCLE
  8
___SYMBOL
 62
7
  6
CONTINUOUS
 10
19.0907540958
 20
8.0274971415
 40
0.0268111801
  0
ARC
  8
___SYMBOL
 62
7
  6
CONTINUOUS
 10
19.1132553055
 20
7.6230952595
 40
0.0146088562
 50
165.3133793157
 51
294.0675041521
  0
ARC
  8
___SYMBOL
 62
7
  6
CONTINUOUS
 10
18.796204088
 20
7.7304892427
 40
0.0146087357
 50
213.3109272841
 51
339.4467240969
  0
POLYLINE
  8
___SYMBOL
 62
7
  6
CONTINUOUS
 66
1
 70
0
  0
VERTEX
  8
___SYMBOL
 62
7
  6
CONTINUOUS
 10
18.9975011497
 20
7.415419778
  0
VERTEX
  8
___SYMBOL
 62
7
  6
CONTINUOUS
 10
18.9978685548
 20
7.4261927128
  0
VERTEX
  8
___SYMBOL
 62
7
  6
CONTINUOUS
 10
18.9985284359
 20
7.4369454807
  0
VERTEX
  8
___SYMBOL
 62
7
  6
CONTINUOUS
 10
18.9994673916
 20
7.4476769786
  0
VERTEX
  8
___SYMBOL
 62
7
  6
CONTINUOUS
 10
19.0006720206
 20
7.4583861033
  0
VERTEX
  8
___SYMBOL
 62
7
  6
CONTINUOUS
 10
19.0021289217
 20
7.469071752
  0
VERTEX
  8
___SYMBOL
 62
7
  6
CONTINUOUS
 10
19.0038246936
 20
7.4797328216
  0
VERTEX
  8
___SYMBOL
 62
7
  6
CONTINUOUS
 10
19.005745935
 20
7.4903682091
  0
VERTEX
  8
___SYMBOL
 62
7
  6
CONTINUOUS
 10
19.0078792446
 20
7.5009768114
  0
VERTEX
  8
___SYMBOL
 62
7
  6
CONTINUOUS
 10
19.0102112211
 20
7.5115575255
  0
VERTEX
  8
___SYMBOL
 62
7
  6
CONTINUOUS
 10
19.0127284633
 20
7.5221092485
  0
VERTEX
  8
___SYMBOL
 62
7
  6
CONTINUOUS
 10
19.0154175699
 20
7.5326308773
  0
VERTEX
  8
___SYMBOL
 62
7
  6
CONTINUOUS
 10
19.0182651397
 20
7.5431213088
  0
VERTEX
  8
___SYMBOL
 62
7
  6
CONTINUOUS
 10
19.0212577712
 20
7.5535794401
  0
VERTEX
  8
___SYMBOL
 62
7
  6
CONTINUOUS
 10
19.0243820633
 20
7.5640041681
  0
VERTEX
  8
___SYMBOL
 62
7
  6
CONTINUOUS
 10
19.0276246147
 20
7.5743943898
  0
VERTEX
  8
___SYMBOL
 62
7
  6
CONTINUOUS
 10
19.030972024
 20
7.5847490022
  0
VERTEX
  8
___SYMBOL
 62
7
  6
CONTINUOUS
 10
19.0344108901
 20
7.5950669023
  0
VERTEX
  8
___SYMBOL
 62
7
  6
CONTINUOUS
 10
19.0379278116
 20
7.605346987
  0
VERTEX
  8
___SYMBOL
 62
7
  6
CONTINUOUS
 10
19.0415093872
 20
7.6155881534
  0
VERTEX
  8
___SYMBOL
 62
7
  6
CONTINUOUS
 10
19.0451422158
 20
7.6257892983
  0
VERTEX
  8
___SYMBOL
 62
7
  6
CONTINUOUS
 10
19.0505579893
 20
7.6407573419
  0
VERTEX
  8
___SYMBOL
 62
7
  6
CONTINUOUS
 10
19.0559915027
 20
7.6556831156
  0
VERTEX
  8
___SYMBOL
 62
7
  6
CONTINUOUS
 10
19.0613782743
 20
7.6706136805
  0
VERTEX
  8
___SYMBOL
 62
7
  6
CONTINUOUS
 10
19.0666538221
 20
7.6855960981
  0
VERTEX
  8
___SYMBOL
 62
7
  6
CONTINUOUS
 10
19.0717536641
 20
7.7006774295
  0
VERTEX
  8
___SYMBOL
 62
7
  6
CONTINUOUS
 10
19.0740188399
 20
7.7076557407
  0
VERTEX
  8
___SYMBOL
 62
7
  6
CONTINUOUS
 10
19.0762118165
 20
7.714665261
  0
VERTEX
  8
___SYMBOL
 62
7
  6
CONTINUOUS
 10
19.0783111519
 20
7.7217063514
  0
VERTEX
  8
___SYMBOL
 62
7
  6
CONTINUOUS
 10
19.0802954042
 20
7.7287793728
  0
VERTEX
  8
___SYMBOL
 62
7
  6
CONTINUOUS
 10
19.0821431315
 20
7.7358846863
  0
VERTEX
  8
___SYMBOL
 62
7
  6
CONTINUOUS
 10
19.0838328918
 20
7.743022653
  0
VERTEX
  8
___SYMBOL
 62
7
  6
CONTINUOUS
 10
19.0853432432
 20
7.7501936338
  0
VERTEX
  8
___SYMBOL
 62
7
  6
CONTINUOUS
 10
19.0866527438
 20
7.7573979899
  0
VERTEX
  8
___SYMBOL
 62
7
  6
CONTINUOUS
 10
19.0877399516
 20
7.7646360822
  0
VERTEX
  8
___SYMBOL
 62
7
  6
CONTINUOUS
 10
19.0885834248
 20
7.7719082718
  0
VERTEX
  8
___SYMBOL
 62
7
  6
CONTINUOUS
 10
19.0891617213
 20
7.7792149197
  0
VERTEX
  8
___SYMBOL
 62
7
  6
CONTINUOUS
 10
19.0894533993
 20
7.786556387
  0
VERTEX
  8
___SYMBOL
 62
7
  6
CONTINUOUS
 10
19.0894787361
 20
7.7897457456
  0
VERTEX
  8
___SYMBOL
 62
7
  6
CONTINUOUS
 10
19.0894046582
 20
7.7929311913
  0
VERTEX
  8
___SYMBOL
 62
7
  6
CONTINUOUS
 10
19.0891895584
 20
7.7961022097
  0
VERTEX
  8
___SYMBOL
 62
7
  6
CONTINUOUS
 10
19.0887918295
 20
7.7992482865
  0
VERTEX
  8
___SYMBOL
 62
7
  6
CONTINUOUS
 10
19.088169864
 20
7.8023589071
  0
VERTEX
  8
___SYMBOL
 62
7
  6
CONTINUOUS
 10
19.0872820549
 20
7.8054235571
  0
VERTEX
  8
___SYMBOL
 62
7
  6
CONTINUOUS
 10
19.0861419872
 20
7.808330039
  0
VERTEX
  8
___SYMBOL
 62
7
  6
CONTINUOUS
 10
19.0847351521
 20
7.8111636251
  0
VERTEX
  8
___SYMBOL
 62
7
  6
CONTINUOUS
 10
19.0830819468
 20
7.8139041777
  0
VERTEX
  8
___SYMBOL
 62
7
  6
CONTINUOUS
 10
19.0812027686
 20
7.816531559
  0
VERTEX
  8
___SYMBOL
 62
7
  6
CONTINUOUS
 10
19.0791180146
 20
7.8190256314
  0
VERTEX
  8
___SYMBOL
 62
7
  6
CONTINUOUS
 10
19.0768480822
 20
7.8213662569
  0
VERTEX
  8
___SYMBOL
 62
7
  6
CONTINUOUS
 10
19.0744133684
 20
7.8235332979
  0
VERTEX
  8
___SYMBOL
 62
7
  6
CONTINUOUS
 10
19.0718342706
 20
7.8255066166
  0
VERTEX
  8
___SYMBOL
 62
7
  6
CONTINUOUS
 10
19.0691311859
 20
7.8272660753
  0
VERTEX
  8
___SYMBOL
 62
7
  6
CONTINUOUS
 10
19.0663245117
 20
7.8287915362
  0
VERTEX
  8
___SYMBOL
 62
7
  6
CONTINUOUS
 10
19.063434645
 20
7.8300628614
  0
VERTEX
  8
___SYMBOL
 62
7
  6
CONTINUOUS
 10
19.0604819831
 20
7.8310599134
  0
VERTEX
  8
___SYMBOL
 62
7
  6
CONTINUOUS
 10
19.0574869233
 20
7.8317625543
  0
SEQEND
  0
POLYLINE
  8
___SYMBOL
 62
7
  6
CONTINUOUS
 66
1
 70
0
  0
VERTEX
  8
___SYMBOL
 62
7
  6
CONTINUOUS
 10
19.0991237647
 20
7.626799073
  0
VERTEX
  8
___SYMBOL
 62
7
  6
CONTINUOUS
 10
19.1011590991
 20
7.6342123046
  0
VERTEX
  8
___SYMBOL
 62
7
  6
CONTINUOUS
 10
19.1033546479
 20
7.6415741547
  0
VERTEX
  8
___SYMBOL
 62
7
  6
CONTINUOUS
 10
19.1060214487
 20
7.6498678647
  0
VERTEX
  8
___SYMBOL
 62
7
  6
CONTINUOUS
 10
19.1088519155
 20
7.6580901702
  0
VERTEX
  8
___SYMBOL
 62
7
  6
CONTINUOUS
 10
19.1118296314
 20
7.6662575823
  0
VERTEX
  8
___SYMBOL
 62
7
  6
CONTINUOUS
 10
19.1149381793
 20
7.6743866119
  0
VERTEX
  8
___SYMBOL
 62
7
  6
CONTINUOUS
 10
19.1181611422
 20
7.6824937699
  0
VERTEX
  8
___SYMBOL
 62
7
  6
CONTINUOUS
 10
19.121482103
 20
7.6905955674
  0
VERTEX
  8
___SYMBOL
 62
7
  6
CONTINUOUS
 10
19.1248846448
 20
7.6987085152
  0
VERTEX
  8
___SYMBOL
 62
7
  6
CONTINUOUS
 10
19.1283523504
 20
7.7068491243
  0
VERTEX
  8
___SYMBOL
 62
7
  6
CONTINUOUS
 10
19.1305633659
 20
7.7120031768
  0
VERTEX
  8
___SYMBOL
 62
7
  6
CONTINUOUS
 10
19.1327795801
 20
7.7171744461
  0
VERTEX
  8
___SYMBOL
 62
7
  6
CONTINUOUS
 10
19.1349868095
 20
7.7223625858
  0
VERTEX
  8
___SYMBOL
 62
7
  6
CONTINUOUS
 10
19.1371708708
 20
7.7275672498
  0
VERTEX
  8
___SYMBOL
 62
7
  6
CONTINUOUS
 10
19.1393175807
 20
7.7327880916
  0
VERTEX
  8
___SYMBOL
 62
7
  6
CONTINUOUS
 10
19.1414127558
 20
7.7380247651
  0
VERTEX
  8
___SYMBOL
 62
7
  6
CONTINUOUS
 10
19.1434422128
 20
7.7432769237
  0
VERTEX
  8
___SYMBOL
 62
7
  6
CONTINUOUS
 10
19.1453917683
 20
7.7485442213
  0
VERTEX
  8
___SYMBOL
 62
7
  6
CONTINUOUS
 10
19.1472472389
 20
7.7538263116
  0
VERTEX
  8
___SYMBOL
 62
7
  6
CONTINUOUS
 10
19.1489944412
 20
7.7591228481
  0
VERTEX
  8
___SYMBOL
 62
7
  6
CONTINUOUS
 10
19.1506191921
 20
7.7644334847
  0
VERTEX
  8
___SYMBOL
 62
7
  6
CONTINUOUS
 10
19.152107308
 20
7.769757875
  0
VERTEX
  8
___SYMBOL
 62
7
  6
CONTINUOUS
 10
19.1534446056
 20
7.7750956726
  0
VERTEX
  8
___SYMBOL
 62
7
  6
CONTINUOUS
 10
19.1546169016
 20
7.7804465313
  0
VERTEX
  8
___SYMBOL
 62
7
  6
CONTINUOUS
 10
19.1556100126
 20
7.7858101048
  0
VERTEX
  8
___SYMBOL
 62
7
  6
CONTINUOUS
 10
19.1564097552
 20
7.7911860468
  0
VERTEX
  8
___SYMBOL
 62
7
  6
CONTINUOUS
 10
19.1570019461
 20
7.7965740108
  0
VERTEX
  8
___SYMBOL
 62
7
  6
CONTINUOUS
 10
19.157372402
 20
7.8019736507
  0
VERTEX
  8
___SYMBOL
 62
7
  6
CONTINUOUS
 10
19.1575069395
 20
7.8073846202
  0
VERTEX
  8
___SYMBOL
 62
7
  6
CONTINUOUS
 10
19.157411774
 20
7.8124617853
  0
VERTEX
  8
___SYMBOL
 62
7
  6
CONTINUOUS
 10
19.1571177119
 20
7.8175476657
  0
VERTEX
  8
___SYMBOL
 62
7
  6
CONTINUOUS
 10
19.156645198
 20
7.8226413441
  0
VERTEX
  8
___SYMBOL
 62
7
  6
CONTINUOUS
 10
19.1560146769
 20
7.8277419036
  0
VERTEX
  8
___SYMBOL
 62
7
  6
CONTINUOUS
 10
19.1552465936
 20
7.832848427
  0
VERTEX
  8
___SYMBOL
 62
7
  6
CONTINUOUS
 10
19.1543613928
 20
7.8379599971
  0
VERTEX
  8
___SYMBOL
 62
7
  6
CONTINUOUS
 10
19.1533795193
 20
7.8430756968
  0
VERTEX
  8
___SYMBOL
 62
7
  6
CONTINUOUS
 10
19.1523214178
 20
7.848194609
  0
VERTEX
  8
___SYMBOL
 62
7
  6
CONTINUOUS
 10
19.1512075333
 20
7.8533158166
  0
VERTEX
  8
___SYMBOL
 62
7
  6
CONTINUOUS
 10
19.1500583103
 20
7.8584384025
  0
VERTEX
  8
___SYMBOL
 62
7
  6
CONTINUOUS
 10
19.1492259316
 20
7.8621173208
  0
VERTEX
  8
___SYMBOL
 62
7
  6
CONTINUOUS
 10
19.1484130912
 20
7.8657958247
  0
VERTEX
  8
___SYMBOL
 62
7
  6
CONTINUOUS
 10
19.1476470081
 20
7.869473262
  0
VERTEX
  8
___SYMBOL
 62
7
  6
CONTINUOUS
 10
19.1469549012
 20
7.8731489804
  0
VERTEX
  8
___SYMBOL
 62
7
  6
CONTINUOUS
 10
19.1463639893
 20
7.8768223278
  0
VERTEX
  8
___SYMBOL
 62
7
  6
CONTINUOUS
 10
19.1459014915
 20
7.880492652
  0
VERTEX
  8
___SYMBOL
 62
7
  6
CONTINUOUS
 10
19.1455946265
 20
7.8841593007
  0
VERTEX
  8
___SYMBOL
 62
7
  6
CONTINUOUS
 10
19.1454706134
 20
7.8878216217
  0
VERTEX
  8
___SYMBOL
 62
7
  6
CONTINUOUS
 10
19.145556671
 20
7.8914789629
  0
VERTEX
  8
___SYMBOL
 62
7
  6
CONTINUOUS
 10
19.145844631
 20
7.8949023377
  0
VERTEX
  8
___SYMBOL
 62
7
  6
CONTINUOUS
 10
19.1463173494
 20
7.8983189918
  0
VERTEX
  8
___SYMBOL
 62
7
  6
CONTINUOUS
 10
19.1469510385
 20
7.9017271542
  0
VERTEX
  8
___SYMBOL
 62
7
  6
CONTINUOUS
 10
19.1477219102
 20
7.9051250541
  0
VERTEX
  8
___SYMBOL
 62
7
  6
CONTINUOUS
 10
19.1486061767
 20
7.9085109205
  0
VERTEX
  8
___SYMBOL
 62
7
  6
CONTINUOUS
 10
19.1495800502
 20
7.9118829827
  0
VERTEX
  8
___SYMBOL
 62
7
  6
CONTINUOUS
 10
19.1506197428
 20
7.9152394696
  0
VERTEX
  8
___SYMBOL
 62
7
  6
CONTINUOUS
 10
19.1517014666
 20
7.9185786104
  0
VERTEX
  8
___SYMBOL
 62
7
  6
CONTINUOUS
 10
19.1529957631
 20
7.9224838535
  0
VERTEX
  8
___SYMBOL
 62
7
  6
CONTINUOUS
 10
19.1542799332
 20
7.9263764271
  0
VERTEX
  8
___SYMBOL
 62
7
  6
CONTINUOUS
 10
19.1555186174
 20
7.9302701032
  0
VERTEX
  8
___SYMBOL
 62
7
  6
CONTINUOUS
 10
19.1566764563
 20
7.9341786537
  0
VERTEX
  8
___SYMBOL
 62
7
  6
CONTINUOUS
 10
19.1577180903
 20
7.9381158506
  0
VERTEX
  8
___SYMBOL
 62
7
  6
CONTINUOUS
 10
19.15860816
 20
7.9420954659
  0
SEQEND
  0
POLYLINE
  8
___SYMBOL
 62
7
  6
CONTINUOUS
 66
1
 70
0
  0
VERTEX
  8
___SYMBOL
 62
7
  6
CONTINUOUS
 10
18.7857300014
 20
7.5336356492
  0
VERTEX
  8
___SYMBOL
 62
7
  6
CONTINUOUS
 10
18.7905110433
 20
7.5409327361
  0
VERTEX
  8
___SYMBOL
 62
7
  6
CONTINUOUS
 10
18.7950797924
 20
7.5483592034
  0
VERTEX
  8
___SYMBOL
 62
7
  6
CONTINUOUS
 10
18.7994476708
 20
7.5559061613
  0
VERTEX
  8
___SYMBOL
 62
7
  6
CONTINUOUS
 10
18.8036261005
 20
7.5635647204
  0
VERTEX
  8
___SYMBOL
 62
7
  6
CONTINUOUS
 10
18.8076265036
 20
7.5713259911
  0
VERTEX
  8
___SYMBOL
 62
7
  6
CONTINUOUS
 10
18.811460302
 20
7.5791810837
  0
VERTEX
  8
___SYMBOL
 62
7
  6
CONTINUOUS
 10
18.8151389178
 20
7.5871211087
  0
VERTEX
  8
___SYMBOL
 62
7
  6
CONTINUOUS
 10
18.8186737731
 20
7.5951371764
  0
VERTEX
  8
___SYMBOL
 62
7
  6
CONTINUOUS
 10
18.8220762899
 20
7.6032203973
  0
VERTEX
  8
___SYMBOL
 62
7
  6
CONTINUOUS
 10
18.8253578902
 20
7.6113618817
  0
VERTEX
  8
___SYMBOL
 62
7
  6
CONTINUOUS
 10
18.828529996
 20
7.6195527402
  0
VERTEX
  8
___SYMBOL
 62
7
  6
CONTINUOUS
 10
18.8316040294
 20
7.627784083
  0
VERTEX
  8
___SYMBOL
 62
7
  6
CONTINUOUS
 10
18.8345914124
 20
7.6360470206
  0
VERTEX
  8
___SYMBOL
 62
7
  6
CONTINUOUS
 10
18.8385960931
 20
7.6474909614
  0
VERTEX
  8
___SYMBOL
 62
7
  6
CONTINUOUS
 10
18.8424972557
 20
7.6589604055
  0
VERTEX
  8
___SYMBOL
 62
7
  6
CONTINUOUS
 10
18.8463347646
 20
7.6704375812
  0
VERTEX
  8
___SYMBOL
 62
7
  6
CONTINUOUS
 10
18.8501484845
 20
7.6819047164
  0
VERTEX
  8
___SYMBOL
 62
7
  6
CONTINUOUS
 10
18.85397828
 20
7.6933440393
  0
VERTEX
  8
___SYMBOL
 62
7
  6
CONTINUOUS
 10
18.8578640157
 20
7.7047377779
  0
VERTEX
  8
___SYMBOL
 62
7
  6
CONTINUOUS
 10
18.8618455563
 20
7.7160681602
  0
VERTEX
  8
___SYMBOL
 62
7
  6
CONTINUOUS
 10
18.8659627662
 20
7.7273174144
  0
VERTEX
  8
___SYMBOL
 62
7
  6
CONTINUOUS
 10
18.8702555101
 20
7.7384677684
  0
VERTEX
  8
___SYMBOL
 62
7
  6
CONTINUOUS
 10
18.8751809328
 20
7.7505372376
  0
VERTEX
  8
___SYMBOL
 62
7
  6
CONTINUOUS
 10
18.8803223205
 20
7.7625235399
  0
VERTEX
  8
___SYMBOL
 62
7
  6
CONTINUOUS
 10
18.8856381849
 20
7.7744829595
  0
VERTEX
  8
___SYMBOL
 62
7
  6
CONTINUOUS
 10
18.8910870381
 20
7.7864717809
  0
VERTEX
  8
___SYMBOL
 62
7
  6
CONTINUOUS
 10
18.8966273917
 20
7.7985462882
  0
VERTEX
  8
___SYMBOL
 62
7
  6
CONTINUOUS
 10
18.9022177576
 20
7.8107627656
  0
VERTEX
  8
___SYMBOL
 62
7
  6
CONTINUOUS
 10
18.9039020944
 20
7.8144630429
  0
VERTEX
  8
___SYMBOL
 62
7
  6
CONTINUOUS
 10
18.9056023171
 20
7.8181652628
  0
VERTEX
  8
___SYMBOL
 62
7
  6
CONTINUOUS
 10
18.9073335433
 20
7.8218535046
  0
VERTEX
  8
___SYMBOL
 62
7
  6
CONTINUOUS
 10
18.9091108909
 20
7.8255118475
  0
VERTEX
  8
___SYMBOL
 62
7
  6
CONTINUOUS
 10
18.9109494777
 20
7.8291243706
  0
VERTEX
  8
___SYMBOL
 62
7
  6
CONTINUOUS
 10
18.9128644213
 20
7.8326751532
  0
VERTEX
  8
___SYMBOL
 62
7
  6
CONTINUOUS
 10
18.9148708396
 20
7.8361482744
  0
VERTEX
  8
___SYMBOL
 62
7
  6
CONTINUOUS
 10
18.9169838504
 20
7.8395278134
  0
VERTEX
  8
___SYMBOL
 62
7
  6
CONTINUOUS
 10
18.9192185713
 20
7.8427978494
  0
VERTEX
  8
___SYMBOL
 62
7
  6
CONTINUOUS
 10
18.9215901202
 20
7.8459424615
  0
VERTEX
  8
___SYMBOL
 62
7
  6
CONTINUOUS
 10
18.9241136149
 20
7.848945729
  0
VERTEX
  8
___SYMBOL
 62
7
  6
CONTINUOUS
 10
18.926804173
 20
7.851791731
  0
VERTEX
  8
___SYMBOL
 62
7
  6
CONTINUOUS
 10
18.9296769124
 20
7.8544645468
  0
VERTEX
  8
___SYMBOL
 62
7
  6
CONTINUOUS
 10
18.9327469509
 20
7.8569482555
  0
VERTEX
  8
___SYMBOL
 62
7
  6
CONTINUOUS
 10
18.9356728217
 20
7.8590004573
  0
VERTEX
  8
___SYMBOL
 62
7
  6
CONTINUOUS
 10
18.9387496655
 20
7.8608786578
  0
VERTEX
  8
___SYMBOL
 62
7
  6
CONTINUOUS
 10
18.9419578999
 20
7.8625734782
  0
VERTEX
  8
___SYMBOL
 62
7
  6
CONTINUOUS
 10
18.9452779424
 20
7.8640755399
  0
VERTEX
  8
___SYMBOL
 62
7
  6
CONTINUOUS
 10
18.9486902108
 20
7.8653754639
  0
VERTEX
  8
___SYMBOL
 62
7
  6
CONTINUOUS
 10
18.9521751226
 20
7.8664638715
  0
VERTEX
  8
___SYMBOL
 62
7
  6
CONTINUOUS
 10
18.9557130955
 20
7.867331384
  0
VERTEX
  8
___SYMBOL
 62
7
  6
CONTINUOUS
 10
18.9592845472
 20
7.8679686225
  0
VERTEX
  8
___SYMBOL
 62
7
  6
CONTINUOUS
 10
18.9628698952
 20
7.8683662084
  0
VERTEX
  8
___SYMBOL
 62
7
  6
CONTINUOUS
 10
18.9664495572
 20
7.8685147628
  0
VERTEX
  8
___SYMBOL
 62
7
  6
CONTINUOUS
 10
18.9700039508
 20
7.868404907
  0
SEQEND
  0
POLYLINE
  8
___SYMBOL
 62
7
  6
CONTINUOUS
 66
1
 70
0
  0
VERTEX
  8
___SYMBOL
 62
7
  6
CONTINUOUS
 10
18.8098829214
 20
7.7253604343
  0
VERTEX
  8
___SYMBOL
 62
7
  6
CONTINUOUS
 10
18.8150368585
 20
7.7394049501
  0
VERTEX
  8
___SYMBOL
 62
7
  6
CONTINUOUS
 10
18.8200485428
 20
7.7535135984
  0
VERTEX
  8
___SYMBOL
 62
7
  6
CONTINUOUS
 10
18.8236395044
 20
7.7637762416
  0
VERTEX
  8
___SYMBOL
 62
7
  6
CONTINUOUS
 10
18.827225403
 20
7.7740570245
  0
VERTEX
  8
___SYMBOL
 62
7
  6
CONTINUOUS
 10
18.8308298447
 20
7.7843387853
  0
VERTEX
  8
___SYMBOL
 62
7
  6
CONTINUOUS
 10
18.8344764354
 20
7.794604362
  0
VERTEX
  8
___SYMBOL
 62
7
  6
CONTINUOUS
 10
18.8381887811
 20
7.8048365925
  0
VERTEX
  8
___SYMBOL
 62
7
  6
CONTINUOUS
 10
18.8419904879
 20
7.8150183149
  0
VERTEX
  8
___SYMBOL
 62
7
  6
CONTINUOUS
 10
18.8459051618
 20
7.8251323671
  0
VERTEX
  8
___SYMBOL
 62
7
  6
CONTINUOUS
 10
18.8499564089
 20
7.8351615873
  0
VERTEX
  8
___SYMBOL
 62
7
  6
CONTINUOUS
 10
18.8541678351
 20
7.8450888133
  0
VERTEX
  8
___SYMBOL
 62
7
  6
CONTINUOUS
 10
18.8585630466
 20
7.8548968833
  0
VERTEX
  8
___SYMBOL
 62
7
  6
CONTINUOUS
 10
18.8611557898
 20
7.8604164602
  0
VERTEX
  8
___SYMBOL
 62
7
  6
CONTINUOUS
 10
18.8638290405
 20
7.8658887925
  0
VERTEX
  8
___SYMBOL
 62
7
  6
CONTINUOUS
 10
18.8665961968
 20
7.8713107465
  0
VERTEX
  8
___SYMBOL
 62
7
  6
CONTINUOUS
 10
18.8694706567
 20
7.8766791884
  0
VERTEX
  8
___SYMBOL
 62
7
  6
CONTINUOUS
 10
18.8724658185
 20
7.8819909846
  0
VERTEX
  8
___SYMBOL
 62
7
  6
CONTINUOUS
 10
18.8755950802
 20
7.8872430014
  0
VERTEX
  8
___SYMBOL
 62
7
  6
CONTINUOUS
 10
18.87887184
 20
7.8924321049
  0
VERTEX
  8
___SYMBOL
 62
7
  6
CONTINUOUS
 10
18.882309496
 20
7.8975551616
  0
VERTEX
  8
___SYMBOL
 62
7
  6
CONTINUOUS
 10
18.8859214464
 20
7.9026090376
  0
VERTEX
  8
___SYMBOL
 62
7
  6
CONTINUOUS
 10
18.8897210892
 20
7.9075905994
  0
VERTEX
  8
___SYMBOL
 62
7
  6
CONTINUOUS
 10
18.8937218227
 20
7.912496713
  0
VERTEX
  8
___SYMBOL
 62
7
  6
CONTINUOUS
 10
18.8979370449
 20
7.9173242449
  0
VERTEX
  8
___SYMBOL
 62
7
  6
CONTINUOUS
 10
18.902380154
 20
7.9220700614
  0
VERTEX
  8
___SYMBOL
 62
7
  6
CONTINUOUS
 10
18.9048388375
 20
7.9245607464
  0
VERTEX
  8
___SYMBOL
 62
7
  6
CONTINUOUS
 10
18.9073549463
 20
7.9270309601
  0
VERTEX
  8
___SYMBOL
 62
7
  6
CONTINUOUS
 10
18.9099176372
 20
7.9294842382
  0
VERTEX
  8
___SYMBOL
 62
7
  6
CONTINUOUS
 10
18.9125160669
 20
7.9319241164
  0
VERTEX
  8
___SYMBOL
 62
7
  6
CONTINUOUS
 10
18.9151393923
 20
7.9343541304
  0
VERTEX
  8
___SYMBOL
 62
7
  6
CONTINUOUS
 10
18.91777677
 20
7.9367778159
  0
VERTEX
  8
___SYMBOL
 62
7
  6
CONTINUOUS
 10
18.9204173569
 20
7.9391987085
  0
VERTEX
  8
___SYMBOL
 62
7
  6
CONTINUOUS
 10
18.9230503097
 20
7.941620344
  0
VERTEX
  8
___SYMBOL
 62
7
  6
CONTINUOUS
 10
18.9256647852
 20
7.9440462582
  0
VERTEX
  8
___SYMBOL
 62
7
  6
CONTINUOUS
 10
18.9282499402
 20
7.9464799866
  0
VERTEX
  8
___SYMBOL
 62
7
  6
CONTINUOUS
 10
18.9307949314
 20
7.9489250649
  0
VERTEX
  8
___SYMBOL
 62
7
  6
CONTINUOUS
 10
18.9332889156
 20
7.951385029
  0
VERTEX
  8
___SYMBOL
 62
7
  6
CONTINUOUS
 10
18.9357210495
 20
7.9538634144
  0
VERTEX
  8
___SYMBOL
 62
7
  6
CONTINUOUS
 10
18.93808049
 20
7.9563637569
  0
VERTEX
  8
___SYMBOL
 62
7
  6
CONTINUOUS
 10
18.9403563938
 20
7.9588895922
  0
VERTEX
  8
___SYMBOL
 62
7
  6
CONTINUOUS
 10
18.9425379176
 20
7.9614444559
  0
VERTEX
  8
___SYMBOL
 62
7
  6
CONTINUOUS
 10
18.9446142183
 20
7.9640318839
  0
VERTEX
  8
___SYMBOL
 62
7
  6
CONTINUOUS
 10
18.9465744526
 20
7.9666554116
  0
VERTEX
  8
___SYMBOL
 62
7
  6
CONTINUOUS
 10
18.9484077773
 20
7.969318575
  0
VERTEX
  8
___SYMBOL
 62
7
  6
CONTINUOUS
 10
18.9501033491
 20
7.9720249096
  0
VERTEX
  8
___SYMBOL
 62
7
  6
CONTINUOUS
 10
18.9516503248
 20
7.9747779512
  0
VERTEX
  8
___SYMBOL
 62
7
  6
CONTINUOUS
 10
18.9530378612
 20
7.9775812355
  0
VERTEX
  8
___SYMBOL
 62
7
  6
CONTINUOUS
 10
18.954255115
 20
7.9804382981
  0
VERTEX
  8
___SYMBOL
 62
7
  6
CONTINUOUS
 10
18.9552912431
 20
7.9833526747
  0
VERTEX
  8
___SYMBOL
 62
7
  6
CONTINUOUS
 10
18.9561354021
 20
7.9863279012
  0
VERTEX
  8
___SYMBOL
 62
7
  6
CONTINUOUS
 10
18.9567767489
 20
7.9893675131
  0
VERTEX
  8
___SYMBOL
 62
7
  6
CONTINUOUS
 10
18.9572044402
 20
7.9924750461
  0
VERTEX
  8
___SYMBOL
 62
7
  6
CONTINUOUS
 10
18.9574076328
 20
7.995654036
  0
VERTEX
  8
___SYMBOL
 62
7
  6
CONTINUOUS
 10
18.9574298145
 20
7.9972139463
  0
VERTEX
  8
___SYMBOL
 62
7
  6
CONTINUOUS
 10
18.9574418456
 20
7.9987878151
  0
VERTEX
  8
___SYMBOL
 62
7
  6
CONTINUOUS
 10
18.9574883711
 20
8.00037214
  0
VERTEX
  8
___SYMBOL
 62
7
  6
CONTINUOUS
 10
18.9576140361
 20
8.0019634185
  0
VERTEX
  8
___SYMBOL
 62
7
  6
CONTINUOUS
 10
18.9578634857
 20
8.0035581484
  0
VERTEX
  8
___SYMBOL
 62
7
  6
CONTINUOUS
 10
18.9582447866
 20
8.0050586396
  0
VERTEX
  8
___SYMBOL
 62
7
  6
CONTINUOUS
 10
18.9587687525
 20
8.0065367071
  0
VERTEX
  8
___SYMBOL
 62
7
  6
CONTINUOUS
 10
18.9594282951
 20
8.0079699727
  0
VERTEX
  8
___SYMBOL
 62
7
  6
CONTINUOUS
 10
18.9602163259
 20
8.0093360583
  0
VERTEX
  8
___SYMBOL
 62
7
  6
CONTINUOUS
 10
18.9611257565
 20
8.0106125854
  0
VERTEX
  8
___SYMBOL
 62
7
  6
CONTINUOUS
 10
18.9621494988
 20
8.0117771759
  0
VERTEX
  8
___SYMBOL
 62
7
  6
CONTINUOUS
 10
18.9632804641
 20
8.0128074516
  0
VERTEX
  8
___SYMBOL
 62
7
  6
CONTINUOUS
 10
18.9645115642
 20
8.0136810341
  0
VERTEX
  8
___SYMBOL
 62
7
  6
CONTINUOUS
 10
18.9658357108
 20
8.0143755454
  0
SEQEND
  0
POLYLINE
  8
___SYMBOL
 62
7
  6
CONTINUOUS
 66
1
 70
0
  0
VERTEX
  8
___SYMBOL
 62
7
  6
CONTINUOUS
 10
19.0979208804
 20
7.3238056188
  0
VERTEX
  8
___SYMBOL
 62
7
  6
CONTINUOUS
 10
19.1190519962
 20
7.3204653113
  0
VERTEX
  8
___SYMBOL
 62
7
  6
CONTINUOUS
 10
19.1413768481
 20
7.3232390464
  0
VERTEX
  8
___SYMBOL
 62
7
  6
CONTINUOUS
 10
19.1629396174
 20
7.3318836746
  0
VERTEX
  8
___SYMBOL
 62
7
  6
CONTINUOUS
 10
19.1834767068
 20
7.3462939329
  0
VERTEX
  8
___SYMBOL
 62
7
  6
CONTINUOUS
 10
19.2011887378
 20
7.3652067795
  0
VERTEX
  8
___SYMBOL
 62
7
  6
CONTINUOUS
 10
19.2158592007
 20
7.3883915766
  0
VERTEX
  8
___SYMBOL
 62
7
  6
CONTINUOUS
 10
19.2262028083
 20
7.4138165242
  0
VERTEX
  8
___SYMBOL
 62
7
  6
CONTINUOUS
 10
19.232026468
 20
7.4406400883
  0
VERTEX
  8
___SYMBOL
 62
7
  6
CONTINUOUS
 10
19.2330141098
 20
7.4680586682
  0
VERTEX
  8
___SYMBOL
 62
7
  6
CONTINUOUS
 10
19.2290792858
 20
7.4936699078
  0
VERTEX
  8
___SYMBOL
 62
7
  6
CONTINUOUS
 10
19.2202698953
 20
7.5171607098
  0
VERTEX
  8
___SYMBOL
 62
7
  6
CONTINUOUS
 10
19.2073578447
 20
7.536472918
  0
VERTEX
  8
___SYMBOL
 62
7
  6
CONTINUOUS
 10
19.1905009611
 20
7.5513707221
  0
VERTEX
  8
___SYMBOL
 62
7
  6
CONTINUOUS
 10
19.1711762826
 20
7.5605485696
  0
VERTEX
  8
___SYMBOL
 62
7
  6
CONTINUOUS
 10
19.1500453162
 20
7.5638889468
  0
VERTEX
  8
___SYMBOL
 62
7
  6
CONTINUOUS
 10
19.1277203548
 20
7.5611152516
  0
VERTEX
  8
___SYMBOL
 62
7
  6
CONTINUOUS
 10
19.1061576551
 20
7.5524704739
  0
VERTEX
  8
___SYMBOL
 62
7
  6
CONTINUOUS
 10
19.0856204561
 20
7.5380602555
  0
VERTEX
  8
___SYMBOL
 62
7
  6
CONTINUOUS
 10
19.0679085348
 20
7.519147369
  0
VERTEX
  8
___SYMBOL
 62
7
  6
CONTINUOUS
 10
19.0532379622
 20
7.4959626118
  0
VERTEX
  8
___SYMBOL
 62
7
  6
CONTINUOUS
 10
19.0428943547
 20
7.4705376642
  0
VERTEX
  8
___SYMBOL
 62
7
  6
CONTINUOUS
 10
19.0370706949
 20
7.4437141001
  0
VERTEX
  8
___SYMBOL
 62
7
  6
CONTINUOUS
 10
19.0360830531
 20
7.4162955202
  0
VERTEX
  8
___SYMBOL
 62
7
  6
CONTINUOUS
 10
19.0400179868
 20
7.3906842408
  0
VERTEX
  8
___SYMBOL
 62
7
  6
CONTINUOUS
 10
19.0488273772
 20
7.3671934387
  0
VERTEX
  8
___SYMBOL
 62
7
  6
CONTINUOUS
 10
19.0617394278
 20
7.3478812305
  0
VERTEX
  8
___SYMBOL
 62
7
  6
CONTINUOUS
 10
19.0785962417
 20
7.332983576
  0
VERTEX
  8
___SYMBOL
 62
7
  6
CONTINUOUS
 10
19.0979208804
 20
7.3238056188
  0
SEQEND
  0
POLYLINE
  8
___SYMBOL
 62
7
  6
CONTINUOUS
 66
1
 70
0
  0
VERTEX
  8
___SYMBOL
 62
7
  6
CONTINUOUS
 10
18.9975011497
 20
7.415419778
  0
VERTEX
  8
___SYMBOL
 62
7
  6
CONTINUOUS
 10
18.9972053536
 20
7.3903152188
  0
VERTEX
  8
___SYMBOL
 62
7
  6
CONTINUOUS
 10
18.9997702616
 20
7.3662908835
  0
VERTEX
  8
___SYMBOL
 62
7
  6
CONTINUOUS
 10
19.0051424493
 20
7.3438471716
  0
VERTEX
  8
___SYMBOL
 62
7
  6
CONTINUOUS
 10
19.0132100203
 20
7.3234515603
  0
VERTEX
  8
___SYMBOL
 62
7
  6
CONTINUOUS
 10
19.0238049362
 20
7.3055288669
  0
VERTEX
  8
___SYMBOL
 62
7
  6
CONTINUOUS
 10
19.0367065169
 20
7.2904524009
  0
VERTEX
  8
___SYMBOL
 62
7
  6
CONTINUOUS
 10
19.0516460372
 20
7.2785361878
  0
VERTEX
  8
___SYMBOL
 62
7
  6
CONTINUOUS
 10
19.0683123237
 20
7.2700284288
  0
VERTEX
  8
___SYMBOL
 62
7
  6
CONTINUOUS
 10
19.0863582368
 20
7.265106331
  0
VERTEX
  8
___SYMBOL
 62
7
  6
CONTINUOUS
 10
19.1054079005
 20
7.263872416
  0
VERTEX
  8
___SYMBOL
 62
7
  6
CONTINUOUS
 10
19.1250645318
 20
7.2663523849
  0
VERTEX
  8
___SYMBOL
 62
7
  6
CONTINUOUS
 10
19.1449187057
 20
7.2724945827
  0
VERTEX
  8
___SYMBOL
 62
7
  6
CONTINUOUS
 10
19.164556882
 20
7.2821710745
  0
VERTEX
  8
___SYMBOL
 62
7
  6
CONTINUOUS
 10
19.1835700199
 20
7.2951803098
  0
VERTEX
  8
___SYMBOL
 62
7
  6
CONTINUOUS
 10
19.2015620974
 20
7.3112513212
  0
VERTEX
  8
___SYMBOL
 62
7
  6
CONTINUOUS
 10
19.2181583598
 20
7.3300493676
  0
VERTEX
  8
___SYMBOL
 62
7
  6
CONTINUOUS
 10
19.2330131259
 20
7.3511829071
  0
VERTEX
  8
___SYMBOL
 62
7
  6
CONTINUOUS
 10
19.2458169878
 20
7.3742117521
  0
VERTEX
  8
___SYMBOL
 62
7
  6
CONTINUOUS
 10
19.2563032555
 20
7.3986562379
  0
VERTEX
  8
___SYMBOL
 62
7
  6
CONTINUOUS
 10
19.2642535121
 20
7.4240072136
  0
VERTEX
  8
___SYMBOL
 62
7
  6
CONTINUOUS
 10
19.2695021626
 20
7.4497366471
  0
VERTEX
  8
___SYMBOL
 62
7
  6
CONTINUOUS
 10
19.2719398837
 20
7.4753086236
  0
VERTEX
  8
___SYMBOL
 62
7
  6
CONTINUOUS
 10
19.2715159004
 20
7.5001905079
  0
VERTEX
  8
___SYMBOL
 62
7
  6
CONTINUOUS
 10
19.2682390437
 20
7.5238640384
  0
VERTEX
  8
___SYMBOL
 62
7
  6
CONTINUOUS
 10
19.262177567
 20
7.5458361225
  0
VERTEX
  8
___SYMBOL
 62
7
  6
CONTINUOUS
 10
19.2534577238
 20
7.5656491066
  0
VERTEX
  8
___SYMBOL
 62
7
  6
CONTINUOUS
 10
19.2422611386
 20
7.5828903088
  0
VERTEX
  8
___SYMBOL
 62
7
  6
CONTINUOUS
 10
19.2288210236
 20
7.5972006143
  0
VERTEX
  8
___SYMBOL
 62
7
  6
CONTINUOUS
 10
19.2134173211
 20
7.6082819558
  0
VERTEX
  8
___SYMBOL
 62
7
  6
CONTINUOUS
 10
19.1963708727
 20
7.6159035214
  0
VERTEX
  8
___SYMBOL
 62
7
  6
CONTINUOUS
 10
19.1780367366
 20
7.6199065627
  0
VERTEX
  8
___SYMBOL
 62
7
  6
CONTINUOUS
 10
19.158796792
 20
7.6202077008
  0
VERTEX
  8
___SYMBOL
 62
7
  6
CONTINUOUS
 10
19.1390517852
 20
7.6168006634
  0
VERTEX
  8
___SYMBOL
 62
7
  6
CONTINUOUS
 10
19.1192129822
 20
7.6097564151
  0
SEQEND
  0
POLYLINE
  8
___SYMBOL
 62
7
  6
CONTINUOUS
 66
1
 70
0
  0
VERTEX
  8
___SYMBOL
 62
7
  6
CONTINUOUS
 10
18.6493203221
 20
7.5017294852
  0
VERTEX
  8
___SYMBOL
 62
7
  6
CONTINUOUS
 10
18.669974946
 20
7.5001073281
  0
VERTEX
  8
___SYMBOL
 62
7
  6
CONTINUOUS
 10
18.6913886619
 20
7.5046598496
  0
VERTEX
  8
___SYMBOL
 62
7
  6
CONTINUOUS
 10
18.711685037
 20
7.5149879037
  0
VERTEX
  8
___SYMBOL
 62
7
  6
CONTINUOUS
 10
18.7306162523
 20
7.5309654651
  0
VERTEX
  8
___SYMBOL
 62
7
  6
CONTINUOUS
 10
18.746523551
 20
7.5511925405
  0
VERTEX
  8
___SYMBOL
 62
7
  6
CONTINUOUS
 10
18.7592125763
 20
7.5754221128
  0
VERTEX
  8
___SYMBOL
 62
7
  6
CONTINUOUS
 10
18.767571436
 20
7.6015309712
  0
VERTEX
  8
___SYMBOL
 62
7
  6
CONTINUOUS
 10
18.771468001
 20
7.6286670603
  0
VERTEX
  8
___SYMBOL
 62
7
  6
CONTINUOUS
 10
18.7706484817
 20
7.656005725
  0
VERTEX
  8
___SYMBOL
 62
7
  6
CONTINUOUS
 10
18.7651848471
 20
7.6811518666
  0
VERTEX
  8
___SYMBOL
 62
7
  6
CONTINUOUS
 10
18.7551436183
 20
7.7037980229
  0
VERTEX
  8
___SYMBOL
 62
7
  6
CONTINUOUS
 10
18.7414048044
 20
7.7219600162
  0
VERTEX
  8
___SYMBOL
 62
7
  6
CONTINUOUS
 10
18.724136172
 20
7.7354160442
  0
VERTEX
  8
___SYMBOL
 62
7
  6
CONTINUOUS
 10
18.7048507754
 20
7.742986961
  0
VERTEX
  8
___SYMBOL
 62
7
  6
CONTINUOUS
 10
18.6841961116
 20
7.7446090085
  0
VERTEX
  8
___SYMBOL
 62
7
  6
CONTINUOUS
 10
18.6627824356
 20
7.7400565965
  0
VERTEX
  8
___SYMBOL
 62
7
  6
CONTINUOUS
 10
18.6424860605
 20
7.7297285425
  0
VERTEX
  8
___SYMBOL
 62
7
  6
CONTINUOUS
 10
18.6235547506
 20
7.7137508914
  0
VERTEX
  8
___SYMBOL
 62
7
  6
CONTINUOUS
 10
18.6076475066
 20
7.6935237961
  0
VERTEX
  8
___SYMBOL
 62
7
  6
CONTINUOUS
 10
18.5949585212
 20
7.6692943333
  0
VERTEX
  8
___SYMBOL
 62
7
  6
CONTINUOUS
 10
18.5865996615
 20
7.643185475
  0
VERTEX
  8
___SYMBOL
 62
7
  6
CONTINUOUS
 10
18.5827030965
 20
7.6160493859
  0
VERTEX
  8
___SYMBOL
 62
7
  6
CONTINUOUS
 10
18.583522576
 20
7.5887106116
  0
VERTEX
  8
___SYMBOL
 62
7
  6
CONTINUOUS
 10
18.5889862504
 20
7.5635645796
  0
VERTEX
  8
___SYMBOL
 62
7
  6
CONTINUOUS
 10
18.5990274792
 20
7.5409184233
  0
VERTEX
  8
___SYMBOL
 62
7
  6
CONTINUOUS
 10
18.6127662931
 20
7.5227564299
  0
VERTEX
  8
___SYMBOL
 62
7
  6
CONTINUOUS
 10
18.6300349255
 20
7.509300402
  0
VERTEX
  8
___SYMBOL
 62
7
  6
CONTINUOUS
 10
18.6493203221
 20
7.5017294852
  0
SEQEND
  0
POLYLINE
  8
___SYMBOL
 62
7
  6
CONTINUOUS
 66
1
 70
0
  0
VERTEX
  8
___SYMBOL
 62
7
  6
CONTINUOUS
 10
18.7839955291
 20
7.722466385
  0
VERTEX
  8
___SYMBOL
 62
7
  6
CONTINUOUS
 10
18.7710421483
 20
7.7389457538
  0
VERTEX
  8
___SYMBOL
 62
7
  6
CONTINUOUS
 10
18.7558876625
 20
7.7523824312
  0
VERTEX
  8
___SYMBOL
 62
7
  6
CONTINUOUS
 10
18.7388696154
 20
7.7624771354
  0
VERTEX
  8
___SYMBOL
 62
7
  6
CONTINUOUS
 10
18.7203670583
 20
7.7690050217
  0
VERTEX
  8
___SYMBOL
 62
7
  6
CONTINUOUS
 10
18.7007921081
 20
7.7718206915
  0
VERTEX
  8
___SYMBOL
 62
7
  6
CONTINUOUS
 10
18.6805807675
 20
7.7708614298
  0
VERTEX
  8
___SYMBOL
 62
7
  6
CONTINUOUS
 10
18.6601832137
 20
7.7661486027
  0
VERTEX
  8
___SYMBOL
 62
7
  6
CONTINUOUS
 10
18.6400537719
 20
7.7577871815
  0
VERTEX
  8
___SYMBOL
 62
7
  6
CONTINUOUS
 10
18.6206407951
 20
7.7459634043
  0
VERTEX
  8
___SYMBOL
 62
7
  6
CONTINUOUS
 10
18.6023766784
 20
7.7309406279
  0
VERTEX
  8
___SYMBOL
 62
7
  6
CONTINUOUS
 10
18.5856682275
 20
7.7130534624
  0
VERTEX
  8
___SYMBOL
 62
7
  6
CONTINUOUS
 10
18.5708875983
 20
7.6927003174
  0
VERTEX
  8
___SYMBOL
 62
7
  6
CONTINUOUS
 10
18.5583640071
 20
7.6703345288
  0
VERTEX
  8
___SYMBOL
 62
7
  6
CONTINUOUS
 10
18.5483763982
 20
7.6464542611
  0
VERTEX
  8
___SYMBOL
 62
7
  6
CONTINUOUS
 10
18.5411472306
 20
7.6215914115
  0
VERTEX
  8
___SYMBOL
 62
7
  6
CONTINUOUS
 10
18.5368375231
 20
7.5962997627
  0
VERTEX
  8
___SYMBOL
 62
7
  6
CONTINUOUS
 10
18.5355432681
 20
7.5711426484
  0
VERTEX
  8
___SYMBOL
 62
7
  6
CONTINUOUS
 10
18.5372932932
 20
7.5466804055
  0
VERTEX
  8
___SYMBOL
 62
7
  6
CONTINUOUS
 10
18.5420486192
 20
7.523457894
  0
VERTEX
  8
___SYMBOL
 62
7
  6
CONTINUOUS
 10
18.5497033282
 20
7.5019923605
  0
VERTEX
  8
___SYMBOL
 62
7
  6
CONTINUOUS
 10
18.5600869231
 20
7.4827619176
  0
VERTEX
  8
___SYMBOL
 62
7
  6
CONTINUOUS
 10
18.572968125
 20
7.4661948946
  0
VERTEX
  8
___SYMBOL
 62
7
  6
CONTINUOUS
 10
18.5880600242
 20
7.4526602973
  0
VERTEX
  8
___SYMBOL
 62
7
  6
CONTINUOUS
 10
18.6050264714
 20
7.4424595884
  0
VERTEX
  8
___SYMBOL
 62
7
  6
CONTINUOUS
 10
18.6234895643
 20
7.4358199734
  0
VERTEX
  8
___SYMBOL
 62
7
  6
CONTINUOUS
 10
18.6430380652
 20
7.43288934
  0
VERTEX
  8
___SYMBOL
 62
7
  6
CONTINUOUS
 10
18.6632365605
 20
7.4337329635
  0
VERTEX
  8
___SYMBOL
 62
7
  6
CONTINUOUS
 10
18.683635159
 20
7.4383320535
  0
VERTEX
  8
___SYMBOL
 62
7
  6
CONTINUOUS
 10
18.7037795123
 20
7.4465841722
  0
VERTEX
  8
___SYMBOL
 62
7
  6
CONTINUOUS
 10
18.7232209353
 20
7.4583055159
  0
VERTEX
  8
___SYMBOL
 62
7
  6
CONTINUOUS
 10
18.7415263993
 20
7.4732350092
  0
VERTEX
  8
___SYMBOL
 62
7
  6
CONTINUOUS
 10
18.7582881775
 20
7.4910401202
  0
VERTEX
  8
___SYMBOL
 62
7
  6
CONTINUOUS
 10
18.7731329264
 20
7.5113242665
  0
VERTEX
  8
___SYMBOL
 62
7
  6
CONTINUOUS
 10
18.7857300014
 20
7.5336356492
  0
SEQEND
  0
LINE
  8
___SYMBOL
 62
7
  6
CONTINUOUS
 10
19.0827112774
 20
8.0301468301
 11
19.0904951787
 21
8.0275824412
  0
ENDBLK
  8
0
  6
BYBLOCK
 62
0
  0
BLOCK
  8
___SYMBOL
 62
2
  6
CONTINUOUS
  2
SYMBOL_45_BL2
 70
64
 10
15.1881149744
 20
8.9693207522
  0
LINE
  8
___SYMBOL
 62
7
  6
CONTINUOUS
 10
15.2628811758
 20
9.1106950624
 11
15.3469229317
 21
9.669297223
  0
LINE
  8
___SYMBOL
 62
7
  6
CONTINUOUS
 10
15.207329205
 20
9.0995199374
 11
15.3469229317
 21
9.669297223
  0
LINE
  8
___SYMBOL
 62
7
  6
CONTINUOUS
 10
15.2557733223
 20
9.011457332
 11
15.2716931366
 21
9.0597800587
  0
LINE
  8
___SYMBOL
 62
7
  6
CONTINUOUS
 10
15.2873157117
 20
9.0548175361
 11
15.2712863526
 21
9.0061622991
  0
LINE
  8
___SYMBOL
 62
7
  6
CONTINUOUS
 10
15.3424184575
 20
9.2235144028
 11
15.6592813137
 21
9.5452477871
  0
LINE
  8
___SYMBOL
 62
7
  6
CONTINUOUS
 10
15.1468576629
 20
9.0198474107
 11
15.1984293477
 21
9.0664307422
  0
LINE
  8
___SYMBOL
 62
7
  6
CONTINUOUS
 10
15.3403780128
 20
9.0215829152
 11
15.585587343
 21
9.3427752667
  0
LINE
  8
___SYMBOL
 62
7
  6
CONTINUOUS
 10
15.341270455
 20
9.1099029671
 11
15.2628811758
 21
9.1106950624
  0
LINE
  8
___SYMBOL
 62
7
  6
CONTINUOUS
 10
15.3396301121
 20
8.9475673312
 11
15.2385088753
 21
8.8372344196
  0
LINE
  8
___SYMBOL
 62
7
  6
CONTINUOUS
 10
15.1510259029
 20
8.8738767723
 11
15.2081092427
 21
8.9018386284
  0
LINE
  8
___SYMBOL
 62
7
  6
CONTINUOUS
 10
15.3469229317
 20
9.669297223
 11
15.3396301121
 21
8.9475673312
  0
LINE
  8
___SYMBOL
 62
7
  6
CONTINUOUS
 10
15.1510259029
 20
8.8738767723
 11
15.1468576629
 21
9.0198474107
  0
ARC
  8
___SYMBOL
 62
7
  6
CONTINUOUS
 10
15.2985843023
 20
9.5618832967
 40
0.3610804262
 50
322.6406360869
 51
357.3593639131
  0
ARC
  8
___SYMBOL
 62
7
  6
CONTINUOUS
 10
15.5044976584
 20
9.0018503514
 40
0.3128073492
 50
161.8059909349
 51
211.752660067
  0
CIRCLE
  8
___SYMBOL
 62
7
  6
CONTINUOUS
 10
15.2717760479
 20
9.0329690068
 40
0.0268111801
  0
ARC
  8
___SYMBOL
 62
7
  6
CONTINUOUS
 10
15.2942772576
 20
8.6285671248
 40
0.0146088562
 50
165.3133793157
 51
294.0675041521
  0
ARC
  8
___SYMBOL
 62
7
  6
CONTINUOUS
 10
14.9772260401
 20
8.735961108
 40
0.0146087357
 50
213.3109272841
 51
339.4467240969
  0
POLYLINE
  8
___SYMBOL
 62
7
  6
CONTINUOUS
 66
1
 70
0
  0
VERTEX
  8
___SYMBOL
 62
7
  6
CONTINUOUS
 10
15.1785231017
 20
8.4208916433
  0
VERTEX
  8
___SYMBOL
 62
7
  6
CONTINUOUS
 10
15.1788905069
 20
8.4316645781
  0
VERTEX
  8
___SYMBOL
 62
7
  6
CONTINUOUS
 10
15.179550388
 20
8.442417346
  0
VERTEX
  8
___SYMBOL
 62
7
  6
CONTINUOUS
 10
15.1804893437
 20
8.4531488439
  0
VERTEX
  8
___SYMBOL
 62
7
  6
CONTINUOUS
 10
15.1816939727
 20
8.4638579686
  0
VERTEX
  8
___SYMBOL
 62
7
  6
CONTINUOUS
 10
15.1831508738
 20
8.4745436173
  0
VERTEX
  8
___SYMBOL
 62
7
  6
CONTINUOUS
 10
15.1848466457
 20
8.4852046869
  0
VERTEX
  8
___SYMBOL
 62
7
  6
CONTINUOUS
 10
15.186767887
 20
8.4958400744
  0
VERTEX
  8
___SYMBOL
 62
7
  6
CONTINUOUS
 10
15.1889011966
 20
8.5064486767
  0
VERTEX
  8
___SYMBOL
 62
7
  6
CONTINUOUS
 10
15.1912331732
 20
8.5170293908
  0
VERTEX
  8
___SYMBOL
 62
7
  6
CONTINUOUS
 10
15.1937504154
 20
8.5275811138
  0
VERTEX
  8
___SYMBOL
 62
7
  6
CONTINUOUS
 10
15.196439522
 20
8.5381027426
  0
VERTEX
  8
___SYMBOL
 62
7
  6
CONTINUOUS
 10
15.1992870917
 20
8.5485931741
  0
VERTEX
  8
___SYMBOL
 62
7
  6
CONTINUOUS
 10
15.2022797233
 20
8.5590513054
  0
VERTEX
  8
___SYMBOL
 62
7
  6
CONTINUOUS
 10
15.2054040154
 20
8.5694760334
  0
VERTEX
  8
___SYMBOL
 62
7
  6
CONTINUOUS
 10
15.2086465667
 20
8.5798662551
  0
VERTEX
  8
___SYMBOL
 62
7
  6
CONTINUOUS
 10
15.2119939761
 20
8.5902208675
  0
VERTEX
  8
___SYMBOL
 62
7
  6
CONTINUOUS
 10
15.2154328421
 20
8.6005387676
  0
VERTEX
  8
___SYMBOL
 62
7
  6
CONTINUOUS
 10
15.2189497637
 20
8.6108188523
  0
VERTEX
  8
___SYMBOL
 62
7
  6
CONTINUOUS
 10
15.2225313393
 20
8.6210600186
  0
VERTEX
  8
___SYMBOL
 62
7
  6
CONTINUOUS
 10
15.2261641679
 20
8.6312611636
  0
VERTEX
  8
___SYMBOL
 62
7
  6
CONTINUOUS
 10
15.2315799413
 20
8.6462292072
  0
VERTEX
  8
___SYMBOL
 62
7
  6
CONTINUOUS
 10
15.2370134548
 20
8.6611549808
  0
VERTEX
  8
___SYMBOL
 62
7
  6
CONTINUOUS
 10
15.2424002264
 20
8.6760855458
  0
VERTEX
  8
___SYMBOL
 62
7
  6
CONTINUOUS
 10
15.2476757741
 20
8.6910679634
  0
VERTEX
  8
___SYMBOL
 62
7
  6
CONTINUOUS
 10
15.2527756162
 20
8.7061492948
  0
VERTEX
  8
___SYMBOL
 62
7
  6
CONTINUOUS
 10
15.255040792
 20
8.713127606
  0
VERTEX
  8
___SYMBOL
 62
7
  6
CONTINUOUS
 10
15.2572337686
 20
8.7201371263
  0
VERTEX
  8
___SYMBOL
 62
7
  6
CONTINUOUS
 10
15.259333104
 20
8.7271782167
  0
VERTEX
  8
___SYMBOL
 62
7
  6
CONTINUOUS
 10
15.2613173563
 20
8.7342512381
  0
VERTEX
  8
___SYMBOL
 62
7
  6
CONTINUOUS
 10
15.2631650835
 20
8.7413565516
  0
VERTEX
  8
___SYMBOL
 62
7
  6
CONTINUOUS
 10
15.2648548438
 20
8.7484945183
  0
VERTEX
  8
___SYMBOL
 62
7
  6
CONTINUOUS
 10
15.2663651953
 20
8.7556654991
  0
VERTEX
  8
___SYMBOL
 62
7
  6
CONTINUOUS
 10
15.2676746958
 20
8.7628698552
  0
VERTEX
  8
___SYMBOL
 62
7
  6
CONTINUOUS
 10
15.2687619037
 20
8.7701079475
  0
VERTEX
  8
___SYMBOL
 62
7
  6
CONTINUOUS
 10
15.2696053768
 20
8.7773801371
  0
VERTEX
  8
___SYMBOL
 62
7
  6
CONTINUOUS
 10
15.2701836734
 20
8.784686785
  0
VERTEX
  8
___SYMBOL
 62
7
  6
CONTINUOUS
 10
15.2704753514
 20
8.7920282523
  0
VERTEX
  8
___SYMBOL
 62
7
  6
CONTINUOUS
 10
15.2705006882
 20
8.7952176108
  0
VERTEX
  8
___SYMBOL
 62
7
  6
CONTINUOUS
 10
15.2704266103
 20
8.7984030566
  0
VERTEX
  8
___SYMBOL
 62
7
  6
CONTINUOUS
 10
15.2702115105
 20
8.801574075
  0
VERTEX
  8
___SYMBOL
 62
7
  6
CONTINUOUS
 10
15.2698137815
 20
8.8047201518
  0
VERTEX
  8
___SYMBOL
 62
7
  6
CONTINUOUS
 10
15.2691918161
 20
8.8078307724
  0
VERTEX
  8
___SYMBOL
 62
7
  6
CONTINUOUS
 10
15.268304007
 20
8.8108954224
  0
VERTEX
  8
___SYMBOL
 62
7
  6
CONTINUOUS
 10
15.2671639392
 20
8.8138019043
  0
VERTEX
  8
___SYMBOL
 62
7
  6
CONTINUOUS
 10
15.2657571041
 20
8.8166354904
  0
VERTEX
  8
___SYMBOL
 62
7
  6
CONTINUOUS
 10
15.2641038989
 20
8.819376043
  0
VERTEX
  8
___SYMBOL
 62
7
  6
CONTINUOUS
 10
15.2622247206
 20
8.8220034243
  0
VERTEX
  8
___SYMBOL
 62
7
  6
CONTINUOUS
 10
15.2601399667
 20
8.8244974967
  0
VERTEX
  8
___SYMBOL
 62
7
  6
CONTINUOUS
 10
15.2578700342
 20
8.8268381222
  0
VERTEX
  8
___SYMBOL
 62
7
  6
CONTINUOUS
 10
15.2554353205
 20
8.8290051632
  0
VERTEX
  8
___SYMBOL
 62
7
  6
CONTINUOUS
 10
15.2528562227
 20
8.8309784819
  0
VERTEX
  8
___SYMBOL
 62
7
  6
CONTINUOUS
 10
15.250153138
 20
8.8327379406
  0
VERTEX
  8
___SYMBOL
 62
7
  6
CONTINUOUS
 10
15.2473464637
 20
8.8342634015
  0
VERTEX
  8
___SYMBOL
 62
7
  6
CONTINUOUS
 10
15.244456597
 20
8.8355347267
  0
VERTEX
  8
___SYMBOL
 62
7
  6
CONTINUOUS
 10
15.2415039352
 20
8.8365317787
  0
VERTEX
  8
___SYMBOL
 62
7
  6
CONTINUOUS
 10
15.2385088753
 20
8.8372344196
  0
SEQEND
  0
POLYLINE
  8
___SYMBOL
 62
7
  6
CONTINUOUS
 66
1
 70
0
  0
VERTEX
  8
___SYMBOL
 62
7
  6
CONTINUOUS
 10
15.2801457168
 20
8.6322709383
  0
VERTEX
  8
___SYMBOL
 62
7
  6
CONTINUOUS
 10
15.2821810512
 20
8.6396841699
  0
VERTEX
  8
___SYMBOL
 62
7
  6
CONTINUOUS
 10
15.2843766
 20
8.64704602
  0
VERTEX
  8
___SYMBOL
 62
7
  6
CONTINUOUS
 10
15.2870434007
 20
8.65533973
  0
VERTEX
  8
___SYMBOL
 62
7
  6
CONTINUOUS
 10
15.2898738676
 20
8.6635620355
  0
VERTEX
  8
___SYMBOL
 62
7
  6
CONTINUOUS
 10
15.2928515835
 20
8.6717294476
  0
VERTEX
  8
___SYMBOL
 62
7
  6
CONTINUOUS
 10
15.2959601314
 20
8.6798584772
  0
VERTEX
  8
___SYMBOL
 62
7
  6
CONTINUOUS
 10
15.2991830943
 20
8.6879656352
  0
VERTEX
  8
___SYMBOL
 62
7
  6
CONTINUOUS
 10
15.3025040551
 20
8.6960674327
  0
VERTEX
  8
___SYMBOL
 62
7
  6
CONTINUOUS
 10
15.3059065969
 20
8.7041803805
  0
VERTEX
  8
___SYMBOL
 62
7
  6
CONTINUOUS
 10
15.3093743025
 20
8.7123209896
  0
VERTEX
  8
___SYMBOL
 62
7
  6
CONTINUOUS
 10
15.311585318
 20
8.7174750421
  0
VERTEX
  8
___SYMBOL
 62
7
  6
CONTINUOUS
 10
15.3138015321
 20
8.7226463114
  0
VERTEX
  8
___SYMBOL
 62
7
  6
CONTINUOUS
 10
15.3160087615
 20
8.7278344511
  0
VERTEX
  8
___SYMBOL
 62
7
  6
CONTINUOUS
 10
15.3181928229
 20
8.7330391151
  0
VERTEX
  8
___SYMBOL
 62
7
  6
CONTINUOUS
 10
15.3203395328
 20
8.7382599569
  0
VERTEX
  8
___SYMBOL
 62
7
  6
CONTINUOUS
 10
15.3224347079
 20
8.7434966304
  0
VERTEX
  8
___SYMBOL
 62
7
  6
CONTINUOUS
 10
15.3244641649
 20
8.748748789
  0
VERTEX
  8
___SYMBOL
 62
7
  6
CONTINUOUS
 10
15.3264137203
 20
8.7540160866
  0
VERTEX
  8
___SYMBOL
 62
7
  6
CONTINUOUS
 10
15.3282691909
 20
8.7592981769
  0
VERTEX
  8
___SYMBOL
 62
7
  6
CONTINUOUS
 10
15.3300163933
 20
8.7645947134
  0
VERTEX
  8
___SYMBOL
 62
7
  6
CONTINUOUS
 10
15.3316411441
 20
8.76990535
  0
VERTEX
  8
___SYMBOL
 62
7
  6
CONTINUOUS
 10
15.33312926
 20
8.7752297403
  0
VERTEX
  8
___SYMBOL
 62
7
  6
CONTINUOUS
 10
15.3344665576
 20
8.7805675379
  0
VERTEX
  8
___SYMBOL
 62
7
  6
CONTINUOUS
 10
15.3356388536
 20
8.7859183966
  0
VERTEX
  8
___SYMBOL
 62
7
  6
CONTINUOUS
 10
15.3366319646
 20
8.7912819701
  0
VERTEX
  8
___SYMBOL
 62
7
  6
CONTINUOUS
 10
15.3374317073
 20
8.7966579121
  0
VERTEX
  8
___SYMBOL
 62
7
  6
CONTINUOUS
 10
15.3380238982
 20
8.8020458761
  0
VERTEX
  8
___SYMBOL
 62
7
  6
CONTINUOUS
 10
15.3383943541
 20
8.807445516
  0
VERTEX
  8
___SYMBOL
 62
7
  6
CONTINUOUS
 10
15.3385288915
 20
8.8128564855
  0
VERTEX
  8
___SYMBOL
 62
7
  6
CONTINUOUS
 10
15.3384337261
 20
8.8179336506
  0
VERTEX
  8
___SYMBOL
 62
7
  6
CONTINUOUS
 10
15.338139664
 20
8.823019531
  0
VERTEX
  8
___SYMBOL
 62
7
  6
CONTINUOUS
 10
15.33766715
 20
8.8281132094
  0
VERTEX
  8
___SYMBOL
 62
7
  6
CONTINUOUS
 10
15.337036629
 20
8.8332137689
  0
VERTEX
  8
___SYMBOL
 62
7
  6
CONTINUOUS
 10
15.3362685457
 20
8.8383202923
  0
VERTEX
  8
___SYMBOL
 62
7
  6
CONTINUOUS
 10
15.3353833449
 20
8.8434318624
  0
VERTEX
  8
___SYMBOL
 62
7
  6
CONTINUOUS
 10
15.3344014713
 20
8.8485475621
  0
VERTEX
  8
___SYMBOL
 62
7
  6
CONTINUOUS
 10
15.3333433699
 20
8.8536664743
  0
VERTEX
  8
___SYMBOL
 62
7
  6
CONTINUOUS
 10
15.3322294853
 20
8.8587876819
  0
VERTEX
  8
___SYMBOL
 62
7
  6
CONTINUOUS
 10
15.3310802624
 20
8.8639102678
  0
VERTEX
  8
___SYMBOL
 62
7
  6
CONTINUOUS
 10
15.3302478837
 20
8.8675891861
  0
VERTEX
  8
___SYMBOL
 62
7
  6
CONTINUOUS
 10
15.3294350433
 20
8.87126769
  0
VERTEX
  8
___SYMBOL
 62
7
  6
CONTINUOUS
 10
15.3286689602
 20
8.8749451273
  0
VERTEX
  8
___SYMBOL
 62
7
  6
CONTINUOUS
 10
15.3279768532
 20
8.8786208457
  0
VERTEX
  8
___SYMBOL
 62
7
  6
CONTINUOUS
 10
15.3273859414
 20
8.8822941931
  0
VERTEX
  8
___SYMBOL
 62
7
  6
CONTINUOUS
 10
15.3269234435
 20
8.8859645173
  0
VERTEX
  8
___SYMBOL
 62
7
  6
CONTINUOUS
 10
15.3266165786
 20
8.889631166
  0
VERTEX
  8
___SYMBOL
 62
7
  6
CONTINUOUS
 10
15.3264925655
 20
8.893293487
  0
VERTEX
  8
___SYMBOL
 62
7
  6
CONTINUOUS
 10
15.3265786231
 20
8.8969508282
  0
VERTEX
  8
___SYMBOL
 62
7
  6
CONTINUOUS
 10
15.3268665831
 20
8.900374203
  0
VERTEX
  8
___SYMBOL
 62
7
  6
CONTINUOUS
 10
15.3273393015
 20
8.9037908571
  0
VERTEX
  8
___SYMBOL
 62
7
  6
CONTINUOUS
 10
15.3279729905
 20
8.9071990195
  0
VERTEX
  8
___SYMBOL
 62
7
  6
CONTINUOUS
 10
15.3287438622
 20
8.9105969194
  0
VERTEX
  8
___SYMBOL
 62
7
  6
CONTINUOUS
 10
15.3296281288
 20
8.9139827858
  0
VERTEX
  8
___SYMBOL
 62
7
  6
CONTINUOUS
 10
15.3306020023
 20
8.9173548479
  0
VERTEX
  8
___SYMBOL
 62
7
  6
CONTINUOUS
 10
15.3316416949
 20
8.9207113349
  0
VERTEX
  8
___SYMBOL
 62
7
  6
CONTINUOUS
 10
15.3327234187
 20
8.9240504757
  0
VERTEX
  8
___SYMBOL
 62
7
  6
CONTINUOUS
 10
15.3340177151
 20
8.9279557188
  0
VERTEX
  8
___SYMBOL
 62
7
  6
CONTINUOUS
 10
15.3353018853
 20
8.9318482924
  0
VERTEX
  8
___SYMBOL
 62
7
  6
CONTINUOUS
 10
15.3365405695
 20
8.9357419685
  0
VERTEX
  8
___SYMBOL
 62
7
  6
CONTINUOUS
 10
15.3376984084
 20
8.939650519
  0
VERTEX
  8
___SYMBOL
 62
7
  6
CONTINUOUS
 10
15.3387400424
 20
8.9435877159
  0
VERTEX
  8
___SYMBOL
 62
7
  6
CONTINUOUS
 10
15.3396301121
 20
8.9475673312
  0
SEQEND
  0
POLYLINE
  8
___SYMBOL
 62
7
  6
CONTINUOUS
 66
1
 70
0
  0
VERTEX
  8
___SYMBOL
 62
7
  6
CONTINUOUS
 10
14.9667519534
 20
8.5391075145
  0
VERTEX
  8
___SYMBOL
 62
7
  6
CONTINUOUS
 10
14.9715329953
 20
8.5464046014
  0
VERTEX
  8
___SYMBOL
 62
7
  6
CONTINUOUS
 10
14.9761017445
 20
8.5538310687
  0
VERTEX
  8
___SYMBOL
 62
7
  6
CONTINUOUS
 10
14.9804696229
 20
8.5613780266
  0
VERTEX
  8
___SYMBOL
 62
7
  6
CONTINUOUS
 10
14.9846480526
 20
8.5690365857
  0
VERTEX
  8
___SYMBOL
 62
7
  6
CONTINUOUS
 10
14.9886484556
 20
8.5767978564
  0
VERTEX
  8
___SYMBOL
 62
7
  6
CONTINUOUS
 10
14.9924822541
 20
8.584652949
  0
VERTEX
  8
___SYMBOL
 62
7
  6
CONTINUOUS
 10
14.9961608699
 20
8.592592974
  0
VERTEX
  8
___SYMBOL
 62
7
  6
CONTINUOUS
 10
14.9996957252
 20
8.6006090417
  0
VERTEX
  8
___SYMBOL
 62
7
  6
CONTINUOUS
 10
15.003098242
 20
8.6086922626
  0
VERTEX
  8
___SYMBOL
 62
7
  6
CONTINUOUS
 10
15.0063798422
 20
8.616833747
  0
VERTEX
  8
___SYMBOL
 62
7
  6
CONTINUOUS
 10
15.0095519481
 20
8.6250246055
  0
VERTEX
  8
___SYMBOL
 62
7
  6
CONTINUOUS
 10
15.0126259814
 20
8.6332559483
  0
VERTEX
  8
___SYMBOL
 62
7
  6
CONTINUOUS
 10
15.0156133645
 20
8.6415188859
  0
VERTEX
  8
___SYMBOL
 62
7
  6
CONTINUOUS
 10
15.0196180452
 20
8.6529628267
  0
VERTEX
  8
___SYMBOL
 62
7
  6
CONTINUOUS
 10
15.0235192077
 20
8.6644322708
  0
VERTEX
  8
___SYMBOL
 62
7
  6
CONTINUOUS
 10
15.0273567167
 20
8.6759094465
  0
VERTEX
  8
___SYMBOL
 62
7
  6
CONTINUOUS
 10
15.0311704366
 20
8.6873765817
  0
VERTEX
  8
___SYMBOL
 62
7
  6
CONTINUOUS
 10
15.0350002321
 20
8.6988159046
  0
VERTEX
  8
___SYMBOL
 62
7
  6
CONTINUOUS
 10
15.0388859678
 20
8.7102096432
  0
VERTEX
  8
___SYMBOL
 62
7
  6
CONTINUOUS
 10
15.0428675083
 20
8.7215400255
  0
VERTEX
  8
___SYMBOL
 62
7
  6
CONTINUOUS
 10
15.0469847182
 20
8.7327892797
  0
VERTEX
  8
___SYMBOL
 62
7
  6
CONTINUOUS
 10
15.0512774622
 20
8.7439396337
  0
VERTEX
  8
___SYMBOL
 62
7
  6
CONTINUOUS
 10
15.0562028849
 20
8.7560091029
  0
VERTEX
  8
___SYMBOL
 62
7
  6
CONTINUOUS
 10
15.0613442725
 20
8.7679954051
  0
VERTEX
  8
___SYMBOL
 62
7
  6
CONTINUOUS
 10
15.066660137
 20
8.7799548248
  0
VERTEX
  8
___SYMBOL
 62
7
  6
CONTINUOUS
 10
15.0721089901
 20
8.7919436462
  0
VERTEX
  8
___SYMBOL
 62
7
  6
CONTINUOUS
 10
15.0776493437
 20
8.8040181535
  0
VERTEX
  8
___SYMBOL
 62
7
  6
CONTINUOUS
 10
15.0832397097
 20
8.8162346309
  0
VERTEX
  8
___SYMBOL
 62
7
  6
CONTINUOUS
 10
15.0849240465
 20
8.8199349082
  0
VERTEX
  8
___SYMBOL
 62
7
  6
CONTINUOUS
 10
15.0866242691
 20
8.8236371281
  0
VERTEX
  8
___SYMBOL
 62
7
  6
CONTINUOUS
 10
15.0883554954
 20
8.8273253699
  0
VERTEX
  8
___SYMBOL
 62
7
  6
CONTINUOUS
 10
15.090132843
 20
8.8309837128
  0
VERTEX
  8
___SYMBOL
 62
7
  6
CONTINUOUS
 10
15.0919714297
 20
8.8345962359
  0
VERTEX
  8
___SYMBOL
 62
7
  6
CONTINUOUS
 10
15.0938863734
 20
8.8381470185
  0
VERTEX
  8
___SYMBOL
 62
7
  6
CONTINUOUS
 10
15.0958927917
 20
8.8416201397
  0
VERTEX
  8
___SYMBOL
 62
7
  6
CONTINUOUS
 10
15.0980058024
 20
8.8449996787
  0
VERTEX
  8
___SYMBOL
 62
7
  6
CONTINUOUS
 10
15.1002405234
 20
8.8482697147
  0
VERTEX
  8
___SYMBOL
 62
7
  6
CONTINUOUS
 10
15.1026120723
 20
8.8514143268
  0
VERTEX
  8
___SYMBOL
 62
7
  6
CONTINUOUS
 10
15.1051355669
 20
8.8544175943
  0
VERTEX
  8
___SYMBOL
 62
7
  6
CONTINUOUS
 10
15.1078261251
 20
8.8572635963
  0
VERTEX
  8
___SYMBOL
 62
7
  6
CONTINUOUS
 10
15.1106988645
 20
8.8599364121
  0
VERTEX
  8
___SYMBOL
 62
7
  6
CONTINUOUS
 10
15.1137689029
 20
8.8624201208
  0
VERTEX
  8
___SYMBOL
 62
7
  6
CONTINUOUS
 10
15.1166947738
 20
8.8644723226
  0
VERTEX
  8
___SYMBOL
 62
7
  6
CONTINUOUS
 10
15.1197716176
 20
8.8663505231
  0
VERTEX
  8
___SYMBOL
 62
7
  6
CONTINUOUS
 10
15.122979852
 20
8.8680453435
  0
VERTEX
  8
___SYMBOL
 62
7
  6
CONTINUOUS
 10
15.1262998945
 20
8.8695474052
  0
VERTEX
  8
___SYMBOL
 62
7
  6
CONTINUOUS
 10
15.1297121629
 20
8.8708473292
  0
VERTEX
  8
___SYMBOL
 62
7
  6
CONTINUOUS
 10
15.1331970747
 20
8.8719357368
  0
VERTEX
  8
___SYMBOL
 62
7
  6
CONTINUOUS
 10
15.1367350476
 20
8.8728032493
  0
VERTEX
  8
___SYMBOL
 62
7
  6
CONTINUOUS
 10
15.1403064992
 20
8.8734404878
  0
VERTEX
  8
___SYMBOL
 62
7
  6
CONTINUOUS
 10
15.1438918472
 20
8.8738380737
  0
VERTEX
  8
___SYMBOL
 62
7
  6
CONTINUOUS
 10
15.1474715092
 20
8.8739866281
  0
VERTEX
  8
___SYMBOL
 62
7
  6
CONTINUOUS
 10
15.1510259029
 20
8.8738767723
  0
SEQEND
  0
POLYLINE
  8
___SYMBOL
 62
7
  6
CONTINUOUS
 66
1
 70
0
  0
VERTEX
  8
___SYMBOL
 62
7
  6
CONTINUOUS
 10
14.9909048735
 20
8.7308322996
  0
VERTEX
  8
___SYMBOL
 62
7
  6
CONTINUOUS
 10
14.9960588105
 20
8.7448768154
  0
VERTEX
  8
___SYMBOL
 62
7
  6
CONTINUOUS
 10
15.0010704948
 20
8.7589854637
  0
VERTEX
  8
___SYMBOL
 62
7
  6
CONTINUOUS
 10
15.0046614565
 20
8.7692481068
  0
VERTEX
  8
___SYMBOL
 62
7
  6
CONTINUOUS
 10
15.0082473551
 20
8.7795288898
  0
VERTEX
  8
___SYMBOL
 62
7
  6
CONTINUOUS
 10
15.0118517967
 20
8.7898106506
  0
VERTEX
  8
___SYMBOL
 62
7
  6
CONTINUOUS
 10
15.0154983874
 20
8.8000762273
  0
VERTEX
  8
___SYMBOL
 62
7
  6
CONTINUOUS
 10
15.0192107332
 20
8.8103084578
  0
VERTEX
  8
___SYMBOL
 62
7
  6
CONTINUOUS
 10
15.02301244
 20
8.8204901802
  0
VERTEX
  8
___SYMBOL
 62
7
  6
CONTINUOUS
 10
15.0269271139
 20
8.8306042324
  0
VERTEX
  8
___SYMBOL
 62
7
  6
CONTINUOUS
 10
15.030978361
 20
8.8406334526
  0
VERTEX
  8
___SYMBOL
 62
7
  6
CONTINUOUS
 10
15.0351897872
 20
8.8505606786
  0
VERTEX
  8
___SYMBOL
 62
7
  6
CONTINUOUS
 10
15.0395849986
 20
8.8603687486
  0
VERTEX
  8
___SYMBOL
 62
7
  6
CONTINUOUS
 10
15.0421777419
 20
8.8658883255
  0
VERTEX
  8
___SYMBOL
 62
7
  6
CONTINUOUS
 10
15.0448509926
 20
8.8713606578
  0
VERTEX
  8
___SYMBOL
 62
7
  6
CONTINUOUS
 10
15.0476181489
 20
8.8767826118
  0
VERTEX
  8
___SYMBOL
 62
7
  6
CONTINUOUS
 10
15.0504926088
 20
8.8821510537
  0
VERTEX
  8
___SYMBOL
 62
7
  6
CONTINUOUS
 10
15.0534877706
 20
8.8874628499
  0
VERTEX
  8
___SYMBOL
 62
7
  6
CONTINUOUS
 10
15.0566170323
 20
8.8927148667
  0
VERTEX
  8
___SYMBOL
 62
7
  6
CONTINUOUS
 10
15.0598937921
 20
8.8979039702
  0
VERTEX
  8
___SYMBOL
 62
7
  6
CONTINUOUS
 10
15.0633314481
 20
8.9030270269
  0
VERTEX
  8
___SYMBOL
 62
7
  6
CONTINUOUS
 10
15.0669433984
 20
8.9080809029
  0
VERTEX
  8
___SYMBOL
 62
7
  6
CONTINUOUS
 10
15.0707430413
 20
8.9130624647
  0
VERTEX
  8
___SYMBOL
 62
7
  6
CONTINUOUS
 10
15.0747437748
 20
8.9179685783
  0
VERTEX
  8
___SYMBOL
 62
7
  6
CONTINUOUS
 10
15.078958997
 20
8.9227961102
  0
VERTEX
  8
___SYMBOL
 62
7
  6
CONTINUOUS
 10
15.0834021061
 20
8.9275419267
  0
VERTEX
  8
___SYMBOL
 62
7
  6
CONTINUOUS
 10
15.0858607896
 20
8.9300326117
  0
VERTEX
  8
___SYMBOL
 62
7
  6
CONTINUOUS
 10
15.0883768984
 20
8.9325028254
  0
VERTEX
  8
___SYMBOL
 62
7
  6
CONTINUOUS
 10
15.0909395893
 20
8.9349561035
  0
VERTEX
  8
___SYMBOL
 62
7
  6
CONTINUOUS
 10
15.093538019
 20
8.9373959817
  0
VERTEX
  8
___SYMBOL
 62
7
  6
CONTINUOUS
 10
15.0961613443
 20
8.9398259957
  0
VERTEX
  8
___SYMBOL
 62
7
  6
CONTINUOUS
 10
15.0987987221
 20
8.9422496812
  0
VERTEX
  8
___SYMBOL
 62
7
  6
CONTINUOUS
 10
15.101439309
 20
8.9446705738
  0
VERTEX
  8
___SYMBOL
 62
7
  6
CONTINUOUS
 10
15.1040722618
 20
8.9470922093
  0
VERTEX
  8
___SYMBOL
 62
7
  6
CONTINUOUS
 10
15.1066867373
 20
8.9495181235
  0
VERTEX
  8
___SYMBOL
 62
7
  6
CONTINUOUS
 10
15.1092718922
 20
8.9519518518
  0
VERTEX
  8
___SYMBOL
 62
7
  6
CONTINUOUS
 10
15.1118168834
 20
8.9543969302
  0
VERTEX
  8
___SYMBOL
 62
7
  6
CONTINUOUS
 10
15.1143108676
 20
8.9568568943
  0
VERTEX
  8
___SYMBOL
 62
7
  6
CONTINUOUS
 10
15.1167430016
 20
8.9593352797
  0
VERTEX
  8
___SYMBOL
 62
7
  6
CONTINUOUS
 10
15.1191024421
 20
8.9618356222
  0
VERTEX
  8
___SYMBOL
 62
7
  6
CONTINUOUS
 10
15.1213783458
 20
8.9643614575
  0
VERTEX
  8
___SYMBOL
 62
7
  6
CONTINUOUS
 10
15.1235598697
 20
8.9669163212
  0
VERTEX
  8
___SYMBOL
 62
7
  6
CONTINUOUS
 10
15.1256361704
 20
8.9695037492
  0
VERTEX
  8
___SYMBOL
 62
7
  6
CONTINUOUS
 10
15.1275964047
 20
8.9721272769
  0
VERTEX
  8
___SYMBOL
 62
7
  6
CONTINUOUS
 10
15.1294297293
 20
8.9747904403
  0
VERTEX
  8
___SYMBOL
 62
7
  6
CONTINUOUS
 10
15.1311253012
 20
8.9774967749
  0
VERTEX
  8
___SYMBOL
 62
7
  6
CONTINUOUS
 10
15.1326722769
 20
8.9802498165
  0
VERTEX
  8
___SYMBOL
 62
7
  6
CONTINUOUS
 10
15.1340598133
 20
8.9830531008
  0
VERTEX
  8
___SYMBOL
 62
7
  6
CONTINUOUS
 10
15.1352770671
 20
8.9859101634
  0
VERTEX
  8
___SYMBOL
 62
7
  6
CONTINUOUS
 10
15.1363131952
 20
8.98882454
  0
VERTEX
  8
___SYMBOL
 62
7
  6
CONTINUOUS
 10
15.1371573542
 20
8.9917997665
  0
VERTEX
  8
___SYMBOL
 62
7
  6
CONTINUOUS
 10
15.137798701
 20
8.9948393784
  0
VERTEX
  8
___SYMBOL
 62
7
  6
CONTINUOUS
 10
15.1382263923
 20
8.9979469114
  0
VERTEX
  8
___SYMBOL
 62
7
  6
CONTINUOUS
 10
15.1384295849
 20
9.0011259013
  0
VERTEX
  8
___SYMBOL
 62
7
  6
CONTINUOUS
 10
15.1384517666
 20
9.0026858116
  0
VERTEX
  8
___SYMBOL
 62
7
  6
CONTINUOUS
 10
15.1384637976
 20
9.0042596804
  0
VERTEX
  8
___SYMBOL
 62
7
  6
CONTINUOUS
 10
15.1385103232
 20
9.0058440053
  0
VERTEX
  8
___SYMBOL
 62
7
  6
CONTINUOUS
 10
15.1386359882
 20
9.0074352838
  0
VERTEX
  8
___SYMBOL
 62
7
  6
CONTINUOUS
 10
15.1388854377
 20
9.0090300137
  0
VERTEX
  8
___SYMBOL
 62
7
  6
CONTINUOUS
 10
15.1392667387
 20
9.0105305049
  0
VERTEX
  8
___SYMBOL
 62
7
  6
CONTINUOUS
 10
15.1397907046
 20
9.0120085724
  0
VERTEX
  8
___SYMBOL
 62
7
  6
CONTINUOUS
 10
15.1404502471
 20
9.013441838
  0
VERTEX
  8
___SYMBOL
 62
7
  6
CONTINUOUS
 10
15.1412382779
 20
9.0148079235
  0
VERTEX
  8
___SYMBOL
 62
7
  6
CONTINUOUS
 10
15.1421477086
 20
9.0160844507
  0
VERTEX
  8
___SYMBOL
 62
7
  6
CONTINUOUS
 10
15.1431714508
 20
9.0172490412
  0
VERTEX
  8
___SYMBOL
 62
7
  6
CONTINUOUS
 10
15.1443024162
 20
9.0182793169
  0
VERTEX
  8
___SYMBOL
 62
7
  6
CONTINUOUS
 10
15.1455335163
 20
9.0191528994
  0
VERTEX
  8
___SYMBOL
 62
7
  6
CONTINUOUS
 10
15.1468576629
 20
9.0198474107
  0
SEQEND
  0
POLYLINE
  8
___SYMBOL
 62
7
  6
CONTINUOUS
 66
1
 70
0
  0
VERTEX
  8
___SYMBOL
 62
7
  6
CONTINUOUS
 10
15.2789428324
 20
8.3292774841
  0
VERTEX
  8
___SYMBOL
 62
7
  6
CONTINUOUS
 10
15.3000739483
 20
8.3259371766
  0
VERTEX
  8
___SYMBOL
 62
7
  6
CONTINUOUS
 10
15.3223988001
 20
8.3287109117
  0
VERTEX
  8
___SYMBOL
 62
7
  6
CONTINUOUS
 10
15.3439615695
 20
8.3373555399
  0
VERTEX
  8
___SYMBOL
 62
7
  6
CONTINUOUS
 10
15.3644986589
 20
8.3517657982
  0
VERTEX
  8
___SYMBOL
 62
7
  6
CONTINUOUS
 10
15.3822106898
 20
8.3706786448
  0
VERTEX
  8
___SYMBOL
 62
7
  6
CONTINUOUS
 10
15.3968811528
 20
8.3938634419
  0
VERTEX
  8
___SYMBOL
 62
7
  6
CONTINUOUS
 10
15.4072247603
 20
8.4192883895
  0
VERTEX
  8
___SYMBOL
 62
7
  6
CONTINUOUS
 10
15.4130484201
 20
8.4461119536
  0
VERTEX
  8
___SYMBOL
 62
7
  6
CONTINUOUS
 10
15.4140360619
 20
8.4735305335
  0
VERTEX
  8
___SYMBOL
 62
7
  6
CONTINUOUS
 10
15.4101012378
 20
8.499141773
  0
VERTEX
  8
___SYMBOL
 62
7
  6
CONTINUOUS
 10
15.4012918474
 20
8.5226325751
  0
VERTEX
  8
___SYMBOL
 62
7
  6
CONTINUOUS
 10
15.3883797968
 20
8.5419447833
  0
VERTEX
  8
___SYMBOL
 62
7
  6
CONTINUOUS
 10
15.3715229132
 20
8.5568425874
  0
VERTEX
  8
___SYMBOL
 62
7
  6
CONTINUOUS
 10
15.3521982346
 20
8.5660204349
  0
VERTEX
  8
___SYMBOL
 62
7
  6
CONTINUOUS
 10
15.3310672683
 20
8.5693608121
  0
VERTEX
  8
___SYMBOL
 62
7
  6
CONTINUOUS
 10
15.3087423068
 20
8.5665871169
  0
VERTEX
  8
___SYMBOL
 62
7
  6
CONTINUOUS
 10
15.2871796072
 20
8.5579423392
  0
VERTEX
  8
___SYMBOL
 62
7
  6
CONTINUOUS
 10
15.2666424082
 20
8.5435321208
  0
VERTEX
  8
___SYMBOL
 62
7
  6
CONTINUOUS
 10
15.2489304868
 20
8.5246192343
  0
VERTEX
  8
___SYMBOL
 62
7
  6
CONTINUOUS
 10
15.2342599143
 20
8.5014344771
  0
VERTEX
  8
___SYMBOL
 62
7
  6
CONTINUOUS
 10
15.2239163068
 20
8.4760095295
  0
VERTEX
  8
___SYMBOL
 62
7
  6
CONTINUOUS
 10
15.218092647
 20
8.4491859654
  0
VERTEX
  8
___SYMBOL
 62
7
  6
CONTINUOUS
 10
15.2171050052
 20
8.4217673855
  0
VERTEX
  8
___SYMBOL
 62
7
  6
CONTINUOUS
 10
15.2210399388
 20
8.3961561061
  0
VERTEX
  8
___SYMBOL
 62
7
  6
CONTINUOUS
 10
15.2298493293
 20
8.372665304
  0
VERTEX
  8
___SYMBOL
 62
7
  6
CONTINUOUS
 10
15.2427613799
 20
8.3533530958
  0
VERTEX
  8
___SYMBOL
 62
7
  6
CONTINUOUS
 10
15.2596181938
 20
8.3384554413
  0
VERTEX
  8
___SYMBOL
 62
7
  6
CONTINUOUS
 10
15.2789428324
 20
8.3292774841
  0
SEQEND
  0
POLYLINE
  8
___SYMBOL
 62
7
  6
CONTINUOUS
 66
1
 70
0
  0
VERTEX
  8
___SYMBOL
 62
7
  6
CONTINUOUS
 10
15.1785231017
 20
8.4208916433
  0
VERTEX
  8
___SYMBOL
 62
7
  6
CONTINUOUS
 10
15.1782273057
 20
8.3957870841
  0
VERTEX
  8
___SYMBOL
 62
7
  6
CONTINUOUS
 10
15.1807922136
 20
8.3717627488
  0
VERTEX
  8
___SYMBOL
 62
7
  6
CONTINUOUS
 10
15.1861644014
 20
8.3493190369
  0
VERTEX
  8
___SYMBOL
 62
7
  6
CONTINUOUS
 10
15.1942319724
 20
8.3289234256
  0
VERTEX
  8
___SYMBOL
 62
7
  6
CONTINUOUS
 10
15.2048268883
 20
8.3110007322
  0
VERTEX
  8
___SYMBOL
 62
7
  6
CONTINUOUS
 10
15.217728469
 20
8.2959242662
  0
VERTEX
  8
___SYMBOL
 62
7
  6
CONTINUOUS
 10
15.2326679892
 20
8.2840080531
  0
VERTEX
  8
___SYMBOL
 62
7
  6
CONTINUOUS
 10
15.2493342758
 20
8.2755002941
  0
VERTEX
  8
___SYMBOL
 62
7
  6
CONTINUOUS
 10
15.2673801889
 20
8.2705781963
  0
VERTEX
  8
___SYMBOL
 62
7
  6
CONTINUOUS
 10
15.2864298525
 20
8.2693442813
  0
VERTEX
  8
___SYMBOL
 62
7
  6
CONTINUOUS
 10
15.3060864839
 20
8.2718242502
  0
VERTEX
  8
___SYMBOL
 62
7
  6
CONTINUOUS
 10
15.3259406577
 20
8.277966448
  0
VERTEX
  8
___SYMBOL
 62
7
  6
CONTINUOUS
 10
15.3455788341
 20
8.2876429398
  0
VERTEX
  8
___SYMBOL
 62
7
  6
CONTINUOUS
 10
15.364591972
 20
8.3006521751
  0
VERTEX
  8
___SYMBOL
 62
7
  6
CONTINUOUS
 10
15.3825840494
 20
8.3167231865
  0
VERTEX
  8
___SYMBOL
 62
7
  6
CONTINUOUS
 10
15.3991803119
 20
8.3355212329
  0
VERTEX
  8
___SYMBOL
 62
7
  6
CONTINUOUS
 10
15.414035078
 20
8.3566547724
  0
VERTEX
  8
___SYMBOL
 62
7
  6
CONTINUOUS
 10
15.4268389399
 20
8.3796836174
  0
VERTEX
  8
___SYMBOL
 62
7
  6
CONTINUOUS
 10
15.4373252076
 20
8.4041281032
  0
VERTEX
  8
___SYMBOL
 62
7
  6
CONTINUOUS
 10
15.4452754641
 20
8.4294790789
  0
VERTEX
  8
___SYMBOL
 62
7
  6
CONTINUOUS
 10
15.4505241147
 20
8.4552085124
  0
VERTEX
  8
___SYMBOL
 62
7
  6
CONTINUOUS
 10
15.4529618358
 20
8.4807804889
  0
VERTEX
  8
___SYMBOL
 62
7
  6
CONTINUOUS
 10
15.4525378524
 20
8.5056623732
  0
VERTEX
  8
___SYMBOL
 62
7
  6
CONTINUOUS
 10
15.4492609958
 20
8.5293359037
  0
VERTEX
  8
___SYMBOL
 62
7
  6
CONTINUOUS
 10
15.4431995191
 20
8.5513079878
  0
VERTEX
  8
___SYMBOL
 62
7
  6
CONTINUOUS
 10
15.4344796759
 20
8.5711209719
  0
VERTEX
  8
___SYMBOL
 62
7
  6
CONTINUOUS
 10
15.4232830907
 20
8.5883621741
  0
VERTEX
  8
___SYMBOL
 62
7
  6
CONTINUOUS
 10
15.4098429757
 20
8.6026724796
  0
VERTEX
  8
___SYMBOL
 62
7
  6
CONTINUOUS
 10
15.3944392732
 20
8.6137538211
  0
VERTEX
  8
___SYMBOL
 62
7
  6
CONTINUOUS
 10
15.3773928248
 20
8.6213753867
  0
VERTEX
  8
___SYMBOL
 62
7
  6
CONTINUOUS
 10
15.3590586887
 20
8.625378428
  0
VERTEX
  8
___SYMBOL
 62
7
  6
CONTINUOUS
 10
15.3398187441
 20
8.6256795661
  0
VERTEX
  8
___SYMBOL
 62
7
  6
CONTINUOUS
 10
15.3200737373
 20
8.6222725287
  0
VERTEX
  8
___SYMBOL
 62
7
  6
CONTINUOUS
 10
15.3002349343
 20
8.6152282804
  0
SEQEND
  0
POLYLINE
  8
___SYMBOL
 62
7
  6
CONTINUOUS
 66
1
 70
0
  0
VERTEX
  8
___SYMBOL
 62
7
  6
CONTINUOUS
 10
14.8303422742
 20
8.5072013505
  0
VERTEX
  8
___SYMBOL
 62
7
  6
CONTINUOUS
 10
14.8509968981
 20
8.5055791934
  0
VERTEX
  8
___SYMBOL
 62
7
  6
CONTINUOUS
 10
14.872410614
 20
8.5101317149
  0
VERTEX
  8
___SYMBOL
 62
7
  6
CONTINUOUS
 10
14.892706989
 20
8.520459769
  0
VERTEX
  8
___SYMBOL
 62
7
  6
CONTINUOUS
 10
14.9116382043
 20
8.5364373304
  0
VERTEX
  8
___SYMBOL
 62
7
  6
CONTINUOUS
 10
14.9275455031
 20
8.5566644058
  0
VERTEX
  8
___SYMBOL
 62
7
  6
CONTINUOUS
 10
14.9402345284
 20
8.5808939781
  0
VERTEX
  8
___SYMBOL
 62
7
  6
CONTINUOUS
 10
14.948593388
 20
8.6070028365
  0
VERTEX
  8
___SYMBOL
 62
7
  6
CONTINUOUS
 10
14.9524899531
 20
8.6341389256
  0
VERTEX
  8
___SYMBOL
 62
7
  6
CONTINUOUS
 10
14.9516704337
 20
8.6614775903
  0
VERTEX
  8
___SYMBOL
 62
7
  6
CONTINUOUS
 10
14.9462067992
 20
8.6866237319
  0
VERTEX
  8
___SYMBOL
 62
7
  6
CONTINUOUS
 10
14.9361655703
 20
8.7092698882
  0
VERTEX
  8
___SYMBOL
 62
7
  6
CONTINUOUS
 10
14.9224267565
 20
8.7274318815
  0
VERTEX
  8
___SYMBOL
 62
7
  6
CONTINUOUS
 10
14.9051581241
 20
8.7408879095
  0
VERTEX
  8
___SYMBOL
 62
7
  6
CONTINUOUS
 10
14.8858727274
 20
8.7484588263
  0
VERTEX
  8
___SYMBOL
 62
7
  6
CONTINUOUS
 10
14.8652180637
 20
8.7500808738
  0
VERTEX
  8
___SYMBOL
 62
7
  6
CONTINUOUS
 10
14.8438043877
 20
8.7455284618
  0
VERTEX
  8
___SYMBOL
 62
7
  6
CONTINUOUS
 10
14.8235080126
 20
8.7352004078
  0
VERTEX
  8
___SYMBOL
 62
7
  6
CONTINUOUS
 10
14.8045767026
 20
8.7192227567
  0
VERTEX
  8
___SYMBOL
 62
7
  6
CONTINUOUS
 10
14.7886694586
 20
8.6989956614
  0
VERTEX
  8
___SYMBOL
 62
7
  6
CONTINUOUS
 10
14.7759804733
 20
8.6747661986
  0
VERTEX
  8
___SYMBOL
 62
7
  6
CONTINUOUS
 10
14.7676216136
 20
8.6486573403
  0
VERTEX
  8
___SYMBOL
 62
7
  6
CONTINUOUS
 10
14.7637250486
 20
8.6215212511
  0
VERTEX
  8
___SYMBOL
 62
7
  6
CONTINUOUS
 10
14.764544528
 20
8.5941824769
  0
VERTEX
  8
___SYMBOL
 62
7
  6
CONTINUOUS
 10
14.7700082025
 20
8.5690364449
  0
VERTEX
  8
___SYMBOL
 62
7
  6
CONTINUOUS
 10
14.7800494313
 20
8.5463902886
  0
VERTEX
  8
___SYMBOL
 62
7
  6
CONTINUOUS
 10
14.7937882452
 20
8.5282282952
  0
VERTEX
  8
___SYMBOL
 62
7
  6
CONTINUOUS
 10
14.8110568775
 20
8.5147722673
  0
VERTEX
  8
___SYMBOL
 62
7
  6
CONTINUOUS
 10
14.8303422742
 20
8.5072013505
  0
SEQEND
  0
POLYLINE
  8
___SYMBOL
 62
7
  6
CONTINUOUS
 66
1
 70
0
  0
VERTEX
  8
___SYMBOL
 62
7
  6
CONTINUOUS
 10
14.9650174812
 20
8.7279382503
  0
VERTEX
  8
___SYMBOL
 62
7
  6
CONTINUOUS
 10
14.9520641003
 20
8.7444176191
  0
VERTEX
  8
___SYMBOL
 62
7
  6
CONTINUOUS
 10
14.9369096146
 20
8.7578542965
  0
VERTEX
  8
___SYMBOL
 62
7
  6
CONTINUOUS
 10
14.9198915675
 20
8.7679490006
  0
VERTEX
  8
___SYMBOL
 62
7
  6
CONTINUOUS
 10
14.9013890104
 20
8.774476887
  0
VERTEX
  8
___SYMBOL
 62
7
  6
CONTINUOUS
 10
14.8818140602
 20
8.7772925568
  0
VERTEX
  8
___SYMBOL
 62
7
  6
CONTINUOUS
 10
14.8616027195
 20
8.7763332951
  0
VERTEX
  8
___SYMBOL
 62
7
  6
CONTINUOUS
 10
14.8412051658
 20
8.771620468
  0
VERTEX
  8
___SYMBOL
 62
7
  6
CONTINUOUS
 10
14.821075724
 20
8.7632590468
  0
VERTEX
  8
___SYMBOL
 62
7
  6
CONTINUOUS
 10
14.8016627472
 20
8.7514352696
  0
VERTEX
  8
___SYMBOL
 62
7
  6
CONTINUOUS
 10
14.7833986304
 20
8.7364124932
  0
VERTEX
  8
___SYMBOL
 62
7
  6
CONTINUOUS
 10
14.7666901796
 20
8.7185253277
  0
VERTEX
  8
___SYMBOL
 62
7
  6
CONTINUOUS
 10
14.7519095504
 20
8.6981721827
  0
VERTEX
  8
___SYMBOL
 62
7
  6
CONTINUOUS
 10
14.7393859592
 20
8.6758063941
  0
VERTEX
  8
___SYMBOL
 62
7
  6
CONTINUOUS
 10
14.7293983503
 20
8.6519261264
  0
VERTEX
  8
___SYMBOL
 62
7
  6
CONTINUOUS
 10
14.7221691826
 20
8.6270632768
  0
VERTEX
  8
___SYMBOL
 62
7
  6
CONTINUOUS
 10
14.7178594752
 20
8.601771628
  0
VERTEX
  8
___SYMBOL
 62
7
  6
CONTINUOUS
 10
14.7165652202
 20
8.5766145136
  0
VERTEX
  8
___SYMBOL
 62
7
  6
CONTINUOUS
 10
14.7183152453
 20
8.5521522708
  0
VERTEX
  8
___SYMBOL
 62
7
  6
CONTINUOUS
 10
14.7230705712
 20
8.5289297593
  0
VERTEX
  8
___SYMBOL
 62
7
  6
CONTINUOUS
 10
14.7307252803
 20
8.5074642258
  0
VERTEX
  8
___SYMBOL
 62
7
  6
CONTINUOUS
 10
14.7411088752
 20
8.4882337829
  0
VERTEX
  8
___SYMBOL
 62
7
  6
CONTINUOUS
 10
14.753990077
 20
8.4716667599
  0
VERTEX
  8
___SYMBOL
 62
7
  6
CONTINUOUS
 10
14.7690819763
 20
8.4581321626
  0
VERTEX
  8
___SYMBOL
 62
7
  6
CONTINUOUS
 10
14.7860484235
 20
8.4479314537
  0
VERTEX
  8
___SYMBOL
 62
7
  6
CONTINUOUS
 10
14.8045115164
 20
8.4412918387
  0
VERTEX
  8
___SYMBOL
 62
7
  6
CONTINUOUS
 10
14.8240600173
 20
8.4383612053
  0
VERTEX
  8
___SYMBOL
 62
7
  6
CONTINUOUS
 10
14.8442585126
 20
8.4392048288
  0
VERTEX
  8
___SYMBOL
 62
7
  6
CONTINUOUS
 10
14.864657111
 20
8.4438039188
  0
VERTEX
  8
___SYMBOL
 62
7
  6
CONTINUOUS
 10
14.8848014644
 20
8.4520560374
  0
VERTEX
  8
___SYMBOL
 62
7
  6
CONTINUOUS
 10
14.9042428874
 20
8.4637773812
  0
VERTEX
  8
___SYMBOL
 62
7
  6
CONTINUOUS
 10
14.9225483513
 20
8.4787068745
  0
VERTEX
  8
___SYMBOL
 62
7
  6
CONTINUOUS
 10
14.9393101295
 20
8.4965119855
  0
VERTEX
  8
___SYMBOL
 62
7
  6
CONTINUOUS
 10
14.9541548784
 20
8.5167961318
  0
VERTEX
  8
___SYMBOL
 62
7
  6
CONTINUOUS
 10
14.9667519535
 20
8.5391075145
  0
SEQEND
  0
LINE
  8
___SYMBOL
 62
7
  6
CONTINUOUS
 10
15.2637332294
 20
9.0356186954
 11
15.2715171308
 21
9.0330543065
  0
ENDBLK
  8
0
  6
BYBLOCK
 62
0
  0
BLOCK
  8
___SYMBOL
 62
2
  6
CONTINUOUS
  2
SYMBOL_12_BL1
 70
64
 10
28.6025752144
 20
6.3016755146
  0
TEXT
  8
___SYMBOL
 62
2
  6
CONTINUOUS
 10
24.4775752144
 20
7.3954255146
  7
STANDARD
 40
0.15625
  1
WHEN PLOTTING TEMPLATE FULL SIZE:
 41
0.8
 72
0
  0
TEXT
  8
___SYMBOL
 62
2
  6
CONTINUOUS
 10
24.4775752144
 20
7.1610505146
  7
STANDARD
 40
0.15625
  1
Make sure horizontal and vertical dimensions
 41
0.8
 72
0
  0
TEXT
  8
___SYMBOL
 62
2
  6
CONTINUOUS
 10
24.4775752144
 20
6.9266755146
  7
STANDARD
 40
0.15625
  1
match the dimensions labeled on the template.
 41
0.8
 72
0
  0
TEXT
  8
___SYMBOL
 62
2
  6
CONTINUOUS
 10
24.4775752144
 20
6.6923005146
  7
STANDARD
 40
0.15625
  1
 
 41
0.8
 72
0
  0
TEXT
  8
___SYMBOL
 62
2
  6
CONTINUOUS
 10
24.4775752144
 20
6.4579255146
  7
STANDARD
 40
0.15625
  1
LORS DU TRACÉ DU GABARIT À L'ÉCHELLE:  
 41
0.8
 72
0
  0
TEXT
  8
___SYMBOL
 62
2
  6
CONTINUOUS
 10
24.4775752144
 20
6.2235505146
  7
STANDARD
 40
0.15625
  1
S'assurer que les dimensions horizontales et verticales 
 41
0.8
 72
0
  0
TEXT
  8
___SYMBOL
 62
2
  6
CONTINUOUS
 10
24.4775752144
 20
5.9891755146
  7
STANDARD
 40
0.15625
  1
correspondent à celles marquées sur le gabarit.
 41
0.8
 72
0
  0
TEXT
  8
___SYMBOL
 62
2
  6
CONTINUOUS
 10
24.4775752144
 20
5.7548005146
  7
STANDARD
 40
0.15625
  1
 
 41
0.8
 72
0
  0
TEXT
  8
___SYMBOL
 62
2
  6
CONTINUOUS
 10
24.4775752144
 20
5.5204255146
  7
STANDARD
 40
0.15625
  1
AL TRAZAR LA PLANTILLA A ESCALA COMPLETA: 
 41
0.8
 72
0
  0
TEXT
  8
___SYMBOL
 62
2
  6
CONTINUOUS
 10
24.4775752144
 20
5.2860505146
  7
STANDARD
 40
0.15625
  1
Asegúrese de que la dimensión horizontal y la dimensión 
 41
0.8
 72
0
  0
TEXT
  8
___SYMBOL
 62
2
  6
CONTINUOUS
 10
24.4775752144
 20
5.0516755146
  7
STANDARD
 40
0.15625
  1
vertical sean iguales a las dimensiones indicadas en la plantilla.
 41
0.8
 72
0
  0
ENDBLK
  8
0
  6
BYBLOCK
 62
0
  0
BLOCK
  8
0
 62
2
  6
CONTINUOUS
  2
BALLOON_BL0
 70
64
 10
14.7584117514
 20
2.9836132213
  0
CIRCLE
  8
0
 62
2
  6
CONTINUOUS
 10
14.7584117514
 20
2.9836132213
 40
0.1140312424
  0
TEXT
  8
0
 62
2
  6
CONTINUOUS
 10
14.7184117514
 20
2.9336132213
  7
STANDARD
 40
0.1
  1
C
 41
0.8
 72
0
  0
ENDBLK
  8
0
  6
BYBLOCK
 62
0
  0
BLOCK
  8
0
  2
_FILLED
 70
64
 10
0.0
 20
0.0
  0
SOLID
  8
0
  6
BYBLOCK
 62
0
 10
0.0
 20
0.0
 11
-1.0
 21
0.1666666667
 12
-1.0
 22
-0.1666666667
 13
-1.0
 23
-0.1666666667
  0
ENDBLK
  8
0
  6
BYBLOCK
 62
0
  0
BLOCK
  8
0
 62
2
  6
CONTINUOUS
  2
*D0
 70
65
 10
0.0
 20
0.0
  0
TEXT
  8
0
 62
2
  6
CONTINUOUS
 10
2.657792769
 20
15.7526189185
  7
STANDARD
 40
0.15625
  1
10-3/4
 41
0.8
 72
1
 11
3.032792769
 21
15.7526189185
  0
TEXT
  8
0
 62
2
  6
CONTINUOUS
 10
2.470292769
 20
15.5182439185
  7
STANDARD
 40
0.15625
  1
[27,3 cm]
 41
0.8
 72
1
 11
3.032792769
 21
15.5182439185
  0
LINE
  8
0
 62
2
  6
CONTINUOUS
 10
5.2311976133
 20
10.0054293471
 11
2.907792769
 21
10.0054293471
  0
LINE
  8
0
 62
2
  6
CONTINUOUS
 10
5.2311976133
 20
20.7554293471
 11
2.907792769
 21
20.7554293471
  0
LINE
  8
0
 62
2
  6
CONTINUOUS
 10
3.032792769
 20
10.0054293471
 11
3.032792769
 21
15.4401189185
  0
LINE
  8
0
 62
2
  6
CONTINUOUS
 10
3.032792769
 20
20.7554293471
 11
3.032792769
 21
15.9869939185
  0
INSERT
  8
0
 62
2
  6
CONTINUOUS
  2
_FILLED
 10
3.032792769
 20
10.0054293471
 41
0.1875
 42
0.1875
 43
0.1875
 50
270.0
  0
INSERT
  8
0
 62
2
  6
CONTINUOUS
  2
_FILLED
 10
3.032792769
 20
20.7554293471
 41
0.1875
 42
0.1875
 43
0.1875
 50
90.0
  0
ENDBLK
  8
0
  6
BYBLOCK
 62
0
  0
BLOCK
  8
0
 62
2
  6
CONTINUOUS
  2
*D1
 70
65
 10
0.0
 20
0.0
  0
TEXT
  8
0
 62
2
  6
CONTINUOUS
 10
10.7865944812
 20
9.0537617022
  7
TEXTSTYLE_1
 40
0.15625
  1
n
 41
1.0
 72
1
 11
10.8907611479
 21
9.0537617022
  0
TEXT
  8
0
 62
2
  6
CONTINUOUS
 10
10.9949278146
 20
9.0537617022
  7
STANDARD
 40
0.15625
  1
10-3/8
 41
0.8
 72
1
 11
11.3699278146
 21
9.0537617022
  0
TEXT
  8
0
 62
2
  6
CONTINUOUS
 10
10.7032611479
 20
8.8193867022
  7
STANDARD
 40
0.15625
  1
[26,4 cm]
 41
0.8
 72
1
 11
11.2657611479
 21
8.8193867022
  0
LINE
  8
0
 62
2
  6
CONTINUOUS
 10
9.3094688236
 20
8.5675073665
 11
10.7241561381
 21
8.9756367022
  0
LINE
  8
0
 62
2
  6
CONTINUOUS
 10
19.277926403
 20
11.4433513277
 11
11.8073661577
 21
9.2881367022
  0
INSERT
  8
0
 62
2
  6
CONTINUOUS
  2
_FILLED
 10
9.3094688236
 20
8.5675073665
 41
0.1875
 42
0.1875
 43
0.1875
 50
196.092553321
  0
INSERT
  8
0
 62
2
  6
CONTINUOUS
  2
_FILLED
 10
19.277926403
 20
11.4433513277
 41
0.1875
 42
0.1875
 43
0.1875
 50
16.092553321
  0
ENDBLK
  8
0
  6
BYBLOCK
 62
0
  0
BLOCK
  8
0
 62
2
  6
CONTINUOUS
  2
*D2
 70
65
 10
0.0
 20
0.0
  0
TEXT
  8
0
 62
2
  6
CONTINUOUS
 10
9.5629888922
 20
9.5695838698
  7
TEXTSTYLE_1
 40
0.15625
  1
n
 41
1.0
 72
1
 11
9.6671555588
 21
9.5695838698
  0
TEXT
  8
0
 62
2
  6
CONTINUOUS
 10
9.7713222255
 20
9.5695838698
  7
STANDARD
 40
0.15625
  1
15-1/2
 41
0.8
 72
1
 11
10.1463222255
 21
9.5695838698
  0
TEXT
  8
0
 62
2
  6
CONTINUOUS
 10
9.4796555588
 20
9.3352088698
  7
STANDARD
 40
0.15625
  1
[39,4 cm]
 41
0.8
 72
1
 11
10.0421555588
 21
9.3352088698
  0
LINE
  8
0
 62
2
  6
CONTINUOUS
 10
6.5709690755
 20
9.3556467264
 11
9.4848638922
 21
9.6008189089
  0
LINE
  8
0
 62
2
  6
CONTINUOUS
 10
22.0164261511
 20
10.6552119678
 11
10.5994472255
 21
9.6945988308
  0
INSERT
  8
0
 62
2
  6
CONTINUOUS
  2
_FILLED
 10
6.5709690755
 20
9.3556467264
 41
0.1875
 42
0.1875
 43
0.1875
 50
184.8094813071
  0
INSERT
  8
0
 62
2
  6
CONTINUOUS
  2
_FILLED
 10
22.0164261511
 20
10.6552119678
 41
0.1875
 42
0.1875
 43
0.1875
 50
4.8094813071
  0
ENDBLK
  8
0
  6
BYBLOCK
 62
0
  0
BLOCK
  8
0
 62
2
  6
CONTINUOUS
  2
*D3
 70
65
 10
0.0
 20
0.0
  0
TEXT
  8
0
 62
2
  6
CONTINUOUS
 10
12.384052466
 20
8.5749902175
  7
TEXTSTYLE_1
 40
0.15625
  1
n
 41
1.0
 72
2
 11
12.5923857993
 21
8.5749902175
  0
TEXT
  8
0
 62
2
  6
CONTINUOUS
 10
12.5923857993
 20
8.5749902175
  7
STANDARD
 40
0.15625
  1
1-5/8
 41
0.8
 72
2
 11
13.2173857993
 21
8.5749902175
  0
TEXT
  8
0
 62
2
  6
CONTINUOUS
 10
12.2173857993
 20
8.3406152175
  7
STANDARD
 40
0.15625
  1
[4,1 cm]
 41
0.8
 72
2
 11
13.2173857993
 21
8.3406152175
  0
LINE
  8
0
 62
2
  6
CONTINUOUS
 10
13.8700576966
 20
9.3121145045
 11
14.2936976133
 21
10.0054293471
  0
LINE
  8
0
 62
2
  6
CONTINUOUS
 10
14.2936976133
 20
10.0054293471
 11
13.4673857993
 21
8.6531152175
  0
LINE
  8
0
 62
2
  6
CONTINUOUS
 10
13.4673857993
 20
8.6531152175
 11
13.2955107993
 21
8.6531152175
  0
LINE
  8
0
 62
2
  6
CONTINUOUS
 10
14.71733753
 20
10.6987441897
 11
14.2936976133
 21
10.0054293471
  0
INSERT
  8
0
 62
2
  6
CONTINUOUS
  2
_FILLED
 10
13.8700576966
 20
9.3121145045
 41
0.1875
 42
0.1875
 43
0.1875
 50
238.573592618
  0
INSERT
  8
0
 62
2
  6
CONTINUOUS
  2
_FILLED
 10
14.71733753
 20
10.6987441897
 41
0.1875
 42
0.1875
 43
0.1875
 50
58.573592618
  0
ENDBLK
  8
0
  6
BYBLOCK
 62
0
  0
ENDSEC
  0
SECTION
  2
ENTITIES
  0
SOLID
  8
0
 62
2
  6
CONTINUOUS
 10
23.1712761884
 20
19.7378163154
 11
23.3090403551
 21
19.9016375051
 12
23.5011021672
 22
19.9016375051
 13
23.5011021672
 23
19.9016375051
  0
SOLID
  8
0
 62
2
  6
CONTINUOUS
 10
23.5011021672
 20
19.9016375051
 11
23.2877987153
 21
19.6479892322
 12
23.1712761884
 22
19.7378163154
 13
23.1712761884
 23
19.7378163154
  0
SOLID
  8
0
 62
2
  6
CONTINUOUS
 10
23.1712761884
 20
19.5172236898
 11
23.2877987153
 21
19.6479892322
 12
23.3250141285
 22
19.3157238557
 13
23.3250141285
 23
19.3157238557
  0
SOLID
  8
0
 62
2
  6
CONTINUOUS
 10
23.2877987153
 20
19.6479892322
 11
23.54130655
 21
19.3157238557
 12
23.3250141285
 22
19.3157238557
 13
23.3250141285
 23
19.3157238557
  0
SOLID
  8
0
 62
2
  6
CONTINUOUS
 10
23.1712761884
 20
19.3157238557
 11
22.9967759615
 21
19.3156998523
 12
23.1712761884
 22
19.5172236898
 13
23.1712761884
 23
19.5172236898
  0
SOLID
  8
0
 62
2
  6
CONTINUOUS
 10
23.2877987153
 20
19.6479892322
 11
23.1712761884
 21
19.5172236898
 12
23.1712761884
 22
19.7378163154
 13
23.1712761884
 23
19.7378163154
  0
SOLID
  8
0
 62
2
  6
CONTINUOUS
 10
23.1712761884
 20
19.5172236898
 11
22.9967759615
 21
19.3156998523
 12
23.1712761884
 22
19.7378163154
 13
23.1712761884
 23
19.7378163154
  0
SOLID
  8
0
 62
2
  6
CONTINUOUS
 10
23.1712761884
 20
19.7378163154
 11
22.9967759615
 21
19.3156998523
 12
23.1712761884
 22
19.9016375051
 13
23.1712761884
 23
19.9016375051
  0
SOLID
  8
0
 62
2
  6
CONTINUOUS
 10
22.9967759615
 20
19.3156998523
 11
22.9967759615
 21
19.9016375051
 12
23.1712761884
 22
19.9016375051
 13
23.1712761884
 23
19.9016375051
  0
SOLID
  8
0
 62
2
  6
CONTINUOUS
 10
23.6257108348
 20
19.8910280916
 11
23.6866599893
 21
19.9039832344
 12
23.7489707841
 22
19.9039832344
 13
23.7489707841
 23
19.9039832344
  0
SOLID
  8
0
 62
2
  6
CONTINUOUS
 10
23.7489707841
 20
19.9039832344
 11
23.8099199386
 21
19.8910280916
 12
23.6257108348
 22
19.8910280916
 13
23.6257108348
 23
19.8910280916
  0
SOLID
  8
0
 62
2
  6
CONTINUOUS
 10
23.5687870912
 20
19.8656840081
 11
23.6257108348
 21
19.8910280916
 12
23.8099199386
 22
19.8910280916
 13
23.8099199386
 23
19.8910280916
  0
SOLID
  8
0
 62
2
  6
CONTINUOUS
 10
23.8099199386
 20
19.8910280916
 11
23.8668436822
 21
19.8656840081
 12
23.5687870912
 22
19.8656840081
 13
23.5687870912
 23
19.8656840081
  0
SOLID
  8
0
 62
2
  6
CONTINUOUS
 10
23.5183765992
 20
19.8290586419
 11
23.5687870912
 21
19.8656840081
 12
23.8668436822
 22
19.8656840081
 13
23.8668436822
 23
19.8656840081
  0
SOLID
  8
0
 62
2
  6
CONTINUOUS
 10
23.8668436822
 20
19.8656840081
 11
23.9172541741
 21
19.8290586419
 12
23.5183765992
 22
19.8290586419
 13
23.5183765992
 23
19.8290586419
  0
SOLID
  8
0
 62
2
  6
CONTINUOUS
 10
23.4766825393
 20
19.7827526971
 11
23.5183765992
 21
19.8290586419
 12
23.9172541741
 22
19.8290586419
 13
23.9172541741
 23
19.8290586419
  0
SOLID
  8
0
 62
2
  6
CONTINUOUS
 10
23.9172541741
 20
19.8290586419
 11
23.9589482341
 21
19.7827526971
 12
23.4766825393
 22
19.7827526971
 13
23.4766825393
 23
19.7827526971
  0
SOLID
  8
0
 62
2
  6
CONTINUOUS
 10
23.7178153867
 20
19.7323288436
 11
23.4455271419
 21
19.7287899658
 12
23.9589482341
 22
19.7827526971
 13
23.9589482341
 23
19.7827526971
  0
SOLID
  8
0
 62
2
  6
CONTINUOUS
 10
23.4455271419
 20
19.7287899658
 11
23.4766825393
 21
19.7827526971
 12
23.9589482341
 22
19.7827526971
 13
23.9589482341
 23
19.7827526971
  0
SOLID
  8
0
 62
2
  6
CONTINUOUS
 10
23.9589482341
 20
19.7827526971
 11
23.9901036315
 21
19.7287899658
 12
23.7178153867
 22
19.7323288436
 13
23.7178153867
 23
19.7323288436
  0
SOLID
  8
0
 62
2
  6
CONTINUOUS
 10
23.7178153867
 20
19.7323288436
 11
23.679259517
 21
19.7262221938
 12
23.4455271419
 22
19.7287899658
 13
23.4455271419
 23
19.7287899658
  0
SOLID
  8
0
 62
2
  6
CONTINUOUS
 10
23.7563712563
 20
19.7262221938
 11
23.7178153867
 21
19.7323288436
 12
23.9901036315
 22
19.7287899658
 13
23.9901036315
 23
19.7287899658
  0
SOLID
  8
0
 62
2
  6
CONTINUOUS
 10
23.6168748095
 20
19.6808970507
 11
23.4262720473
 21
19.6695288784
 12
23.6444777646
 22
19.7085000057
 13
23.6444777646
 23
19.7085000057
  0
SOLID
  8
0
 62
2
  6
CONTINUOUS
 10
23.6444777646
 20
19.7085000057
 11
23.4262720473
 21
19.6695288784
 12
23.679259517
 22
19.7262221938
 13
23.679259517
 23
19.7262221938
  0
SOLID
  8
0
 62
2
  6
CONTINUOUS
 10
23.4262720473
 20
19.6695288784
 11
23.4455271419
 21
19.7287899658
 12
23.679259517
 22
19.7262221938
 13
23.679259517
 23
19.7262221938
  0
SOLID
  8
0
 62
2
  6
CONTINUOUS
 10
23.7563712563
 20
19.7262221938
 11
23.9901036315
 21
19.7287899658
 12
23.7911530088
 22
19.7085000057
 13
23.7911530088
 23
19.7085000057
  0
SOLID
  8
0
 62
2
  6
CONTINUOUS
 10
23.7911530088
 20
19.7085000057
 11
23.9901036315
 21
19.7287899658
 12
23.8187559639
 22
19.6808970507
 13
23.8187559639
 23
19.6808970507
  0
SOLID
  8
0
 62
2
  6
CONTINUOUS
 10
23.9901036315
 20
19.7287899658
 11
24.009358726
 21
19.6695288784
 12
23.8187559639
 22
19.6808970507
 13
23.8187559639
 23
19.6808970507
  0
SOLID
  8
0
 62
2
  6
CONTINUOUS
 10
23.6168748095
 20
19.6808970507
 11
23.5991526214
 21
19.6461152982
 12
23.4262720473
 22
19.6695288784
 13
23.4262720473
 23
19.6695288784
  0
SOLID
  8
0
 62
2
  6
CONTINUOUS
 10
23.8364781519
 20
19.6461152982
 11
23.8187559639
 21
19.6808970507
 12
24.009358726
 22
19.6695288784
 13
24.009358726
 23
19.6695288784
  0
SOLID
  8
0
 62
2
  6
CONTINUOUS
 10
23.4197587957
 20
19.6075594286
 11
23.4262720473
 21
19.6695288784
 12
23.5991526214
 22
19.6461152982
 13
23.5991526214
 23
19.6461152982
  0
SOLID
  8
0
 62
2
  6
CONTINUOUS
 10
23.5991526214
 20
19.6461152982
 11
23.5930459716
 21
19.6075594286
 12
23.4197587957
 22
19.6075594286
 13
23.4197587957
 23
19.6075594286
  0
SOLID
  8
0
 62
2
  6
CONTINUOUS
 10
23.8364781519
 20
19.6461152982
 11
24.009358726
 21
19.6695288784
 12
23.8425848018
 22
19.6075594286
 13
23.8425848018
 23
19.6075594286
  0
SOLID
  8
0
 62
2
  6
CONTINUOUS
 10
24.009358726
 20
19.6695288784
 11
24.0158719777
 21
19.6075594286
 12
23.8425848018
 22
19.6075594286
 13
23.8425848018
 23
19.6075594286
  0
SOLID
  8
0
 62
2
  6
CONTINUOUS
 10
23.8364781519
 20
19.5690035589
 11
23.8425848018
 21
19.6075594286
 12
24.0158719777
 22
19.6075594286
 13
24.0158719777
 23
19.6075594286
  0
SOLID
  8
0
 62
2
  6
CONTINUOUS
 10
23.5991526214
 20
19.5690035589
 11
23.4262720473
 21
19.5455899788
 12
23.5930459716
 22
19.6075594286
 13
23.5930459716
 23
19.6075594286
  0
SOLID
  8
0
 62
2
  6
CONTINUOUS
 10
23.4262720473
 20
19.5455899788
 11
23.4197587957
 21
19.6075594286
 12
23.5930459716
 22
19.6075594286
 13
23.5930459716
 23
19.6075594286
  0
SOLID
  8
0
 62
2
  6
CONTINUOUS
 10
24.0158719777
 20
19.6075594286
 11
24.009358726
 21
19.5455899788
 12
23.8364781519
 22
19.5690035589
 13
23.8364781519
 23
19.5690035589
  0
SOLID
  8
0
 62
2
  6
CONTINUOUS
 10
23.5991526214
 20
19.5690035589
 11
23.6168748095
 21
19.5342218064
 12
23.4262720473
 22
19.5455899788
 13
23.4262720473
 23
19.5455899788
  0
SOLID
  8
0
 62
2
  6
CONTINUOUS
 10
23.8187559639
 20
19.5342218064
 11
23.8364781519
 21
19.5690035589
 12
24.009358726
 22
19.5455899788
 13
24.009358726
 23
19.5455899788
  0
SOLID
  8
0
 62
2
  6
CONTINUOUS
 10
23.679259517
 20
19.4888966633
 11
23.4455271419
 21
19.4863288913
 12
23.6444777646
 22
19.5066188514
 13
23.6444777646
 23
19.5066188514
  0
SOLID
  8
0
 62
2
  6
CONTINUOUS
 10
23.6444777646
 20
19.5066188514
 11
23.4455271419
 21
19.4863288913
 12
23.6168748095
 22
19.5342218064
 13
23.6168748095
 23
19.5342218064
  0
SOLID
  8
0
 62
2
  6
CONTINUOUS
 10
23.4455271419
 20
19.4863288913
 11
23.4262720473
 21
19.5455899788
 12
23.6168748095
 22
19.5342218064
 13
23.6168748095
 23
19.5342218064
  0
SOLID
  8
0
 62
2
  6
CONTINUOUS
 10
23.8187559639
 20
19.5342218064
 11
24.009358726
 21
19.5455899788
 12
23.7911530088
 22
19.5066188514
 13
23.7911530088
 23
19.5066188514
  0
SOLID
  8
0
 62
2
  6
CONTINUOUS
 10
23.7911530088
 20
19.5066188514
 11
24.009358726
 21
19.5455899788
 12
23.7563712563
 22
19.4888966633
 13
23.7563712563
 23
19.4888966633
  0
SOLID
  8
0
 62
2
  6
CONTINUOUS
 10
24.009358726
 20
19.5455899788
 11
23.9901036315
 21
19.4863288913
 12
23.7563712563
 22
19.4888966633
 13
23.7563712563
 23
19.4888966633
  0
SOLID
  8
0
 62
2
  6
CONTINUOUS
 10
23.679259517
 20
19.4888966633
 11
23.7178153867
 21
19.4827900135
 12
23.4455271419
 22
19.4863288913
 13
23.4455271419
 23
19.4863288913
  0
SOLID
  8
0
 62
2
  6
CONTINUOUS
 10
23.7178153867
 20
19.4827900135
 11
23.7563712563
 21
19.4888966633
 12
23.9901036315
 22
19.4863288913
 13
23.9901036315
 23
19.4863288913
  0
SOLID
  8
0
 62
2
  6
CONTINUOUS
 10
23.4766825393
 20
19.43236616
 11
23.4455271419
 21
19.4863288913
 12
23.7178153867
 22
19.4827900135
 13
23.7178153867
 23
19.4827900135
  0
SOLID
  8
0
 62
2
  6
CONTINUOUS
 10
23.7178153867
 20
19.4827900135
 11
23.9901036315
 21
19.4863288913
 12
23.4766825393
 22
19.43236616
 13
23.4766825393
 23
19.43236616
  0
SOLID
  8
0
 62
2
  6
CONTINUOUS
 10
23.9901036315
 20
19.4863288913
 11
23.9589482341
 21
19.43236616
 12
23.4766825393
 22
19.43236616
 13
23.4766825393
 23
19.43236616
  0
SOLID
  8
0
 62
2
  6
CONTINUOUS
 10
23.5183765992
 20
19.3860602153
 11
23.4766825393
 21
19.43236616
 12
23.9589482341
 22
19.43236616
 13
23.9589482341
 23
19.43236616
  0
SOLID
  8
0
 62
2
  6
CONTINUOUS
 10
23.9589482341
 20
19.43236616
 11
23.9172541741
 21
19.3860602153
 12
23.5183765992
 22
19.3860602153
 13
23.5183765992
 23
19.3860602153
  0
SOLID
  8
0
 62
2
  6
CONTINUOUS
 10
23.5687870912
 20
19.349434849
 11
23.5183765992
 21
19.3860602153
 12
23.9172541741
 22
19.3860602153
 13
23.9172541741
 23
19.3860602153
  0
SOLID
  8
0
 62
2
  6
CONTINUOUS
 10
23.9172541741
 20
19.3860602153
 11
23.8668436822
 21
19.349434849
 12
23.5687870912
 22
19.349434849
 13
23.5687870912
 23
19.349434849
  0
SOLID
  8
0
 62
2
  6
CONTINUOUS
 10
23.6257108348
 20
19.3240907655
 11
23.5687870912
 21
19.349434849
 12
23.8668436822
 22
19.349434849
 13
23.8668436822
 23
19.349434849
  0
SOLID
  8
0
 62
2
  6
CONTINUOUS
 10
23.8668436822
 20
19.349434849
 11
23.8099199386
 21
19.3240907655
 12
23.6257108348
 22
19.3240907655
 13
23.6257108348
 23
19.3240907655
  0
SOLID
  8
0
 62
2
  6
CONTINUOUS
 10
23.6866599893
 20
19.3111356228
 11
23.6257108348
 21
19.3240907655
 12
23.8099199386
 22
19.3240907655
 13
23.8099199386
 23
19.3240907655
  0
SOLID
  8
0
 62
2
  6
CONTINUOUS
 10
23.8099199386
 20
19.3240907655
 11
23.7489707841
 21
19.3111356228
 12
23.6866599893
 22
19.3111356228
 13
23.6866599893
 23
19.3111356228
  0
SOLID
  8
0
 62
2
  6
CONTINUOUS
 10
24.345717716
 20
19.6812537455
 11
24.345717716
 21
19.9016375051
 12
24.5104513959
 22
19.9016375051
 13
24.5104513959
 23
19.9016375051
  0
SOLID
  8
0
 62
2
  6
CONTINUOUS
 10
24.345717716
 20
19.6812537455
 11
24.1977209049
 21
19.5440484655
 12
24.1977209049
 22
19.6812537455
 13
24.1977209049
 23
19.6812537455
  0
SOLID
  8
0
 62
2
  6
CONTINUOUS
 10
24.1977209049
 20
19.5440484655
 11
24.0329872251
 21
19.3157238557
 12
24.1977209049
 22
19.6812537455
 13
24.1977209049
 23
19.6812537455
  0
SOLID
  8
0
 62
2
  6
CONTINUOUS
 10
24.1977209049
 20
19.6812537455
 11
24.0329872251
 21
19.3157238557
 12
24.1977209049
 22
19.9016375051
 13
24.1977209049
 23
19.9016375051
  0
SOLID
  8
0
 62
2
  6
CONTINUOUS
 10
24.0329872251
 20
19.3157238557
 11
24.0329872251
 21
19.9016375051
 12
24.1977209049
 22
19.9016375051
 13
24.1977209049
 23
19.9016375051
  0
SOLID
  8
0
 62
2
  6
CONTINUOUS
 10
24.1977209049
 20
19.5440484655
 11
24.1977209049
 21
19.3157238557
 12
24.0329872251
 22
19.3157238557
 13
24.0329872251
 23
19.3157238557
  0
SOLID
  8
0
 62
2
  6
CONTINUOUS
 10
24.1977209049
 20
19.5440484655
 11
24.345717716
 21
19.6812537455
 12
24.345717716
 22
19.5440484655
 13
24.345717716
 23
19.5440484655
  0
SOLID
  8
0
 62
2
  6
CONTINUOUS
 10
24.345717716
 20
19.6812537455
 11
24.5104513959
 21
19.9016375051
 12
24.345717716
 22
19.5440484655
 13
24.345717716
 23
19.5440484655
  0
SOLID
  8
0
 62
2
  6
CONTINUOUS
 10
24.345717716
 20
19.5440484655
 11
24.5104513959
 21
19.9016375051
 12
24.345717716
 22
19.3157238557
 13
24.345717716
 23
19.3157238557
  0
SOLID
  8
0
 62
2
  6
CONTINUOUS
 10
24.5104513959
 20
19.9016375051
 11
24.5104513959
 21
19.3157238557
 12
24.345717716
 22
19.3157238557
 13
24.345717716
 23
19.3157238557
  0
SOLID
  8
0
 62
2
  6
CONTINUOUS
 10
24.8682263728
 20
19.4569506129
 11
24.5554962401
 21
19.3157238557
 12
24.7055423028
 22
19.4569506129
 13
24.7055423028
 23
19.4569506129
  0
SOLID
  8
0
 62
2
  6
CONTINUOUS
 10
24.7055423028
 20
19.4569506129
 11
24.5554962401
 21
19.3157238557
 12
24.7055423028
 22
19.9016375051
 13
24.7055423028
 23
19.9016375051
  0
SOLID
  8
0
 62
2
  6
CONTINUOUS
 10
24.5554962401
 20
19.3157238557
 11
24.5554962401
 21
19.9016375051
 12
24.7055423028
 22
19.9016375051
 13
24.7055423028
 23
19.9016375051
  0
SOLID
  8
0
 62
2
  6
CONTINUOUS
 10
24.5554962401
 20
19.3157238557
 11
24.8682263728
 21
19.4569506129
 12
24.7055423028
 22
19.3157238557
 13
24.7055423028
 23
19.3157238557
  0
SOLID
  8
0
 62
2
  6
CONTINUOUS
 10
24.8682263728
 20
19.4569506129
 11
24.8682263728
 21
19.3157238557
 12
24.7055423028
 22
19.3157238557
 13
24.7055423028
 23
19.3157238557
  0
SOLID
  8
0
 62
2
  6
CONTINUOUS
 10
25.2064782868
 20
19.9016375051
 11
25.2064782868
 21
19.7588781083
 12
25.0556207634
 22
19.7588781083
 13
25.0556207634
 23
19.7588781083
  0
SOLID
  8
0
 62
2
  6
CONTINUOUS
 10
25.2064782868
 20
19.6812537455
 11
25.2064782868
 21
19.5368721439
 12
25.0556207634
 22
19.5368721439
 13
25.0556207634
 23
19.5368721439
  0
SOLID
  8
0
 62
2
  6
CONTINUOUS
 10
25.2064782868
 20
19.4569506129
 11
24.8973741115
 21
19.3157238557
 12
25.0556207634
 22
19.4569506129
 13
25.0556207634
 23
19.4569506129
  0
SOLID
  8
0
 62
2
  6
CONTINUOUS
 10
25.0556207634
 20
19.4569506129
 11
24.8973741115
 21
19.3157238557
 12
25.0556207634
 22
19.5368721439
 13
25.0556207634
 23
19.5368721439
  0
SOLID
  8
0
 62
2
  6
CONTINUOUS
 10
25.2064782868
 20
19.6812537455
 11
25.0556207634
 21
19.5368721439
 12
25.0556207634
 22
19.6812537455
 13
25.0556207634
 23
19.6812537455
  0
SOLID
  8
0
 62
2
  6
CONTINUOUS
 10
25.0556207634
 20
19.5368721439
 11
24.8973741115
 21
19.3157238557
 12
25.0556207634
 22
19.6812537455
 13
25.0556207634
 23
19.6812537455
  0
SOLID
  8
0
 62
2
  6
CONTINUOUS
 10
25.0556207634
 20
19.6812537455
 11
24.8973741115
 21
19.3157238557
 12
25.0556207634
 22
19.7588781083
 13
25.0556207634
 23
19.7588781083
  0
SOLID
  8
0
 62
2
  6
CONTINUOUS
 10
25.2064782868
 20
19.9016375051
 11
25.0556207634
 21
19.7588781083
 12
25.0698250868
 22
19.9016375051
 13
25.0698250868
 23
19.9016375051
  0
SOLID
  8
0
 62
2
  6
CONTINUOUS
 10
25.0556207634
 20
19.7588781083
 11
24.8973741115
 21
19.3157238557
 12
25.0698250868
 22
19.9016375051
 13
25.0698250868
 23
19.9016375051
  0
SOLID
  8
0
 62
2
  6
CONTINUOUS
 10
24.8973741115
 20
19.3157238557
 11
24.8973741115
 21
19.9016375051
 12
25.0698250868
 22
19.9016375051
 13
25.0698250868
 23
19.9016375051
  0
SOLID
  8
0
 62
2
  6
CONTINUOUS
 10
25.2064782868
 20
19.4569506129
 11
25.2064782868
 21
19.3157238557
 12
24.8973741115
 22
19.3157238557
 13
24.8973741115
 23
19.3157238557
  0
SOLID
  8
0
 62
2
  6
CONTINUOUS
 10
25.4848462022
 20
19.9016446107
 11
25.5317792257
 21
19.8952343623
 12
25.2512985015
 22
19.9016375051
 13
25.2512985015
 23
19.9016375051
  0
SOLID
  8
0
 62
2
  6
CONTINUOUS
 10
25.4019543241
 20
19.7590586718
 11
25.6558940652
 21
19.7636880073
 12
25.4578842055
 22
19.7590586718
 13
25.4578842055
 23
19.7590586718
  0
SOLID
  8
0
 62
2
  6
CONTINUOUS
 10
25.4578842055
 20
19.7590586718
 11
25.6558940652
 21
19.7636880073
 12
25.4816067871
 22
19.7535245034
 13
25.4816067871
 23
19.7535245034
  0
SOLID
  8
0
 62
2
  6
CONTINUOUS
 10
25.4816067871
 20
19.7535245034
 11
25.6558940652
 21
19.7636880073
 12
25.5004317748
 22
19.7380646284
 13
25.5004317748
 23
19.7380646284
  0
SOLID
  8
0
 62
2
  6
CONTINUOUS
 10
25.6558940652
 20
19.7636880073
 11
25.6595673116
 21
19.7164618785
 12
25.5004317748
 22
19.7380646284
 13
25.5004317748
 23
19.7380646284
  0
SOLID
  8
0
 62
2
  6
CONTINUOUS
 10
25.5104727134
 20
19.7158707678
 11
25.5004317748
 21
19.7380646284
 12
25.6595673116
 22
19.7164618785
 13
25.6595673116
 23
19.7164618785
  0
SOLID
  8
0
 62
2
  6
CONTINUOUS
 10
25.5104727134
 20
19.7158707678
 11
25.6595673116
 21
19.7164618785
 12
25.5096566317
 22
19.6915248871
 13
25.5096566317
 23
19.6915248871
  0
SOLID
  8
0
 62
2
  6
CONTINUOUS
 10
25.5096566317
 20
19.6915248871
 11
25.6595673116
 21
19.7164618785
 12
25.4981520113
 22
19.6700532405
 13
25.4981520113
 23
19.6700532405
  0
SOLID
  8
0
 62
2
  6
CONTINUOUS
 10
25.6595673116
 20
19.7164618785
 11
25.6504417079
 21
19.6699804484
 12
25.4981520113
 22
19.6700532405
 13
25.4981520113
 23
19.6700532405
  0
SOLID
  8
0
 62
2
  6
CONTINUOUS
 10
25.4783340035
 20
19.655888691
 11
25.4981520113
 21
19.6700532405
 12
25.6504417079
 22
19.6699804484
 13
25.6504417079
 23
19.6699804484
  0
SOLID
  8
0
 62
2
  6
CONTINUOUS
 10
25.4783340035
 20
19.655888691
 11
25.6504417079
 21
19.6699804484
 12
25.4542940743
 22
19.6519555373
 13
25.4542940743
 23
19.6519555373
  0
SOLID
  8
0
 62
2
  6
CONTINUOUS
 10
25.6504417079
 20
19.6699804484
 11
25.6291857322
 21
19.6276486225
 12
25.4542940743
 22
19.6519555373
 13
25.4542940743
 23
19.6519555373
  0
SOLID
  8
0
 62
2
  6
CONTINUOUS
 10
25.5572854498
 20
19.567306397
 11
25.4019543241
 21
19.5126802266
 12
25.5973564491
 22
19.5925673353
 13
25.5973564491
 23
19.5925673353
  0
SOLID
  8
0
 62
2
  6
CONTINUOUS
 10
25.5973564491
 20
19.5925673353
 11
25.4019543241
 21
19.5126802266
 12
25.6291857322
 22
19.6276486225
 13
25.6291857322
 23
19.6276486225
  0
SOLID
  8
0
 62
2
  6
CONTINUOUS
 10
25.6291857322
 20
19.6276486225
 11
25.4019543241
 21
19.5126802266
 12
25.4542940743
 22
19.6519555373
 13
25.4542940743
 23
19.6519555373
  0
SOLID
  8
0
 62
2
  6
CONTINUOUS
 10
25.4019543241
 20
19.5126802266
 11
25.2512985015
 21
19.3157238557
 12
25.4542940743
 22
19.6519555373
 13
25.4542940743
 23
19.6519555373
  0
SOLID
  8
0
 62
2
  6
CONTINUOUS
 10
25.4542940743
 20
19.6519555373
 11
25.2512985015
 21
19.3157238557
 12
25.4019543241
 22
19.6519555373
 13
25.4019543241
 23
19.6519555373
  0
SOLID
  8
0
 62
2
  6
CONTINUOUS
 10
25.4019543241
 20
19.6519555373
 11
25.2512985015
 21
19.3157238557
 12
25.4019543241
 22
19.7590586718
 13
25.4019543241
 23
19.7590586718
  0
SOLID
  8
0
 62
2
  6
CONTINUOUS
 10
25.6558940652
 20
19.7636880073
 11
25.4019543241
 21
19.7590586718
 12
25.6396910451
 22
19.808199378
 13
25.6396910451
 23
19.808199378
  0
SOLID
  8
0
 62
2
  6
CONTINUOUS
 10
25.6396910451
 20
19.808199378
 11
25.4019543241
 21
19.7590586718
 12
25.6121451715
 22
19.846735398
 13
25.6121451715
 23
19.846735398
  0
SOLID
  8
0
 62
2
  6
CONTINUOUS
 10
25.6121451715
 20
19.846735398
 11
25.4019543241
 21
19.7590586718
 12
25.5752742632
 22
19.8764731871
 13
25.5752742632
 23
19.8764731871
  0
SOLID
  8
0
 62
2
  6
CONTINUOUS
 10
25.5752742632
 20
19.8764731871
 11
25.4019543241
 21
19.7590586718
 12
25.5317792257
 22
19.8952343623
 13
25.5317792257
 23
19.8952343623
  0
SOLID
  8
0
 62
2
  6
CONTINUOUS
 10
25.5317792257
 20
19.8952343623
 11
25.4019543241
 21
19.7590586718
 12
25.2512985015
 22
19.9016375051
 13
25.2512985015
 23
19.9016375051
  0
SOLID
  8
0
 62
2
  6
CONTINUOUS
 10
25.2512985015
 20
19.3157238557
 11
25.2512985015
 21
19.9016375051
 12
25.4019543241
 22
19.7590586718
 13
25.4019543241
 23
19.7590586718
  0
SOLID
  8
0
 62
2
  6
CONTINUOUS
 10
25.4019543241
 20
19.5126802266
 11
25.4019543241
 21
19.3157238557
 12
25.2512985015
 22
19.3157238557
 13
25.2512985015
 23
19.3157238557
  0
SOLID
  8
0
 62
2
  6
CONTINUOUS
 10
25.4019543241
 20
19.5126802266
 11
25.5572854498
 21
19.567306397
 12
25.5267777532
 22
19.3157238557
 13
25.5267777532
 23
19.3157238557
  0
SOLID
  8
0
 62
2
  6
CONTINUOUS
 10
25.5572854498
 20
19.567306397
 11
25.7167286928
 21
19.3157238557
 12
25.5267777532
 22
19.3157238557
 13
25.5267777532
 23
19.3157238557
  0
DIMENSION
  8
0
 62
2
  6
CONTINUOUS
  2
*D0
 10
3.032792769
 20
20.7554293471
 11
3.032792769
 21
15.7135564185
 70
128
 13
5.2936976133
 23
10.0054293471
 14
5.2936976133
 24
20.7554293471
 50
90.0
  0
DIMENSION
  8
0
 62
2
  6
CONTINUOUS
  2
*D1
 10
9.3094688236
 20
8.5675073665
 11
11.2657611479
 21
9.0146992022
 70
131
 15
19.277926403
 25
11.4433513277
  0
DIMENSION
  8
0
 62
2
  6
CONTINUOUS
  2
*D2
 10
6.5709690755
 20
9.3556467264
 11
10.0421555588
 21
9.5305213698
 70
131
 15
22.0164261511
 25
10.6552119678
  0
DIMENSION
  8
0
 62
2
  6
CONTINUOUS
  2
*D3
 10
13.8700576966
 20
9.3121145045
 11
12.7173857993
 21
8.5359277175
 70
131
 15
14.71733753
 25
10.6987441897
  0
TEXT
  8
0
 62
2
  6
CONTINUOUS
 10
14.9007961806
 20
2.9028774674
  7
STANDARD
 40
0.15625
  1
2014 KOHLER CO.
 41
0.8
 72
0
  0
INSERT
  8
0
 62
2
  6
CONTINUOUS
  2
BALLOON_BL0
 10
14.7584117514
 20
2.9836132213
  0
TEXT
  8
0
 62
2
  6
CONTINUOUS
 10
12.5368296259
 20
2.9189040422
  7
STANDARD
 40
0.15625
  1
115888-7-AE
 41
0.8
 72
1
 11
13.2243296259
 21
2.9189040422
  0
TEXT
  8
0
 62
2
  6
CONTINUOUS
 10
12.6117935501
 20
0.8776495155
  7
STANDARD
 40
0.15625
  1
115888-7-AE
 41
0.8
 72
1
 11
13.2992935501
 21
0.8776495155
  0
TEXT
  8
0
 62
2
  6
CONTINUOUS
 10
5.9566862288
 20
2.6562085962
  7
STANDARD
 40
0.15625
  1
RIM OF LAVATORY
 41
0.8
 72
2
 11
7.8316862288
 21
2.6562085962
  0
TEXT
  8
0
 62
2
  6
CONTINUOUS
 10
5.8316862288
 20
2.4218335962
  7
STANDARD
 40
0.15625
  1
REBORD DE LAVABO
 41
0.8
 72
2
 11
7.8316862288
 21
2.4218335962
  0
TEXT
  8
0
 62
2
  6
CONTINUOUS
 10
5.8316862288
 20
2.1874585962
  7
STANDARD
 40
0.15625
  1
BORDE DEL LAVABO
 41
0.8
 72
2
 11
7.8316862288
 21
2.1874585962
  0
TEXT
  8
0
 62
2
  6
CONTINUOUS
 10
7.7066862288
 20
1.9530835962
  7
STANDARD
 40
0.15625
  1
 
 41
0.8
 72
2
 11
7.8316862288
 21
1.9530835962
  0
LINE
  8
0
 62
2
  6
CONTINUOUS
 10
8.7476502181
 20
3.3153278314
 11
8.0816862288
 21
2.7343335962
  0
LINE
  8
0
 62
2
  6
CONTINUOUS
 10
8.0816862288
 20
2.7343335962
 11
7.8316862288
 21
2.7343335962
  0
SOLID
  8
0
 62
2
  6
CONTINUOUS
 10
8.6269046675
 20
3.168517326
 11
8.7476502181
 21
3.3153278314
 12
8.585817236
 22
3.2156137481
 13
8.585817236
 23
3.2156137481
  0
TEXT
  8
___NOTE
 62
2
  6
CONTINUOUS
 10
23.6143407807
 20
15.5896692423
  7
STANDARD
 40
0.15625
  1
FOR ABOVE-THE-COUNTER INSTALLATION, CUT ALONG THIS LINE
 41
0.8
 72
0
  0
TEXT
  8
___NOTE
 62
2
  6
CONTINUOUS
 10
23.6143407807
 20
15.3552942423
  7
STANDARD
 40
0.15625
  1
CORTE A LO LARGO DE ESTA LÍNEA PARA UNA INSTALACIÓN SOBRE EL MOSTRADOR
 41
0.8
 72
0
  0
TEXT
  8
___NOTE
 62
2
  6
CONTINUOUS
 10
23.6143407807
 20
15.1209192423
  7
STANDARD
 40
0.15625
  1
DÉCOUPER AU LONG DE CETTE LIGNE POUR POSE SUR COMPTOIR
 41
0.8
 72
0
  0
LINE
  8
___NOTE
 62
2
  6
CONTINUOUS
 10
18.3762418715
 20
13.2058962864
 11
23.3643407807
 21
15.6677942423
  0
LINE
  8
___NOTE
 62
2
  6
CONTINUOUS
 10
23.3643407807
 20
15.6677942423
 11
23.6143407807
 21
15.6677942423
  0
SOLID
  8
___NOTE
 62
2
  6
CONTINUOUS
 10
18.5305474889
 20
13.3169034436
 11
18.3762418715
 21
13.2058962864
 12
18.558208966
 22
13.2608579916
 13
18.558208966
 23
13.2608579916
  0
TEXT
  8
___NOTE
 62
2
  6
CONTINUOUS
 10
23.6190944759
 20
13.5968565102
  7
STANDARD
 40
0.15625
  1
FOR SELF-RIMMING INSTALLATION, CUT ALONG THIS LINE.
 41
0.8
 72
0
  0
TEXT
  8
___NOTE
 62
2
  6
CONTINUOUS
 10
23.6190944759
 20
13.3624815102
  7
STANDARD
 40
0.15625
  1
POUR DES INSTALLATIONS À REBORD INTÉGRÉ, DÉCOUPER AU LONG DE CETTE LIGNE.
 41
0.8
 72
0
  0
TEXT
  8
___NOTE
 62
2
  6
CONTINUOUS
 10
23.6190944759
 20
13.1281065102
  7
STANDARD
 40
0.15625
  1
PARA INSTALACIONES DE BORDE TERMINADO, CORTE A LO LARGO DE ESTA LÍNEA.
 41
0.8
 72
0
  0
TEXT
  8
___NOTE
 62
2
  6
CONTINUOUS
 10
23.6190944759
 20
12.8937315102
  7
STANDARD
 40
0.15625
  1
 
 41
0.8
 72
0
  0
LINE
  8
___NOTE
 62
2
  6
CONTINUOUS
 10
21.562930644
 20
12.6926220585
 11
23.3690944759
 21
13.6749815102
  0
LINE
  8
___NOTE
 62
2
  6
CONTINUOUS
 10
23.3690944759
 20
13.6749815102
 11
23.6190944759
 21
13.6749815102
  0
SOLID
  8
___NOTE
 62
2
  6
CONTINUOUS
 10
21.7127130108
 20
12.8096607491
 11
21.562930644
 21
12.6926220585
 12
21.7425751609
 22
12.7547562685
 13
21.7425751609
 23
12.7547562685
  0
TEXT
  8
___NOTE
 62
2
  6
CONTINUOUS
 10
14.5325193978
 20
12.7527472936
  7
STANDARD
 40
0.15625
  1
SELF-RIMMING INSTALLATION
 41
0.8
 72
0
  0
TEXT
  8
___NOTE
 62
2
  6
CONTINUOUS
 10
14.5325193978
 20
12.5183722936
  7
STANDARD
 40
0.15625
  1
INSTALLATIONS À REBORD INTÉGRÉ
 41
0.8
 72
0
  0
TEXT
  8
___NOTE
 62
2
  6
CONTINUOUS
 10
14.5325193978
 20
12.2839972936
  7
STANDARD
 40
0.15625
  1
INSTALACIÓN DE BORDE TERMINADO
 41
0.8
 72
0
  0
TEXT
  8
___NOTE
 62
2
  6
CONTINUOUS
 10
14.5325193978
 20
12.0496222936
  7
STANDARD
 40
0.15625
  1
 
 41
0.8
 72
0
  0
TEXT
  8
___NOTE
 62
2
  6
CONTINUOUS
 10
9.966735302
 20
10.8072829817
  7
STANDARD
 40
0.15625
  1
VESSEL INSTALLATION
 41
0.8
 72
0
  0
TEXT
  8
___NOTE
 62
2
  6
CONTINUOUS
 10
9.966735302
 20
10.5729079817
  7
STANDARD
 40
0.15625
  1
INSTALLATION POUR VASQUES
 41
0.8
 72
0
  0
TEXT
  8
___NOTE
 62
2
  6
CONTINUOUS
 10
9.966735302
 20
10.3385329817
  7
STANDARD
 40
0.15625
  1
INSTALACIÓN LAVABOS VESSELS
 41
0.8
 72
0
  0
TEXT
  8
___NOTE
 62
2
  6
CONTINUOUS
 10
8.8211924339
 20
20.3933715018
  7
STANDARD
 40
0.15625
  1
SUGGESTED FAUCET CENTERLINE
 41
0.8
 72
0
  0
TEXT
  8
___NOTE
 62
2
  6
CONTINUOUS
 10
8.8211924339
 20
20.1589965018
  7
STANDARD
 40
0.15625
  1
LIGNE CENTRALE DE ROBINET SUGGÉRÉE
 41
0.8
 72
0
  0
TEXT
  8
___NOTE
 62
2
  6
CONTINUOUS
 10
8.8211924339
 20
19.9246215018
  7
STANDARD
 40
0.15625
  1
LÍNEA CENTRAL RECOMENDADA PARA LA GRIFERÍA
 41
0.8
 72
0
  0
LINE
  8
___NOTE
 62
2
  6
CONTINUOUS
 10
14.7675810297
 20
9.3454363489
 11
15.0584718797
 21
9.0361419308
  0
LINE
  8
___NOTE
 62
2
  6
CONTINUOUS
 10
15.0584718797
 20
9.0361419308
 11
15.2693556431
 21
9.0361419308
  0
SOLID
  8
___NOTE
 62
2
  6
CONTINUOUS
 10
14.9188017328
 20
9.2302620834
 11
14.7675810297
 21
9.3454363489
 12
14.8732738249
 22
9.187443167
 13
14.8732738249
 23
9.187443167
  0
TEXT
  8
___NOTE
 62
2
  6
CONTINUOUS
 10
10.0123240613
 20
12.7500137104
  7
STANDARD
 40
0.15625
  1
ABOVE-THE-COUNTER INSTALLATION
 41
0.8
 72
0
  0
TEXT
  8
___NOTE
 62
2
  6
CONTINUOUS
 10
10.0123240613
 20
12.5156387104
  7
STANDARD
 40
0.15625
  1
INSTALLATION AU-DESSUS DU COMPTOIR
 41
0.8
 72
0
  0
TEXT
  8
___NOTE
 62
2
  6
CONTINUOUS
 10
10.0123240613
 20
12.2812637104
  7
STANDARD
 40
0.15625
  1
INSTALACIÓN SOBRE CUBIERTA
 41
0.8
 72
0
  0
TEXT
  8
___NOTE
 62
2
  6
CONTINUOUS
 10
10.0123240613
 20
12.0468887104
  7
STANDARD
 40
0.15625
  1
 
 41
0.8
 72
0
  0
TEXT
  8
___NOTE
 62
2
  6
CONTINUOUS
 10
23.616639765
 20
14.5566113155
  7
STANDARD
 40
0.15625
  1
FOR VESSELS CUT ALONG THIS LINE
 41
0.8
 72
0
  0
TEXT
  8
___NOTE
 62
2
  6
CONTINUOUS
 10
23.616639765
 20
14.3222363155
  7
STANDARD
 40
0.15625
  1
POUR VASQUES, DÉCOUPER LE LONG DE CETTE LIGNE
 41
0.8
 72
0
  0
TEXT
  8
___NOTE
 62
2
  6
CONTINUOUS
 10
23.616639765
 20
14.0878613155
  7
STANDARD
 40
0.15625
  1
PARA LAVABOS VESSELS, CORTE POR ESTA LÍNEA
 41
0.8
 72
0
  0
LINE
  8
___NOTE
 62
2
  6
CONTINUOUS
 10
14.9085962924
 20
10.5365186657
 11
23.366639765
 21
14.6347363155
  0
LINE
  8
___NOTE
 62
2
  6
CONTINUOUS
 10
23.366639765
 20
14.6347363155
 11
23.616639765
 21
14.6347363155
  0
SOLID
  8
___NOTE
 62
2
  6
CONTINUOUS
 10
15.0637057933
 20
10.6463997616
 11
14.9085962924
 21
10.5365186657
 12
15.0909586082
 22
10.5901544588
 13
15.0909586082
 23
10.5901544588
  0
TEXT
  8
___NOTE
 62
2
  6
CONTINUOUS
 10
22.9749453677
 20
18.8386527065
  7
STANDARD
 40
0.25
  1
CUT-OUT TEMPLATE
 41
0.8
 72
0
  0
TEXT
  8
___NOTE
 62
2
  6
CONTINUOUS
 10
22.9749453677
 20
18.4636527065
  7
STANDARD
 40
0.25
  1
PLAN DE DÉCOUPE
 41
0.8
 72
0
  0
TEXT
  8
___NOTE
 62
2
  6
CONTINUOUS
 10
22.9749453677
 20
18.0886527065
  7
STANDARD
 40
0.25
  1
PLANTILLA DE CORTE
 41
0.8
 72
0
  0
TEXT
  8
___NOTE
 62
2
  6
CONTINUOUS
 10
22.9749453677
 20
17.7136527065
  7
STANDARD
 40
0.25
  1
2276
 41
0.8
 72
0
  0
INSERT
  8
___SYMBOL
 62
2
  6
CONTINUOUS
  2
SYMBOL_12_BL1
 10
28.6025752144
 20
6.3016755146
  0
INSERT
  8
___SYMBOL
 62
2
  6
CONTINUOUS
  2
SYMBOL_45_BL2
 10
15.1881149744
 20
8.9693207522
  0
INSERT
  8
___SYMBOL
 62
2
  6
CONTINUOUS
  2
SYMBOL_45_BL3
 10
19.0070930223
 20
7.9638488869
  0
INSERT
  8
___SYMBOL
 62
2
  6
CONTINUOUS
  2
SYMBOL_45_BL4
 10
21.3649697553
 20
6.9560409944
  0
LINE
  8
0
 62
7
  6
CONTINUOUS
 10
11.8295320148
 20
11.2150667445
 11
11.8380375028
 21
11.1617656863
  0
LINE
  8
0
 62
7
  6
CONTINUOUS
 10
11.7833568364
 20
13.4860925186
 11
11.7918623244
 21
13.4327914603
  0
LINE
  8
0
 62
7
  6
CONTINUOUS
 10
13.4776232265
 20
13.4327914603
 11
13.5530061517
 21
13.4860925186
  0
LINE
  8
0
 62
7
  6
CONTINUOUS
 10
13.4594862153
 20
13.6607310043
 11
13.5330977963
 21
13.7048425186
  0
LINE
  8
DEFAULT_1
 62
2
  6
CENTER
 10
14.2936976133
 20
1.2154293471
 11
14.2936976133
 21
21.1345409798
  0
LINE
  8
0
 62
7
  6
CONTINUOUS
 10
14.775654698
 20
13.6810571284
 11
14.7636623505
 21
13.623275818
  0
LINE
  8
0
 62
7
  6
CONTINUOUS
 10
13.4692824015
 20
11.7568023333
 11
13.5428939825
 21
11.8009138475
  0
LINE
  8
0
 62
7
  6
CONTINUOUS
 10
16.9876524275
 20
13.6369456141
 11
17.0612640085
 21
13.6810571284
  0
LINE
  8
0
 62
7
  6
CONTINUOUS
 10
13.5237984049
 20
11.1617656863
 11
13.5991813301
 21
11.2150667445
  0
LINE
  8
0
 62
7
  6
CONTINUOUS
 10
11.8461600554
 20
11.7568023333
 11
11.7725484744
 21
11.8009138475
  0
LINE
  8
0
 62
2
  6
CONTINUOUS
 10
23.3090403551
 20
19.9016375051
 11
23.1712761884
 21
19.7378163154
  0
LINE
  8
0
 62
2
  6
CONTINUOUS
 10
23.5011021672
 20
19.9016375051
 11
23.2877987153
 21
19.6479892322
  0
LINE
  8
DEFAULT_1
 62
2
  6
CENTER
 10
5.5036976133
 20
10.0054293471
 11
23.0836976133
 21
10.0054293471
  0
LINE
  8
0
 62
7
  6
CONTINUOUS
 10
11.8363638692
 20
13.6607310043
 11
11.7627522882
 21
13.7048425186
  0
LINE
  8
0
 62
7
  6
CONTINUOUS
 10
13.2656973899
 20
11.1631347776
 11
11.8380375028
 21
11.1617656863
  0
LINE
  8
0
 62
7
  6
CONTINUOUS
 10
13.5237984049
 20
11.1617656863
 11
13.254943599
 21
11.1617656863
  0
LINE
  8
0
 62
7
  6
CONTINUOUS
 10
12.8808604199
 20
11.2146638475
 11
12.434582037
 21
11.2146638475
  0
LINE
  8
0
 62
7
  6
CONTINUOUS
 10
13.5991813301
 20
11.2150667445
 11
11.8295320148
 21
11.2150667445
  0
LINE
  8
0
 62
7
  6
CONTINUOUS
 10
13.3389712284
 20
11.5821638475
 11
11.9764712284
 21
11.5821638475
  0
LINE
  8
0
 62
7
  6
CONTINUOUS
 10
13.6658462284
 20
11.8009138475
 11
11.6495962284
 21
11.8009138475
  0
LINE
  8
0
 62
7
  6
CONTINUOUS
 10
13.6658462284
 20
11.9571638475
 11
11.6495962284
 21
11.9571638475
  0
LINE
  8
0
 62
7
  6
CONTINUOUS
 10
17.4764581475
 20
13.6810571284
 11
17.4957185843
 21
13.623275818
  0
LINE
  8
0
 62
7
  6
CONTINUOUS
 10
16.3992304459
 20
13.0948071284
 11
15.952952063
 21
13.0948071284
  0
LINE
  8
0
 62
7
  6
CONTINUOUS
 10
12.8710642337
 20
13.1185925186
 11
12.4247858508
 21
13.1185925186
  0
LINE
  8
0
 62
7
  6
CONTINUOUS
 10
13.4776232265
 20
13.4327914603
 11
13.2087684206
 21
13.4327914603
  0
LINE
  8
0
 62
7
  6
CONTINUOUS
 10
12.0870816639
 20
13.4327914603
 11
11.7918623244
 21
13.4327914603
  0
LINE
  8
0
 62
7
  6
CONTINUOUS
 10
16.8573412544
 20
13.4623071284
 11
15.4948412544
 21
13.4623071284
  0
LINE
  8
0
 62
7
  6
CONTINUOUS
 10
13.5530061517
 20
13.4860925186
 11
11.7833568364
 21
13.4860925186
  0
LINE
  8
0
 62
7
  6
CONTINUOUS
 10
15.3645300814
 20
13.6369456141
 11
15.2909185004
 21
13.6810571284
  0
LINE
  8
0
 62
7
  6
CONTINUOUS
 10
14.7636623505
 20
13.623275818
 11
15.3835340817
 21
13.623275818
  0
LINE
  8
0
 62
7
  6
CONTINUOUS
 10
16.9686484271
 20
13.623275818
 11
17.4957185843
 21
13.623275818
  0
LINE
  8
0
 62
7
  6
CONTINUOUS
 10
17.4764581475
 20
13.6810571284
 11
14.775654698
 21
13.6810571284
  0
LINE
  8
0
 62
7
  6
CONTINUOUS
 10
13.6560500422
 20
13.7048425186
 11
11.6398000422
 21
13.7048425186
  0
LINE
  8
0
 62
7
  6
CONTINUOUS
 10
17.1842162544
 20
13.8373071284
 11
15.1679662544
 21
13.8373071284
  0
LINE
  8
0
 62
7
  6
CONTINUOUS
 10
13.6560500422
 20
13.8610925186
 11
11.6398000422
 21
13.8610925186
  0
LINE
  8
0
 62
2
  6
CONTINUOUS
 10
22.9967759615
 20
19.9016375051
 11
22.9967759615
 21
19.3156998523
  0
LINE
  8
0
 62
2
  6
CONTINUOUS
 10
23.1712761884
 20
19.9016375051
 11
23.1712761884
 21
19.7378163154
  0
LINE
  8
0
 62
2
  6
CONTINUOUS
 10
23.1712761884
 20
19.5172236898
 11
23.1712761884
 21
19.3157238557
  0
LINE
  8
0
 62
2
  6
CONTINUOUS
 10
24.0329872251
 20
19.9016375051
 11
24.0329872251
 21
19.3157238557
  0
LINE
  8
0
 62
2
  6
CONTINUOUS
 10
24.1977209049
 20
19.9016375051
 11
24.1977209049
 21
19.6812537455
  0
LINE
  8
0
 62
2
  6
CONTINUOUS
 10
24.1977209049
 20
19.5440484655
 11
24.1977209049
 21
19.3157238557
  0
LINE
  8
0
 62
2
  6
CONTINUOUS
 10
24.345717716
 20
19.9016375051
 11
24.345717716
 21
19.6812537455
  0
LINE
  8
0
 62
2
  6
CONTINUOUS
 10
24.345717716
 20
19.5440484655
 11
24.345717716
 21
19.3157238557
  0
LINE
  8
0
 62
2
  6
CONTINUOUS
 10
24.5104513959
 20
19.9016375051
 11
24.5104513959
 21
19.3157238557
  0
LINE
  8
0
 62
2
  6
CONTINUOUS
 10
24.5554962401
 20
19.3157238557
 11
24.5554962401
 21
19.9016375051
  0
LINE
  8
0
 62
2
  6
CONTINUOUS
 10
24.7055423028
 20
19.9016375051
 11
24.7055423028
 21
19.4569506129
  0
LINE
  8
0
 62
2
  6
CONTINUOUS
 10
24.8682263728
 20
19.4569506129
 11
24.8682263728
 21
19.3157238557
  0
LINE
  8
0
 62
2
  6
CONTINUOUS
 10
24.8973741115
 20
19.3157238557
 11
24.8973741115
 21
19.9016375051
  0
LINE
  8
0
 62
2
  6
CONTINUOUS
 10
25.0556207634
 20
19.7588781083
 11
25.0556207634
 21
19.6812537455
  0
LINE
  8
0
 62
2
  6
CONTINUOUS
 10
25.0556207634
 20
19.5368721439
 11
25.0556207634
 21
19.4569506129
  0
LINE
  8
0
 62
2
  6
CONTINUOUS
 10
25.2064782868
 20
19.3157238557
 11
25.2064782868
 21
19.4569506129
  0
LINE
  8
0
 62
2
  6
CONTINUOUS
 10
25.2064782868
 20
19.5368721439
 11
25.2064782868
 21
19.6812537455
  0
LINE
  8
0
 62
2
  6
CONTINUOUS
 10
25.2064782868
 20
19.7588781083
 11
25.2064782868
 21
19.9016375051
  0
LINE
  8
0
 62
2
  6
CONTINUOUS
 10
25.2512985015
 20
19.3157238557
 11
25.2512985015
 21
19.9016375051
  0
LINE
  8
0
 62
2
  6
CONTINUOUS
 10
25.4019543241
 20
19.7590586718
 11
25.4019543241
 21
19.6519555373
  0
LINE
  8
0
 62
2
  6
CONTINUOUS
 10
25.4019543241
 20
19.5126802266
 11
25.4019543241
 21
19.3157238557
  0
LINE
  8
0
 62
2
  6
CONTINUOUS
 10
23.1712761884
 20
19.3157238557
 11
22.9967759615
 21
19.3156998523
  0
LINE
  8
0
 62
2
  6
CONTINUOUS
 10
25.865892001
 20
19.3151861063
 11
25.841612668
 21
19.3151861063
  0
LINE
  8
0
 62
2
  6
CONTINUOUS
 10
24.5104513959
 20
19.3157238557
 11
24.345717716
 21
19.3157238557
  0
LINE
  8
0
 62
2
  6
CONTINUOUS
 10
24.1977209049
 20
19.3157238557
 11
24.0329872251
 21
19.3157238557
  0
LINE
  8
0
 62
2
  6
CONTINUOUS
 10
23.3250141285
 20
19.3157238557
 11
23.54130655
 21
19.3157238557
  0
LINE
  8
0
 62
2
  6
CONTINUOUS
 10
24.5554962401
 20
19.3157238557
 11
24.8682263728
 21
19.3157238557
  0
LINE
  8
0
 62
2
  6
CONTINUOUS
 10
24.8973741115
 20
19.3157238557
 11
25.2064782868
 21
19.3157238557
  0
LINE
  8
0
 62
2
  6
CONTINUOUS
 10
25.2512985015
 20
19.3157238557
 11
25.4019543241
 21
19.3157238557
  0
LINE
  8
0
 62
2
  6
CONTINUOUS
 10
25.5267777532
 20
19.3157238557
 11
25.7167286928
 21
19.3157238557
  0
LINE
  8
0
 62
2
  6
CONTINUOUS
 10
25.841612668
 20
19.3488493639
 11
25.865892001
 21
19.3488493639
  0
LINE
  8
0
 62
2
  6
CONTINUOUS
 10
24.7055423028
 20
19.4569506129
 11
24.8682263728
 21
19.4569506129
  0
LINE
  8
0
 62
2
  6
CONTINUOUS
 10
25.0556207634
 20
19.4569506129
 11
25.2064782868
 21
19.4569506129
  0
LINE
  8
0
 62
2
  6
CONTINUOUS
 10
25.841612668
 20
19.282883165
 11
25.841612668
 21
19.3488493639
  0
LINE
  8
0
 62
2
  6
CONTINUOUS
 10
25.0556207634
 20
19.5368721439
 11
25.2064782868
 21
19.5368721439
  0
LINE
  8
0
 62
2
  6
CONTINUOUS
 10
24.1977209049
 20
19.5440484655
 11
24.345717716
 21
19.5440484655
  0
LINE
  8
0
 62
2
  6
CONTINUOUS
 10
25.4019543241
 20
19.6519555373
 11
25.4542940743
 21
19.6519555373
  0
LINE
  8
0
 62
2
  6
CONTINUOUS
 10
24.1977209049
 20
19.6812537455
 11
24.345717716
 21
19.6812537455
  0
LINE
  8
0
 62
2
  6
CONTINUOUS
 10
25.0556207634
 20
19.6812537455
 11
25.2064782868
 21
19.6812537455
  0
LINE
  8
0
 62
2
  6
CONTINUOUS
 10
25.0556207634
 20
19.7588781083
 11
25.2064782868
 21
19.7588781083
  0
LINE
  8
0
 62
2
  6
CONTINUOUS
 10
25.4578842055
 20
19.7590586718
 11
25.4019543241
 21
19.7590586718
  0
LINE
  8
0
 62
2
  6
CONTINUOUS
 10
22.9967759615
 20
19.9016375051
 11
23.1712761884
 21
19.9016375051
  0
LINE
  8
0
 62
2
  6
CONTINUOUS
 10
23.3090403551
 20
19.9016375051
 11
23.5011021672
 21
19.9016375051
  0
LINE
  8
0
 62
2
  6
CONTINUOUS
 10
24.0329872251
 20
19.9016375051
 11
24.1977209049
 21
19.9016375051
  0
LINE
  8
0
 62
2
  6
CONTINUOUS
 10
24.345717716
 20
19.9016375051
 11
24.5104513959
 21
19.9016375051
  0
LINE
  8
0
 62
2
  6
CONTINUOUS
 10
24.5554962401
 20
19.9016375051
 11
24.7055423028
 21
19.9016375051
  0
LINE
  8
0
 62
2
  6
CONTINUOUS
 10
24.8973741115
 20
19.9016375051
 11
25.2064782868
 21
19.9016375051
  0
LINE
  8
0
 62
2
  6
CONTINUOUS
 10
25.2512985015
 20
19.9016375051
 11
25.4848462022
 21
19.9016375051
  0
LINE
  8
DEFAULT_1
 62
2
  6
CENTER
 10
5.2936976133
 20
20.7554293471
 11
23.2936976133
 21
20.7554293471
  0
LINE
  8
0
 62
2
  6
CONTINUOUS
 10
23.3250141285
 20
19.3157238557
 11
23.1712761884
 21
19.5172236898
  0
LINE
  8
0
 62
2
  6
CONTINUOUS
 10
23.54130655
 20
19.3157238557
 11
23.2877987153
 21
19.6479892322
  0
LINE
  8
0
 62
2
  6
CONTINUOUS
 10
25.5267777532
 20
19.3157238557
 11
25.4019543241
 21
19.5126802266
  0
LINE
  8
0
 62
2
  6
CONTINUOUS
 10
25.7167286928
 20
19.3157238557
 11
25.5572854498
 21
19.567306397
  0
LINE
  8
0
 62
2
  6
CONTINUOUS
 10
25.8532106442
 20
19.3151861063
 11
25.885078657
 21
19.282883165
  0
ARC
  8
0
 62
7
  6
CONTINUOUS
 10
10.266207862
 20
11.7197769836
 40
2.5
 50
35.9437906532
 51
44.3469285803
  0
ARC
  8
0
 62
7
  6
CONTINUOUS
 10
10.2760040482
 20
9.8158483125
 40
2.5
 50
35.9437906532
 51
44.3469285803
  0
ARC
  8
0
 62
7
  6
CONTINUOUS
 10
12.8808604199
 20
11.3809138475
 40
0.16625
 50
270.0
 51
324.0562093468
  0
ARC
  8
0
 62
7
  6
CONTINUOUS
 10
12.434582037
 20
11.3809138475
 40
0.16625
 50
215.9437906532
 51
270.0
  0
ARC
  8
0
 62
7
  6
CONTINUOUS
 10
11.7741971568
 20
11.6367134444
 40
0.14
 50
3.255498154
 51
59.0679800932
  0
ARC
  8
0
 62
7
  6
CONTINUOUS
 10
13.5412453
 20
11.6367134444
 40
0.14
 50
120.9320199068
 51
176.744501846
  0
ARC
  8
0
 62
7
  6
CONTINUOUS
 10
12.0191101473
 20
11.5196638475
 40
0.0625
 50
44.3469285803
 51
90.0
  0
ARC
  8
0
 62
7
  6
CONTINUOUS
 10
13.2963323096
 20
11.5196638475
 40
0.0625
 50
90.0
 51
135.6530714197
  0
ARC
  8
0
 62
7
  6
CONTINUOUS
 10
13.3389712284
 20
11.6446638475
 40
0.0625
 50
270.0
 51
360.0
  0
ARC
  8
0
 62
7
  6
CONTINUOUS
 10
11.9764712284
 20
11.6446638475
 40
0.0625
 50
180.0
 51
270.0
  0
ARC
  8
0
 62
7
  6
CONTINUOUS
 10
12.8710642337
 20
13.2848425186
 40
0.16625
 50
270.0
 51
324.0562093468
  0
ARC
  8
0
 62
7
  6
CONTINUOUS
 10
12.4247858508
 20
13.2848425186
 40
0.16625
 50
215.9437906532
 51
270.0
  0
ARC
  8
0
 62
7
  6
CONTINUOUS
 10
11.7644009706
 20
13.5406421154
 40
0.14
 50
3.255498154
 51
59.0679800932
  0
ARC
  8
0
 62
7
  6
CONTINUOUS
 10
13.5314491138
 20
13.5406421154
 40
0.14
 50
120.9320199068
 51
176.744501846
  0
ARC
  8
0
 62
7
  6
CONTINUOUS
 10
13.6560500422
 20
13.7829675186
 40
0.078125
 50
270.0
 51
90.0
  0
ARC
  8
0
 62
7
  6
CONTINUOUS
 10
11.6398000422
 20
13.7829675186
 40
0.078125
 50
90.0
 51
270.0
  0
ARC
  8
0
 62
7
  6
CONTINUOUS
 10
13.6658462284
 20
11.8790388475
 40
0.078125
 50
270.0
 51
90.0
  0
ARC
  8
0
 62
7
  6
CONTINUOUS
 10
11.6495962284
 20
11.8790388475
 40
0.078125
 50
90.0
 51
270.0
  0
ARC
  8
0
 62
7
  6
CONTINUOUS
 10
12.0093139611
 20
13.4235925186
 40
0.0625
 50
44.3469285803
 51
90.0
  0
ARC
  8
0
 62
7
  6
CONTINUOUS
 10
13.2865361234
 20
13.4235925186
 40
0.0625
 50
90.0
 51
135.6530714197
  0
ARC
  8
0
 62
7
  6
CONTINUOUS
 10
13.3291750422
 20
13.5485925186
 40
0.0625
 50
270.0
 51
360.0
  0
ARC
  8
0
 62
7
  6
CONTINUOUS
 10
11.9666750422
 20
13.5485925186
 40
0.0625
 50
180.0
 51
270.0
  0
CIRCLE
  8
DEFAULT_3
 62
8
  6
PHANTOM
 10
14.2936976133
 20
10.0054293471
 40
8.69
  0
CIRCLE
  8
0
 62
7
  6
CONTINUOUS
 10
14.2936976133
 20
10.0054293471
 40
7.7500163563
  0
CIRCLE
  8
0
 62
7
  6
CONTINUOUS
 10
14.2936976133
 20
10.0054293471
 40
5.1875
  0
ARC
  8
0
 62
7
  6
CONTINUOUS
 10
15.0296422224
 20
11.7197769836
 40
2.5
 50
135.6530714197
 51
144.0562093468
  0
ARC
  8
0
 62
7
  6
CONTINUOUS
 10
13.7943740742
 20
11.6959915934
 40
2.5
 50
35.9437906532
 51
44.3469285803
  0
ARC
  8
0
 62
7
  6
CONTINUOUS
 10
15.0394384087
 20
9.8158483125
 40
2.5
 50
135.6530714197
 51
144.0562093468
  0
CIRCLE
  8
0
 62
7
  6
CONTINUOUS
 10
14.2936976133
 20
10.0054293471
 40
0.8125
  0
ARC
  8
0
 62
7
  6
CONTINUOUS
 10
16.3992304459
 20
13.2610571284
 40
0.16625
 50
270.0
 51
324.0562093468
  0
ARC
  8
0
 62
7
  6
CONTINUOUS
 10
15.952952063
 20
13.2610571284
 40
0.16625
 50
215.9437906532
 51
270.0
  0
ARC
  8
0
 62
7
  6
CONTINUOUS
 10
15.2925671828
 20
13.5168567252
 40
0.14
 50
3.255498154
 51
59.0679800932
  0
ARC
  8
0
 62
7
  6
CONTINUOUS
 10
17.059615326
 20
13.5168567252
 40
0.14
 50
120.9320199068
 51
176.744501846
  0
ARC
  8
0
 62
7
  6
CONTINUOUS
 10
17.1842162544
 20
13.7591821284
 40
0.078125
 50
270.0
 51
90.0
  0
ARC
  8
0
 62
7
  6
CONTINUOUS
 10
15.1679662544
 20
13.7591821284
 40
0.078125
 50
90.0
 51
270.0
  0
ARC
  8
0
 62
7
  6
CONTINUOUS
 10
15.5374801733
 20
13.3998071284
 40
0.0625
 50
44.3469285803
 51
90.0
  0
ARC
  8
0
 62
7
  6
CONTINUOUS
 10
16.8147023356
 20
13.3998071284
 40
0.0625
 50
90.0
 51
135.6530714197
  0
ARC
  8
0
 62
7
  6
CONTINUOUS
 10
16.8573412544
 20
13.5248071284
 40
0.0625
 50
270.0
 51
360.0
  0
ARC
  8
0
 62
7
  6
CONTINUOUS
 10
15.4948412544
 20
13.5248071284
 40
0.0625
 50
180.0
 51
270.0
  0
ARC
  8
0
 62
7
  6
CONTINUOUS
 10
18.5578084347
 20
11.6959915934
 40
2.5
 50
135.6530714197
 51
144.0562093468
  0
CIRCLE
  8
0
 62
2
  6
CONTINUOUS
 10
23.7178153867
 20
19.6075594286
 40
0.298056591
  0
ARC
  8
0
 62
2
  6
CONTINUOUS
 10
25.4848462022
 20
19.7266279944
 40
0.1750166163
 50
294.4500166359
 51
90.0
  0
CIRCLE
  8
0
 62
2
  6
CONTINUOUS
 10
23.7178153867
 20
19.6075594286
 40
0.1247694151
  0
CIRCLE
  8
0
 62
2
  6
CONTINUOUS
 10
25.8574986674
 20
19.3157238557
 40
0.0653578721
  0
ARC
  8
0
 62
2
  6
CONTINUOUS
 10
25.4578841036
 20
19.7054469368
 40
0.053611735
 50
266.1604009902
 51
89.9998910512
  0
ARC
  8
0
 62
2
  6
CONTINUOUS
 10
25.865892001
 20
19.3320179142
 40
0.0168314496
 50
270.0
 51
90.0
  0
ENDSEC
  0
EOF
