999
DXF file: 1144643-7.dxf
999
Pro/ENGINEER 2009220 by Parametric Technology Corporation
  0
SECTION
  2
HEADER
  9
$ACADVER
  1
AC1015
  9
$DWGCODEPAGE
  3
ANSI_1252
  9
$EXTMAX
 10
34.0
 20
22.0
 30
0.0
  9
$EXTMIN
 10
0.0
 20
0.0
 30
0.0
  9
$LIMMIN
 10
0.0
 20
0.0
  9
$LIMMAX
 10
34.0
 20
22.0
  9
$VIEWCTR
 10
17.0
 20
11.0
  9
$VIEWSIZE
 40
22.0
  9
$CLAYER
  8
0
  9
$LTSCALE
 40
1.87
  9
$CELTYPE
  6
BYLAYER
  9
$DIMSCALE
 40
1.0
  9
$DIMASZ
 40
0.1875
  9
$DIMEXO
 40
0.2125
  9
$DIMDLI
 40
1.292
  9
$DIMEXE
 40
0.612
  9
$DIMCEN
 40
0.306
  9
$DIMLFAC
 40
1.0
  9
$DIMBLK
  1
_FILLED
  9
$DIMTXT
 40
0.15625
  9
$DIMTOL
 70
1
  9
$DIMLIM
 70
0
  9
$DIMTFAC
 40
1.0
  9
$DIMTP
 40
0.0
  9
$DIMTM
 40
0.0
  9
$PDMODE
 70
3
  9
$PDSIZE
 40
0.3125
  9
$HANDSEED
  5
374
  9
$TILEMODE
 70
1
  9
$MEASUREMENT
 70
0
  9
$INSUNITS
 70
1
  0
ENDSEC
  0
SECTION
  2
CLASSES
  0
CLASS
  1
ACDBDICTIONARYWDFLT
  2
AcDbDictionaryWithDefault
  3
AutoCAD 2000
 90
0
280
0
281
0
  0
CLASS
  1
ACDBPLACEHOLDER
  2
AcDbPlaceHolder
  3
AutoCAD 2000
 90
0
280
0
281
0
  0
CLASS
  1
LAYOUT
  2
AcDbLayout
  3
AutoCAD 2000
 90
0
280
0
281
0
  0
ENDSEC
  0
SECTION
  2
TABLES
  0
TABLE
  2
VPORT
  5
8
100
AcDbSymbolTable
 70
2
  0
VPORT
  5
1F4
100
AcDbSymbolTableRecord
100
AcDbViewportTableRecord
  2
*ACTIVE
 70
0
 10
0.0
 20
0.0
 11
1.0
 21
1.0
 12
17.0
 22
11.0
 13
0.0
 23
0.0
 14
1.0
 24
1.0
 15
0.0
 25
0.0
 16
0.0
 26
0.0
 36
1.0
 17
0.0
 27
0.0
 37
0.0
 40
22.0
 41
1.5454545455
 42
50.0
 43
0.0
 44
0.0
 50
0.0
 51
0.0
 71
0
 72
100
 73
1
 74
1
 75
0
 76
0
 77
0
 78
0
  0
ENDTAB
  0
TABLE
  2
LTYPE
  5
5
100
AcDbSymbolTable
 70
6
  0
LTYPE
  5
14
100
AcDbSymbolTableRecord
100
AcDbLinetypeTableRecord
  2
BYBLOCK
 70
0
  3

 72
65
 73
0
 40
0.0
  0
LTYPE
  5
15
100
AcDbSymbolTableRecord
100
AcDbLinetypeTableRecord
  2
BYLAYER
 70
0
  3

 72
65
 73
0
 40
0.0
  0
LTYPE
  5
16
100
AcDbSymbolTableRecord
100
AcDbLinetypeTableRecord
  2
CONTINUOUS
 70
64
  3
Solid line
 72
65
 73
0
 40
0.0
  0
LTYPE
  5
1F5
100
AcDbSymbolTableRecord
100
AcDbLinetypeTableRecord
  2
CENTER
 70
64
  3
____ _ ____ _ ____ _ ____ _ ____ _ ____ _ ____
 72
65
 73
4
 40
0.6
 49
0.375
 74
0
 49
-0.075
 74
0
 49
0.075
 74
0
 49
-0.075
 74
0
  0
LTYPE
  5
1F6
100
AcDbSymbolTableRecord
100
AcDbLinetypeTableRecord
  2
HIDDEN
 70
64
  3
- - - - - - - - - - - - - - - - - - - -
 72
65
 73
2
 40
0.2
 49
0.1
 74
0
 49
-0.1
 74
0
  0
LTYPE
  5
1F7
100
AcDbSymbolTableRecord
100
AcDbLinetypeTableRecord
  2
PHANTOM
 70
64
  3
_____ _ _ _____ _ _ _____ _ _ _____
 72
65
 73
6
 40
0.8
 49
0.45
 74
0
 49
-0.05
 74
0
 49
0.1
 74
0
 49
-0.05
 74
0
 49
0.1
 74
0
 49
-0.05
 74
0
  0
LTYPE
  5
1F8
100
AcDbSymbolTableRecord
100
AcDbLinetypeTableRecord
  2
DOT
 70
64
  3
. . . . . . . . . . . . . . . . . . . .
 72
65
 73
2
 40
0.2
 49
0.1
 74
0
 49
-0.1
 74
0
  0
LTYPE
  5
1F9
100
AcDbSymbolTableRecord
100
AcDbLinetypeTableRecord
  2
DASHED
 70
64
  3
- - - - - - - - - - - - - - - - - - - -
 72
65
 73
2
 40
0.2
 49
0.1
 74
0
 49
-0.1
 74
0
  0
ENDTAB
  0
TABLE
  2
LAYER
  5
2
100
AcDbSymbolTable
 70
36
  0
LAYER
  5
10
100
AcDbSymbolTableRecord
100
AcDbLayerTableRecord
  2
0
 70
0
 62
7
  6
CONTINUOUS
370
-3
390
F
  0
LAYER
  5
1FA
100
AcDbSymbolTableRecord
100
AcDbLayerTableRecord
  2
DEFAULT_1
 70
0
 62
7
  6
CENTER
370
-3
390
F
  0
LAYER
  5
1FB
100
AcDbSymbolTableRecord
100
AcDbLayerTableRecord
  2
DEFAULT_2
 70
0
 62
8
  6
HIDDEN
370
-3
390
F
  0
LAYER
  5
1FC
100
AcDbSymbolTableRecord
100
AcDbLayerTableRecord
  2
DEFAULT_3
 70
0
 62
7
  6
PHANTOM
370
-3
390
F
  0
LAYER
  5
1FD
100
AcDbSymbolTableRecord
100
AcDbLayerTableRecord
  2
DATUMS
 70
0
 62
7
  6
CONTINUOUS
370
-3
390
F
  0
LAYER
  5
1FE
100
AcDbSymbolTableRecord
100
AcDbLayerTableRecord
  2
DATUM_AXIS
 70
0
 62
7
  6
CONTINUOUS
370
-3
390
F
  0
LAYER
  5
1FF
100
AcDbSymbolTableRecord
100
AcDbLayerTableRecord
  2
DATUM_CSYS
 70
0
 62
7
  6
CONTINUOUS
370
-3
390
F
  0
LAYER
  5
200
100
AcDbSymbolTableRecord
100
AcDbLayerTableRecord
  2
DATUM_PLANE
 70
0
 62
7
  6
CONTINUOUS
370
-3
390
F
  0
LAYER
  5
201
100
AcDbSymbolTableRecord
100
AcDbLayerTableRecord
  2
DATUM_POINT
 70
0
 62
7
  6
CONTINUOUS
370
-3
390
F
  0
LAYER
  5
202
100
AcDbSymbolTableRecord
100
AcDbLayerTableRecord
  2
_CURVE
 70
0
 62
7
  6
CONTINUOUS
370
-3
390
F
  0
LAYER
  5
203
100
AcDbSymbolTableRecord
100
AcDbLayerTableRecord
  2
_SURFACE
 70
0
 62
7
  6
CONTINUOUS
370
-3
390
F
  0
LAYER
  5
204
100
AcDbSymbolTableRecord
100
AcDbLayerTableRecord
  2
__REF_CURVE
 70
0
 62
7
  6
CONTINUOUS
370
-3
390
F
  0
LAYER
  5
205
100
AcDbSymbolTableRecord
100
AcDbLayerTableRecord
  2
__REF_SURFACE
 70
0
 62
7
  6
CONTINUOUS
370
-3
390
F
  0
LAYER
  5
206
100
AcDbSymbolTableRecord
100
AcDbLayerTableRecord
  2
___NOTE
 70
0
 62
7
  6
CONTINUOUS
370
-3
390
F
  0
LAYER
  5
207
100
AcDbSymbolTableRecord
100
AcDbLayerTableRecord
  2
___SYMBOL
 70
0
 62
7
  6
CONTINUOUS
370
-3
390
F
  0
ENDTAB
  0
TABLE
  2
STYLE
  5
3
100
AcDbSymbolTable
 70
1
  0
STYLE
  5
11
100
AcDbSymbolTableRecord
100
AcDbTextStyleTableRecord
  2
STANDARD
 70
0
 40
0.0
 41
0.8
 50
0.0
 71
0
 42
0.2
  3
txt
  4

  0
STYLE
  5
208
100
AcDbSymbolTableRecord
100
AcDbTextStyleTableRecord
  2
TEXTSTYLE_1
 70
0
 40
0.0
 41
0.8
 50
0.0
 71
0
 42
0.2
  3
gdt
  4

  0
STYLE
  5
209
100
AcDbSymbolTableRecord
100
AcDbTextStyleTableRecord
  2
TEXTSTYLE_2
 70
0
 40
0.0
 41
0.8258950223
 50
0.0
 71
0
 42
0.2
  3
txt
  4

  0
STYLE
  5
20A
100
AcDbSymbolTableRecord
100
AcDbTextStyleTableRecord
  2
TEXTSTYLE_3
 70
0
 40
0.0
 41
0.6740211631
 50
0.0
 71
0
 42
0.2
  3
txt
  4

  0
STYLE
  5
20B
100
AcDbSymbolTableRecord
100
AcDbTextStyleTableRecord
  2
TEXTSTYLE_4
 70
0
 40
0.0
 41
1.0
 50
0.0
 71
0
 42
0.2
  3
txt
  4

  0
ENDTAB
  0
TABLE
  2
VIEW
  5
6
100
AcDbSymbolTable
 70
0
  0
ENDTAB
  0
TABLE
  2
UCS
  5
7
100
AcDbSymbolTable
 70
0
  0
ENDTAB
  0
TABLE
  2
APPID
  5
9
100
AcDbSymbolTable
 70
1
  0
APPID
  5
20C
100
AcDbSymbolTableRecord
100
AcDbRegAppTableRecord
  2
ACAD
 70
0
  0
ENDTAB
  0
TABLE
  2
BLOCK_RECORD
  5
1
100
AcDbSymbolTable
 70
0
  0
BLOCK_RECORD
  5
20D
100
AcDbSymbolTableRecord
100
AcDbBlockTableRecord
  2
*Model_Space
  0
BLOCK_RECORD
  5
20E
100
AcDbSymbolTableRecord
100
AcDbBlockTableRecord
  2
*Paper_Space
  0
BLOCK_RECORD
  5
20F
100
AcDbSymbolTableRecord
100
AcDbBlockTableRecord
  2
_FILLED
  0
BLOCK_RECORD
  5
210
100
AcDbSymbolTableRecord
100
AcDbBlockTableRecord
  2
*D0
  0
BLOCK_RECORD
  5
211
100
AcDbSymbolTableRecord
100
AcDbBlockTableRecord
  2
*D1
  0
BLOCK_RECORD
  5
212
100
AcDbSymbolTableRecord
100
AcDbBlockTableRecord
  2
*D2
  0
BLOCK_RECORD
  5
213
100
AcDbSymbolTableRecord
100
AcDbBlockTableRecord
  2
*D3
  0
BLOCK_RECORD
  5
214
100
AcDbSymbolTableRecord
100
AcDbBlockTableRecord
  2
SKU_LAV_KOHLER_BL5
  0
BLOCK_RECORD
  5
215
100
AcDbSymbolTableRecord
100
AcDbBlockTableRecord
  2
COPYRIGHT_YEAR_BL4
  0
BLOCK_RECORD
  5
216
100
AcDbSymbolTableRecord
100
AcDbBlockTableRecord
  2
TEMPLATE_NUMBER_BL3
  0
BLOCK_RECORD
  5
217
100
AcDbSymbolTableRecord
100
AcDbBlockTableRecord
  2
TEMPLATE_NUMBER_BL2
  0
BLOCK_RECORD
  5
218
100
AcDbSymbolTableRecord
100
AcDbBlockTableRecord
  2
PLOTTING_TEMPLATE_NOTE_BL1
  0
BLOCK_RECORD
  5
219
100
AcDbSymbolTableRecord
100
AcDbBlockTableRecord
  2
PACKAGING_UPC_NOTE_BL0
  0
ENDTAB
  0
TABLE
  2
DIMSTYLE
  5
A
100
AcDbSymbolTable
 70
1
100
AcDbDimStyleTable
 71
0
  0
DIMSTYLE
105
21A
100
AcDbSymbolTableRecord
100
AcDbDimStyleTableRecord
  2
STANDARD
 70
0
  3

  4

 40
1.0
 41
0.1875
 42
0.0625
 43
0.38
 44
0.18
 45
0.0
 46
0.0
 47
0.0
 48
0.0
140
0.15625
141
0.09
142
0.0
143
25.4
144
1.0
145
0.0
146
1.0
147
0.09
 71
1.0
 72
0.0
 73
1
 74
1
 75
0
 76
0
 77
0
 78
4
170
0
171
2
172
0
173
0
174
0
175
0
176
0
177
0
178
0
270
2
271
0
272
0
273
2
274
2
275
0
280
0
281
0
282
0
283
1
284
4
285
0
286
0
287
3
288
0
340
11
341
20F
342
20F
343
20F
344
20F
  0
DIMSTYLE
105
21B
100
AcDbSymbolTableRecord
100
AcDbDimStyleTableRecord
  2
DIMSTYLE_1
 70
0
  3

  4

 40
1.0
 41
0.1875
 42
0.0625
 43
0.38
 44
0.18
 45
0.0
 46
0.0
 47
0.0
 48
0.0
140
0.15625
141
0.09
142
0.0
143
25.4
144
1.0
145
0.0
146
1.0
147
0.09
 71
0.0
 72
0.0
 73
1
 74
1
 75
0
 76
0
 77
0
 78
4
170
0
171
2
172
0
173
0
174
0
175
0
176
0
177
0
178
0
270
2
271
2
272
2
273
2
274
2
275
0
280
0
281
0
282
0
283
1
284
4
285
0
286
0
287
3
288
0
340
11
341
20F
342
20F
343
20F
344
20F
  0
DIMSTYLE
105
21C
100
AcDbSymbolTableRecord
100
AcDbDimStyleTableRecord
  2
DIMSTYLE_2
 70
0
  3

  4

 40
1.0
 41
0.1875
 42
0.0625
 43
0.38
 44
0.18
 45
0.0
 46
0.0
 47
0.0
 48
0.0
140
0.15625
141
0.09
142
0.0
143
25.4
144
1.0
145
0.0
146
1.0
147
0.09
 71
0.0
 72
0.0
 73
1
 74
1
 75
0
 76
0
 77
0
 78
4
170
0
171
2
172
0
173
0
174
0
175
0
176
0
177
0
178
0
270
2
271
2
272
2
273
2
274
2
275
0
280
0
281
0
282
0
283
1
284
4
285
0
286
0
287
3
288
0
340
11
341
20F
342
20F
343
20F
344
20F
  0
ENDTAB
  0
ENDSEC
  0
SECTION
  2
BLOCKS
  0
BLOCK
  5
20
100
AcDbEntity
  8
0
100
AcDbBlockBegin
  2
*Model_Space
 70
0
 10
0.0
 20
0.0
 30
0.0
  3
*Model_Space
  1

  0
ENDBLK
  5
21
100
AcDbEntity
  8
0
100
AcDbBlockEnd
  0
BLOCK
  5
1C
100
AcDbEntity
  8
0
100
AcDbBlockBegin
  2
*Paper_Space
 70
0
 10
0.0
 20
0.0
 30
0.0
  3
*Paper_Space
  1

  0
ENDBLK
  5
1D
100
AcDbEntity
  8
0
100
AcDbBlockEnd
  0
BLOCK
  5
21D
100
AcDbEntity
  8
___SYMBOL
100
AcDbBlockBegin
 62
2
  6
CONTINUOUS
  2
SKU_LAV_KOHLER_BL5
 70
64
 10
26.570373656
 20
17.0825561708
  3
SKU_LAV_KOHLER_BL5
  1

  0
LINE
  5
21E
100
AcDbEntity
  8
___SYMBOL
100
AcDbLine
 62
2
  6
CONTINUOUS
 10
24.6770826917
 20
18.7021874627
 11
24.4637792398
 21
18.4485391898
  0
LINE
  5
21F
100
AcDbEntity
  8
___SYMBOL
100
AcDbLine
 62
2
  6
CONTINUOUS
 10
24.4850208797
 20
18.7021874627
 11
24.6770826917
 21
18.7021874627
  0
LINE
  5
220
100
AcDbEntity
  8
___SYMBOL
100
AcDbLine
 62
2
  6
CONTINUOUS
 10
24.4850208797
 20
18.7021874627
 11
24.3472567129
 21
18.538366273
  0
LINE
  5
221
100
AcDbEntity
  8
___SYMBOL
100
AcDbLine
 62
2
  6
CONTINUOUS
 10
24.3472567129
 20
18.7021874627
 11
24.3472567129
 21
18.538366273
  0
LINE
  5
222
100
AcDbEntity
  8
___SYMBOL
100
AcDbLine
 62
2
  6
CONTINUOUS
 10
24.172756486
 20
18.7021874627
 11
24.3472567129
 21
18.7021874627
  0
LINE
  5
223
100
AcDbEntity
  8
___SYMBOL
100
AcDbLine
 62
2
  6
CONTINUOUS
 10
24.172756486
 20
18.7021874627
 11
24.172756486
 21
18.1162498099
  0
LINE
  5
224
100
AcDbEntity
  8
___SYMBOL
100
AcDbLine
 62
2
  6
CONTINUOUS
 10
24.3472567129
 20
18.1162738134
 11
24.172756486
 21
18.1162498099
  0
LINE
  5
225
100
AcDbEntity
  8
___SYMBOL
100
AcDbLine
 62
2
  6
CONTINUOUS
 10
24.3472567129
 20
18.3177736474
 11
24.3472567129
 21
18.1162738134
  0
LINE
  5
226
100
AcDbEntity
  8
___SYMBOL
100
AcDbLine
 62
2
  6
CONTINUOUS
 10
24.500994653
 20
18.1162738134
 11
24.3472567129
 21
18.3177736474
  0
LINE
  5
227
100
AcDbEntity
  8
___SYMBOL
100
AcDbLine
 62
2
  6
CONTINUOUS
 10
24.500994653
 20
18.1162738134
 11
24.7172870745
 21
18.1162738134
  0
LINE
  5
228
100
AcDbEntity
  8
___SYMBOL
100
AcDbLine
 62
2
  6
CONTINUOUS
 10
24.7172870745
 20
18.1162738134
 11
24.4637792398
 21
18.4485391898
  0
SOLID
  5
229
100
AcDbEntity
  8
___SYMBOL
100
AcDbTrace
 62
2
  6
CONTINUOUS
 10
24.3472567129
 20
18.538366273
 11
24.4850208797
 21
18.7021874627
 12
24.6770826917
 22
18.7021874627
 13
24.6770826917
 23
18.7021874627
  0
SOLID
  5
22A
100
AcDbEntity
  8
___SYMBOL
100
AcDbTrace
 62
2
  6
CONTINUOUS
 10
24.6770826917
 20
18.7021874627
 11
24.4637792398
 21
18.4485391898
 12
24.3472567129
 22
18.538366273
 13
24.3472567129
 23
18.538366273
  0
SOLID
  5
22B
100
AcDbEntity
  8
___SYMBOL
100
AcDbTrace
 62
2
  6
CONTINUOUS
 10
24.3472567129
 20
18.3177736474
 11
24.4637792398
 21
18.4485391898
 12
24.500994653
 22
18.1162738134
 13
24.500994653
 23
18.1162738134
  0
SOLID
  5
22C
100
AcDbEntity
  8
___SYMBOL
100
AcDbTrace
 62
2
  6
CONTINUOUS
 10
24.4637792398
 20
18.4485391898
 11
24.7172870745
 21
18.1162738134
 12
24.500994653
 22
18.1162738134
 13
24.500994653
 23
18.1162738134
  0
SOLID
  5
22D
100
AcDbEntity
  8
___SYMBOL
100
AcDbTrace
 62
2
  6
CONTINUOUS
 10
24.3472567129
 20
18.1162738134
 11
24.172756486
 21
18.1162498099
 12
24.3472567129
 22
18.3177736474
 13
24.3472567129
 23
18.3177736474
  0
SOLID
  5
22E
100
AcDbEntity
  8
___SYMBOL
100
AcDbTrace
 62
2
  6
CONTINUOUS
 10
24.4637792398
 20
18.4485391898
 11
24.3472567129
 21
18.3177736474
 12
24.3472567129
 22
18.538366273
 13
24.3472567129
 23
18.538366273
  0
SOLID
  5
22F
100
AcDbEntity
  8
___SYMBOL
100
AcDbTrace
 62
2
  6
CONTINUOUS
 10
24.3472567129
 20
18.3177736474
 11
24.172756486
 21
18.1162498099
 12
24.3472567129
 22
18.538366273
 13
24.3472567129
 23
18.538366273
  0
SOLID
  5
230
100
AcDbEntity
  8
___SYMBOL
100
AcDbTrace
 62
2
  6
CONTINUOUS
 10
24.3472567129
 20
18.538366273
 11
24.172756486
 21
18.1162498099
 12
24.3472567129
 22
18.7021874627
 13
24.3472567129
 23
18.7021874627
  0
SOLID
  5
231
100
AcDbEntity
  8
___SYMBOL
100
AcDbTrace
 62
2
  6
CONTINUOUS
 10
24.172756486
 20
18.1162498099
 11
24.172756486
 21
18.7021874627
 12
24.3472567129
 22
18.7021874627
 13
24.3472567129
 23
18.7021874627
  0
CIRCLE
  5
232
100
AcDbEntity
  8
___SYMBOL
100
AcDbCircle
 62
2
  6
CONTINUOUS
 10
24.8937959112
 20
18.4081093862
 40
0.298056591
  0
CIRCLE
  5
233
100
AcDbEntity
  8
___SYMBOL
100
AcDbCircle
 62
2
  6
CONTINUOUS
 10
24.8937959112
 20
18.4081093862
 40
0.1247694151
  0
SOLID
  5
234
100
AcDbEntity
  8
___SYMBOL
100
AcDbTrace
 62
2
  6
CONTINUOUS
 10
24.8016913593
 20
18.6915780493
 11
24.8626405138
 21
18.704533192
 12
24.9249513086
 22
18.704533192
 13
24.9249513086
 23
18.704533192
  0
SOLID
  5
235
100
AcDbEntity
  8
___SYMBOL
100
AcDbTrace
 62
2
  6
CONTINUOUS
 10
24.9249513086
 20
18.704533192
 11
24.9859004631
 21
18.6915780493
 12
24.8016913593
 22
18.6915780493
 13
24.8016913593
 23
18.6915780493
  0
SOLID
  5
236
100
AcDbEntity
  8
___SYMBOL
100
AcDbTrace
 62
2
  6
CONTINUOUS
 10
24.7447676157
 20
18.6662339657
 11
24.8016913593
 21
18.6915780493
 12
24.9859004631
 22
18.6915780493
 13
24.9859004631
 23
18.6915780493
  0
SOLID
  5
237
100
AcDbEntity
  8
___SYMBOL
100
AcDbTrace
 62
2
  6
CONTINUOUS
 10
24.9859004631
 20
18.6915780493
 11
25.0428242067
 21
18.6662339657
 12
24.7447676157
 22
18.6662339657
 13
24.7447676157
 23
18.6662339657
  0
SOLID
  5
238
100
AcDbEntity
  8
___SYMBOL
100
AcDbTrace
 62
2
  6
CONTINUOUS
 10
24.6943571237
 20
18.6296085995
 11
24.7447676157
 21
18.6662339657
 12
25.0428242067
 22
18.6662339657
 13
25.0428242067
 23
18.6662339657
  0
SOLID
  5
239
100
AcDbEntity
  8
___SYMBOL
100
AcDbTrace
 62
2
  6
CONTINUOUS
 10
25.0428242067
 20
18.6662339657
 11
25.0932346986
 21
18.6296085995
 12
24.6943571237
 22
18.6296085995
 13
24.6943571237
 23
18.6296085995
  0
SOLID
  5
23A
100
AcDbEntity
  8
___SYMBOL
100
AcDbTrace
 62
2
  6
CONTINUOUS
 10
24.6526630638
 20
18.5833026547
 11
24.6943571237
 21
18.6296085995
 12
25.0932346986
 22
18.6296085995
 13
25.0932346986
 23
18.6296085995
  0
SOLID
  5
23B
100
AcDbEntity
  8
___SYMBOL
100
AcDbTrace
 62
2
  6
CONTINUOUS
 10
25.0932346986
 20
18.6296085995
 11
25.1349287586
 21
18.5833026547
 12
24.6526630638
 22
18.5833026547
 13
24.6526630638
 23
18.5833026547
  0
SOLID
  5
23C
100
AcDbEntity
  8
___SYMBOL
100
AcDbTrace
 62
2
  6
CONTINUOUS
 10
24.8937959112
 20
18.5328788013
 11
24.6215076664
 21
18.5293399234
 12
25.1349287586
 22
18.5833026547
 13
25.1349287586
 23
18.5833026547
  0
SOLID
  5
23D
100
AcDbEntity
  8
___SYMBOL
100
AcDbTrace
 62
2
  6
CONTINUOUS
 10
24.6215076664
 20
18.5293399234
 11
24.6526630638
 21
18.5833026547
 12
25.1349287586
 22
18.5833026547
 13
25.1349287586
 23
18.5833026547
  0
SOLID
  5
23E
100
AcDbEntity
  8
___SYMBOL
100
AcDbTrace
 62
2
  6
CONTINUOUS
 10
25.1349287586
 20
18.5833026547
 11
25.166084156
 21
18.5293399234
 12
24.8937959112
 22
18.5328788013
 13
24.8937959112
 23
18.5328788013
  0
SOLID
  5
23F
100
AcDbEntity
  8
___SYMBOL
100
AcDbTrace
 62
2
  6
CONTINUOUS
 10
24.8937959112
 20
18.5328788013
 11
24.8552400415
 21
18.5267721514
 12
24.6215076664
 22
18.5293399234
 13
24.6215076664
 23
18.5293399234
  0
SOLID
  5
240
100
AcDbEntity
  8
___SYMBOL
100
AcDbTrace
 62
2
  6
CONTINUOUS
 10
24.9323517808
 20
18.5267721514
 11
24.8937959112
 21
18.5328788013
 12
25.166084156
 22
18.5293399234
 13
25.166084156
 23
18.5293399234
  0
SOLID
  5
241
100
AcDbEntity
  8
___SYMBOL
100
AcDbTrace
 62
2
  6
CONTINUOUS
 10
24.792855334
 20
18.4814470083
 11
24.6022525718
 21
18.470078836
 12
24.8204582891
 22
18.5090499634
 13
24.8204582891
 23
18.5090499634
  0
SOLID
  5
242
100
AcDbEntity
  8
___SYMBOL
100
AcDbTrace
 62
2
  6
CONTINUOUS
 10
24.8204582891
 20
18.5090499634
 11
24.6022525718
 21
18.470078836
 12
24.8552400415
 22
18.5267721514
 13
24.8552400415
 23
18.5267721514
  0
SOLID
  5
243
100
AcDbEntity
  8
___SYMBOL
100
AcDbTrace
 62
2
  6
CONTINUOUS
 10
24.6022525718
 20
18.470078836
 11
24.6215076664
 21
18.5293399234
 12
24.8552400415
 22
18.5267721514
 13
24.8552400415
 23
18.5267721514
  0
SOLID
  5
244
100
AcDbEntity
  8
___SYMBOL
100
AcDbTrace
 62
2
  6
CONTINUOUS
 10
24.9323517808
 20
18.5267721514
 11
25.166084156
 21
18.5293399234
 12
24.9671335333
 22
18.5090499634
 13
24.9671335333
 23
18.5090499634
  0
SOLID
  5
245
100
AcDbEntity
  8
___SYMBOL
100
AcDbTrace
 62
2
  6
CONTINUOUS
 10
24.9671335333
 20
18.5090499634
 11
25.166084156
 21
18.5293399234
 12
24.9947364884
 22
18.4814470083
 13
24.9947364884
 23
18.4814470083
  0
SOLID
  5
246
100
AcDbEntity
  8
___SYMBOL
100
AcDbTrace
 62
2
  6
CONTINUOUS
 10
25.166084156
 20
18.5293399234
 11
25.1853392505
 21
18.470078836
 12
24.9947364884
 22
18.4814470083
 13
24.9947364884
 23
18.4814470083
  0
SOLID
  5
247
100
AcDbEntity
  8
___SYMBOL
100
AcDbTrace
 62
2
  6
CONTINUOUS
 10
24.792855334
 20
18.4814470083
 11
24.7751331459
 21
18.4466652558
 12
24.6022525718
 22
18.470078836
 13
24.6022525718
 23
18.470078836
  0
SOLID
  5
248
100
AcDbEntity
  8
___SYMBOL
100
AcDbTrace
 62
2
  6
CONTINUOUS
 10
25.0124586764
 20
18.4466652558
 11
24.9947364884
 21
18.4814470083
 12
25.1853392505
 22
18.470078836
 13
25.1853392505
 23
18.470078836
  0
SOLID
  5
249
100
AcDbEntity
  8
___SYMBOL
100
AcDbTrace
 62
2
  6
CONTINUOUS
 10
24.5957393202
 20
18.4081093862
 11
24.6022525718
 21
18.470078836
 12
24.7751331459
 22
18.4466652558
 13
24.7751331459
 23
18.4466652558
  0
SOLID
  5
24A
100
AcDbEntity
  8
___SYMBOL
100
AcDbTrace
 62
2
  6
CONTINUOUS
 10
24.7751331459
 20
18.4466652558
 11
24.7690264961
 21
18.4081093862
 12
24.5957393202
 22
18.4081093862
 13
24.5957393202
 23
18.4081093862
  0
SOLID
  5
24B
100
AcDbEntity
  8
___SYMBOL
100
AcDbTrace
 62
2
  6
CONTINUOUS
 10
25.0124586764
 20
18.4466652558
 11
25.1853392505
 21
18.470078836
 12
25.0185653263
 22
18.4081093862
 13
25.0185653263
 23
18.4081093862
  0
SOLID
  5
24C
100
AcDbEntity
  8
___SYMBOL
100
AcDbTrace
 62
2
  6
CONTINUOUS
 10
25.1853392505
 20
18.470078836
 11
25.1918525022
 21
18.4081093862
 12
25.0185653263
 22
18.4081093862
 13
25.0185653263
 23
18.4081093862
  0
SOLID
  5
24D
100
AcDbEntity
  8
___SYMBOL
100
AcDbTrace
 62
2
  6
CONTINUOUS
 10
25.0124586764
 20
18.3695535165
 11
25.0185653263
 21
18.4081093862
 12
25.1918525022
 22
18.4081093862
 13
25.1918525022
 23
18.4081093862
  0
SOLID
  5
24E
100
AcDbEntity
  8
___SYMBOL
100
AcDbTrace
 62
2
  6
CONTINUOUS
 10
24.7751331459
 20
18.3695535165
 11
24.6022525718
 21
18.3461399364
 12
24.7690264961
 22
18.4081093862
 13
24.7690264961
 23
18.4081093862
  0
SOLID
  5
24F
100
AcDbEntity
  8
___SYMBOL
100
AcDbTrace
 62
2
  6
CONTINUOUS
 10
24.6022525718
 20
18.3461399364
 11
24.5957393202
 21
18.4081093862
 12
24.7690264961
 22
18.4081093862
 13
24.7690264961
 23
18.4081093862
  0
SOLID
  5
250
100
AcDbEntity
  8
___SYMBOL
100
AcDbTrace
 62
2
  6
CONTINUOUS
 10
25.1918525022
 20
18.4081093862
 11
25.1853392505
 21
18.3461399364
 12
25.0124586764
 22
18.3695535165
 13
25.0124586764
 23
18.3695535165
  0
SOLID
  5
251
100
AcDbEntity
  8
___SYMBOL
100
AcDbTrace
 62
2
  6
CONTINUOUS
 10
24.7751331459
 20
18.3695535165
 11
24.792855334
 21
18.3347717641
 12
24.6022525718
 22
18.3461399364
 13
24.6022525718
 23
18.3461399364
  0
SOLID
  5
252
100
AcDbEntity
  8
___SYMBOL
100
AcDbTrace
 62
2
  6
CONTINUOUS
 10
24.9947364884
 20
18.3347717641
 11
25.0124586764
 21
18.3695535165
 12
25.1853392505
 22
18.3461399364
 13
25.1853392505
 23
18.3461399364
  0
SOLID
  5
253
100
AcDbEntity
  8
___SYMBOL
100
AcDbTrace
 62
2
  6
CONTINUOUS
 10
24.8552400415
 20
18.2894466209
 11
24.6215076664
 21
18.2868788489
 12
24.8204582891
 22
18.307168809
 13
24.8204582891
 23
18.307168809
  0
SOLID
  5
254
100
AcDbEntity
  8
___SYMBOL
100
AcDbTrace
 62
2
  6
CONTINUOUS
 10
24.8204582891
 20
18.307168809
 11
24.6215076664
 21
18.2868788489
 12
24.792855334
 22
18.3347717641
 13
24.792855334
 23
18.3347717641
  0
SOLID
  5
255
100
AcDbEntity
  8
___SYMBOL
100
AcDbTrace
 62
2
  6
CONTINUOUS
 10
24.6215076664
 20
18.2868788489
 11
24.6022525718
 21
18.3461399364
 12
24.792855334
 22
18.3347717641
 13
24.792855334
 23
18.3347717641
  0
SOLID
  5
256
100
AcDbEntity
  8
___SYMBOL
100
AcDbTrace
 62
2
  6
CONTINUOUS
 10
24.9947364884
 20
18.3347717641
 11
25.1853392505
 21
18.3461399364
 12
24.9671335333
 22
18.307168809
 13
24.9671335333
 23
18.307168809
  0
SOLID
  5
257
100
AcDbEntity
  8
___SYMBOL
100
AcDbTrace
 62
2
  6
CONTINUOUS
 10
24.9671335333
 20
18.307168809
 11
25.1853392505
 21
18.3461399364
 12
24.9323517808
 22
18.2894466209
 13
24.9323517808
 23
18.2894466209
  0
SOLID
  5
258
100
AcDbEntity
  8
___SYMBOL
100
AcDbTrace
 62
2
  6
CONTINUOUS
 10
25.1853392505
 20
18.3461399364
 11
25.166084156
 21
18.2868788489
 12
24.9323517808
 22
18.2894466209
 13
24.9323517808
 23
18.2894466209
  0
SOLID
  5
259
100
AcDbEntity
  8
___SYMBOL
100
AcDbTrace
 62
2
  6
CONTINUOUS
 10
24.8552400415
 20
18.2894466209
 11
24.8937959112
 21
18.2833399711
 12
24.6215076664
 22
18.2868788489
 13
24.6215076664
 23
18.2868788489
  0
SOLID
  5
25A
100
AcDbEntity
  8
___SYMBOL
100
AcDbTrace
 62
2
  6
CONTINUOUS
 10
24.8937959112
 20
18.2833399711
 11
24.9323517808
 21
18.2894466209
 12
25.166084156
 22
18.2868788489
 13
25.166084156
 23
18.2868788489
  0
SOLID
  5
25B
100
AcDbEntity
  8
___SYMBOL
100
AcDbTrace
 62
2
  6
CONTINUOUS
 10
24.6526630638
 20
18.2329161177
 11
24.6215076664
 21
18.2868788489
 12
24.8937959112
 22
18.2833399711
 13
24.8937959112
 23
18.2833399711
  0
SOLID
  5
25C
100
AcDbEntity
  8
___SYMBOL
100
AcDbTrace
 62
2
  6
CONTINUOUS
 10
24.8937959112
 20
18.2833399711
 11
25.166084156
 21
18.2868788489
 12
24.6526630638
 22
18.2329161177
 13
24.6526630638
 23
18.2329161177
  0
SOLID
  5
25D
100
AcDbEntity
  8
___SYMBOL
100
AcDbTrace
 62
2
  6
CONTINUOUS
 10
25.166084156
 20
18.2868788489
 11
25.1349287586
 21
18.2329161177
 12
24.6526630638
 22
18.2329161177
 13
24.6526630638
 23
18.2329161177
  0
SOLID
  5
25E
100
AcDbEntity
  8
___SYMBOL
100
AcDbTrace
 62
2
  6
CONTINUOUS
 10
24.6943571237
 20
18.1866101729
 11
24.6526630638
 21
18.2329161177
 12
25.1349287586
 22
18.2329161177
 13
25.1349287586
 23
18.2329161177
  0
SOLID
  5
25F
100
AcDbEntity
  8
___SYMBOL
100
AcDbTrace
 62
2
  6
CONTINUOUS
 10
25.1349287586
 20
18.2329161177
 11
25.0932346986
 21
18.1866101729
 12
24.6943571237
 22
18.1866101729
 13
24.6943571237
 23
18.1866101729
  0
SOLID
  5
260
100
AcDbEntity
  8
___SYMBOL
100
AcDbTrace
 62
2
  6
CONTINUOUS
 10
24.7447676157
 20
18.1499848066
 11
24.6943571237
 21
18.1866101729
 12
25.0932346986
 22
18.1866101729
 13
25.0932346986
 23
18.1866101729
  0
SOLID
  5
261
100
AcDbEntity
  8
___SYMBOL
100
AcDbTrace
 62
2
  6
CONTINUOUS
 10
25.0932346986
 20
18.1866101729
 11
25.0428242067
 21
18.1499848066
 12
24.7447676157
 22
18.1499848066
 13
24.7447676157
 23
18.1499848066
  0
SOLID
  5
262
100
AcDbEntity
  8
___SYMBOL
100
AcDbTrace
 62
2
  6
CONTINUOUS
 10
24.8016913593
 20
18.1246407231
 11
24.7447676157
 21
18.1499848066
 12
25.0428242067
 22
18.1499848066
 13
25.0428242067
 23
18.1499848066
  0
SOLID
  5
263
100
AcDbEntity
  8
___SYMBOL
100
AcDbTrace
 62
2
  6
CONTINUOUS
 10
25.0428242067
 20
18.1499848066
 11
24.9859004631
 21
18.1246407231
 12
24.8016913593
 22
18.1246407231
 13
24.8016913593
 23
18.1246407231
  0
SOLID
  5
264
100
AcDbEntity
  8
___SYMBOL
100
AcDbTrace
 62
2
  6
CONTINUOUS
 10
24.8626405138
 20
18.1116855804
 11
24.8016913593
 21
18.1246407231
 12
24.9859004631
 22
18.1246407231
 13
24.9859004631
 23
18.1246407231
  0
SOLID
  5
265
100
AcDbEntity
  8
___SYMBOL
100
AcDbTrace
 62
2
  6
CONTINUOUS
 10
24.9859004631
 20
18.1246407231
 11
24.9249513086
 21
18.1116855804
 12
24.8626405138
 22
18.1116855804
 13
24.8626405138
 23
18.1116855804
  0
LINE
  5
266
100
AcDbEntity
  8
___SYMBOL
100
AcDbLine
 62
2
  6
CONTINUOUS
 10
25.6864319204
 20
18.7021874627
 11
25.6864319204
 21
18.1162738134
  0
LINE
  5
267
100
AcDbEntity
  8
___SYMBOL
100
AcDbLine
 62
2
  6
CONTINUOUS
 10
25.6864319204
 20
18.1162738134
 11
25.5216982405
 21
18.1162738134
  0
LINE
  5
268
100
AcDbEntity
  8
___SYMBOL
100
AcDbLine
 62
2
  6
CONTINUOUS
 10
25.5216982405
 20
18.3445984232
 11
25.5216982405
 21
18.1162738134
  0
LINE
  5
269
100
AcDbEntity
  8
___SYMBOL
100
AcDbLine
 62
2
  6
CONTINUOUS
 10
25.3737014294
 20
18.3445984232
 11
25.5216982405
 21
18.3445984232
  0
LINE
  5
26A
100
AcDbEntity
  8
___SYMBOL
100
AcDbLine
 62
2
  6
CONTINUOUS
 10
25.3737014294
 20
18.3445984232
 11
25.3737014294
 21
18.1162738134
  0
LINE
  5
26B
100
AcDbEntity
  8
___SYMBOL
100
AcDbLine
 62
2
  6
CONTINUOUS
 10
25.3737014294
 20
18.1162738134
 11
25.2089677496
 21
18.1162738134
  0
LINE
  5
26C
100
AcDbEntity
  8
___SYMBOL
100
AcDbLine
 62
2
  6
CONTINUOUS
 10
25.2089677496
 20
18.7021874627
 11
25.2089677496
 21
18.1162738134
  0
LINE
  5
26D
100
AcDbEntity
  8
___SYMBOL
100
AcDbLine
 62
2
  6
CONTINUOUS
 10
25.2089677496
 20
18.7021874627
 11
25.3737014294
 21
18.7021874627
  0
LINE
  5
26E
100
AcDbEntity
  8
___SYMBOL
100
AcDbLine
 62
2
  6
CONTINUOUS
 10
25.3737014294
 20
18.7021874627
 11
25.3737014294
 21
18.4818037031
  0
LINE
  5
26F
100
AcDbEntity
  8
___SYMBOL
100
AcDbLine
 62
2
  6
CONTINUOUS
 10
25.3737014294
 20
18.4818037031
 11
25.5216982405
 21
18.4818037031
  0
LINE
  5
270
100
AcDbEntity
  8
___SYMBOL
100
AcDbLine
 62
2
  6
CONTINUOUS
 10
25.5216982405
 20
18.7021874627
 11
25.5216982405
 21
18.4818037031
  0
LINE
  5
271
100
AcDbEntity
  8
___SYMBOL
100
AcDbLine
 62
2
  6
CONTINUOUS
 10
25.5216982405
 20
18.7021874627
 11
25.6864319204
 21
18.7021874627
  0
SOLID
  5
272
100
AcDbEntity
  8
___SYMBOL
100
AcDbTrace
 62
2
  6
CONTINUOUS
 10
25.5216982405
 20
18.4818037031
 11
25.5216982405
 21
18.7021874627
 12
25.6864319204
 22
18.7021874627
 13
25.6864319204
 23
18.7021874627
  0
SOLID
  5
273
100
AcDbEntity
  8
___SYMBOL
100
AcDbTrace
 62
2
  6
CONTINUOUS
 10
25.5216982405
 20
18.4818037031
 11
25.3737014294
 21
18.3445984232
 12
25.3737014294
 22
18.4818037031
 13
25.3737014294
 23
18.4818037031
  0
SOLID
  5
274
100
AcDbEntity
  8
___SYMBOL
100
AcDbTrace
 62
2
  6
CONTINUOUS
 10
25.3737014294
 20
18.3445984232
 11
25.2089677496
 21
18.1162738134
 12
25.3737014294
 22
18.4818037031
 13
25.3737014294
 23
18.4818037031
  0
SOLID
  5
275
100
AcDbEntity
  8
___SYMBOL
100
AcDbTrace
 62
2
  6
CONTINUOUS
 10
25.3737014294
 20
18.4818037031
 11
25.2089677496
 21
18.1162738134
 12
25.3737014294
 22
18.7021874627
 13
25.3737014294
 23
18.7021874627
  0
SOLID
  5
276
100
AcDbEntity
  8
___SYMBOL
100
AcDbTrace
 62
2
  6
CONTINUOUS
 10
25.2089677496
 20
18.1162738134
 11
25.2089677496
 21
18.7021874627
 12
25.3737014294
 22
18.7021874627
 13
25.3737014294
 23
18.7021874627
  0
SOLID
  5
277
100
AcDbEntity
  8
___SYMBOL
100
AcDbTrace
 62
2
  6
CONTINUOUS
 10
25.3737014294
 20
18.3445984232
 11
25.3737014294
 21
18.1162738134
 12
25.2089677496
 22
18.1162738134
 13
25.2089677496
 23
18.1162738134
  0
SOLID
  5
278
100
AcDbEntity
  8
___SYMBOL
100
AcDbTrace
 62
2
  6
CONTINUOUS
 10
25.3737014294
 20
18.3445984232
 11
25.5216982405
 21
18.4818037031
 12
25.5216982405
 22
18.3445984232
 13
25.5216982405
 23
18.3445984232
  0
SOLID
  5
279
100
AcDbEntity
  8
___SYMBOL
100
AcDbTrace
 62
2
  6
CONTINUOUS
 10
25.5216982405
 20
18.4818037031
 11
25.6864319204
 21
18.7021874627
 12
25.5216982405
 22
18.3445984232
 13
25.5216982405
 23
18.3445984232
  0
SOLID
  5
27A
100
AcDbEntity
  8
___SYMBOL
100
AcDbTrace
 62
2
  6
CONTINUOUS
 10
25.5216982405
 20
18.3445984232
 11
25.6864319204
 21
18.7021874627
 12
25.5216982405
 22
18.1162738134
 13
25.5216982405
 23
18.1162738134
  0
SOLID
  5
27B
100
AcDbEntity
  8
___SYMBOL
100
AcDbTrace
 62
2
  6
CONTINUOUS
 10
25.6864319204
 20
18.7021874627
 11
25.6864319204
 21
18.1162738134
 12
25.5216982405
 22
18.1162738134
 13
25.5216982405
 23
18.1162738134
  0
LINE
  5
27C
100
AcDbEntity
  8
___SYMBOL
100
AcDbLine
 62
2
  6
CONTINUOUS
 10
25.8815228273
 20
18.1162738134
 11
26.0442068973
 21
18.1162738134
  0
LINE
  5
27D
100
AcDbEntity
  8
___SYMBOL
100
AcDbLine
 62
2
  6
CONTINUOUS
 10
25.8815228273
 20
18.1162738134
 11
25.7314767646
 21
18.1162738134
  0
LINE
  5
27E
100
AcDbEntity
  8
___SYMBOL
100
AcDbLine
 62
2
  6
CONTINUOUS
 10
25.7314767646
 20
18.1162738134
 11
25.7314767646
 21
18.7021874627
  0
LINE
  5
27F
100
AcDbEntity
  8
___SYMBOL
100
AcDbLine
 62
2
  6
CONTINUOUS
 10
25.7314767646
 20
18.7021874627
 11
25.8815228273
 21
18.7021874627
  0
LINE
  5
280
100
AcDbEntity
  8
___SYMBOL
100
AcDbLine
 62
2
  6
CONTINUOUS
 10
25.8815228273
 20
18.7021874627
 11
25.8815228273
 21
18.2575005705
  0
LINE
  5
281
100
AcDbEntity
  8
___SYMBOL
100
AcDbLine
 62
2
  6
CONTINUOUS
 10
25.8815228273
 20
18.2575005705
 11
26.0442068973
 21
18.2575005705
  0
LINE
  5
282
100
AcDbEntity
  8
___SYMBOL
100
AcDbLine
 62
2
  6
CONTINUOUS
 10
26.0442068973
 20
18.2575005705
 11
26.0442068973
 21
18.1162738134
  0
SOLID
  5
283
100
AcDbEntity
  8
___SYMBOL
100
AcDbTrace
 62
2
  6
CONTINUOUS
 10
26.0442068973
 20
18.2575005705
 11
25.7314767646
 21
18.1162738134
 12
25.8815228273
 22
18.2575005705
 13
25.8815228273
 23
18.2575005705
  0
SOLID
  5
284
100
AcDbEntity
  8
___SYMBOL
100
AcDbTrace
 62
2
  6
CONTINUOUS
 10
25.8815228273
 20
18.2575005705
 11
25.7314767646
 21
18.1162738134
 12
25.8815228273
 22
18.7021874627
 13
25.8815228273
 23
18.7021874627
  0
SOLID
  5
285
100
AcDbEntity
  8
___SYMBOL
100
AcDbTrace
 62
2
  6
CONTINUOUS
 10
25.7314767646
 20
18.1162738134
 11
25.7314767646
 21
18.7021874627
 12
25.8815228273
 22
18.7021874627
 13
25.8815228273
 23
18.7021874627
  0
SOLID
  5
286
100
AcDbEntity
  8
___SYMBOL
100
AcDbTrace
 62
2
  6
CONTINUOUS
 10
25.7314767646
 20
18.1162738134
 11
26.0442068973
 21
18.2575005705
 12
25.8815228273
 22
18.1162738134
 13
25.8815228273
 23
18.1162738134
  0
SOLID
  5
287
100
AcDbEntity
  8
___SYMBOL
100
AcDbTrace
 62
2
  6
CONTINUOUS
 10
26.0442068973
 20
18.2575005705
 11
26.0442068973
 21
18.1162738134
 12
25.8815228273
 22
18.1162738134
 13
25.8815228273
 23
18.1162738134
  0
LINE
  5
288
100
AcDbEntity
  8
___SYMBOL
100
AcDbLine
 62
2
  6
CONTINUOUS
 10
26.3824588113
 20
18.3374221015
 11
26.3824588113
 21
18.4818037031
  0
LINE
  5
289
100
AcDbEntity
  8
___SYMBOL
100
AcDbLine
 62
2
  6
CONTINUOUS
 10
26.2316012879
 20
18.4818037031
 11
26.3824588113
 21
18.4818037031
  0
LINE
  5
28A
100
AcDbEntity
  8
___SYMBOL
100
AcDbLine
 62
2
  6
CONTINUOUS
 10
26.2316012879
 20
18.559428066
 11
26.2316012879
 21
18.4818037031
  0
LINE
  5
28B
100
AcDbEntity
  8
___SYMBOL
100
AcDbLine
 62
2
  6
CONTINUOUS
 10
26.2316012879
 20
18.559428066
 11
26.3824588113
 21
18.559428066
  0
LINE
  5
28C
100
AcDbEntity
  8
___SYMBOL
100
AcDbLine
 62
2
  6
CONTINUOUS
 10
26.3824588113
 20
18.559428066
 11
26.3824588113
 21
18.7021874627
  0
LINE
  5
28D
100
AcDbEntity
  8
___SYMBOL
100
AcDbLine
 62
2
  6
CONTINUOUS
 10
26.2458056113
 20
18.7021874627
 11
26.3824588113
 21
18.7021874627
  0
LINE
  5
28E
100
AcDbEntity
  8
___SYMBOL
100
AcDbLine
 62
2
  6
CONTINUOUS
 10
26.073354636
 20
18.7021874627
 11
26.2458056113
 21
18.7021874627
  0
LINE
  5
28F
100
AcDbEntity
  8
___SYMBOL
100
AcDbLine
 62
2
  6
CONTINUOUS
 10
26.073354636
 20
18.1162738134
 11
26.073354636
 21
18.7021874627
  0
LINE
  5
290
100
AcDbEntity
  8
___SYMBOL
100
AcDbLine
 62
2
  6
CONTINUOUS
 10
26.073354636
 20
18.1162738134
 11
26.3824588113
 21
18.1162738134
  0
LINE
  5
291
100
AcDbEntity
  8
___SYMBOL
100
AcDbLine
 62
2
  6
CONTINUOUS
 10
26.3824588113
 20
18.1162738134
 11
26.3824588113
 21
18.2575005705
  0
LINE
  5
292
100
AcDbEntity
  8
___SYMBOL
100
AcDbLine
 62
2
  6
CONTINUOUS
 10
26.2316012879
 20
18.2575005705
 11
26.3824588113
 21
18.2575005705
  0
LINE
  5
293
100
AcDbEntity
  8
___SYMBOL
100
AcDbLine
 62
2
  6
CONTINUOUS
 10
26.2316012879
 20
18.3374221015
 11
26.2316012879
 21
18.2575005705
  0
LINE
  5
294
100
AcDbEntity
  8
___SYMBOL
100
AcDbLine
 62
2
  6
CONTINUOUS
 10
26.2316012879
 20
18.3374221015
 11
26.3824588113
 21
18.3374221015
  0
SOLID
  5
295
100
AcDbEntity
  8
___SYMBOL
100
AcDbTrace
 62
2
  6
CONTINUOUS
 10
26.3824588113
 20
18.7021874627
 11
26.3824588113
 21
18.559428066
 12
26.2316012879
 22
18.559428066
 13
26.2316012879
 23
18.559428066
  0
SOLID
  5
296
100
AcDbEntity
  8
___SYMBOL
100
AcDbTrace
 62
2
  6
CONTINUOUS
 10
26.3824588113
 20
18.4818037031
 11
26.3824588113
 21
18.3374221015
 12
26.2316012879
 22
18.3374221015
 13
26.2316012879
 23
18.3374221015
  0
SOLID
  5
297
100
AcDbEntity
  8
___SYMBOL
100
AcDbTrace
 62
2
  6
CONTINUOUS
 10
26.3824588113
 20
18.2575005705
 11
26.073354636
 21
18.1162738134
 12
26.2316012879
 22
18.2575005705
 13
26.2316012879
 23
18.2575005705
  0
SOLID
  5
298
100
AcDbEntity
  8
___SYMBOL
100
AcDbTrace
 62
2
  6
CONTINUOUS
 10
26.2316012879
 20
18.2575005705
 11
26.073354636
 21
18.1162738134
 12
26.2316012879
 22
18.3374221015
 13
26.2316012879
 23
18.3374221015
  0
SOLID
  5
299
100
AcDbEntity
  8
___SYMBOL
100
AcDbTrace
 62
2
  6
CONTINUOUS
 10
26.3824588113
 20
18.4818037031
 11
26.2316012879
 21
18.3374221015
 12
26.2316012879
 22
18.4818037031
 13
26.2316012879
 23
18.4818037031
  0
SOLID
  5
29A
100
AcDbEntity
  8
___SYMBOL
100
AcDbTrace
 62
2
  6
CONTINUOUS
 10
26.2316012879
 20
18.3374221015
 11
26.073354636
 21
18.1162738134
 12
26.2316012879
 22
18.4818037031
 13
26.2316012879
 23
18.4818037031
  0
SOLID
  5
29B
100
AcDbEntity
  8
___SYMBOL
100
AcDbTrace
 62
2
  6
CONTINUOUS
 10
26.2316012879
 20
18.4818037031
 11
26.073354636
 21
18.1162738134
 12
26.2316012879
 22
18.559428066
 13
26.2316012879
 23
18.559428066
  0
SOLID
  5
29C
100
AcDbEntity
  8
___SYMBOL
100
AcDbTrace
 62
2
  6
CONTINUOUS
 10
26.3824588113
 20
18.7021874627
 11
26.2316012879
 21
18.559428066
 12
26.2458056113
 22
18.7021874627
 13
26.2458056113
 23
18.7021874627
  0
SOLID
  5
29D
100
AcDbEntity
  8
___SYMBOL
100
AcDbTrace
 62
2
  6
CONTINUOUS
 10
26.2316012879
 20
18.559428066
 11
26.073354636
 21
18.1162738134
 12
26.2458056113
 22
18.7021874627
 13
26.2458056113
 23
18.7021874627
  0
SOLID
  5
29E
100
AcDbEntity
  8
___SYMBOL
100
AcDbTrace
 62
2
  6
CONTINUOUS
 10
26.073354636
 20
18.1162738134
 11
26.073354636
 21
18.7021874627
 12
26.2458056113
 22
18.7021874627
 13
26.2458056113
 23
18.7021874627
  0
SOLID
  5
29F
100
AcDbEntity
  8
___SYMBOL
100
AcDbTrace
 62
2
  6
CONTINUOUS
 10
26.3824588113
 20
18.2575005705
 11
26.3824588113
 21
18.1162738134
 12
26.073354636
 22
18.1162738134
 13
26.073354636
 23
18.1162738134
  0
LINE
  5
2A0
100
AcDbEntity
  8
___SYMBOL
100
AcDbLine
 62
2
  6
CONTINUOUS
 10
26.8927092173
 20
18.1162738134
 11
26.7332659743
 21
18.3678563546
  0
ARC
  5
2A1
100
AcDbEntity
  8
___SYMBOL
100
AcDbCircle
 62
2
  6
CONTINUOUS
 10
26.6608267267
 20
18.527177952
 40
0.1750166163
100
AcDbArc
 50
294.4500166359
 51
90.0
  0
LINE
  5
2A2
100
AcDbEntity
  8
___SYMBOL
100
AcDbLine
 62
2
  6
CONTINUOUS
 10
26.427279026
 20
18.7021874627
 11
26.6608267267
 21
18.7021874627
  0
LINE
  5
2A3
100
AcDbEntity
  8
___SYMBOL
100
AcDbLine
 62
2
  6
CONTINUOUS
 10
26.427279026
 20
18.1162738134
 11
26.427279026
 21
18.7021874627
  0
LINE
  5
2A4
100
AcDbEntity
  8
___SYMBOL
100
AcDbLine
 62
2
  6
CONTINUOUS
 10
26.427279026
 20
18.1162738134
 11
26.5779348486
 21
18.1162738134
  0
LINE
  5
2A5
100
AcDbEntity
  8
___SYMBOL
100
AcDbLine
 62
2
  6
CONTINUOUS
 10
26.5779348486
 20
18.3132301842
 11
26.5779348486
 21
18.1162738134
  0
LINE
  5
2A6
100
AcDbEntity
  8
___SYMBOL
100
AcDbLine
 62
2
  6
CONTINUOUS
 10
26.7027582777
 20
18.1162738134
 11
26.5779348486
 21
18.3132301842
  0
LINE
  5
2A7
100
AcDbEntity
  8
___SYMBOL
100
AcDbLine
 62
2
  6
CONTINUOUS
 10
26.7027582777
 20
18.1162738134
 11
26.8927092173
 21
18.1162738134
  0
LINE
  5
2A8
100
AcDbEntity
  8
___SYMBOL
100
AcDbLine
 62
2
  6
CONTINUOUS
 10
26.5779348486
 20
18.4525054949
 11
26.6302745988
 21
18.4525054949
  0
ARC
  5
2A9
100
AcDbEntity
  8
___SYMBOL
100
AcDbCircle
 62
2
  6
CONTINUOUS
 10
26.6338646281
 20
18.5059968944
 40
0.053611735
100
AcDbArc
 50
266.1604009902
 51
89.9998910512
  0
LINE
  5
2AA
100
AcDbEntity
  8
___SYMBOL
100
AcDbLine
 62
2
  6
CONTINUOUS
 10
26.63386473
 20
18.5596086294
 11
26.5779348486
 21
18.5596086294
  0
LINE
  5
2AB
100
AcDbEntity
  8
___SYMBOL
100
AcDbLine
 62
2
  6
CONTINUOUS
 10
26.5779348486
 20
18.5596086294
 11
26.5779348486
 21
18.4525054949
  0
SOLID
  5
2AC
100
AcDbEntity
  8
___SYMBOL
100
AcDbTrace
 62
2
  6
CONTINUOUS
 10
26.6608267267
 20
18.7021945683
 11
26.7077597502
 21
18.6957843199
 12
26.427279026
 22
18.7021874627
 13
26.427279026
 23
18.7021874627
  0
SOLID
  5
2AD
100
AcDbEntity
  8
___SYMBOL
100
AcDbTrace
 62
2
  6
CONTINUOUS
 10
26.5779348486
 20
18.5596086294
 11
26.8318745897
 21
18.5642379649
 12
26.63386473
 22
18.5596086294
 13
26.63386473
 23
18.5596086294
  0
SOLID
  5
2AE
100
AcDbEntity
  8
___SYMBOL
100
AcDbTrace
 62
2
  6
CONTINUOUS
 10
26.63386473
 20
18.5596086294
 11
26.8318745897
 21
18.5642379649
 12
26.6575873116
 22
18.554074461
 13
26.6575873116
 23
18.554074461
  0
SOLID
  5
2AF
100
AcDbEntity
  8
___SYMBOL
100
AcDbTrace
 62
2
  6
CONTINUOUS
 10
26.6575873116
 20
18.554074461
 11
26.8318745897
 21
18.5642379649
 12
26.6764122993
 22
18.538614586
 13
26.6764122993
 23
18.538614586
  0
SOLID
  5
2B0
100
AcDbEntity
  8
___SYMBOL
100
AcDbTrace
 62
2
  6
CONTINUOUS
 10
26.8318745897
 20
18.5642379649
 11
26.8355478361
 21
18.5170118361
 12
26.6764122993
 22
18.538614586
 13
26.6764122993
 23
18.538614586
  0
SOLID
  5
2B1
100
AcDbEntity
  8
___SYMBOL
100
AcDbTrace
 62
2
  6
CONTINUOUS
 10
26.6864532379
 20
18.5164207254
 11
26.6764122993
 21
18.538614586
 12
26.8355478361
 22
18.5170118361
 13
26.8355478361
 23
18.5170118361
  0
SOLID
  5
2B2
100
AcDbEntity
  8
___SYMBOL
100
AcDbTrace
 62
2
  6
CONTINUOUS
 10
26.6864532379
 20
18.5164207254
 11
26.8355478361
 21
18.5170118361
 12
26.6856371562
 22
18.4920748447
 13
26.6856371562
 23
18.4920748447
  0
SOLID
  5
2B3
100
AcDbEntity
  8
___SYMBOL
100
AcDbTrace
 62
2
  6
CONTINUOUS
 10
26.6856371562
 20
18.4920748447
 11
26.8355478361
 21
18.5170118361
 12
26.6741325358
 22
18.4706031981
 13
26.6741325358
 23
18.4706031981
  0
SOLID
  5
2B4
100
AcDbEntity
  8
___SYMBOL
100
AcDbTrace
 62
2
  6
CONTINUOUS
 10
26.8355478361
 20
18.5170118361
 11
26.8264222324
 21
18.470530406
 12
26.6741325358
 22
18.4706031981
 13
26.6741325358
 23
18.4706031981
  0
SOLID
  5
2B5
100
AcDbEntity
  8
___SYMBOL
100
AcDbTrace
 62
2
  6
CONTINUOUS
 10
26.654314528
 20
18.4564386486
 11
26.6741325358
 21
18.4706031981
 12
26.8264222324
 22
18.470530406
 13
26.8264222324
 23
18.470530406
  0
SOLID
  5
2B6
100
AcDbEntity
  8
___SYMBOL
100
AcDbTrace
 62
2
  6
CONTINUOUS
 10
26.654314528
 20
18.4564386486
 11
26.8264222324
 21
18.470530406
 12
26.6302745988
 22
18.4525054949
 13
26.6302745988
 23
18.4525054949
  0
SOLID
  5
2B7
100
AcDbEntity
  8
___SYMBOL
100
AcDbTrace
 62
2
  6
CONTINUOUS
 10
26.8264222324
 20
18.470530406
 11
26.8051662567
 21
18.4281985802
 12
26.6302745988
 22
18.4525054949
 13
26.6302745988
 23
18.4525054949
  0
SOLID
  5
2B8
100
AcDbEntity
  8
___SYMBOL
100
AcDbTrace
 62
2
  6
CONTINUOUS
 10
26.7332659743
 20
18.3678563546
 11
26.5779348486
 21
18.3132301842
 12
26.7733369736
 22
18.3931172929
 13
26.7733369736
 23
18.3931172929
  0
SOLID
  5
2B9
100
AcDbEntity
  8
___SYMBOL
100
AcDbTrace
 62
2
  6
CONTINUOUS
 10
26.7733369736
 20
18.3931172929
 11
26.5779348486
 21
18.3132301842
 12
26.8051662567
 22
18.4281985802
 13
26.8051662567
 23
18.4281985802
  0
SOLID
  5
2BA
100
AcDbEntity
  8
___SYMBOL
100
AcDbTrace
 62
2
  6
CONTINUOUS
 10
26.8051662567
 20
18.4281985802
 11
26.5779348486
 21
18.3132301842
 12
26.6302745988
 22
18.4525054949
 13
26.6302745988
 23
18.4525054949
  0
SOLID
  5
2BB
100
AcDbEntity
  8
___SYMBOL
100
AcDbTrace
 62
2
  6
CONTINUOUS
 10
26.5779348486
 20
18.3132301842
 11
26.427279026
 21
18.1162738134
 12
26.6302745988
 22
18.4525054949
 13
26.6302745988
 23
18.4525054949
  0
SOLID
  5
2BC
100
AcDbEntity
  8
___SYMBOL
100
AcDbTrace
 62
2
  6
CONTINUOUS
 10
26.6302745988
 20
18.4525054949
 11
26.427279026
 21
18.1162738134
 12
26.5779348486
 22
18.4525054949
 13
26.5779348486
 23
18.4525054949
  0
SOLID
  5
2BD
100
AcDbEntity
  8
___SYMBOL
100
AcDbTrace
 62
2
  6
CONTINUOUS
 10
26.5779348486
 20
18.4525054949
 11
26.427279026
 21
18.1162738134
 12
26.5779348486
 22
18.5596086294
 13
26.5779348486
 23
18.5596086294
  0
SOLID
  5
2BE
100
AcDbEntity
  8
___SYMBOL
100
AcDbTrace
 62
2
  6
CONTINUOUS
 10
26.8318745897
 20
18.5642379649
 11
26.5779348486
 21
18.5596086294
 12
26.8156715696
 22
18.6087493356
 13
26.8156715696
 23
18.6087493356
  0
SOLID
  5
2BF
100
AcDbEntity
  8
___SYMBOL
100
AcDbTrace
 62
2
  6
CONTINUOUS
 10
26.8156715696
 20
18.6087493356
 11
26.5779348486
 21
18.5596086294
 12
26.788125696
 22
18.6472853556
 13
26.788125696
 23
18.6472853556
  0
SOLID
  5
2C0
100
AcDbEntity
  8
___SYMBOL
100
AcDbTrace
 62
2
  6
CONTINUOUS
 10
26.788125696
 20
18.6472853556
 11
26.5779348486
 21
18.5596086294
 12
26.7512547877
 22
18.6770231447
 13
26.7512547877
 23
18.6770231447
  0
SOLID
  5
2C1
100
AcDbEntity
  8
___SYMBOL
100
AcDbTrace
 62
2
  6
CONTINUOUS
 10
26.7512547877
 20
18.6770231447
 11
26.5779348486
 21
18.5596086294
 12
26.7077597502
 22
18.6957843199
 13
26.7077597502
 23
18.6957843199
  0
SOLID
  5
2C2
100
AcDbEntity
  8
___SYMBOL
100
AcDbTrace
 62
2
  6
CONTINUOUS
 10
26.7077597502
 20
18.6957843199
 11
26.5779348486
 21
18.5596086294
 12
26.427279026
 22
18.7021874627
 13
26.427279026
 23
18.7021874627
  0
SOLID
  5
2C3
100
AcDbEntity
  8
___SYMBOL
100
AcDbTrace
 62
2
  6
CONTINUOUS
 10
26.427279026
 20
18.1162738134
 11
26.427279026
 21
18.7021874627
 12
26.5779348486
 22
18.5596086294
 13
26.5779348486
 23
18.5596086294
  0
SOLID
  5
2C4
100
AcDbEntity
  8
___SYMBOL
100
AcDbTrace
 62
2
  6
CONTINUOUS
 10
26.5779348486
 20
18.3132301842
 11
26.5779348486
 21
18.1162738134
 12
26.427279026
 22
18.1162738134
 13
26.427279026
 23
18.1162738134
  0
SOLID
  5
2C5
100
AcDbEntity
  8
___SYMBOL
100
AcDbTrace
 62
2
  6
CONTINUOUS
 10
26.5779348486
 20
18.3132301842
 11
26.7332659743
 21
18.3678563546
 12
26.7027582777
 22
18.1162738134
 13
26.7027582777
 23
18.1162738134
  0
SOLID
  5
2C6
100
AcDbEntity
  8
___SYMBOL
100
AcDbTrace
 62
2
  6
CONTINUOUS
 10
26.7332659743
 20
18.3678563546
 11
26.8927092173
 21
18.1162738134
 12
26.7027582777
 22
18.1162738134
 13
26.7027582777
 23
18.1162738134
  0
CIRCLE
  5
2C7
100
AcDbEntity
  8
___SYMBOL
100
AcDbCircle
 62
2
  6
CONTINUOUS
 10
27.0334791919
 20
18.1162738134
 40
0.0653578721
  0
LINE
  5
2C8
100
AcDbEntity
  8
___SYMBOL
100
AcDbLine
 62
2
  6
CONTINUOUS
 10
27.0291911687
 20
18.1157360639
 11
27.0610591815
 21
18.0834331226
  0
LINE
  5
2C9
100
AcDbEntity
  8
___SYMBOL
100
AcDbLine
 62
2
  6
CONTINUOUS
 10
27.0175931925
 20
18.0834331226
 11
27.0175931925
 21
18.1493993215
  0
LINE
  5
2CA
100
AcDbEntity
  8
___SYMBOL
100
AcDbLine
 62
2
  6
CONTINUOUS
 10
27.0175931925
 20
18.1493993215
 11
27.0418725255
 21
18.1493993215
  0
ARC
  5
2CB
100
AcDbEntity
  8
___SYMBOL
100
AcDbCircle
 62
2
  6
CONTINUOUS
 10
27.0418725255
 20
18.1325678718
 40
0.0168314496
100
AcDbArc
 50
270.0
 51
90.0
  0
LINE
  5
2CC
100
AcDbEntity
  8
___SYMBOL
100
AcDbLine
 62
2
  6
CONTINUOUS
 10
27.0418725255
 20
18.1157360639
 11
27.0175931925
 21
18.1157360639
  0
MTEXT
  5
2CD
100
AcDbEntity
  8
___SYMBOL
100
AcDbMText
 62
2
  6
CONTINUOUS
  7
STANDARD
 71
1
 72
1
 10
24.170373656
 20
17.9589463644
 30
0.0
 11
1.0
 21
0.0
 31
0.0
 44
0.9
  1
CUT-OUT TEMPLATE
 40
0.25
 41
3.2
  0
MTEXT
  5
2CE
100
AcDbEntity
  8
___SYMBOL
100
AcDbMText
 62
2
  6
CONTINUOUS
  7
STANDARD
 71
1
 72
1
 10
24.170373656
 20
17.5839463644
 30
0.0
 11
1.0
 21
0.0
 31
0.0
 44
0.9
  1
CARVED VESSELS LAVATORY
 40
0.25
 41
4.6
  0
MTEXT
  5
2CF
100
AcDbEntity
  8
___SYMBOL
100
AcDbMText
 62
2
  6
CONTINUOUS
  7
STANDARD
 71
1
 72
1
 10
24.170373656
 20
17.2089463644
 30
0.0
 11
1.0
 21
0.0
 31
0.0
 44
0.9
  1
GABARIT DE DÉCOUPE
 40
0.25
 41
3.6
  0
MTEXT
  5
2D0
100
AcDbEntity
  8
___SYMBOL
100
AcDbMText
 62
2
  6
CONTINUOUS
  7
STANDARD
 71
1
 72
1
 10
24.170373656
 20
16.8339463644
 30
0.0
 11
1.0
 21
0.0
 31
0.0
 44
0.9
  1
LAVABO À VASQUE SCULPTÉE
 40
0.25
 41
4.8
  0
MTEXT
  5
2D1
100
AcDbEntity
  8
___SYMBOL
100
AcDbMText
 62
2
  6
CONTINUOUS
  7
STANDARD
 71
1
 72
1
 10
24.170373656
 20
16.4589463644
 30
0.0
 11
1.0
 21
0.0
 31
0.0
 44
0.9
  1
PLANTILLA DE CORTE
 40
0.25
 41
3.6
  0
MTEXT
  5
2D2
100
AcDbEntity
  8
___SYMBOL
100
AcDbMText
 62
2
  6
CONTINUOUS
  7
STANDARD
 71
1
 72
1
 10
24.170373656
 20
16.0839463644
 30
0.0
 11
1.0
 21
0.0
 31
0.0
 44
0.9
  1
LAVABO VESSELS GRABADO
 40
0.25
 41
4.4
  0
MTEXT
  5
2D3
100
AcDbEntity
  8
___SYMBOL
100
AcDbMText
 62
2
  6
CONTINUOUS
  7
STANDARD
 71
1
 72
1
 10
24.170373656
 20
15.7089463644
 30
0.0
 11
1.0
 21
0.0
 31
0.0
 44
0.9
  1
VOX
 40
0.25
 41
0.6
  0
MTEXT
  5
2D4
100
AcDbEntity
  8
___SYMBOL
100
AcDbMText
 62
2
  6
CONTINUOUS
  7
STANDARD
 71
1
 72
1
 10
25.370373656
 20
15.7089463644
 30
0.0
 11
1.0
 21
0.0
 31
0.0
 44
0.9
  1
K-14800
 40
0.25
 41
1.4
  0
MTEXT
  5
2D5
100
AcDbEntity
  8
___SYMBOL
100
AcDbMText
 62
2
  6
CONTINUOUS
  7
STANDARD
 71
1
 72
1
 10
26.770373656
 20
15.7089463644
 30
0.0
 11
1.0
 21
0.0
 31
0.0
 44
0.9
  1
-**-
 40
0.25
 41
0.8
  0
MTEXT
  5
2D6
100
AcDbEntity
  8
___SYMBOL
100
AcDbMText
 62
2
  6
CONTINUOUS
  7
STANDARD
 71
1
 72
1
 10
27.570373656
 20
15.7089463644
 30
0.0
 11
1.0
 21
0.0
 31
0.0
 44
0.9
  1
AA
 40
0.25
 41
0.4
  0
ENDBLK
  5
2D7
100
AcDbEntity
  8
0
  6
BYBLOCK
 62
0
100
AcDbBlockEnd
  0
BLOCK
  5
2D8
100
AcDbEntity
  8
___SYMBOL
100
AcDbBlockBegin
 62
2
  6
CONTINUOUS
  2
COPYRIGHT_YEAR_BL4
 70
64
 10
16.3253483964
 20
2.5556318979
  3
COPYRIGHT_YEAR_BL4
  1

  0
CIRCLE
  5
2D9
100
AcDbEntity
  8
___SYMBOL
100
AcDbCircle
 62
7
  6
CONTINUOUS
 10
15.8858660215
 20
2.558079523
 40
0.0328259996
  0
MTEXT
  5
2DA
100
AcDbEntity
  8
___SYMBOL
100
AcDbMText
 62
2
  6
CONTINUOUS
  7
STANDARD
 71
1
 72
1
 10
15.9516567708
 20
2.5908582731
 30
0.0
 11
1.0
 21
0.0
 31
0.0
 44
0.9
  1
2010
 40
0.0705
 41
0.2256
  0
MTEXT
  5
2DB
100
AcDbEntity
  8
___SYMBOL
100
AcDbMText
 62
2
  6
CONTINUOUS
  7
STANDARD
 71
1
 72
1
 10
16.1772567708
 20
2.5908582731
 30
0.0
 11
1.0
 21
0.0
 31
0.0
 44
0.9
  1
 KOHLER CO.
 40
0.0705
 41
0.6204
  0
MTEXT
  5
2DC
100
AcDbEntity
  8
___SYMBOL
100
AcDbMText
 62
2
  6
CONTINUOUS
  7
TEXTSTYLE_4
 71
1
 72
1
 10
15.8716310217
 20
2.5790307728
 30
0.0
 11
1.0
 21
0.0
 31
0.0
 44
0.9
  1
C
 40
0.0421874995
 41
0.0421874995
  0
ENDBLK
  5
2DD
100
AcDbEntity
  8
0
  6
BYBLOCK
 62
0
100
AcDbBlockEnd
  0
BLOCK
  5
2DE
100
AcDbEntity
  8
___SYMBOL
100
AcDbBlockBegin
 62
2
  6
CONTINUOUS
  2
TEMPLATE_NUMBER_BL3
 70
64
 10
10.0587782588
 20
3.9596871233
  3
TEMPLATE_NUMBER_BL3
  1

  0
MTEXT
  5
2DF
100
AcDbEntity
  8
___SYMBOL
100
AcDbMText
 62
2
  6
CONTINUOUS
  7
STANDARD
 71
1
 72
1
 10
9.7485782588
 20
3.9949371233
 30
0.0
 11
1.0
 21
0.0
 31
0.0
 44
0.9
  1
1144643-7-C
 40
0.0705
 41
0.6204
  0
ENDBLK
  5
2E0
100
AcDbEntity
  8
0
  6
BYBLOCK
 62
0
100
AcDbBlockEnd
  0
BLOCK
  5
2E1
100
AcDbEntity
  8
___SYMBOL
100
AcDbBlockBegin
 62
2
  6
CONTINUOUS
  2
TEMPLATE_NUMBER_BL2
 70
64
 10
10.6114555594
 20
2.6620969393
  3
TEMPLATE_NUMBER_BL2
  1

  0
MTEXT
  5
2E2
100
AcDbEntity
  8
___SYMBOL
100
AcDbMText
 62
2
  6
CONTINUOUS
  7
STANDARD
 71
1
 72
1
 10
10.3012555594
 20
2.6973469393
 30
0.0
 11
1.0
 21
0.0
 31
0.0
 44
0.9
  1
1144643-7-C
 40
0.0705
 41
0.6204
  0
ENDBLK
  5
2E3
100
AcDbEntity
  8
0
  6
BYBLOCK
 62
0
100
AcDbBlockEnd
  0
BLOCK
  5
2E4
100
AcDbEntity
  8
___SYMBOL
100
AcDbBlockBegin
 62
2
  6
CONTINUOUS
  2
PLOTTING_TEMPLATE_NOTE_BL1
 70
64
 10
27.2027411777
 20
12.1625743974
  3
PLOTTING_TEMPLATE_NOTE_BL1
  1

  0
MTEXT
  5
2E5
100
AcDbEntity
  8
___SYMBOL
100
AcDbMText
 62
2
  6
CONTINUOUS
  7
STANDARD
 71
1
 72
1
 10
24.3277411777
 20
13.6469493974
 30
0.0
 11
1.0
 21
0.0
 31
0.0
 44
0.9
  1
WHEN PLOTTING TEMPLATE FULL SIZE:
 40
0.15625
 41
4.125
  0
MTEXT
  5
2E6
100
AcDbEntity
  8
___SYMBOL
100
AcDbMText
 62
2
  6
CONTINUOUS
  7
STANDARD
 71
1
 72
1
 10
24.3277411777
 20
13.4125743974
 30
0.0
 11
1.0
 21
0.0
 31
0.0
 44
0.9
  1
Make sure horizontal and vertical dimensions
 40
0.15625
 41
5.5
  0
MTEXT
  5
2E7
100
AcDbEntity
  8
___SYMBOL
100
AcDbMText
 62
2
  6
CONTINUOUS
  7
STANDARD
 71
1
 72
1
 10
24.3277411777
 20
13.1781993974
 30
0.0
 11
1.0
 21
0.0
 31
0.0
 44
0.9
  1
match the dimensions labeled on the template.
 40
0.15625
 41
5.625
  0
MTEXT
  5
2E8
100
AcDbEntity
  8
___SYMBOL
100
AcDbMText
 62
2
  6
CONTINUOUS
  7
STANDARD
 71
1
 72
1
 10
24.3277411777
 20
12.7094493974
 30
0.0
 11
1.0
 21
0.0
 31
0.0
 44
0.9
  1
LORS DU TRACÉ DU GABARIT À L'ÉCHELLE: 
 40
0.15625
 41
4.75
  0
MTEXT
  5
2E9
100
AcDbEntity
  8
___SYMBOL
100
AcDbMText
 62
2
  6
CONTINUOUS
  7
STANDARD
 71
1
 72
1
 10
24.3277411777
 20
12.4750743974
 30
0.0
 11
1.0
 21
0.0
 31
0.0
 44
0.9
  1
s'assurer que les dimensions horizontales et
 40
0.15625
 41
5.5
  0
MTEXT
  5
2EA
100
AcDbEntity
  8
___SYMBOL
100
AcDbMText
 62
2
  6
CONTINUOUS
  7
STANDARD
 71
1
 72
1
 10
24.3277411777
 20
12.2406993974
 30
0.0
 11
1.0
 21
0.0
 31
0.0
 44
0.9
  1
verticales correspondent à celles marquées sur
 40
0.15625
 41
5.75
  0
MTEXT
  5
2EB
100
AcDbEntity
  8
___SYMBOL
100
AcDbMText
 62
2
  6
CONTINUOUS
  7
STANDARD
 71
1
 72
1
 10
24.3277411777
 20
12.0063243974
 30
0.0
 11
1.0
 21
0.0
 31
0.0
 44
0.9
  1
le gabarit.
 40
0.15625
 41
1.375
  0
MTEXT
  5
2EC
100
AcDbEntity
  8
___SYMBOL
100
AcDbMText
 62
2
  6
CONTINUOUS
  7
STANDARD
 71
1
 72
1
 10
24.3277411777
 20
11.5375743974
 30
0.0
 11
1.0
 21
0.0
 31
0.0
 44
0.9
  1
AL TRAZAR LA PLANTILLA A ESCALA COMPLETA:
 40
0.15625
 41
5.125
  0
MTEXT
  5
2ED
100
AcDbEntity
  8
___SYMBOL
100
AcDbMText
 62
2
  6
CONTINUOUS
  7
STANDARD
 71
1
 72
1
 10
24.3277411777
 20
11.3031993974
 30
0.0
 11
1.0
 21
0.0
 31
0.0
 44
0.9
  1
asegúrese de que la dimensión horizontal y
 40
0.15625
 41
5.25
  0
MTEXT
  5
2EE
100
AcDbEntity
  8
___SYMBOL
100
AcDbMText
 62
2
  6
CONTINUOUS
  7
STANDARD
 71
1
 72
1
 10
24.3277411777
 20
11.0688243974
 30
0.0
 11
1.0
 21
0.0
 31
0.0
 44
0.9
  1
la dimensión vertical sean iguales a las
 40
0.15625
 41
5.0
  0
MTEXT
  5
2EF
100
AcDbEntity
  8
___SYMBOL
100
AcDbMText
 62
2
  6
CONTINUOUS
  7
STANDARD
 71
1
 72
1
 10
24.3277411777
 20
10.8344493974
 30
0.0
 11
1.0
 21
0.0
 31
0.0
 44
0.9
  1
dimensiones indicadas en la plantilla.
 40
0.15625
 41
4.75
  0
ENDBLK
  5
2F0
100
AcDbEntity
  8
0
  6
BYBLOCK
 62
0
100
AcDbBlockEnd
  0
BLOCK
  5
2F1
100
AcDbEntity
  8
___SYMBOL
100
AcDbBlockBegin
 62
2
  6
CONTINUOUS
  2
PACKAGING_UPC_NOTE_BL0
 70
64
 10
27.4797335012
 20
6.8254647854
  3
PACKAGING_UPC_NOTE_BL0
  1

  0
LINE
  5
2F2
100
AcDbEntity
  8
___SYMBOL
100
AcDbLine
 62
7
  6
CONTINUOUS
 10
27.6220376824
 20
7.1965730792
 11
25.436995208
 21
7.1965730792
  0
LINE
  5
2F3
100
AcDbEntity
  8
___SYMBOL
100
AcDbLine
 62
7
  6
CONTINUOUS
 10
25.436995208
 20
7.1965730792
 11
25.436995208
 21
8.1896030676
  0
LINE
  5
2F4
100
AcDbEntity
  8
___SYMBOL
100
AcDbLine
 62
7
  6
CONTINUOUS
 10
25.436995208
 20
8.1896030676
 11
27.6220376824
 21
8.1896030676
  0
LINE
  5
2F5
100
AcDbEntity
  8
___SYMBOL
100
AcDbLine
 62
7
  6
CONTINUOUS
 10
27.6220376824
 20
8.1896030676
 11
27.6220376824
 21
7.1965730792
  0
LINE
  5
2F6
100
AcDbEntity
  8
___SYMBOL
100
AcDbLine
 62
7
  6
CONTINUOUS
 10
25.4036277084
 20
8.2220630672
 11
27.656192682
 21
8.2220630672
  0
LINE
  5
2F7
100
AcDbEntity
  8
___SYMBOL
100
AcDbLine
 62
7
  6
CONTINUOUS
 10
27.656192682
 20
8.2220630672
 11
27.656192682
 21
7.12915558
  0
LINE
  5
2F8
100
AcDbEntity
  8
___SYMBOL
100
AcDbLine
 62
7
  6
CONTINUOUS
 10
27.656192682
 20
7.12915558
 11
25.4036277084
 21
7.12915558
  0
LINE
  5
2F9
100
AcDbEntity
  8
___SYMBOL
100
AcDbLine
 62
7
  6
CONTINUOUS
 10
25.4036277084
 20
7.12915558
 11
25.4036277084
 21
8.2220630672
  0
LINE
  5
2FA
100
AcDbEntity
  8
___SYMBOL
100
AcDbLine
 62
7
  6
CONTINUOUS
 10
27.4168526848
 20
7.6282430742
 11
27.4168526848
 21
7.5066080756
  0
LINE
  5
2FB
100
AcDbEntity
  8
___SYMBOL
100
AcDbLine
 62
7
  6
CONTINUOUS
 10
27.4168526848
 20
7.5066080756
 11
27.0739001888
 21
7.5066080756
  0
LINE
  5
2FC
100
AcDbEntity
  8
___SYMBOL
100
AcDbLine
 62
7
  6
CONTINUOUS
 10
27.0739001888
 20
7.5066080756
 11
27.0739001888
 21
7.6282430742
  0
LINE
  5
2FD
100
AcDbEntity
  8
___SYMBOL
100
AcDbLine
 62
7
  6
CONTINUOUS
 10
27.0739001888
 20
7.6282430742
 11
27.4168526848
 21
7.6282430742
  0
SOLID
  5
2FE
100
AcDbEntity
  8
___SYMBOL
100
AcDbTrace
 62
7
  6
CONTINUOUS
 10
27.0739001888
 20
7.5066080665
 11
27.0739001888
 21
7.6282430665
 12
27.4168526848
 22
7.6282430665
 13
27.4168526848
 23
7.6282430665
  0
SOLID
  5
2FF
100
AcDbEntity
  8
___SYMBOL
100
AcDbTrace
 62
7
  6
CONTINUOUS
 10
27.4168526848
 20
7.6282430665
 11
27.4168526848
 21
7.5066080665
 12
27.0739001888
 22
7.5066080665
 13
27.0739001888
 23
7.5066080665
  0
LINE
  5
300
100
AcDbEntity
  8
___SYMBOL
100
AcDbLine
 62
7
  6
CONTINUOUS
 10
26.3413976974
 20
7.6282430742
 11
26.3413976974
 21
7.5066080756
  0
LINE
  5
301
100
AcDbEntity
  8
___SYMBOL
100
AcDbLine
 62
7
  6
CONTINUOUS
 10
26.3413976974
 20
7.5066080756
 11
25.4856927074
 21
7.5066080756
  0
LINE
  5
302
100
AcDbEntity
  8
___SYMBOL
100
AcDbLine
 62
7
  6
CONTINUOUS
 10
25.4856927074
 20
7.5066080756
 11
25.4856927074
 21
7.6282430742
  0
LINE
  5
303
100
AcDbEntity
  8
___SYMBOL
100
AcDbLine
 62
7
  6
CONTINUOUS
 10
25.4856927074
 20
7.6282430742
 11
26.3413976974
 21
7.6282430742
  0
SOLID
  5
304
100
AcDbEntity
  8
___SYMBOL
100
AcDbTrace
 62
7
  6
CONTINUOUS
 10
25.4856927074
 20
7.5066080665
 11
25.4856927074
 21
7.6282430665
 12
26.3413976974
 22
7.6282430665
 13
26.3413976974
 23
7.6282430665
  0
SOLID
  5
305
100
AcDbEntity
  8
___SYMBOL
100
AcDbTrace
 62
7
  6
CONTINUOUS
 10
26.3413976974
 20
7.6282430665
 11
26.3413976974
 21
7.5066080665
 12
25.4856927074
 22
7.5066080665
 13
25.4856927074
 23
7.5066080665
  0
LINE
  5
306
100
AcDbEntity
  8
___SYMBOL
100
AcDbLine
 62
7
  6
CONTINUOUS
 10
26.3413976974
 20
7.2549755785
 11
26.3413976974
 21
7.2199955789
  0
LINE
  5
307
100
AcDbEntity
  8
___SYMBOL
100
AcDbLine
 62
7
  6
CONTINUOUS
 10
26.3413976974
 20
7.2199955789
 11
25.4856927074
 21
7.2199955789
  0
LINE
  5
308
100
AcDbEntity
  8
___SYMBOL
100
AcDbLine
 62
7
  6
CONTINUOUS
 10
25.4856927074
 20
7.2199955789
 11
25.4856927074
 21
7.2549755785
  0
LINE
  5
309
100
AcDbEntity
  8
___SYMBOL
100
AcDbLine
 62
7
  6
CONTINUOUS
 10
25.4856927074
 20
7.2549755785
 11
26.3413976974
 21
7.2549755785
  0
SOLID
  5
30A
100
AcDbEntity
  8
___SYMBOL
100
AcDbTrace
 62
7
  6
CONTINUOUS
 10
25.4856927074
 20
7.2199955805
 11
25.4856927074
 21
7.2549755625
 12
26.3413976974
 22
7.2549755625
 13
26.3413976974
 23
7.2549755625
  0
SOLID
  5
30B
100
AcDbEntity
  8
___SYMBOL
100
AcDbTrace
 62
7
  6
CONTINUOUS
 10
26.3413976974
 20
7.2549755625
 11
26.3413976974
 21
7.2199955805
 12
25.4856927074
 22
7.2199955805
 13
25.4856927074
 23
7.2199955805
  0
ELLIPSE
  5
30C
100
AcDbEntity
  8
___SYMBOL
100
AcDbEllipse
 62
7
  6
CONTINUOUS
 10
26.2262464487
 20
7.386648577
 30
0.0
 11
0.0665781627
 21
0.048368357
 31
0.0
 40
0.999973
 41
1.1735611666
 42
7.4430683942
  0
LINE
  5
30D
100
AcDbEntity
  8
___SYMBOL
100
AcDbLine
 62
7
  6
CONTINUOUS
 10
26.3880476969
 20
8.1614780679
 11
26.3880476969
 21
8.0998280687
  0
LINE
  5
30E
100
AcDbEntity
  8
___SYMBOL
100
AcDbLine
 62
7
  6
CONTINUOUS
 10
26.3880476969
 20
8.0998280687
 11
25.5323427069
 21
8.0998280687
  0
LINE
  5
30F
100
AcDbEntity
  8
___SYMBOL
100
AcDbLine
 62
7
  6
CONTINUOUS
 10
25.5323427069
 20
8.0998280687
 11
25.5323427069
 21
8.1614780679
  0
LINE
  5
310
100
AcDbEntity
  8
___SYMBOL
100
AcDbLine
 62
7
  6
CONTINUOUS
 10
25.5323427069
 20
8.1614780679
 11
26.3880476969
 21
8.1614780679
  0
SOLID
  5
311
100
AcDbEntity
  8
___SYMBOL
100
AcDbTrace
 62
7
  6
CONTINUOUS
 10
25.5323427069
 20
8.0998280645
 11
25.5323427069
 21
8.1614780545
 12
26.3880476969
 22
8.1614780545
 13
26.3880476969
 23
8.1614780545
  0
SOLID
  5
312
100
AcDbEntity
  8
___SYMBOL
100
AcDbTrace
 62
7
  6
CONTINUOUS
 10
26.3880476969
 20
8.1614780545
 11
26.3880476969
 21
8.0998280645
 12
25.5323427069
 22
8.0998280645
 13
25.5323427069
 23
8.0998280645
  0
LINE
  5
313
100
AcDbEntity
  8
___SYMBOL
100
AcDbLine
 62
7
  6
CONTINUOUS
 10
26.3880476969
 20
8.0614955691
 11
26.3880476969
 21
7.9998455698
  0
LINE
  5
314
100
AcDbEntity
  8
___SYMBOL
100
AcDbLine
 62
7
  6
CONTINUOUS
 10
26.3880476969
 20
7.9998455698
 11
25.5323427069
 21
7.9998455698
  0
LINE
  5
315
100
AcDbEntity
  8
___SYMBOL
100
AcDbLine
 62
7
  6
CONTINUOUS
 10
25.5323427069
 20
7.9998455698
 11
25.5323427069
 21
8.0614955691
  0
LINE
  5
316
100
AcDbEntity
  8
___SYMBOL
100
AcDbLine
 62
7
  6
CONTINUOUS
 10
25.5323427069
 20
8.0614955691
 11
26.3880476969
 21
8.0614955691
  0
SOLID
  5
317
100
AcDbEntity
  8
___SYMBOL
100
AcDbTrace
 62
7
  6
CONTINUOUS
 10
25.5323427069
 20
7.9998455565
 11
25.5323427069
 21
8.0614955805
 12
26.3880476969
 22
8.0614955805
 13
26.3880476969
 23
8.0614955805
  0
SOLID
  5
318
100
AcDbEntity
  8
___SYMBOL
100
AcDbTrace
 62
7
  6
CONTINUOUS
 10
26.3880476969
 20
8.0614955805
 11
26.3880476969
 21
7.9998455565
 12
25.5323427069
 22
7.9998455565
 13
25.5323427069
 23
7.9998455565
  0
LINE
  5
319
100
AcDbEntity
  8
___SYMBOL
100
AcDbLine
 62
7
  6
CONTINUOUS
 10
26.3880476969
 20
7.9615130703
 11
26.3880476969
 21
7.899870571
  0
LINE
  5
31A
100
AcDbEntity
  8
___SYMBOL
100
AcDbLine
 62
7
  6
CONTINUOUS
 10
26.3880476969
 20
7.899870571
 11
25.5323427069
 21
7.899870571
  0
LINE
  5
31B
100
AcDbEntity
  8
___SYMBOL
100
AcDbLine
 62
7
  6
CONTINUOUS
 10
25.5323427069
 20
7.899870571
 11
25.5323427069
 21
7.9615130703
  0
LINE
  5
31C
100
AcDbEntity
  8
___SYMBOL
100
AcDbLine
 62
7
  6
CONTINUOUS
 10
25.5323427069
 20
7.9615130703
 11
26.3880476969
 21
7.9615130703
  0
SOLID
  5
31D
100
AcDbEntity
  8
___SYMBOL
100
AcDbTrace
 62
7
  6
CONTINUOUS
 10
25.5323427069
 20
7.8998705625
 11
25.5323427069
 21
7.9615130725
 12
26.3880476969
 22
7.9615130725
 13
26.3880476969
 23
7.9615130725
  0
SOLID
  5
31E
100
AcDbEntity
  8
___SYMBOL
100
AcDbTrace
 62
7
  6
CONTINUOUS
 10
26.3880476969
 20
7.9615130725
 11
26.3880476969
 21
7.8998705625
 12
25.5323427069
 22
7.8998705625
 13
25.5323427069
 23
7.8998705625
  0
LINE
  5
31F
100
AcDbEntity
  8
___SYMBOL
100
AcDbLine
 62
7
  6
CONTINUOUS
 10
26.3880476969
 20
7.8615305714
 11
26.3880476969
 21
7.7998880722
  0
LINE
  5
320
100
AcDbEntity
  8
___SYMBOL
100
AcDbLine
 62
7
  6
CONTINUOUS
 10
26.3880476969
 20
7.7998880722
 11
25.5323427069
 21
7.7998880722
  0
LINE
  5
321
100
AcDbEntity
  8
___SYMBOL
100
AcDbLine
 62
7
  6
CONTINUOUS
 10
25.5323427069
 20
7.7998880722
 11
25.5323427069
 21
7.8615305714
  0
LINE
  5
322
100
AcDbEntity
  8
___SYMBOL
100
AcDbLine
 62
7
  6
CONTINUOUS
 10
25.5323427069
 20
7.8615305714
 11
26.3880476969
 21
7.8615305714
  0
SOLID
  5
323
100
AcDbEntity
  8
___SYMBOL
100
AcDbTrace
 62
7
  6
CONTINUOUS
 10
25.5323427069
 20
7.7998880885
 11
25.5323427069
 21
7.8615305645
 12
26.3880476969
 22
7.8615305645
 13
26.3880476969
 23
7.8615305645
  0
SOLID
  5
324
100
AcDbEntity
  8
___SYMBOL
100
AcDbTrace
 62
7
  6
CONTINUOUS
 10
26.3880476969
 20
7.8615305645
 11
26.3880476969
 21
7.7998880885
 12
25.5323427069
 22
7.7998880885
 13
25.5323427069
 23
7.7998880885
  0
LINE
  5
325
100
AcDbEntity
  8
___SYMBOL
100
AcDbLine
 62
7
  6
CONTINUOUS
 10
26.3880476969
 20
7.7348930729
 11
26.3880476969
 21
7.6732430736
  0
LINE
  5
326
100
AcDbEntity
  8
___SYMBOL
100
AcDbLine
 62
7
  6
CONTINUOUS
 10
26.3880476969
 20
7.6732430736
 11
25.5323427069
 21
7.6732430736
  0
LINE
  5
327
100
AcDbEntity
  8
___SYMBOL
100
AcDbLine
 62
7
  6
CONTINUOUS
 10
25.5323427069
 20
7.6732430736
 11
25.5323427069
 21
7.7348930729
  0
LINE
  5
328
100
AcDbEntity
  8
___SYMBOL
100
AcDbLine
 62
7
  6
CONTINUOUS
 10
25.5323427069
 20
7.7348930729
 11
26.3880476969
 21
7.7348930729
  0
SOLID
  5
329
100
AcDbEntity
  8
___SYMBOL
100
AcDbTrace
 62
7
  6
CONTINUOUS
 10
25.5323427069
 20
7.6732430865
 11
25.5323427069
 21
7.7348930765
 12
26.3880476969
 22
7.7348930765
 13
26.3880476969
 23
7.7348930765
  0
SOLID
  5
32A
100
AcDbEntity
  8
___SYMBOL
100
AcDbTrace
 62
7
  6
CONTINUOUS
 10
26.3880476969
 20
7.7348930765
 11
26.3880476969
 21
7.6732430865
 12
25.5323427069
 22
7.6732430865
 13
25.5323427069
 23
7.6732430865
  0
MTEXT
  5
32B
100
AcDbEntity
  8
___SYMBOL
100
AcDbMText
 62
2
  6
CONTINUOUS
  7
TEXTSTYLE_2
 71
1
 72
1
 10
25.6332327057
 20
7.4118268267
 30
0.0
 11
1.0
 21
0.0
 31
0.0
 44
0.9
  1
XXXXX-XX-X-XX
 40
0.0593587493
 41
0.6373132426
  0
MTEXT
  5
32C
100
AcDbEntity
  8
___SYMBOL
100
AcDbMText
 62
2
  6
CONTINUOUS
  7
TEXTSTYLE_3
 71
1
 72
1
 10
27.2672126866
 20
7.2678223284
 30
0.0
 11
1.0
 21
0.0
 31
0.0
 44
0.9
  1
xxxxxx-xx
 40
0.0445192495
 41
0.2700622468
  0
MTEXT
  5
32D
100
AcDbEntity
  8
___SYMBOL
100
AcDbMText
 62
2
  6
CONTINUOUS
  7
STANDARD
 71
1
 72
1
 10
24.5028884103
 20
9.0523467444
 30
0.0
 11
1.0
 21
0.0
 31
0.0
 44
0.9
  1
PACKAGING/UPC LABEL ON BOX
 40
0.1562500052
 41
3.2500001087
  0
MTEXT
  5
32E
100
AcDbEntity
  8
___SYMBOL
100
AcDbMText
 62
2
  6
CONTINUOUS
  7
STANDARD
 71
1
 72
1
 10
24.5028884103
 20
8.8179717366
 30
0.0
 11
1.0
 21
0.0
 31
0.0
 44
0.9
  1
EMBALLAGE/ÉTIQUETTE UPC SUR BOÎTE
 40
0.1562500052
 41
4.125000138
  0
MTEXT
  5
32F
100
AcDbEntity
  8
___SYMBOL
100
AcDbMText
 62
2
  6
CONTINUOUS
  7
STANDARD
 71
1
 72
1
 10
24.5028884103
 20
8.5835967288
 30
0.0
 11
1.0
 21
0.0
 31
0.0
 44
0.9
  1
ETIQUETA DE EMBALAJE/UPC EN LA CAJA
 40
0.1562500052
 41
4.3750001463
  0
MTEXT
  5
330
100
AcDbEntity
  8
___SYMBOL
100
AcDbMText
 62
2
  6
CONTINUOUS
  7
STANDARD
 71
1
 72
1
 10
24.4797335012
 20
6.8642078263
 30
0.0
 11
1.0
 21
0.0
 31
0.0
 44
0.9
  1
The template and the label suffixes circled
 40
0.15625
 41
5.375
  0
MTEXT
  5
331
100
AcDbEntity
  8
___SYMBOL
100
AcDbMText
 62
2
  6
CONTINUOUS
  7
STANDARD
 71
1
 72
1
 10
24.4797335012
 20
6.6298328263
 30
0.0
 11
1.0
 21
0.0
 31
0.0
 44
0.9
  1
must match for proper cut-out.
 40
0.15625
 41
3.75
  0
MTEXT
  5
332
100
AcDbEntity
  8
___SYMBOL
100
AcDbMText
 62
2
  6
CONTINUOUS
  7
STANDARD
 71
1
 72
1
 10
24.4797335012
 20
6.1610828263
 30
0.0
 11
1.0
 21
0.0
 31
0.0
 44
0.9
  1
Les suffixes du gabarit et de l'étiquette
 40
0.15625
 41
5.125
  0
MTEXT
  5
333
100
AcDbEntity
  8
___SYMBOL
100
AcDbMText
 62
2
  6
CONTINUOUS
  7
STANDARD
 71
1
 72
1
 10
24.4797335012
 20
5.9267078263
 30
0.0
 11
1.0
 21
0.0
 31
0.0
 44
0.9
  1
encerclés doivent correspondre pour une
 40
0.15625
 41
4.875
  0
MTEXT
  5
334
100
AcDbEntity
  8
___SYMBOL
100
AcDbMText
 62
2
  6
CONTINUOUS
  7
STANDARD
 71
1
 72
1
 10
24.4797335012
 20
5.6923328263
 30
0.0
 11
1.0
 21
0.0
 31
0.0
 44
0.9
  1
propre découpe.
 40
0.15625
 41
1.875
  0
MTEXT
  5
335
100
AcDbEntity
  8
___SYMBOL
100
AcDbMText
 62
2
  6
CONTINUOUS
  7
STANDARD
 71
1
 72
1
 10
24.4797335012
 20
5.2235828263
 30
0.0
 11
1.0
 21
0.0
 31
0.0
 44
0.9
  1
A fin de realizar el corte correcto, los sufijos
 40
0.15625
 41
6.0
  0
MTEXT
  5
336
100
AcDbEntity
  8
___SYMBOL
100
AcDbMText
 62
2
  6
CONTINUOUS
  7
STANDARD
 71
1
 72
1
 10
24.4797335012
 20
4.9892078263
 30
0.0
 11
1.0
 21
0.0
 31
0.0
 44
0.9
  1
de la plantilla y de la etiqueta encerrados
 40
0.15625
 41
5.375
  0
MTEXT
  5
337
100
AcDbEntity
  8
___SYMBOL
100
AcDbMText
 62
2
  6
CONTINUOUS
  7
STANDARD
 71
1
 72
1
 10
24.4797335012
 20
4.7548328263
 30
0.0
 11
1.0
 21
0.0
 31
0.0
 44
0.9
  1
en un círculo deben ser iguales.
 40
0.15625
 41
4.0
  0
ENDBLK
  5
338
100
AcDbEntity
  8
0
  6
BYBLOCK
 62
0
100
AcDbBlockEnd
  0
BLOCK
  5
339
100
AcDbEntity
  8
0
100
AcDbBlockBegin
  2
_FILLED
 70
64
 10
0.0
 20
0.0
  3
_FILLED
  1

  0
SOLID
  5
33A
100
AcDbEntity
  8
0
  6
BYBLOCK
 62
0
100
AcDbTrace
 10
0.0
 20
0.0
 11
-1.0
 21
0.1666666667
 12
-1.0
 22
-0.1666666667
 13
-1.0
 23
-0.1666666667
  0
ENDBLK
  5
33B
100
AcDbEntity
  8
0
  6
BYBLOCK
 62
0
100
AcDbBlockEnd
  0
BLOCK
  5
33C
100
AcDbEntity
  8
0
100
AcDbBlockBegin
 62
2
  6
CONTINUOUS
  2
*D0
 70
65
 10
0.0
 20
0.0
  3
*D0
  1

  0
MTEXT
  5
33D
100
AcDbEntity
  8
0
100
AcDbMText
 62
2
  6
CONTINUOUS
  7
STANDARD
 71
2
 72
1
 10
13.9710213213
 20
2.4751828782
 30
0.0
 11
1.0
 21
0.0
 31
0.0
 44
0.9
  1
3.74\P[95]
 40
0.15625
 41
0.5
  0
LINE
  5
33E
100
AcDbEntity
  8
0
100
AcDbLine
 62
2
  6
CONTINUOUS
 10
11.3332342657
 20
5.6182793774
 11
11.3332342657
 21
2.2720578782
  0
LINE
  5
33F
100
AcDbEntity
  8
0
100
AcDbLine
 62
2
  6
CONTINUOUS
 10
15.0732342657
 20
5.6182793774
 11
15.0732342657
 21
2.2720578782
  0
LINE
  5
340
100
AcDbEntity
  8
0
100
AcDbLine
 62
2
  6
CONTINUOUS
 10
11.3332342657
 20
2.3970578782
 11
13.6428963213
 21
2.3970578782
  0
LINE
  5
341
100
AcDbEntity
  8
0
100
AcDbLine
 62
2
  6
CONTINUOUS
 10
15.0732342657
 20
2.3970578782
 11
14.2991463213
 21
2.3970578782
  0
INSERT
  5
342
100
AcDbEntity
  8
0
100
AcDbBlockReference
 62
2
  6
CONTINUOUS
  2
_FILLED
 10
11.3332342657
 20
2.3970578782
 41
0.1875
 42
0.1875
 43
0.1875
 50
180.0
  0
INSERT
  5
343
100
AcDbEntity
  8
0
100
AcDbBlockReference
 62
2
  6
CONTINUOUS
  2
_FILLED
 10
15.0732342657
 20
2.3970578782
 41
0.1875
 42
0.1875
 43
0.1875
  0
ENDBLK
  5
344
100
AcDbEntity
  8
0
  6
BYBLOCK
 62
0
100
AcDbBlockEnd
  0
BLOCK
  5
345
100
AcDbEntity
  8
0
100
AcDbBlockBegin
 62
2
  6
CONTINUOUS
  2
*D1
 70
65
 10
0.0
 20
0.0
  3
*D1
  1

  0
MTEXT
  5
346
100
AcDbEntity
  8
0
100
AcDbMText
 62
2
  6
CONTINUOUS
  7
TEXTSTYLE_1
 71
1
 72
1
 10
18.7513319912
 20
4.169594011
 30
0.0
 11
1.0
 21
0.0
 31
0.0
 44
0.9
  1
{\Fgdt;n}\Ftxt;16.54\P[420]
 40
0.15625
 41
0.8333333333
  0
LINE
  5
347
100
AcDbEntity
  8
0
100
AcDbLine
 62
2
  6
CONTINUOUS
 10
18.2004647372
 20
4.4880085812
 11
18.5013319912
 21
4.091469011
  0
LINE
  5
348
100
AcDbEntity
  8
0
100
AcDbLine
 62
2
  6
CONTINUOUS
 10
18.5013319912
 20
4.091469011
 11
18.6732069912
 21
4.091469011
  0
INSERT
  5
349
100
AcDbEntity
  8
0
100
AcDbBlockReference
 62
2
  6
CONTINUOUS
  2
_FILLED
 10
18.2004647372
 20
4.4880085812
 41
0.1875
 42
0.1875
 43
0.1875
 50
127.1887535538
  0
ENDBLK
  5
34A
100
AcDbEntity
  8
0
  6
BYBLOCK
 62
0
100
AcDbBlockEnd
  0
BLOCK
  5
34B
100
AcDbEntity
  8
0
100
AcDbBlockBegin
 62
2
  6
CONTINUOUS
  2
*D2
 70
65
 10
0.0
 20
0.0
  3
*D2
  1

  0
MTEXT
  5
34C
100
AcDbEntity
  8
0
100
AcDbMText
 62
2
  6
CONTINUOUS
  7
TEXTSTYLE_1
 71
1
 72
1
 10
20.5107317763
 20
5.6843082416
 30
0.0
 11
1.0
 21
0.0
 31
0.0
 44
0.9
  1
{\Fgdt;n}\Ftxt;11.42\P[290]
 40
0.15625
 41
0.8333333333
  0
LINE
  5
34D
100
AcDbEntity
  8
0
100
AcDbLine
 62
2
  6
CONTINUOUS
 10
17.7157653221
 20
7.5780118504
 11
20.2607317763
 21
5.6061832416
  0
LINE
  5
34E
100
AcDbEntity
  8
0
100
AcDbLine
 62
2
  6
CONTINUOUS
 10
20.2607317763
 20
5.6061832416
 11
20.4326067763
 21
5.6061832416
  0
INSERT
  5
34F
100
AcDbEntity
  8
0
100
AcDbBlockReference
 62
2
  6
CONTINUOUS
  2
_FILLED
 10
17.7157653221
 20
7.5780118504
 41
0.1875
 42
0.1875
 43
0.1875
 50
142.2316359395
  0
ENDBLK
  5
350
100
AcDbEntity
  8
0
  6
BYBLOCK
 62
0
100
AcDbBlockEnd
  0
BLOCK
  5
351
100
AcDbEntity
  8
0
100
AcDbBlockBegin
 62
2
  6
CONTINUOUS
  2
*D3
 70
65
 10
0.0
 20
0.0
  3
*D3
  1

  0
MTEXT
  5
352
100
AcDbEntity
  8
0
100
AcDbMText
 62
2
  6
CONTINUOUS
  7
STANDARD
 71
2
 72
1
 10
22.5065734266
 20
10.2861256993
 30
0.0
 11
1.0
 21
0.0
 31
0.0
 44
0.9
  1
13.15\P[334]
 40
0.15625
 41
0.625
  0
LINE
  5
353
100
AcDbEntity
  8
0
100
AcDbLine
 62
2
  6
CONTINUOUS
 10
13.2657342657
 20
3.6332006993
 11
22.6315734266
 21
3.6332006993
  0
LINE
  5
354
100
AcDbEntity
  8
0
100
AcDbLine
 62
2
  6
CONTINUOUS
 10
13.2657342657
 20
16.7828006993
 11
22.6315734266
 21
16.7828006993
  0
LINE
  5
355
100
AcDbEntity
  8
0
100
AcDbLine
 62
2
  6
CONTINUOUS
 10
22.5065734266
 20
3.6332006993
 11
22.5065734266
 21
9.8173756993
  0
LINE
  5
356
100
AcDbEntity
  8
0
100
AcDbLine
 62
2
  6
CONTINUOUS
 10
22.5065734266
 20
16.7828006993
 11
22.5065734266
 21
10.3642506993
  0
INSERT
  5
357
100
AcDbEntity
  8
0
100
AcDbBlockReference
 62
2
  6
CONTINUOUS
  2
_FILLED
 10
22.5065734266
 20
3.6332006993
 41
0.1875
 42
0.1875
 43
0.1875
 50
270.0
  0
INSERT
  5
358
100
AcDbEntity
  8
0
100
AcDbBlockReference
 62
2
  6
CONTINUOUS
  2
_FILLED
 10
22.5065734266
 20
16.7828006993
 41
0.1875
 42
0.1875
 43
0.1875
 50
90.0
  0
ENDBLK
  5
359
100
AcDbEntity
  8
0
  6
BYBLOCK
 62
0
100
AcDbBlockEnd
  0
ENDSEC
  0
SECTION
  2
ENTITIES
  0
DIMENSION
  5
35A
100
AcDbEntity
  8
0
100
AcDbDimension
 62
2
  6
CONTINUOUS
  2
*D0
 10
15.0732342657
 20
2.3970578782
 11
13.8147713213
 21
2.2798703782
 70
160
 71
2
 42
3.74
  3
DIMSTYLE_1
100
AcDbAlignedDimension
 13
11.3332342657
 23
5.6182793774
 14
15.0732342657
 24
5.6182793774
100
AcDbRotatedDimension
  0
DIMENSION
  5
35B
100
AcDbEntity
  8
0
100
AcDbDimension
 62
2
  6
CONTINUOUS
  2
*D1
 10
18.2004647372
 20
4.4880085812
 11
19.1679986579
 21
3.974281511
 70
163
 71
1
 42
16.535
  1
<>
  3
DIMSTYLE_2
100
AcDbDiametricDimension
 15
8.2060037942
 25
17.6605928174
  0
DIMENSION
  5
35C
100
AcDbEntity
  8
0
100
AcDbDimension
 62
2
  6
CONTINUOUS
  2
*D2
 10
17.7157653221
 20
7.5780118504
 11
20.9273984429
 21
5.4889957416
 70
163
 71
1
 42
11.417
  1
<>
  3
DIMSTYLE_2
100
AcDbDiametricDimension
 15
8.6907032094
 25
14.5705895482
  0
DIMENSION
  5
35D
100
AcDbEntity
  8
0
100
AcDbDimension
 62
2
  6
CONTINUOUS
  2
*D3
 10
22.5065734266
 20
16.7828006993
 11
22.3190734266
 21
10.0908131993
 70
160
 71
2
 42
13.1496
  3
DIMSTYLE_1
100
AcDbAlignedDimension
 13
13.2657342657
 23
3.6332006993
 14
13.2657342657
 24
16.7828006993
 50
90.0
100
AcDbRotatedDimension
  0
LEADER
  5
35E
100
AcDbEntity
  8
___NOTE
100
AcDbLeader
 62
2
  6
CONTINUOUS
  3
STANDARD
 71
1
 72
0
 73
0
 75
0
 40
0.15625
 41
1.875
 76
3
 10
6.4687488744
 20
6.2786502987
 30
0.0
 10
5.566179122
 20
5.6733914936
 30
0.0
 10
5.316179122
 20
5.6733914936
 30
0.0
340
35F
1001
ACAD
1000
DSTYLE
1002
{
1070
77
1070
0
1002
}
  0
MTEXT
  5
35F
102
{ACAD_REACTORS
330
35E
102
}
100
AcDbEntity
  8
___NOTE
100
AcDbMText
 62
2
  6
CONTINUOUS
  7
STANDARD
 71
3
 72
1
 10
5.316179122
 20
5.7515164936
 30
0.0
 11
1.0
 21
0.0
 31
0.0
 44
0.9
  1
RIM OF LAVATORY\PREBORD DE LAVABO\PREBORDE DEL LAVABO
 40
0.15625
 41
2.25
  0
LEADER
  5
360
100
AcDbEntity
  8
___NOTE
100
AcDbLeader
 62
2
  6
CONTINUOUS
  3
STANDARD
 71
1
 72
0
 73
0
 75
0
 40
0.15625
 41
2.375
 76
3
 10
9.4715545631
 20
6.7544003709
 30
0.0
 10
7.1662650876
 20
4.2931807002
 30
0.0
 10
6.9162650876
 20
4.2931807002
 30
0.0
340
361
1001
ACAD
1000
DSTYLE
1002
{
1070
77
1070
0
1002
}
  0
MTEXT
  5
361
102
{ACAD_REACTORS
330
360
102
}
100
AcDbEntity
  8
___NOTE
100
AcDbMText
 62
2
  6
CONTINUOUS
  7
STANDARD
 71
3
 72
1
 10
6.9162650876
 20
4.3713057002
 30
0.0
 11
1.0
 21
0.0
 31
0.0
 44
0.9
  1
CUT ALONG THIS LINE\PDÉCOUPER AU LONG DE CETTE LIGNE\PCORTE A LO LARGO DE ESTA LÍNEA
 40
0.15625
 41
3.875
  0
INSERT
  5
362
100
AcDbEntity
  8
___SYMBOL
100
AcDbBlockReference
 62
2
  6
CONTINUOUS
  2
PACKAGING_UPC_NOTE_BL0
 10
27.4797335012
 20
6.8254647854
  0
INSERT
  5
363
100
AcDbEntity
  8
___SYMBOL
100
AcDbBlockReference
 62
2
  6
CONTINUOUS
  2
PLOTTING_TEMPLATE_NOTE_BL1
 10
27.2027411777
 20
12.1625743974
  0
INSERT
  5
364
100
AcDbEntity
  8
___SYMBOL
100
AcDbBlockReference
 62
2
  6
CONTINUOUS
  2
TEMPLATE_NUMBER_BL2
 10
10.6114555594
 20
2.6620969393
  0
INSERT
  5
365
100
AcDbEntity
  8
___SYMBOL
100
AcDbBlockReference
 62
2
  6
CONTINUOUS
  2
TEMPLATE_NUMBER_BL3
 10
10.0587782588
 20
3.9596871233
  0
INSERT
  5
366
100
AcDbEntity
  8
___SYMBOL
100
AcDbBlockReference
 62
2
  6
CONTINUOUS
  2
COPYRIGHT_YEAR_BL4
 10
16.3253483964
 20
2.5556318979
  0
INSERT
  5
367
100
AcDbEntity
  8
___SYMBOL
100
AcDbBlockReference
 62
2
  6
CONTINUOUS
  2
SKU_LAV_KOHLER_BL5
 10
26.570373656
 20
17.0825561708
  0
LINE
  5
368
100
AcDbEntity
  8
_CURVE
100
AcDbLine
 62
4
  6
CONTINUOUS
 10
11.3332342657
 20
3.6332006993
 11
15.0732342657
 21
3.6332006993
  0
LINE
  5
369
100
AcDbEntity
  8
_CURVE
100
AcDbLine
 62
4
  6
CONTINUOUS
 10
11.3332342657
 20
3.6332006993
 11
11.3332342657
 21
5.6807793774
  0
LINE
  5
36A
100
AcDbEntity
  8
_CURVE
100
AcDbLine
 62
2
  6
CENTER
 10
13.2032342657
 20
3.6332006993
 11
13.2032342657
 21
1.9872039826
  0
LINE
  5
36B
100
AcDbEntity
  8
_CURVE
100
AcDbLine
 62
2
  6
CENTER
 10
13.2032342657
 20
16.7828006993
 11
13.2032342657
 21
20.161397416
  0
LINE
  5
36C
100
AcDbEntity
  8
_CURVE
100
AcDbLine
 62
2
  6
CENTER
 10
7.4947342657
 20
11.0743006993
 11
4.116137549
 21
11.0743006993
  0
LINE
  5
36D
100
AcDbEntity
  8
_CURVE
100
AcDbLine
 62
2
  6
CENTER
 10
18.9117342657
 20
11.0743006993
 11
22.2903309824
 21
11.0743006993
  0
LINE
  5
36E
100
AcDbEntity
  8
_CURVE
100
AcDbLine
 62
4
  6
CONTINUOUS
 10
15.0732342657
 20
3.6332006993
 11
15.0732342657
 21
5.6807793774
  0
CIRCLE
  5
36F
100
AcDbEntity
  8
0
100
AcDbCircle
 62
2
  6
CONTINUOUS
 10
27.7647406698
 20
15.5549052324
 40
0.22665121
  0
CIRCLE
  5
370
100
AcDbEntity
  8
_CURVE
100
AcDbCircle
 62
2
  6
DASHED
 10
13.2032342657
 20
11.0743006993
 40
8.2675
  0
ARC
  5
371
100
AcDbEntity
  8
_CURVE
100
AcDbCircle
 62
4
  6
CONTINUOUS
 10
13.2032342657
 20
11.0743006993
 40
5.7085
100
AcDbArc
 50
289.1220586566
 51
250.8779413434
  0
ENDSEC
  0
SECTION
  2
OBJECTS
  0
DICTIONARY
  5
C
100
AcDbDictionary
280
0
281
1
  3
ACAD_GROUP
350
D
  3
ACAD_MLINESTYLE
350
17
  3
ACAD_LAYOUT
350
1A
  3
ACAD_PLOTSETTINGS
350
19
  3
ACAD_PLOTSTYLENAME
350
E
  0
DICTIONARY
  5
D
102
{ACAD_REACTORS
330
C
102
}
100
AcDbDictionary
280
0
281
1
  0
ACDBDICTIONARYWDFLT
  5
E
102
{ACAD_REACTORS
330
C
102
}
100
AcDbDictionary
281
1
  3
Normal
350
F
100
AcDbDictionaryWithDefault
340
F
  0
DICTIONARY
  5
17
102
{ACAD_REACTORS
330
C
102
}
100
AcDbDictionary
280
0
281
1
  3
Standard
350
18
  0
DICTIONARY
  5
19
102
{ACAD_REACTORS
330
C
102
}
100
AcDbDictionary
281
1
  0
DICTIONARY
  5
1A
102
{ACAD_REACTORS
330
C
102
}
100
AcDbDictionary
281
1
  3
Model
350
372
  3
Layout1
350
373
  0
ACDBPLACEHOLDER
  5
F
102
{ACAD_REACTORS
330
E
102
}
  0
MLINESTYLE
  5
18
102
{ACAD_REACTORS
330
17
102
}
100
AcDbMlineStyle
  2
STANDARD
 70
0
  3

 62
256
 51
90.0
 52
90.0
 71
2
 49
0.5
 62
256
  6
BYLAYER
 49
-0.5
 62
256
  6
BYLAYER
  0
LAYOUT
  5
372
102
{ACAD_REACTORS
330
1A
102
}
100
AcDbPlotSettings
  1

  2
none_device
  4
ANSI_D_(34.00_x_22.00_Inches)
  6

 40
0.0
 41
0.0
 42
0.0
 43
0.0
 44
863.6
 45
558.8
 46
0.0
 47
0.0
 48
0.0
 49
0.0
140
0.0
141
0.0
142
1.0
143
1.0
 70
1024
 72
0
 73
0
 74
0
  7

 75
0
147
1.0
148
0.0
149
0.0
100
AcDbLayout
  1
Model
 70
0
 71
0
 10
0.0
 20
0.0
 11
34.0
 21
22.0
 12
0.0
 22
0.0
 32
0.0
 14
0.0
 24
0.0
 34
0.0
 15
0.0
 25
0.0
 35
0.0
146
0.0
 13
0.0
 23
0.0
 33
0.0
 16
1.0
 26
0.0
 36
0.0
 17
0.0
 27
1.0
 37
0.0
 76
0
330
20D
345
0
346
0
  0
LAYOUT
  5
373
102
{ACAD_REACTORS
330
1A
102
}
100
AcDbPlotSettings
  1

  2
none_device
  4
ANSI_D_(34.00_x_22.00_Inches)
  6

 40
0.0
 41
0.0
 42
0.0
 43
0.0
 44
863.6
 45
558.8
 46
0.0
 47
0.0
 48
0.0
 49
0.0
140
0.0
141
0.0
142
1.0
143
1.0
 70
0
 72
0
 73
0
 74
0
  7

 75
0
147
1.0
148
0.0
149
0.0
100
AcDbLayout
  1
Layout1
 70
0
 71
1
 10
0.0
 20
0.0
 11
34.0
 21
22.0
 12
0.0
 22
0.0
 32
0.0
 14
0.0
 24
0.0
 34
0.0
 15
0.0
 25
0.0
 35
0.0
146
0.0
 13
0.0
 23
0.0
 33
0.0
 16
1.0
 26
0.0
 36
0.0
 17
0.0
 27
1.0
 37
0.0
 76
0
330
20E
345
0
346
0
  0
ENDSEC
  0
EOF
